osu file format v14

[General]
AudioFilename: audio.mp3
AudioLeadIn: 0
PreviewTime: 259306
Countdown: 0
SampleSet: Normal
StackLeniency: 0.7
Mode: 1
LetterboxInBreaks: 0
WidescreenStoryboard: 0

[Editor]
Bookmarks: 188670,293397
DistanceSpacing: 0.5
BeatDivisor: 8
GridSize: 32
TimelineZoom: 3.200005

[Metadata]
Title:SURVIVE
TitleUnicode:SURVIVE
Artist:WAGAMAMA RAKIA
ArtistUnicode:我儘ラキア
Creator:ikin5050
Version:INNER ONI
Source:
Tags:rock japanese alternative idol Hoshikuma Minami 星熊南巫 Kaine Rin 海羽凜 Kawasaki Layna 川﨑怜奈 MIRI QOOLONG WW-1001 WAGAMAMARAKIA ワガママラキア jrock j-rock
BeatmapID:2872892
BeatmapSetID:1391348

[Difficulty]
HPDrainRate:5
CircleSize:5
OverallDifficulty:6
ApproachRate:5
SliderMultiplier:1.4
SliderTickRate:1

[Events]
//Background and Video events
0,0,"waga rakia.jpg",0,50
//Break Periods
//Storyboard Layer 0 (Background)
//Storyboard Layer 1 (Fail)
//Storyboard Layer 2 (Pass)
//Storyboard Layer 3 (Foreground)
//Storyboard Layer 4 (Overlay)
//Storyboard Sound Samples

[TimingPoints]
1034,272.727272727273,4,1,0,80,1,0
8636,-83.3333333333333,4,1,0,100,0,0
9761,-100,4,1,0,90,0,0
25068,-133.333333333333,4,1,0,60,0,0
33200,-125,4,1,0,70,0,0
33746,-117.647058823529,4,1,0,80,0,0
41227,-117.647058823529,4,1,0,90,0,0
41329,-116.504899613553,4,1,0,90,0,0
41397,-115.384571005934,4,1,0,90,0,0
41534,-113.207589889657,4,1,0,90,0,0
41670,-111.111111111111,4,1,0,90,0,0
41806,-109.090869421502,4,1,0,90,0,0
41943,-107.142895408177,4,1,0,90,0,0
42079,-105.263157894737,4,1,0,90,0,0
42215,-103.448240190262,4,1,0,90,0,0
42352,-101.694949727102,4,1,0,90,0,0
42488,-100,4,1,0,90,0,0
60215,-98.7654320987654,4,1,0,90,0,0
60352,-98.159509202454,4,1,0,90,0,0
60488,-97.5609756097561,4,1,0,90,0,0
60624,-96.969696969697,4,1,0,90,0,0
60761,-96.3855421686747,4,1,0,90,0,0
60897,-95.8083832335329,4,1,0,90,0,0
61034,-95.2380952380952,4,1,0,90,0,0
61102,-94.9554896142433,4,1,0,90,0,0
61170,-94.6745562130178,4,1,0,90,0,0
61238,-94.3952802359882,4,1,0,90,0,0
61306,-94.1176470588235,4,1,0,90,0,0
61443,-93.5672514619883,4,1,0,90,0,0
61579,-93.0232558139535,4,1,0,90,0,0
61715,-92.485549132948,4,1,0,90,0,0
61852,-91.9540229885058,4,1,0,90,0,0
61988,-91.4285714285714,4,1,0,90,0,0
62124,-90.9090909090909,4,1,0,90,0,0
62397,-89.8876404494382,4,1,0,90,0,0
62534,-89.3854748603352,4,1,0,90,0,0
62670,-88.8888888888889,4,1,0,90,0,0
62806,-88.3977900552486,4,1,0,90,0,0
62943,-87.9120879120879,4,1,0,90,0,0
63079,-87.431693989071,4,1,0,90,0,0
63215,-86.9565217391304,4,1,0,90,0,0
63284,-86.7208672086721,4,1,0,90,0,0
63352,-86.4864864864865,4,1,0,90,0,0
63488,-86.0215053763441,4,1,0,90,0,0
63624,-85.5614973262032,4,1,0,90,0,0
63761,-85.1063829787234,4,1,0,90,0,0
63897,-84.6560846560847,4,1,0,90,0,0
63965,-84.4327176781003,4,1,0,90,0,0
64034,-84.2105263157895,4,1,0,90,0,0
64170,-83.7696335078534,4,1,0,90,0,0
64306,-83.3333333333333,4,1,0,90,0,0
64340,-83.3333333333333,4,1,0,75,0,0
67647,-83.3333333333333,4,1,0,50,0,0
67852,-90.9090909090909,4,1,0,50,0,0
68124,-100,4,1,0,50,0,0
68397,-111.111111111111,4,1,0,50,0,0
68602,-111.111111111111,4,1,0,100,0,0
68670,-100,4,1,0,100,0,1
101397,-83.3333333333333,4,1,0,100,0,0
101431,-100,4,1,0,40,0,0
102352,-100,4,1,0,90,0,0
102863,-83.3333333333333,4,1,0,90,0,0
103579,-100,4,1,0,90,0,0
112306,-105.263157894737,4,1,0,90,0,0
121034,-100,4,1,0,90,0,0
128943,-98.9012075837446,4,1,0,90,0,0
129061,-97.8262996223905,4,1,0,100,0,0
129197,-96.774224765879,4,1,0,100,0,0
129470,-93.7500058593754,4,1,0,100,0,0
129743,-90.9090909090909,4,1,0,90,0,0
146397,-93.0120078502135,4,1,0,90,0,0
146534,-94.100465420902,4,1,0,90,0,0
146670,-95.2146089678832,4,1,0,90,0,0
146806,-96.3554514060187,4,1,0,90,0,0
146943,-97.5239640760726,4,1,0,90,0,0
147011,-98.1189613911699,4,1,0,90,0,0
147079,-98.7212634742184,4,1,0,90,0,0
147215,-99.948226818508,4,1,0,90,0,0
153897,-101.259157625068,4,1,0,90,0,0
153965,-101.900754778891,4,1,0,90,0,0
154034,-102.550429173546,4,1,0,90,0,0
154170,-103.875166979331,4,1,0,90,0,0
154238,-104.550344650211,4,1,0,90,0,0
154306,-105.23446765566,4,1,0,90,0,0
154443,-106.629815402464,4,1,0,90,0,0
154579,-108.062663377239,4,1,0,90,0,0
154647,-108.793684744188,4,1,0,90,0,0
154715,-109.534663887407,4,1,0,90,0,0
154784,-110.285684035927,4,1,0,90,0,0
154852,-110.983972804487,4,1,0,90,0,0
154988,-109.596847994652,4,1,0,90,0,0
155124,-108.123303815671,4,1,0,90,0,0
155261,-106.688744124117,4,1,0,90,0,0
155397,-105.29186378181,4,1,0,90,0,0
155534,-103.931089530398,4,1,0,90,0,0
155602,-103.263754215743,4,1,0,90,0,0
155670,-102.605039343902,4,1,0,90,0,0
155738,-101.954571082217,4,1,0,90,0,0
155806,-101.312298198566,4,1,0,90,0,0
155874,-100.678168140595,4,1,0,90,0,0
155943,-100,4,1,0,100,0,1
188124,-102.023638877128,4,1,0,100,0,1
188215,-103.418819329391,4,1,0,100,0,1
188306,-104.852687217094,4,1,0,100,0,1
188397,-106.326874330141,4,1,0,100,0,1
188488,-107.843105536342,4,1,0,100,0,1
188579,-109.403205513922,4,1,0,100,0,1
188670,-110.983972804487,4,1,0,100,0,0
188738,-133.333333333333,4,1,0,50,0,0
206056,-133.333333333333,4,1,0,70,0,0
207011,-133.333333333333,4,1,0,50,0,0
210420,-133.333333333333,4,1,0,70,0,0
211374,-133.333333333333,4,1,0,50,0,0
214784,-133.333333333333,4,1,0,70,0,0
215738,-133.333333333333,4,1,0,50,0,0
219147,-133.333333333333,4,1,0,70,0,0
220102,-133.333333333333,4,1,0,50,0,0
221329,-133.333333333333,4,1,0,70,0,0
223136,-123.532434676049,4,1,0,82,0,0
223272,-119.153154698924,4,1,0,85,0,0
223409,-115.073739252113,4,1,0,88,0,0
223545,-111.264408740932,4,1,0,90,0,0
231215,-111.111111111111,4,1,0,100,0,0
231352,-108.855030136515,4,1,0,100,0,0
231488,-106.688744124117,4,1,0,100,0,0
231624,-104.606996743584,4,1,0,100,0,0
231693,-103.596347192798,4,1,0,100,0,0
231761,-102.605039343902,4,1,0,100,0,0
231897,-100.678168140595,4,1,0,100,0,0
232034,-98.8223342428282,4,1,0,100,0,0
232170,-97.0336803904635,4,1,0,100,0,0
232306,-95.3086236195737,4,1,0,100,0,0
236124,-95.2380952380952,4,1,0,100,0,0
236193,-95.8025088761025,4,1,0,100,0,0
236261,-96.3735593357549,4,1,0,100,0,0
236329,-96.9515523397803,4,1,0,100,0,0
236397,-97.536424977908,4,1,0,100,0,0
236465,-98.1284933743641,4,1,0,100,0,0
236534,-98.7276961793369,4,1,0,100,0,0
236602,-99.3343604506204,4,1,0,100,0,0
236670,-99.9485265088479,4,1,0,100,0,0
240191,-106.629815402464,4,1,0,85,0,0
240464,-114.201140184184,4,1,0,75,0,0
240737,-122.929861138429,4,1,0,65,0,0
240999,-133.103507942952,4,1,0,55,0,0
249590,-125,4,1,0,55,0,0
249727,-117.647058823529,4,1,0,70,0,0
254397,-115.114406452853,4,1,0,70,0,0
254670,-112.688372701016,4,1,0,70,0,0
254943,-110.362607382817,4,1,0,70,0,0
255079,-109.235298294291,4,1,0,70,0,0
255215,-108.1309032715,4,1,0,70,0,0
255488,-105.987667275036,4,1,0,70,0,0
255624,-104.947541971146,4,1,0,70,0,0
255761,-103.927633110512,4,1,0,70,0,0
255863,-102.927462899796,4,1,0,90,0,0
255965,-102.434457312489,4,1,0,90,0,0
256034,-101.946255972776,4,1,0,90,0,0
256170,-100.983580069881,4,1,0,90,0,0
256306,-100.039015215934,4,1,0,90,0,0
256443,-99.1749634788197,4,1,0,90,0,0
256579,-98.3634292639071,4,1,0,90,0,0
256647,-97.9626703448384,4,1,0,90,0,0
256715,-97.565068583365,4,1,0,90,0,0
256852,-96.779563253187,4,1,0,90,0,0
256920,-96.3915811593015,4,1,0,90,0,0
256988,-96.0066974272125,4,1,0,90,0,0
257124,-95.2459870484507,4,1,0,90,0,0
257193,-94.8700896427477,4,1,0,90,0,0
257261,-94.497236900793,4,1,0,90,0,0
257397,-93.7601671181219,4,1,0,90,0,0
257465,-93.3958836698231,4,1,0,90,0,0
257534,-93.0345064984603,4,1,0,90,0,0
257670,-92.3199921712647,4,1,0,90,0,0
257738,-91.9668772095042,4,1,0,90,0,0
257806,-91.616369279932,4,1,0,90,0,0
257943,-90.9233906787158,4,1,0,90,0,0
258011,-90.5808588152386,4,1,0,90,0,0
258079,-90.2408166432943,4,1,0,90,0,0
258215,-89.5684948193583,4,1,0,90,0,0
258284,-89.2359970873371,4,1,0,90,0,0
258352,-88.9060378757502,4,1,0,90,0,0
258488,-88.2533081752569,4,1,0,90,0,0
258556,-87.9304856752446,4,1,0,90,0,0
258624,-87.6100930331578,4,1,0,90,0,0
258693,-87.2919505473642,4,1,0,90,0,0
258761,-86.976185920295,4,1,0,90,0,0
258829,-86.6626975151205,4,1,0,90,0,0
258897,-86.351386241979,4,1,0,90,0,0
258965,-86.0423775918115,4,1,0,90,0,0
259034,-85.7354991263553,4,1,0,90,0,0
259102,-85.4308748890466,4,1,0,90,0,0
259170,-85.1283352217636,4,1,0,90,0,0
259238,-84.8280027416411,4,1,0,90,0,0
259306,-84.5297105026475,4,1,0,90,0,0
259374,-84.233579716554,4,1,0,90,0,0
259443,-83.9395165419605,4,1,0,90,0,0
259511,-83.6474294308462,4,1,0,90,0,0
259579,-83.3574375256845,4,1,0,90,0,0
259613,-83.3333333333333,4,1,0,50,0,0
259832,-90.9090909090909,4,1,0,50,0,0
260104,-100,4,1,0,50,0,0
260377,-111.111111111111,4,1,0,50,0,0
260602,-111.111111111111,4,1,0,100,0,0
260670,-100,4,1,0,100,0,1
293363,-100,4,1,0,90,0,1
293397,-100,4,1,0,90,0,0
301579,-90.9090909090909,4,1,0,90,0,0
302090,-83.3333333333333,4,1,0,100,0,0

[HitObjects]
256,192,1034,5,0,0:0:0:0:
256,192,1170,1,0,0:0:0:0:
256,192,1306,1,8,0:0:0:0:
256,192,1579,1,0,0:0:0:0:
256,192,1715,1,0,0:0:0:0:
256,192,1852,1,8,0:0:0:0:
256,192,2124,1,0,0:0:0:0:
256,192,2261,1,0,0:0:0:0:
256,192,2397,1,8,0:0:0:0:
256,192,2670,1,0,0:0:0:0:
256,192,2806,1,0,0:0:0:0:
256,192,2943,1,8,0:0:0:0:
256,192,3079,1,8,0:0:0:0:
256,192,3215,1,0,0:0:0:0:
256,192,3352,1,0,0:0:0:0:
256,192,3488,1,8,0:0:0:0:
256,192,3761,1,0,0:0:0:0:
256,192,3897,1,0,0:0:0:0:
256,192,4034,1,8,0:0:0:0:
256,192,4306,1,0,0:0:0:0:
256,192,4374,1,0,0:0:0:0:
256,192,4443,1,0,0:0:0:0:
256,192,4511,1,0,0:0:0:0:
256,192,4579,1,8,0:0:0:0:
256,192,4715,1,8,0:0:0:0:
256,192,4852,1,0,0:0:0:0:
256,192,4988,1,0,0:0:0:0:
256,192,5124,1,12,0:0:0:0:
256,192,5397,1,0,0:0:0:0:
256,192,5534,1,0,0:0:0:0:
256,192,5670,1,8,0:0:0:0:
256,192,5943,1,0,0:0:0:0:
256,192,6079,1,0,0:0:0:0:
256,192,6215,1,8,0:0:0:0:
256,192,6488,1,0,0:0:0:0:
256,192,6624,1,0,0:0:0:0:
256,192,6761,1,8,0:0:0:0:
256,192,6897,1,0,0:0:0:0:
256,192,7034,1,0,0:0:0:0:
256,192,7170,1,0,0:0:0:0:
256,192,7306,1,12,0:0:0:0:
256,192,7443,1,0,0:0:0:0:
256,192,7511,1,0,0:0:0:0:
256,192,7579,1,8,0:0:0:0:
256,192,7715,1,0,0:0:0:0:
256,192,7852,1,8,0:0:0:0:
256,192,7988,1,0,0:0:0:0:
256,192,8124,1,8,0:0:0:0:
256,192,8193,1,8,0:0:0:0:
256,192,8261,1,0,0:0:0:0:
256,192,8329,1,0,0:0:0:0:
256,192,8397,1,8,0:0:0:0:
256,192,8465,1,8,0:0:0:0:
256,192,8534,1,8,0:0:0:0:
256,192,8602,1,8,0:0:0:0:
256,192,8670,1,4,0:0:0:0:
256,192,9079,1,4,0:0:0:0:
256,192,9352,1,4,0:0:0:0:
256,192,9624,1,12,0:0:0:0:
256,192,9897,1,0,0:0:0:0:
256,192,10034,1,8,0:0:0:0:
256,192,10102,1,8,0:0:0:0:
256,192,10170,1,0,0:0:0:0:
256,192,10306,1,0,0:0:0:0:
256,192,10374,1,0,0:0:0:0:
256,192,10443,1,8,0:0:0:0:
256,192,10511,1,8,0:0:0:0:
256,192,10579,1,0,0:0:0:0:
256,192,10715,1,8,0:0:0:0:
256,192,10988,1,0,0:0:0:0:
256,192,11124,1,0,0:0:0:0:
256,192,11193,1,0,0:0:0:0:
256,192,11261,1,8,0:0:0:0:
256,192,11397,1,8,0:0:0:0:
256,192,11465,1,8,0:0:0:0:
256,192,11534,1,0,0:0:0:0:
256,192,11602,1,0,0:0:0:0:
256,192,11670,1,8,0:0:0:0:
256,192,11806,1,4,0:0:0:0:
256,192,12079,1,0,0:0:0:0:
256,192,12215,1,8,0:0:0:0:
256,192,12284,1,8,0:0:0:0:
256,192,12352,1,0,0:0:0:0:
256,192,12488,1,0,0:0:0:0:
256,192,12556,1,0,0:0:0:0:
256,192,12624,1,8,0:0:0:0:
256,192,12693,1,0,0:0:0:0:
256,192,12761,1,8,0:0:0:0:
256,192,12829,1,8,0:0:0:0:
256,192,12897,1,0,0:0:0:0:
256,192,13034,1,8,0:0:0:0:
256,192,13102,1,8,0:0:0:0:
256,192,13170,1,0,0:0:0:0:
256,192,13306,1,8,0:0:0:0:
256,192,13443,1,0,0:0:0:0:
256,192,13579,1,8,0:0:0:0:
256,192,13647,1,0,0:0:0:0:
256,192,13715,1,8,0:0:0:0:
256,192,13852,1,0,0:0:0:0:
256,192,13988,1,12,0:0:0:0:
256,192,14261,1,0,0:0:0:0:
256,192,14397,1,8,0:0:0:0:
256,192,14465,1,8,0:0:0:0:
256,192,14534,1,0,0:0:0:0:
256,192,14602,1,0,0:0:0:0:
256,192,14670,1,8,0:0:0:0:
256,192,14806,1,0,0:0:0:0:
256,192,14943,1,8,0:0:0:0:
256,192,15011,1,0,0:0:0:0:
256,192,15079,1,8,0:0:0:0:
256,192,15215,1,0,0:0:0:0:
256,192,15284,1,0,0:0:0:0:
256,192,15352,1,8,0:0:0:0:
256,192,15488,1,0,0:0:0:0:
256,192,15624,1,8,0:0:0:0:
256,192,15761,1,0,0:0:0:0:
256,192,15897,1,8,0:0:0:0:
256,192,15965,1,8,0:0:0:0:
256,192,16034,1,0,0:0:0:0:
256,192,16170,1,12,0:0:0:0:
256,192,16443,1,0,0:0:0:0:
256,192,16579,1,8,0:0:0:0:
256,192,16647,1,8,0:0:0:0:
256,192,16715,1,0,0:0:0:0:
256,192,16784,1,0,0:0:0:0:
256,192,16852,1,8,0:0:0:0:
256,192,16988,1,0,0:0:0:0:
256,192,17124,1,8,0:0:0:0:
256,192,17261,1,0,0:0:0:0:
256,192,17329,1,0,0:0:0:0:
256,192,17397,1,8,0:0:0:0:
256,192,17534,1,0,0:0:0:0:
256,192,17670,1,8,0:0:0:0:
256,192,17806,1,0,0:0:0:0:
256,192,17943,1,8,0:0:0:0:
256,192,18011,1,8,0:0:0:0:
256,192,18079,1,0,0:0:0:0:
256,192,18147,1,0,0:0:0:0:
256,192,18215,1,0,0:0:0:0:
256,192,18284,1,0,0:0:0:0:
256,192,18352,1,8,0:0:0:0:
256,192,18624,1,8,0:0:0:0:
256,192,18693,1,8,0:0:0:0:
256,192,18761,1,8,0:0:0:0:
256,192,18829,1,8,0:0:0:0:
256,192,18897,1,0,0:0:0:0:
256,192,18965,1,0,0:0:0:0:
256,192,19034,1,8,0:0:0:0:
256,192,19170,1,0,0:0:0:0:
256,192,19443,1,0,0:0:0:0:
256,192,19715,1,0,0:0:0:0:
256,192,19852,1,8,0:0:0:0:
256,192,19988,1,0,0:0:0:0:
256,192,20124,1,8,0:0:0:0:
256,192,20261,1,8,0:0:0:0:
256,192,20397,1,0,0:0:0:0:
256,192,20534,1,0,0:0:0:0:
256,192,20806,1,8,0:0:0:0:
256,192,20943,1,0,0:0:0:0:
256,192,21079,1,0,0:0:0:0:
256,192,21215,1,8,0:0:0:0:
256,192,21352,1,0,0:0:0:0:
256,192,21624,1,0,0:0:0:0:
256,192,21897,1,0,0:0:0:0:
256,192,22034,1,8,0:0:0:0:
256,192,22170,1,8,0:0:0:0:
256,192,22306,1,0,0:0:0:0:
256,192,22443,1,0,0:0:0:0:
256,192,22579,1,8,0:0:0:0:
256,192,22715,1,0,0:0:0:0:
256,192,22988,1,8,0:0:0:0:
256,192,23056,1,8,0:0:0:0:
256,192,23124,1,8,0:0:0:0:
256,192,23193,1,8,0:0:0:0:
256,192,23261,1,0,0:0:0:0:
256,192,23329,1,0,0:0:0:0:
256,192,23397,1,8,0:0:0:0:
256,192,23534,1,0,0:0:0:0:
256,192,23806,1,0,0:0:0:0:
256,192,24079,1,8,0:0:0:0:
256,192,24215,1,0,0:0:0:0:
256,192,24352,1,0,0:0:0:0:
256,192,24488,1,8,0:0:0:0:
256,192,24624,1,8,0:0:0:0:
256,192,24761,1,8,0:0:0:0:
256,192,24897,1,8,0:0:0:0:
256,192,24965,1,8,0:0:0:0:
256,192,25034,1,0,0:0:0:0:
256,192,25852,1,0,0:0:0:0:
256,192,26943,1,0,0:0:0:0:
256,192,27352,1,0,0:0:0:0:
256,192,27761,1,0,0:0:0:0:
256,192,29397,1,0,0:0:0:0:
256,192,30215,1,0,0:0:0:0:
256,192,31715,1,0,0:0:0:0:
256,192,31852,1,0,0:0:0:0:
256,192,32124,1,0,0:0:0:0:
256,192,32534,1,0,0:0:0:0:
256,192,33215,1,8,0:0:0:0:
256,192,33761,1,4,0:0:0:0:
256,192,34579,1,0,0:0:0:0:
256,192,34852,1,8,0:0:0:0:
256,192,36215,1,0,0:0:0:0:
256,192,36488,1,0,0:0:0:0:
256,192,36897,1,0,0:0:0:0:
256,192,37034,1,8,0:0:0:0:
256,192,37579,1,0,0:0:0:0:
256,192,38124,1,0,0:0:0:0:
256,192,38261,1,0,0:0:0:0:
256,192,38943,1,0,0:0:0:0:
256,192,39215,1,8,0:0:0:0:
256,192,39488,1,8,0:0:0:0:
256,192,39761,1,8,0:0:0:0:
256,192,40034,1,8,0:0:0:0:
256,192,40306,1,0,0:0:0:0:
256,192,40852,1,0,0:0:0:0:
256,192,41261,1,0,0:0:0:0:
256,192,41329,1,0,0:0:0:0:
256,192,41397,1,8,0:0:0:0:
256,192,41534,1,0,0:0:0:0:
256,192,41670,1,8,0:0:0:0:
256,192,41806,1,8,0:0:0:0:
256,192,41943,1,0,0:0:0:0:
256,192,42079,1,8,0:0:0:0:
256,192,42215,1,8,0:0:0:0:
256,192,42352,1,8,0:0:0:0:
256,192,42488,1,4,0:0:0:0:
256,192,42624,1,8,0:0:0:0:
256,192,42693,1,8,0:0:0:0:
256,192,42761,1,0,0:0:0:0:
256,192,42897,1,8,0:0:0:0:
256,192,42965,1,8,0:0:0:0:
256,192,43034,1,0,0:0:0:0:
256,192,43102,1,0,0:0:0:0:
256,192,43170,1,8,0:0:0:0:
256,192,43306,1,8,0:0:0:0:
256,192,43443,1,0,0:0:0:0:
256,192,43511,1,0,0:0:0:0:
256,192,43579,1,8,0:0:0:0:
256,192,43715,1,8,0:0:0:0:
256,192,43784,1,8,0:0:0:0:
256,192,43852,1,0,0:0:0:0:
256,192,43988,1,0,0:0:0:0:
256,192,44124,1,8,0:0:0:0:
256,192,44261,1,8,0:0:0:0:
256,192,44397,1,0,0:0:0:0:
256,192,44534,1,8,0:0:0:0:
256,192,44670,1,0,0:0:0:0:
256,192,44806,1,8,0:0:0:0:
256,192,44874,1,8,0:0:0:0:
256,192,44943,1,0,0:0:0:0:
256,192,45011,1,0,0:0:0:0:
256,192,45079,1,8,0:0:0:0:
256,192,45215,1,0,0:0:0:0:
256,192,45284,1,0,0:0:0:0:
256,192,45352,1,8,0:0:0:0:
256,192,45420,1,0,0:0:0:0:
256,192,45488,1,8,0:0:0:0:
256,192,45624,1,0,0:0:0:0:
256,192,45761,1,8,0:0:0:0:
256,192,45829,1,8,0:0:0:0:
256,192,45897,1,0,0:0:0:0:
256,192,46034,1,8,0:0:0:0:
256,192,46102,1,0,0:0:0:0:
256,192,46170,1,0,0:0:0:0:
256,192,46238,1,0,0:0:0:0:
256,192,46306,1,8,0:0:0:0:
256,192,46443,1,0,0:0:0:0:
256,192,46511,1,0,0:0:0:0:
256,192,46579,1,8,0:0:0:0:
256,192,46715,1,8,0:0:0:0:
256,192,46852,1,0,0:0:0:0:
256,192,46988,1,8,0:0:0:0:
256,192,47124,1,0,0:0:0:0:
256,192,47261,1,8,0:0:0:0:
256,192,47329,1,8,0:0:0:0:
256,192,47397,1,0,0:0:0:0:
256,192,47465,1,8,0:0:0:0:
256,192,47534,1,0,0:0:0:0:
256,192,47602,1,0,0:0:0:0:
256,192,47670,1,8,0:0:0:0:
256,192,47806,1,0,0:0:0:0:
256,192,47943,1,8,0:0:0:0:
256,192,48079,1,0,0:0:0:0:
256,192,48147,1,0,0:0:0:0:
256,192,48215,1,8,0:0:0:0:
256,192,48352,1,0,0:0:0:0:
256,192,48488,1,8,0:0:0:0:
256,192,48556,1,0,0:0:0:0:
256,192,48624,1,8,0:0:0:0:
256,192,48761,1,0,0:0:0:0:
256,192,48897,1,0,0:0:0:0:
256,192,49034,1,8,0:0:0:0:
256,192,49170,1,0,0:0:0:0:
256,192,49238,1,8,0:0:0:0:
256,192,49306,1,0,0:0:0:0:
256,192,49374,1,0,0:0:0:0:
256,192,49443,1,8,0:0:0:0:
256,192,49511,1,8,0:0:0:0:
256,192,49579,1,0,0:0:0:0:
256,192,49715,1,0,0:0:0:0:
256,192,49852,1,8,0:0:0:0:
256,192,49920,1,8,0:0:0:0:
256,192,49988,1,0,0:0:0:0:
256,192,50124,1,0,0:0:0:0:
256,192,50261,1,8,0:0:0:0:
256,192,50329,1,8,0:0:0:0:
256,192,50397,1,0,0:0:0:0:
256,192,50534,1,0,0:0:0:0:
256,192,50670,1,8,0:0:0:0:
256,192,50806,1,0,0:0:0:0:
256,192,50874,1,0,0:0:0:0:
256,192,50943,1,8,0:0:0:0:
256,192,51215,1,8,0:0:0:0:
256,192,51352,1,0,0:0:0:0:
256,192,51420,1,0,0:0:0:0:
256,192,51488,1,8,0:0:0:0:
256,192,51624,1,0,0:0:0:0:
256,192,51761,1,8,0:0:0:0:
256,192,51897,1,0,0:0:0:0:
256,192,51965,1,0,0:0:0:0:
256,192,52034,1,8,0:0:0:0:
256,192,52170,1,0,0:0:0:0:
256,192,52306,1,8,0:0:0:0:
256,192,52443,1,8,0:0:0:0:
256,192,52511,1,8,0:0:0:0:
256,192,52579,1,0,0:0:0:0:
256,192,52715,1,0,0:0:0:0:
256,192,52852,1,8,0:0:0:0:
256,192,52988,1,0,0:0:0:0:
256,192,53124,1,8,0:0:0:0:
256,192,53261,1,0,0:0:0:0:
256,192,53397,1,8,0:0:0:0:
256,192,53534,1,0,0:0:0:0:
256,192,53602,1,0,0:0:0:0:
256,192,53670,1,8,0:0:0:0:
256,192,53806,1,0,0:0:0:0:
256,192,53943,1,8,0:0:0:0:
256,192,54079,1,0,0:0:0:0:
256,192,54147,1,0,0:0:0:0:
256,192,54215,1,8,0:0:0:0:
256,192,54284,1,0,0:0:0:0:
256,192,54352,1,8,0:0:0:0:
256,192,54488,1,0,0:0:0:0:
256,192,54624,1,8,0:0:0:0:
256,192,54761,1,0,0:0:0:0:
256,192,54829,1,0,0:0:0:0:
256,192,54897,1,8,0:0:0:0:
256,192,55034,1,8,0:0:0:0:
256,192,55170,1,0,0:0:0:0:
256,192,55238,1,0,0:0:0:0:
256,192,55306,1,8,0:0:0:0:
256,192,55443,1,8,0:0:0:0:
256,192,55852,1,0,0:0:0:0:
256,192,56124,1,8,0:0:0:0:
256,192,56261,1,0,0:0:0:0:
256,192,56534,1,8,0:0:0:0:
256,192,56806,1,0,0:0:0:0:
256,192,56874,1,0,0:0:0:0:
256,192,56943,1,8,0:0:0:0:
256,192,57079,1,0,0:0:0:0:
256,192,57215,1,8,0:0:0:0:
256,192,57284,1,8,0:0:0:0:
256,192,57352,1,0,0:0:0:0:
256,192,57488,1,8,0:0:0:0:
256,192,57624,1,0,0:0:0:0:
256,192,57761,1,8,0:0:0:0:
256,192,57897,1,8,0:0:0:0:
256,192,57965,1,8,0:0:0:0:
256,192,58034,1,0,0:0:0:0:
256,192,58102,1,0,0:0:0:0:
256,192,58170,1,8,0:0:0:0:
256,192,58306,1,0,0:0:0:0:
256,192,58443,1,8,0:0:0:0:
256,192,58511,1,0,0:0:0:0:
256,192,58579,1,8,0:0:0:0:
256,192,58715,1,0,0:0:0:0:
256,192,58784,1,0,0:0:0:0:
256,192,58852,1,8,0:0:0:0:
256,192,58988,1,0,0:0:0:0:
256,192,59124,1,0,0:0:0:0:
256,192,59193,1,0,0:0:0:0:
256,192,59261,1,8,0:0:0:0:
256,192,59329,1,0,0:0:0:0:
256,192,59397,1,8,0:0:0:0:
256,192,59465,1,8,0:0:0:0:
256,192,59534,1,0,0:0:0:0:
256,192,59670,1,8,0:0:0:0:
256,192,59806,1,0,0:0:0:0:
256,192,59943,1,12,0:0:0:0:
256,192,60215,1,8,0:0:0:0:
256,192,60352,1,8,0:0:0:0:
256,192,60488,1,0,0:0:0:0:
256,192,60624,1,0,0:0:0:0:
256,192,60761,1,8,0:0:0:0:
256,192,60897,1,0,0:0:0:0:
256,192,61034,1,8,0:0:0:0:
256,192,61102,1,0,0:0:0:0:
256,192,61170,1,8,0:0:0:0:
256,192,61238,1,8,0:0:0:0:
256,192,61306,1,0,0:0:0:0:
256,192,61443,1,8,0:0:0:0:
256,192,61579,1,8,0:0:0:0:
256,192,61715,1,0,0:0:0:0:
256,192,61852,1,8,0:0:0:0:
256,192,61988,1,0,0:0:0:0:
256,192,62124,1,8,0:0:0:0:
256,192,62397,1,8,0:0:0:0:
256,192,62534,1,8,0:0:0:0:
256,192,62670,1,8,0:0:0:0:
256,192,62806,1,0,0:0:0:0:
256,192,62943,1,8,0:0:0:0:
256,192,63079,1,0,0:0:0:0:
256,192,63215,1,8,0:0:0:0:
256,192,63284,1,8,0:0:0:0:
256,192,63352,1,0,0:0:0:0:
256,192,63488,1,8,0:0:0:0:
256,192,63624,1,0,0:0:0:0:
256,192,63761,1,8,0:0:0:0:
256,192,63897,1,0,0:0:0:0:
256,192,63965,1,0,0:0:0:0:
256,192,64034,1,8,0:0:0:0:
256,192,64170,1,8,0:0:0:0:
256,192,64306,1,0,0:0:0:0:
256,192,65397,1,8,0:0:0:0:
256,192,66488,1,4,0:0:0:0:
256,192,66761,1,8,0:0:0:0:
256,192,66829,1,0,0:0:0:0:
256,192,66897,1,8,0:0:0:0:
256,192,66965,1,8,0:0:0:0:
256,192,67034,1,0,0:0:0:0:
256,192,67102,1,0,0:0:0:0:
256,192,67170,1,8,0:0:0:0:
256,192,67238,1,8,0:0:0:0:
256,192,67306,1,0,0:0:0:0:
256,192,67374,1,0,0:0:0:0:
256,192,67443,1,0,0:0:0:0:
256,192,67511,1,0,0:0:0:0:
256,192,67579,1,12,0:0:0:0:
256,192,67852,1,8,0:0:0:0:
256,192,68124,1,8,0:0:0:0:
256,192,68397,1,0,0:0:0:0:
256,192,68670,1,12,0:0:0:0:
256,192,68806,1,0,0:0:0:0:
256,192,68943,1,8,0:0:0:0:
256,192,69079,1,0,0:0:0:0:
256,192,69215,1,8,0:0:0:0:
256,192,69284,1,8,0:0:0:0:
256,192,69352,1,0,0:0:0:0:
256,192,69488,1,8,0:0:0:0:
256,192,69624,1,0,0:0:0:0:
256,192,69761,1,8,0:0:0:0:
256,192,69829,1,8,0:0:0:0:
256,192,69897,1,0,0:0:0:0:
256,192,69965,1,0,0:0:0:0:
256,192,70034,1,8,0:0:0:0:
256,192,70170,1,0,0:0:0:0:
256,192,70306,1,8,0:0:0:0:
256,192,70374,1,0,0:0:0:0:
256,192,70443,1,0,0:0:0:0:
256,192,70511,1,0,0:0:0:0:
256,192,70579,1,8,0:0:0:0:
256,192,70715,1,0,0:0:0:0:
256,192,70852,1,8,0:0:0:0:
256,192,70920,1,0,0:0:0:0:
256,192,70988,1,8,0:0:0:0:
256,192,71124,1,0,0:0:0:0:
256,192,71261,1,8,0:0:0:0:
256,192,71397,1,0,0:0:0:0:
256,192,71465,1,0,0:0:0:0:
256,192,71534,1,8,0:0:0:0:
256,192,71670,1,8,0:0:0:0:
256,192,71806,1,0,0:0:0:0:
256,192,71943,1,8,0:0:0:0:
256,192,72011,1,0,0:0:0:0:
256,192,72079,1,0,0:0:0:0:
256,192,72147,1,0,0:0:0:0:
256,192,72215,1,8,0:0:0:0:
256,192,72352,1,0,0:0:0:0:
256,192,72488,1,8,0:0:0:0:
256,192,72556,1,8,0:0:0:0:
256,192,72624,1,0,0:0:0:0:
256,192,72693,1,0,0:0:0:0:
256,192,72761,1,8,0:0:0:0:
256,192,72897,1,0,0:0:0:0:
256,192,73034,1,8,0:0:0:0:
256,192,73102,1,8,0:0:0:0:
256,192,73170,1,0,0:0:0:0:
256,192,73306,1,8,0:0:0:0:
256,192,73443,1,0,0:0:0:0:
256,192,73579,1,8,0:0:0:0:
256,192,73647,1,0,0:0:0:0:
256,192,73715,1,8,0:0:0:0:
256,192,73784,1,0,0:0:0:0:
256,192,73852,1,8,0:0:0:0:
256,192,73920,1,8,0:0:0:0:
256,192,73988,1,0,0:0:0:0:
256,192,74056,1,8,0:0:0:0:
256,192,74124,1,0,0:0:0:0:
256,192,74261,1,0,0:0:0:0:
256,192,74397,1,8,0:0:0:0:
256,192,74465,1,8,0:0:0:0:
256,192,74534,1,0,0:0:0:0:
256,192,74602,1,0,0:0:0:0:
256,192,74670,1,8,0:0:0:0:
256,192,74806,1,0,0:0:0:0:
256,192,74943,1,8,0:0:0:0:
256,192,75011,1,0,0:0:0:0:
256,192,75079,1,8,0:0:0:0:
256,192,75215,1,0,0:0:0:0:
256,192,75352,1,0,0:0:0:0:
256,192,75488,1,8,0:0:0:0:
256,192,75624,1,8,0:0:0:0:
256,192,75761,1,0,0:0:0:0:
256,192,75897,1,0,0:0:0:0:
256,192,76034,1,8,0:0:0:0:
256,192,76170,1,0,0:0:0:0:
256,192,76306,1,8,0:0:0:0:
256,192,76374,1,8,0:0:0:0:
256,192,76443,1,0,0:0:0:0:
256,192,76511,1,0,0:0:0:0:
256,192,76579,1,8,0:0:0:0:
256,192,76715,1,0,0:0:0:0:
256,192,76852,1,8,0:0:0:0:
256,192,76920,1,8,0:0:0:0:
256,192,76988,1,8,0:0:0:0:
256,192,77124,1,0,0:0:0:0:
256,192,77193,1,0,0:0:0:0:
256,192,77261,1,8,0:0:0:0:
256,192,77329,1,0,0:0:0:0:
256,192,77397,1,8,0:0:0:0:
256,192,77534,1,0,0:0:0:0:
256,192,77670,1,8,0:0:0:0:
256,192,77806,1,0,0:0:0:0:
256,192,77943,1,8,0:0:0:0:
256,192,78011,1,0,0:0:0:0:
256,192,78079,1,0,0:0:0:0:
256,192,78215,1,8,0:0:0:0:
256,192,78284,1,8,0:0:0:0:
256,192,78352,1,0,0:0:0:0:
256,192,78488,1,8,0:0:0:0:
256,192,78556,1,8,0:0:0:0:
256,192,78624,1,8,0:0:0:0:
256,192,78693,1,0,0:0:0:0:
256,192,78761,1,8,0:0:0:0:
256,192,78897,1,0,0:0:0:0:
256,192,79034,1,8,0:0:0:0:
256,192,79102,1,8,0:0:0:0:
256,192,79170,1,0,0:0:0:0:
256,192,79238,1,0,0:0:0:0:
256,192,79306,1,8,0:0:0:0:
256,192,79443,1,0,0:0:0:0:
256,192,79579,1,8,0:0:0:0:
256,192,79647,1,8,0:0:0:0:
256,192,79715,1,0,0:0:0:0:
256,192,79852,1,8,0:0:0:0:
256,192,79988,1,0,0:0:0:0:
256,192,80124,1,8,0:0:0:0:
256,192,80193,1,8,0:0:0:0:
256,192,80261,1,0,0:0:0:0:
256,192,80397,1,8,0:0:0:0:
256,192,80534,1,0,0:0:0:0:
256,192,80602,1,0,0:0:0:0:
256,192,80670,1,8,0:0:0:0:
256,192,80806,1,8,0:0:0:0:
256,192,80874,1,8,0:0:0:0:
256,192,80943,1,0,0:0:0:0:
256,192,81011,1,8,0:0:0:0:
256,192,81079,1,0,0:0:0:0:
256,192,81147,1,0,0:0:0:0:
256,192,81215,1,8,0:0:0:0:
256,192,81284,1,8,0:0:0:0:
256,192,81352,1,0,0:0:0:0:
256,192,81488,1,8,0:0:0:0:
256,192,81624,1,0,0:0:0:0:
256,192,81761,1,8,0:0:0:0:
256,192,81897,1,0,0:0:0:0:
256,192,82034,1,8,0:0:0:0:
256,192,82102,1,8,0:0:0:0:
256,192,82170,1,0,0:0:0:0:
256,192,82238,1,0,0:0:0:0:
256,192,82306,1,8,0:0:0:0:
256,192,82443,1,8,0:0:0:0:
256,192,82579,1,0,0:0:0:0:
256,192,82647,1,0,0:0:0:0:
256,192,82715,1,8,0:0:0:0:
256,192,82784,1,8,0:0:0:0:
256,192,82852,1,0,0:0:0:0:
256,192,82988,1,0,0:0:0:0:
256,192,83124,1,8,0:0:0:0:
256,192,83193,1,0,0:0:0:0:
256,192,83261,1,8,0:0:0:0:
256,192,83329,1,8,0:0:0:0:
256,192,83397,1,0,0:0:0:0:
256,192,83534,1,0,0:0:0:0:
256,192,83602,1,0,0:0:0:0:
256,192,83670,1,8,0:0:0:0:
256,192,83806,1,0,0:0:0:0:
256,192,83943,1,8,0:0:0:0:
256,192,84011,1,8,0:0:0:0:
256,192,84079,1,0,0:0:0:0:
256,192,84215,1,8,0:0:0:0:
256,192,84352,1,0,0:0:0:0:
256,192,84488,1,8,0:0:0:0:
256,192,84556,1,8,0:0:0:0:
256,192,84624,1,8,0:0:0:0:
256,192,84761,1,0,0:0:0:0:
256,192,84897,1,8,0:0:0:0:
256,192,85034,1,0,0:0:0:0:
256,192,85102,1,0,0:0:0:0:
256,192,85170,1,8,0:0:0:0:
256,192,85238,1,8,0:0:0:0:
256,192,85306,1,0,0:0:0:0:
256,192,85443,1,0,0:0:0:0:
256,192,85579,1,8,0:0:0:0:
256,192,85647,1,0,0:0:0:0:
256,192,85715,1,8,0:0:0:0:
256,192,85784,1,0,0:0:0:0:
256,192,85852,1,8,0:0:0:0:
256,192,85920,1,8,0:0:0:0:
256,192,85988,1,8,0:0:0:0:
256,192,86056,1,8,0:0:0:0:
256,192,86124,1,0,0:0:0:0:
256,192,86261,1,0,0:0:0:0:
256,192,86397,1,8,0:0:0:0:
256,192,86534,1,8,0:0:0:0:
256,192,86602,1,8,0:0:0:0:
256,192,86670,1,0,0:0:0:0:
256,192,86806,1,0,0:0:0:0:
256,192,86943,1,8,0:0:0:0:
256,192,87011,1,8,0:0:0:0:
256,192,87079,1,0,0:0:0:0:
256,192,87215,1,0,0:0:0:0:
256,192,87284,1,0,0:0:0:0:
256,192,87352,1,8,0:0:0:0:
256,192,87420,1,0,0:0:0:0:
256,192,87488,1,8,0:0:0:0:
256,192,87624,1,0,0:0:0:0:
256,192,87761,1,0,0:0:0:0:
256,192,87897,1,8,0:0:0:0:
256,192,87965,1,8,0:0:0:0:
256,192,88034,1,0,0:0:0:0:
256,192,88102,1,8,0:0:0:0:
256,192,88170,1,0,0:0:0:0:
256,192,88306,1,0,0:0:0:0:
256,192,88374,1,8,0:0:0:0:
256,192,88443,1,0,0:0:0:0:
256,192,88511,1,0,0:0:0:0:
256,192,88579,1,8,0:0:0:0:
256,192,88715,1,0,0:0:0:0:
256,192,88784,1,0,0:0:0:0:
256,192,88852,1,8,0:0:0:0:
256,192,88988,1,0,0:0:0:0:
256,192,89124,1,8,0:0:0:0:
256,192,89193,1,8,0:0:0:0:
256,192,89261,1,0,0:0:0:0:
256,192,89397,1,8,0:0:0:0:
256,192,89465,1,8,0:0:0:0:
256,192,89534,1,0,0:0:0:0:
256,192,89602,1,0,0:0:0:0:
256,192,89670,1,8,0:0:0:0:
256,192,89806,1,8,0:0:0:0:
256,192,89943,1,0,0:0:0:0:
256,192,90079,1,0,0:0:0:0:
256,192,90215,1,8,0:0:0:0:
256,192,90352,1,0,0:0:0:0:
256,192,90488,1,8,0:0:0:0:
256,192,90556,1,8,0:0:0:0:
256,192,90624,1,0,0:0:0:0:
256,192,90761,1,8,0:0:0:0:
256,192,90897,1,0,0:0:0:0:
256,192,90965,1,0,0:0:0:0:
256,192,91034,1,8,0:0:0:0:
256,192,91170,1,0,0:0:0:0:
256,192,91306,1,0,0:0:0:0:
256,192,91374,1,0,0:0:0:0:
256,192,91443,1,8,0:0:0:0:
256,192,91511,1,0,0:0:0:0:
256,192,91579,1,8,0:0:0:0:
256,192,91647,1,8,0:0:0:0:
256,192,91715,1,0,0:0:0:0:
256,192,91784,1,0,0:0:0:0:
256,192,91852,1,8,0:0:0:0:
256,192,91988,1,0,0:0:0:0:
256,192,92124,1,8,0:0:0:0:
256,192,92261,1,8,0:0:0:0:
256,192,92397,1,0,0:0:0:0:
256,192,92465,1,0,0:0:0:0:
256,192,92534,1,8,0:0:0:0:
256,192,92602,1,0,0:0:0:0:
256,192,92670,1,8,0:0:0:0:
256,192,92738,1,8,0:0:0:0:
256,192,92806,1,0,0:0:0:0:
256,192,92874,1,0,0:0:0:0:
256,192,92943,1,8,0:0:0:0:
256,192,93079,1,0,0:0:0:0:
256,192,93215,1,8,0:0:0:0:
256,192,93284,1,8,0:0:0:0:
256,192,93352,1,0,0:0:0:0:
256,192,93488,1,8,0:0:0:0:
256,192,93556,1,8,0:0:0:0:
256,192,93624,1,0,0:0:0:0:
256,192,93693,1,8,0:0:0:0:
256,192,93761,1,0,0:0:0:0:
256,192,93897,1,8,0:0:0:0:
256,192,94034,1,0,0:0:0:0:
256,192,94102,1,0,0:0:0:0:
256,192,94170,1,8,0:0:0:0:
256,192,94238,1,8,0:0:0:0:
256,192,94306,1,0,0:0:0:0:
256,192,94443,1,0,0:0:0:0:
256,192,94511,1,0,0:0:0:0:
256,192,94579,1,8,0:0:0:0:
256,192,94647,1,8,0:0:0:0:
256,192,94715,1,8,0:0:0:0:
256,192,94784,1,8,0:0:0:0:
256,192,94852,1,0,0:0:0:0:
256,192,94988,1,0,0:0:0:0:
256,192,95124,1,8,0:0:0:0:
256,192,95261,1,8,0:0:0:0:
256,192,95329,1,8,0:0:0:0:
256,192,95397,1,0,0:0:0:0:
256,192,95534,1,0,0:0:0:0:
256,192,95670,1,8,0:0:0:0:
256,192,95738,1,8,0:0:0:0:
256,192,95806,1,0,0:0:0:0:
256,192,95943,1,0,0:0:0:0:
256,192,96011,1,8,0:0:0:0:
256,192,96079,1,0,0:0:0:0:
256,192,96215,1,8,0:0:0:0:
256,192,96352,1,0,0:0:0:0:
256,192,96488,1,8,0:0:0:0:
256,192,96556,1,8,0:0:0:0:
256,192,96624,1,0,0:0:0:0:
256,192,96761,1,8,0:0:0:0:
256,192,96897,1,8,0:0:0:0:
256,192,97034,1,0,0:0:0:0:
256,192,97102,1,8,0:0:0:0:
256,192,97170,1,0,0:0:0:0:
256,192,97306,1,8,0:0:0:0:
256,192,97443,1,0,0:0:0:0:
256,192,97579,1,0,0:0:0:0:
256,192,97647,1,0,0:0:0:0:
256,192,97715,1,8,0:0:0:0:
256,192,97852,1,8,0:0:0:0:
256,192,97920,1,8,0:0:0:0:
256,192,97988,1,0,0:0:0:0:
256,192,98056,1,0,0:0:0:0:
256,192,98124,1,8,0:0:0:0:
256,192,98261,1,8,0:0:0:0:
256,192,98397,1,0,0:0:0:0:
256,192,98465,1,0,0:0:0:0:
256,192,98534,1,8,0:0:0:0:
256,192,98602,1,8,0:0:0:0:
256,192,98670,1,0,0:0:0:0:
256,192,98806,1,0,0:0:0:0:
256,192,98943,1,8,0:0:0:0:
256,192,99011,1,0,0:0:0:0:
256,192,99079,1,0,0:0:0:0:
256,192,99147,1,0,0:0:0:0:
256,192,99215,1,8,0:0:0:0:
256,192,99352,1,0,0:0:0:0:
256,192,99488,1,8,0:0:0:0:
256,192,99624,1,0,0:0:0:0:
256,192,99761,1,8,0:0:0:0:
256,192,99829,1,8,0:0:0:0:
256,192,99897,1,0,0:0:0:0:
256,192,100034,1,8,0:0:0:0:
256,192,100170,1,0,0:0:0:0:
256,192,100238,1,0,0:0:0:0:
256,192,100306,1,8,0:0:0:0:
256,192,100374,1,0,0:0:0:0:
256,192,100443,1,8,0:0:0:0:
256,192,100579,1,0,0:0:0:0:
256,192,100715,1,8,0:0:0:0:
256,192,100852,1,8,0:0:0:0:
256,192,100988,1,0,0:0:0:0:
256,192,101056,1,0,0:0:0:0:
256,192,101124,1,8,0:0:0:0:
256,192,101193,1,8,0:0:0:0:
256,192,101261,1,8,0:0:0:0:
256,192,101329,1,8,0:0:0:0:
256,192,101397,1,4,0:0:0:0:
256,192,102488,1,0,0:0:0:0:
256,192,102556,1,0,0:0:0:0:
256,192,102624,1,8,0:0:0:0:
256,192,102693,1,0,0:0:0:0:
256,192,102761,1,8,0:0:0:0:
256,192,102897,1,4,0:0:0:0:
256,192,103170,1,4,0:0:0:0:
256,192,103443,1,12,0:0:0:0:
256,192,103715,1,0,0:0:0:0:
256,192,103852,1,8,0:0:0:0:
256,192,103920,1,8,0:0:0:0:
256,192,103988,1,0,0:0:0:0:
256,192,104124,1,0,0:0:0:0:
256,192,104193,1,0,0:0:0:0:
256,192,104261,1,8,0:0:0:0:
256,192,104329,1,8,0:0:0:0:
256,192,104397,1,0,0:0:0:0:
256,192,104534,1,8,0:0:0:0:
256,192,104670,1,8,0:0:0:0:
256,192,104806,1,0,0:0:0:0:
256,192,104943,1,0,0:0:0:0:
256,192,105011,1,0,0:0:0:0:
256,192,105079,1,8,0:0:0:0:
256,192,105215,1,8,0:0:0:0:
256,192,105284,1,8,0:0:0:0:
256,192,105352,1,0,0:0:0:0:
256,192,105420,1,0,0:0:0:0:
256,192,105488,1,8,0:0:0:0:
256,192,105624,1,4,0:0:0:0:
256,192,105897,1,0,0:0:0:0:
256,192,106034,1,8,0:0:0:0:
256,192,106102,1,8,0:0:0:0:
256,192,106170,1,0,0:0:0:0:
256,192,106306,1,0,0:0:0:0:
256,192,106374,1,0,0:0:0:0:
256,192,106443,1,8,0:0:0:0:
256,192,106511,1,0,0:0:0:0:
256,192,106579,1,8,0:0:0:0:
256,192,106647,1,8,0:0:0:0:
256,192,106715,1,0,0:0:0:0:
256,192,106852,1,8,0:0:0:0:
256,192,106920,1,8,0:0:0:0:
256,192,106988,1,0,0:0:0:0:
256,192,107124,1,8,0:0:0:0:
256,192,107261,1,0,0:0:0:0:
256,192,107397,1,8,0:0:0:0:
256,192,107465,1,0,0:0:0:0:
256,192,107534,1,8,0:0:0:0:
256,192,107670,1,0,0:0:0:0:
256,192,107806,1,12,0:0:0:0:
256,192,108079,1,0,0:0:0:0:
256,192,108215,1,8,0:0:0:0:
256,192,108284,1,8,0:0:0:0:
256,192,108352,1,0,0:0:0:0:
256,192,108420,1,0,0:0:0:0:
256,192,108488,1,8,0:0:0:0:
256,192,108624,1,0,0:0:0:0:
256,192,108761,1,8,0:0:0:0:
256,192,108829,1,0,0:0:0:0:
256,192,108897,1,8,0:0:0:0:
256,192,109034,1,0,0:0:0:0:
256,192,109170,1,8,0:0:0:0:
256,192,109238,1,0,0:0:0:0:
256,192,109306,1,0,0:0:0:0:
256,192,109374,1,0,0:0:0:0:
256,192,109443,1,8,0:0:0:0:
256,192,109579,1,0,0:0:0:0:
256,192,109715,1,8,0:0:0:0:
256,192,109784,1,8,0:0:0:0:
256,192,109852,1,0,0:0:0:0:
256,192,109988,1,12,0:0:0:0:
256,192,110261,1,0,0:0:0:0:
256,192,110397,1,8,0:0:0:0:
256,192,110465,1,8,0:0:0:0:
256,192,110534,1,0,0:0:0:0:
256,192,110602,1,0,0:0:0:0:
256,192,110670,1,8,0:0:0:0:
256,192,110806,1,0,0:0:0:0:
256,192,110943,1,8,0:0:0:0:
256,192,111079,1,0,0:0:0:0:
256,192,111147,1,0,0:0:0:0:
256,192,111215,1,8,0:0:0:0:
256,192,111352,1,8,0:0:0:0:
256,192,111488,1,8,0:0:0:0:
256,192,111624,1,0,0:0:0:0:
256,192,111693,1,0,0:0:0:0:
256,192,111761,1,8,0:0:0:0:
256,192,111829,1,8,0:0:0:0:
256,192,111897,1,0,0:0:0:0:
256,192,112034,1,0,0:0:0:0:
256,192,112170,1,12,0:0:0:0:
256,192,112443,1,8,0:0:0:0:
256,192,112579,1,0,0:0:0:0:
256,192,112715,1,0,0:0:0:0:
256,192,112852,1,8,0:0:0:0:
256,192,113124,1,8,0:0:0:0:
256,192,113261,1,8,0:0:0:0:
256,192,113397,1,0,0:0:0:0:
256,192,113534,1,0,0:0:0:0:
256,192,113670,1,8,0:0:0:0:
256,192,113806,1,0,0:0:0:0:
256,192,113943,1,8,0:0:0:0:
256,192,114215,1,0,0:0:0:0:
256,192,114352,1,12,0:0:0:0:
256,192,114624,1,8,0:0:0:0:
256,192,114761,1,0,0:0:0:0:
256,192,114897,1,0,0:0:0:0:
256,192,115034,1,8,0:0:0:0:
256,192,115306,1,8,0:0:0:0:
256,192,115443,1,8,0:0:0:0:
256,192,115579,1,0,0:0:0:0:
256,192,115715,1,0,0:0:0:0:
256,192,115852,1,8,0:0:0:0:
256,192,115988,1,0,0:0:0:0:
256,192,116124,1,8,0:0:0:0:
256,192,116261,1,0,0:0:0:0:
256,192,116397,1,0,0:0:0:0:
256,192,116534,1,12,0:0:0:0:
256,192,116806,1,8,0:0:0:0:
256,192,116943,1,0,0:0:0:0:
256,192,117079,1,8,0:0:0:0:
256,192,117215,1,0,0:0:0:0:
256,192,117488,1,8,0:0:0:0:
256,192,117624,1,8,0:0:0:0:
256,192,117761,1,0,0:0:0:0:
256,192,117897,1,0,0:0:0:0:
256,192,118034,1,8,0:0:0:0:
256,192,118170,1,0,0:0:0:0:
256,192,118306,1,8,0:0:0:0:
256,192,118579,1,0,0:0:0:0:
256,192,118715,1,12,0:0:0:0:
256,192,118988,1,0,0:0:0:0:
256,192,119124,1,8,0:0:0:0:
256,192,119261,1,0,0:0:0:0:
256,192,119397,1,8,0:0:0:0:
256,192,119670,1,0,0:0:0:0:
256,192,119806,1,8,0:0:0:0:
256,192,119943,1,0,0:0:0:0:
256,192,120079,1,8,0:0:0:0:
256,192,120215,1,0,0:0:0:0:
256,192,120352,1,0,0:0:0:0:
256,192,120488,1,8,0:0:0:0:
256,192,120624,1,0,0:0:0:0:
256,192,120761,1,0,0:0:0:0:
256,192,120897,1,12,0:0:0:0:
256,192,121170,1,0,0:0:0:0:
256,192,121306,1,8,0:0:0:0:
256,192,121443,1,0,0:0:0:0:
256,192,121579,1,8,0:0:0:0:
256,192,121647,1,0,0:0:0:0:
256,192,121715,1,8,0:0:0:0:
256,192,121852,1,0,0:0:0:0:
256,192,121988,1,8,0:0:0:0:
256,192,122056,1,8,0:0:0:0:
256,192,122124,1,8,0:0:0:0:
256,192,122261,1,0,0:0:0:0:
256,192,122397,1,0,0:0:0:0:
256,192,122534,1,8,0:0:0:0:
256,192,122670,1,8,0:0:0:0:
256,192,122738,1,8,0:0:0:0:
256,192,122806,1,0,0:0:0:0:
256,192,122874,1,0,0:0:0:0:
256,192,122943,1,8,0:0:0:0:
256,192,123079,1,4,0:0:0:0:
256,192,123352,1,8,0:0:0:0:
256,192,123488,1,0,0:0:0:0:
256,192,123624,1,8,0:0:0:0:
256,192,123761,1,8,0:0:0:0:
256,192,123829,1,8,0:0:0:0:
256,192,123897,1,0,0:0:0:0:
256,192,124034,1,8,0:0:0:0:
256,192,124170,1,0,0:0:0:0:
256,192,124238,1,0,0:0:0:0:
256,192,124306,1,0,0:0:0:0:
256,192,124443,1,8,0:0:0:0:
256,192,124579,1,0,0:0:0:0:
256,192,124715,1,8,0:0:0:0:
256,192,124852,1,0,0:0:0:0:
256,192,124920,1,0,0:0:0:0:
256,192,124988,1,8,0:0:0:0:
256,192,125056,1,0,0:0:0:0:
256,192,125124,1,8,0:0:0:0:
256,192,125261,1,4,0:0:0:0:
256,192,125534,1,0,0:0:0:0:
256,192,125670,1,8,0:0:0:0:
256,192,125806,1,0,0:0:0:0:
256,192,125943,1,0,0:0:0:0:
256,192,126011,1,0,0:0:0:0:
256,192,126079,1,0,0:0:0:0:
256,192,126215,1,8,0:0:0:0:
256,192,126352,1,0,0:0:0:0:
256,192,126420,1,8,0:0:0:0:
256,192,126488,1,0,0:0:0:0:
256,192,126624,1,8,0:0:0:0:
256,192,126761,1,8,0:0:0:0:
256,192,126897,1,0,0:0:0:0:
256,192,127034,1,0,0:0:0:0:
256,192,127170,1,8,0:0:0:0:
256,192,127238,1,8,0:0:0:0:
256,192,127306,1,0,0:0:0:0:
256,192,127374,1,0,0:0:0:0:
256,192,127443,1,8,0:0:0:0:
256,192,127579,1,8,0:0:0:0:
256,192,127715,1,0,0:0:0:0:
256,192,127852,1,8,0:0:0:0:
256,192,127988,1,0,0:0:0:0:
256,192,128124,1,8,0:0:0:0:
256,192,128261,1,0,0:0:0:0:
256,192,128397,1,8,0:0:0:0:
256,192,128465,1,8,0:0:0:0:
256,192,128534,1,0,0:0:0:0:
256,192,128602,1,0,0:0:0:0:
256,192,128670,1,8,0:0:0:0:
256,192,128806,1,8,0:0:0:0:
256,192,128943,1,8,0:0:0:0:
256,192,129079,1,8,0:0:0:0:
256,192,129215,1,0,0:0:0:0:
256,192,129488,1,0,0:0:0:0:
256,192,129761,1,12,0:0:0:0:
256,192,130170,1,12,0:0:0:0:
256,192,130579,1,8,0:0:0:0:
256,192,130715,1,0,0:0:0:0:
256,192,130852,1,8,0:0:0:0:
256,192,131124,1,8,0:0:0:0:
256,192,131261,1,8,0:0:0:0:
256,192,131397,1,0,0:0:0:0:
256,192,131534,1,8,0:0:0:0:
256,192,131670,1,8,0:0:0:0:
256,192,131943,1,8,0:0:0:0:
256,192,132124,1,8,0:0:0:0:
256,192,132306,1,8,0:0:0:0:
256,192,132397,1,0,0:0:0:0:
256,192,132488,1,8,0:0:0:0:
256,192,132670,1,8,0:0:0:0:
256,192,132852,1,8,0:0:0:0:
256,192,133034,1,0,0:0:0:0:
256,192,133579,1,0,0:0:0:0:
256,192,133647,1,0,0:0:0:0:
256,192,133715,1,0,0:0:0:0:
256,192,133784,1,0,0:0:0:0:
256,192,133852,1,8,0:0:0:0:
256,192,133920,1,8,0:0:0:0:
256,192,133988,1,8,0:0:0:0:
256,192,134056,1,8,0:0:0:0:
256,192,134124,1,4,0:0:0:0:
256,192,134534,1,8,0:0:0:0:
256,192,134670,1,4,0:0:0:0:
256,192,134943,1,8,0:0:0:0:
256,192,135215,1,12,0:0:0:0:
256,192,135624,1,8,0:0:0:0:
256,192,135761,1,4,0:0:0:0:
256,192,136034,1,8,0:0:0:0:
256,192,136306,1,0,0:0:0:0:
256,192,136488,1,8,0:0:0:0:
256,192,136670,1,0,0:0:0:0:
256,192,136761,1,0,0:0:0:0:
256,192,136852,1,8,0:0:0:0:
256,192,137034,1,8,0:0:0:0:
256,192,137215,1,0,0:0:0:0:
256,192,137397,1,8,0:0:0:0:
256,192,137943,1,8,0:0:0:0:
256,192,138011,1,8,0:0:0:0:
256,192,138079,1,0,0:0:0:0:
256,192,138147,1,0,0:0:0:0:
256,192,138215,1,8,0:0:0:0:
256,192,138284,1,8,0:0:0:0:
256,192,138352,1,8,0:0:0:0:
256,192,138420,1,8,0:0:0:0:
256,192,138488,1,4,0:0:0:0:
256,192,138670,1,0,0:0:0:0:
256,192,138852,1,8,0:0:0:0:
256,192,139034,1,4,0:0:0:0:
256,192,139306,1,0,0:0:0:0:
256,192,139579,1,12,0:0:0:0:
256,192,139761,1,8,0:0:0:0:
256,192,139943,1,0,0:0:0:0:
256,192,140034,1,0,0:0:0:0:
256,192,140124,1,12,0:0:0:0:
256,192,140397,1,0,0:0:0:0:
256,192,140670,1,8,0:0:0:0:
256,192,140852,1,0,0:0:0:0:
256,192,141034,1,8,0:0:0:0:
256,192,141124,1,8,0:0:0:0:
256,192,141215,1,0,0:0:0:0:
256,192,141397,1,8,0:0:0:0:
256,192,141579,1,0,0:0:0:0:
256,192,141761,1,8,0:0:0:0:
256,192,141829,1,8,0:0:0:0:
256,192,141897,1,8,0:0:0:0:
256,192,141965,1,8,0:0:0:0:
256,192,142034,1,0,0:0:0:0:
256,192,142102,1,0,0:0:0:0:
256,192,142170,1,0,0:0:0:0:
256,192,142238,1,0,0:0:0:0:
256,192,142306,1,8,0:0:0:0:
256,192,142579,1,8,0:0:0:0:
256,192,142715,1,8,0:0:0:0:
256,192,142852,1,4,0:0:0:0:
256,192,143124,1,8,0:0:0:0:
256,192,143261,1,4,0:0:0:0:
256,192,143670,1,0,0:0:0:0:
256,192,143806,1,0,0:0:0:0:
256,192,143943,1,12,0:0:0:0:
256,192,144215,1,8,0:0:0:0:
256,192,144352,1,4,0:0:0:0:
256,192,144761,1,8,0:0:0:0:
256,192,144897,1,8,0:0:0:0:
256,192,145034,1,0,0:0:0:0:
256,192,145215,1,0,0:0:0:0:
256,192,145397,1,8,0:0:0:0:
256,192,145488,1,0,0:0:0:0:
256,192,145579,1,8,0:0:0:0:
256,192,145761,1,8,0:0:0:0:
256,192,145943,1,8,0:0:0:0:
256,192,146124,1,0,0:0:0:0:
256,192,146397,1,0,0:0:0:0:
256,192,146534,1,8,0:0:0:0:
256,192,146670,1,0,0:0:0:0:
256,192,146806,1,8,0:0:0:0:
256,192,146943,1,8,0:0:0:0:
256,192,147011,1,0,0:0:0:0:
256,192,147079,1,8,0:0:0:0:
256,192,147215,1,4,0:0:0:0:
256,192,147352,1,8,0:0:0:0:
256,192,147488,1,0,0:0:0:0:
256,192,147556,1,0,0:0:0:0:
256,192,147624,1,8,0:0:0:0:
256,192,147693,1,0,0:0:0:0:
256,192,147761,1,8,0:0:0:0:
256,192,147897,1,0,0:0:0:0:
256,192,148034,1,8,0:0:0:0:
256,192,148102,1,8,0:0:0:0:
256,192,148170,1,0,0:0:0:0:
256,192,148238,1,0,0:0:0:0:
256,192,148306,1,8,0:0:0:0:
256,192,148443,1,0,0:0:0:0:
256,192,148579,1,8,0:0:0:0:
256,192,148647,1,8,0:0:0:0:
256,192,148715,1,0,0:0:0:0:
256,192,148852,1,0,0:0:0:0:
256,192,148988,1,8,0:0:0:0:
256,192,149056,1,8,0:0:0:0:
256,192,149124,1,0,0:0:0:0:
256,192,149193,1,8,0:0:0:0:
256,192,149261,1,0,0:0:0:0:
256,192,149397,1,12,0:0:0:0:
256,192,149534,1,0,0:0:0:0:
256,192,149670,1,8,0:0:0:0:
256,192,149806,1,0,0:0:0:0:
256,192,149943,1,8,0:0:0:0:
256,192,150011,1,8,0:0:0:0:
256,192,150079,1,8,0:0:0:0:
256,192,150215,1,0,0:0:0:0:
256,192,150284,1,0,0:0:0:0:
256,192,150352,1,8,0:0:0:0:
256,192,150420,1,0,0:0:0:0:
256,192,150488,1,8,0:0:0:0:
256,192,150556,1,8,0:0:0:0:
256,192,150624,1,0,0:0:0:0:
256,192,150761,1,8,0:0:0:0:
256,192,150897,1,8,0:0:0:0:
256,192,151034,1,0,0:0:0:0:
256,192,151102,1,0,0:0:0:0:
256,192,151170,1,8,0:0:0:0:
256,192,151306,1,0,0:0:0:0:
256,192,151374,1,0,0:0:0:0:
256,192,151443,1,8,0:0:0:0:
256,192,151579,1,4,0:0:0:0:
256,192,151715,1,8,0:0:0:0:
256,192,151784,1,8,0:0:0:0:
256,192,151852,1,0,0:0:0:0:
256,192,151988,1,8,0:0:0:0:
256,192,152056,1,0,0:0:0:0:
256,192,152124,1,8,0:0:0:0:
256,192,152261,1,0,0:0:0:0:
256,192,152397,1,8,0:0:0:0:
256,192,152465,1,8,0:0:0:0:
256,192,152534,1,0,0:0:0:0:
256,192,152670,1,0,0:0:0:0:
256,192,152738,1,0,0:0:0:0:
256,192,152806,1,8,0:0:0:0:
256,192,152874,1,0,0:0:0:0:
256,192,152943,1,8,0:0:0:0:
256,192,153011,1,8,0:0:0:0:
256,192,153079,1,0,0:0:0:0:
256,192,153215,1,8,0:0:0:0:
256,192,153284,1,8,0:0:0:0:
256,192,153352,1,0,0:0:0:0:
256,192,153420,1,0,0:0:0:0:
256,192,153488,1,8,0:0:0:0:
256,192,153556,1,8,0:0:0:0:
256,192,153624,1,8,0:0:0:0:
256,192,153693,1,8,0:0:0:0:
256,192,153761,1,4,0:0:0:0:
256,192,153897,1,8,0:0:0:0:
256,192,153965,1,8,0:0:0:0:
256,192,154034,1,0,0:0:0:0:
256,192,154170,1,0,0:0:0:0:
256,192,154238,1,8,0:0:0:0:
256,192,154306,1,0,0:0:0:0:
256,192,154443,1,8,0:0:0:0:
256,192,154579,1,0,0:0:0:0:
256,192,154647,1,0,0:0:0:0:
256,192,154715,1,8,0:0:0:0:
256,192,154784,1,8,0:0:0:0:
256,192,154852,1,0,0:0:0:0:
256,192,154988,1,0,0:0:0:0:
256,192,155124,1,8,0:0:0:0:
256,192,155261,1,0,0:0:0:0:
256,192,155397,1,8,0:0:0:0:
256,192,155534,1,0,0:0:0:0:
256,192,155602,1,0,0:0:0:0:
256,192,155670,1,8,0:0:0:0:
256,192,155738,1,8,0:0:0:0:
256,192,155806,1,8,0:0:0:0:
256,192,155874,1,8,0:0:0:0:
256,192,155943,1,4,0:0:0:0:
256,192,156079,1,0,0:0:0:0:
256,192,156215,1,8,0:0:0:0:
256,192,156352,1,0,0:0:0:0:
256,192,156488,1,8,0:0:0:0:
256,192,156556,1,8,0:0:0:0:
256,192,156624,1,0,0:0:0:0:
256,192,156761,1,8,0:0:0:0:
256,192,156897,1,0,0:0:0:0:
256,192,157034,1,8,0:0:0:0:
256,192,157102,1,8,0:0:0:0:
256,192,157170,1,0,0:0:0:0:
256,192,157238,1,0,0:0:0:0:
256,192,157306,1,8,0:0:0:0:
256,192,157443,1,0,0:0:0:0:
256,192,157579,1,8,0:0:0:0:
256,192,157647,1,0,0:0:0:0:
256,192,157715,1,0,0:0:0:0:
256,192,157784,1,0,0:0:0:0:
256,192,157852,1,8,0:0:0:0:
256,192,157988,1,0,0:0:0:0:
256,192,158124,1,8,0:0:0:0:
256,192,158193,1,0,0:0:0:0:
256,192,158261,1,8,0:0:0:0:
256,192,158397,1,0,0:0:0:0:
256,192,158534,1,8,0:0:0:0:
256,192,158670,1,0,0:0:0:0:
256,192,158738,1,0,0:0:0:0:
256,192,158806,1,8,0:0:0:0:
256,192,158943,1,8,0:0:0:0:
256,192,159079,1,0,0:0:0:0:
256,192,159215,1,8,0:0:0:0:
256,192,159284,1,0,0:0:0:0:
256,192,159352,1,0,0:0:0:0:
256,192,159420,1,0,0:0:0:0:
256,192,159488,1,8,0:0:0:0:
256,192,159624,1,0,0:0:0:0:
256,192,159761,1,8,0:0:0:0:
256,192,159829,1,8,0:0:0:0:
256,192,159897,1,0,0:0:0:0:
256,192,159965,1,0,0:0:0:0:
256,192,160034,1,8,0:0:0:0:
256,192,160170,1,0,0:0:0:0:
256,192,160306,1,8,0:0:0:0:
256,192,160374,1,8,0:0:0:0:
256,192,160443,1,0,0:0:0:0:
256,192,160579,1,8,0:0:0:0:
256,192,160715,1,0,0:0:0:0:
256,192,160852,1,8,0:0:0:0:
256,192,160920,1,0,0:0:0:0:
256,192,160988,1,8,0:0:0:0:
256,192,161056,1,8,0:0:0:0:
256,192,161124,1,0,0:0:0:0:
256,192,161193,1,0,0:0:0:0:
256,192,161261,1,8,0:0:0:0:
256,192,161329,1,8,0:0:0:0:
256,192,161397,1,0,0:0:0:0:
256,192,161534,1,0,0:0:0:0:
256,192,161670,1,8,0:0:0:0:
256,192,161738,1,8,0:0:0:0:
256,192,161806,1,0,0:0:0:0:
256,192,161874,1,0,0:0:0:0:
256,192,161943,1,8,0:0:0:0:
256,192,162079,1,0,0:0:0:0:
256,192,162215,1,8,0:0:0:0:
256,192,162284,1,0,0:0:0:0:
256,192,162352,1,8,0:0:0:0:
256,192,162488,1,0,0:0:0:0:
256,192,162624,1,0,0:0:0:0:
256,192,162761,1,8,0:0:0:0:
256,192,162897,1,8,0:0:0:0:
256,192,163034,1,0,0:0:0:0:
256,192,163170,1,0,0:0:0:0:
256,192,163306,1,8,0:0:0:0:
256,192,163443,1,0,0:0:0:0:
256,192,163579,1,8,0:0:0:0:
256,192,163647,1,8,0:0:0:0:
256,192,163715,1,0,0:0:0:0:
256,192,163784,1,0,0:0:0:0:
256,192,163852,1,8,0:0:0:0:
256,192,163988,1,0,0:0:0:0:
256,192,164124,1,8,0:0:0:0:
256,192,164193,1,8,0:0:0:0:
256,192,164261,1,8,0:0:0:0:
256,192,164397,1,0,0:0:0:0:
256,192,164465,1,0,0:0:0:0:
256,192,164534,1,8,0:0:0:0:
256,192,164602,1,0,0:0:0:0:
256,192,164670,1,8,0:0:0:0:
256,192,164806,1,0,0:0:0:0:
256,192,164943,1,8,0:0:0:0:
256,192,165079,1,0,0:0:0:0:
256,192,165215,1,8,0:0:0:0:
256,192,165284,1,0,0:0:0:0:
256,192,165352,1,0,0:0:0:0:
256,192,165488,1,8,0:0:0:0:
256,192,165556,1,8,0:0:0:0:
256,192,165624,1,0,0:0:0:0:
256,192,165761,1,8,0:0:0:0:
256,192,165829,1,8,0:0:0:0:
256,192,165897,1,8,0:0:0:0:
256,192,165965,1,0,0:0:0:0:
256,192,166034,1,8,0:0:0:0:
256,192,166170,1,0,0:0:0:0:
256,192,166306,1,8,0:0:0:0:
256,192,166374,1,8,0:0:0:0:
256,192,166443,1,0,0:0:0:0:
256,192,166511,1,0,0:0:0:0:
256,192,166579,1,8,0:0:0:0:
256,192,166715,1,0,0:0:0:0:
256,192,166852,1,8,0:0:0:0:
256,192,166920,1,8,0:0:0:0:
256,192,166988,1,0,0:0:0:0:
256,192,167124,1,8,0:0:0:0:
256,192,167261,1,0,0:0:0:0:
256,192,167397,1,8,0:0:0:0:
256,192,167465,1,8,0:0:0:0:
256,192,167534,1,0,0:0:0:0:
256,192,167670,1,8,0:0:0:0:
256,192,167806,1,0,0:0:0:0:
256,192,167874,1,0,0:0:0:0:
256,192,167943,1,8,0:0:0:0:
256,192,168079,1,8,0:0:0:0:
256,192,168147,1,8,0:0:0:0:
256,192,168215,1,0,0:0:0:0:
256,192,168284,1,8,0:0:0:0:
256,192,168352,1,0,0:0:0:0:
256,192,168420,1,0,0:0:0:0:
256,192,168488,1,8,0:0:0:0:
256,192,168556,1,8,0:0:0:0:
256,192,168624,1,0,0:0:0:0:
256,192,168761,1,8,0:0:0:0:
256,192,168897,1,0,0:0:0:0:
256,192,169034,1,8,0:0:0:0:
256,192,169170,1,0,0:0:0:0:
256,192,169306,1,8,0:0:0:0:
256,192,169374,1,8,0:0:0:0:
256,192,169443,1,0,0:0:0:0:
256,192,169511,1,0,0:0:0:0:
256,192,169579,1,8,0:0:0:0:
256,192,169715,1,8,0:0:0:0:
256,192,169852,1,0,0:0:0:0:
256,192,169920,1,0,0:0:0:0:
256,192,169988,1,8,0:0:0:0:
256,192,170056,1,8,0:0:0:0:
256,192,170124,1,0,0:0:0:0:
256,192,170261,1,0,0:0:0:0:
256,192,170397,1,8,0:0:0:0:
256,192,170465,1,0,0:0:0:0:
256,192,170534,1,8,0:0:0:0:
256,192,170602,1,8,0:0:0:0:
256,192,170670,1,0,0:0:0:0:
256,192,170806,1,0,0:0:0:0:
256,192,170874,1,0,0:0:0:0:
256,192,170943,1,8,0:0:0:0:
256,192,171079,1,0,0:0:0:0:
256,192,171215,1,8,0:0:0:0:
256,192,171284,1,8,0:0:0:0:
256,192,171352,1,0,0:0:0:0:
256,192,171488,1,8,0:0:0:0:
256,192,171624,1,0,0:0:0:0:
256,192,171761,1,8,0:0:0:0:
256,192,171829,1,8,0:0:0:0:
256,192,171897,1,8,0:0:0:0:
256,192,172034,1,0,0:0:0:0:
256,192,172170,1,8,0:0:0:0:
256,192,172306,1,0,0:0:0:0:
256,192,172374,1,0,0:0:0:0:
256,192,172443,1,8,0:0:0:0:
256,192,172511,1,8,0:0:0:0:
256,192,172579,1,0,0:0:0:0:
256,192,172715,1,0,0:0:0:0:
256,192,172852,1,8,0:0:0:0:
256,192,172920,1,0,0:0:0:0:
256,192,172988,1,8,0:0:0:0:
256,192,173056,1,0,0:0:0:0:
256,192,173124,1,8,0:0:0:0:
256,192,173193,1,8,0:0:0:0:
256,192,173261,1,8,0:0:0:0:
256,192,173329,1,8,0:0:0:0:
256,192,173397,1,0,0:0:0:0:
256,192,173534,1,0,0:0:0:0:
256,192,173670,1,8,0:0:0:0:
256,192,173806,1,8,0:0:0:0:
256,192,173874,1,8,0:0:0:0:
256,192,173943,1,0,0:0:0:0:
256,192,174079,1,0,0:0:0:0:
256,192,174215,1,8,0:0:0:0:
256,192,174284,1,8,0:0:0:0:
256,192,174352,1,0,0:0:0:0:
256,192,174488,1,0,0:0:0:0:
256,192,174556,1,0,0:0:0:0:
256,192,174624,1,8,0:0:0:0:
256,192,174693,1,0,0:0:0:0:
256,192,174761,1,8,0:0:0:0:
256,192,174897,1,0,0:0:0:0:
256,192,175034,1,0,0:0:0:0:
256,192,175170,1,8,0:0:0:0:
256,192,175238,1,8,0:0:0:0:
256,192,175306,1,0,0:0:0:0:
256,192,175374,1,8,0:0:0:0:
256,192,175443,1,0,0:0:0:0:
256,192,175579,1,0,0:0:0:0:
256,192,175647,1,0,0:0:0:0:
256,192,175715,1,8,0:0:0:0:
256,192,175784,1,0,0:0:0:0:
256,192,175852,1,8,0:0:0:0:
256,192,175988,1,8,0:0:0:0:
256,192,176056,1,8,0:0:0:0:
256,192,176124,1,0,0:0:0:0:
256,192,176261,1,0,0:0:0:0:
256,192,176397,1,8,0:0:0:0:
256,192,176465,1,8,0:0:0:0:
256,192,176534,1,0,0:0:0:0:
256,192,176670,1,8,0:0:0:0:
256,192,176738,1,8,0:0:0:0:
256,192,176806,1,0,0:0:0:0:
256,192,176874,1,0,0:0:0:0:
256,192,176943,1,8,0:0:0:0:
256,192,177079,1,8,0:0:0:0:
256,192,177215,1,0,0:0:0:0:
256,192,177352,1,0,0:0:0:0:
256,192,177488,1,8,0:0:0:0:
256,192,177624,1,0,0:0:0:0:
256,192,177761,1,8,0:0:0:0:
256,192,177829,1,8,0:0:0:0:
256,192,177897,1,0,0:0:0:0:
256,192,178034,1,8,0:0:0:0:
256,192,178170,1,0,0:0:0:0:
256,192,178238,1,0,0:0:0:0:
256,192,178306,1,8,0:0:0:0:
256,192,178443,1,0,0:0:0:0:
256,192,178579,1,0,0:0:0:0:
256,192,178647,1,8,0:0:0:0:
256,192,178715,1,8,0:0:0:0:
256,192,178784,1,8,0:0:0:0:
256,192,178852,1,0,0:0:0:0:
256,192,178920,1,8,0:0:0:0:
256,192,178988,1,0,0:0:0:0:
256,192,179056,1,0,0:0:0:0:
256,192,179124,1,8,0:0:0:0:
256,192,179261,1,0,0:0:0:0:
256,192,179397,1,8,0:0:0:0:
256,192,179534,1,8,0:0:0:0:
256,192,179670,1,0,0:0:0:0:
256,192,179738,1,8,0:0:0:0:
256,192,179806,1,8,0:0:0:0:
256,192,179874,1,8,0:0:0:0:
256,192,179943,1,0,0:0:0:0:
256,192,180011,1,8,0:0:0:0:
256,192,180079,1,0,0:0:0:0:
256,192,180147,1,0,0:0:0:0:
256,192,180215,1,8,0:0:0:0:
256,192,180352,1,0,0:0:0:0:
256,192,180488,1,8,0:0:0:0:
256,192,180556,1,8,0:0:0:0:
256,192,180624,1,0,0:0:0:0:
256,192,180761,1,8,0:0:0:0:
256,192,180829,1,8,0:0:0:0:
256,192,180897,1,0,0:0:0:0:
256,192,180965,1,8,0:0:0:0:
256,192,181034,1,0,0:0:0:0:
256,192,181170,1,8,0:0:0:0:
256,192,181306,1,0,0:0:0:0:
256,192,181374,1,0,0:0:0:0:
256,192,181443,1,8,0:0:0:0:
256,192,181511,1,8,0:0:0:0:
256,192,181579,1,0,0:0:0:0:
256,192,181715,1,0,0:0:0:0:
256,192,181784,1,0,0:0:0:0:
256,192,181852,1,8,0:0:0:0:
256,192,181920,1,8,0:0:0:0:
256,192,181988,1,8,0:0:0:0:
256,192,182056,1,8,0:0:0:0:
256,192,182124,1,0,0:0:0:0:
256,192,182261,1,0,0:0:0:0:
256,192,182397,1,8,0:0:0:0:
256,192,182534,1,8,0:0:0:0:
256,192,182602,1,8,0:0:0:0:
256,192,182670,1,0,0:0:0:0:
256,192,182806,1,0,0:0:0:0:
256,192,182943,1,8,0:0:0:0:
256,192,183011,1,8,0:0:0:0:
256,192,183079,1,0,0:0:0:0:
256,192,183215,1,0,0:0:0:0:
256,192,183284,1,8,0:0:0:0:
256,192,183352,1,0,0:0:0:0:
256,192,183488,1,8,0:0:0:0:
256,192,183624,1,0,0:0:0:0:
256,192,183761,1,8,0:0:0:0:
256,192,183829,1,8,0:0:0:0:
256,192,183897,1,0,0:0:0:0:
256,192,184034,1,8,0:0:0:0:
256,192,184170,1,8,0:0:0:0:
256,192,184306,1,0,0:0:0:0:
256,192,184374,1,8,0:0:0:0:
256,192,184443,1,0,0:0:0:0:
256,192,184579,1,8,0:0:0:0:
256,192,184715,1,0,0:0:0:0:
256,192,184852,1,0,0:0:0:0:
256,192,184920,1,0,0:0:0:0:
256,192,184988,1,8,0:0:0:0:
256,192,185124,1,8,0:0:0:0:
256,192,185193,1,8,0:0:0:0:
256,192,185261,1,0,0:0:0:0:
256,192,185329,1,0,0:0:0:0:
256,192,185397,1,8,0:0:0:0:
256,192,185534,1,8,0:0:0:0:
256,192,185670,1,0,0:0:0:0:
256,192,185738,1,0,0:0:0:0:
256,192,185806,1,8,0:0:0:0:
256,192,185874,1,8,0:0:0:0:
256,192,185943,1,0,0:0:0:0:
256,192,186079,1,0,0:0:0:0:
256,192,186215,1,8,0:0:0:0:
256,192,186284,1,0,0:0:0:0:
256,192,186352,1,0,0:0:0:0:
256,192,186420,1,0,0:0:0:0:
256,192,186488,1,8,0:0:0:0:
256,192,186624,1,0,0:0:0:0:
256,192,186761,1,8,0:0:0:0:
256,192,186897,1,0,0:0:0:0:
256,192,187034,1,8,0:0:0:0:
256,192,187102,1,8,0:0:0:0:
256,192,187170,1,8,0:0:0:0:
256,192,187306,1,0,0:0:0:0:
256,192,187443,1,0,0:0:0:0:
256,192,187511,1,0,0:0:0:0:
256,192,187579,1,8,0:0:0:0:
256,192,187647,1,8,0:0:0:0:
256,192,187715,1,0,0:0:0:0:
256,192,187852,1,8,0:0:0:0:
256,192,187988,1,0,0:0:0:0:
256,192,188124,1,8,0:0:0:0:
256,192,188215,1,8,0:0:0:0:
256,192,188306,1,8,0:0:0:0:
256,192,188397,1,0,0:0:0:0:
256,192,188488,1,0,0:0:0:0:
256,192,188579,1,0,0:0:0:0:
256,192,188670,1,12,0:0:0:0:
256,192,190579,1,0,0:0:0:0:
256,192,191124,1,0,0:0:0:0:
256,192,191670,1,8,0:0:0:0:
256,192,192215,1,0,0:0:0:0:
256,192,192761,1,0,0:0:0:0:
256,192,193034,1,8,0:0:0:0:
256,192,193306,1,0,0:0:0:0:
256,192,193579,1,8,0:0:0:0:
256,192,194124,1,0,0:0:0:0:
256,192,194397,1,8,0:0:0:0:
256,192,195215,1,8,0:0:0:0:
256,192,196034,1,8,0:0:0:0:
256,192,196852,1,0,0:0:0:0:
256,192,197397,1,0,0:0:0:0:
256,192,197670,1,0,0:0:0:0:
256,192,197943,1,8,0:0:0:0:
256,192,198488,1,0,0:0:0:0:
256,192,198761,1,8,0:0:0:0:
256,192,199579,1,0,0:0:0:0:
256,192,199852,1,0,0:0:0:0:
256,192,200124,1,8,0:0:0:0:
256,192,200670,1,0,0:0:0:0:
256,192,200943,1,8,0:0:0:0:
256,192,201761,1,0,0:0:0:0:
256,192,202034,1,0,0:0:0:0:
256,192,202306,1,8,0:0:0:0:
256,192,202852,1,0,0:0:0:0:
256,192,203124,1,8,0:0:0:0:
256,192,203943,1,8,0:0:0:0:
256,192,204488,1,0,0:0:0:0:
256,192,204761,1,8,0:0:0:0:
256,192,205306,1,0,0:0:0:0:
256,192,205579,1,8,0:0:0:0:
256,192,205852,1,8,0:0:0:0:
256,192,206124,1,4,0:0:0:0:
256,192,206534,1,0,0:0:0:0:
256,192,206806,1,0,0:0:0:0:
256,192,206943,1,12,0:0:0:0:
256,192,208034,1,0,0:0:0:0:
256,192,208306,1,8,0:0:0:0:
256,192,208715,1,0,0:0:0:0:
256,192,210215,1,8,0:0:0:0:
256,192,210488,1,4,0:0:0:0:
256,192,210761,1,8,0:0:0:0:
256,192,210897,1,0,0:0:0:0:
256,192,211034,1,0,0:0:0:0:
256,192,211170,1,0,0:0:0:0:
256,192,211306,1,12,0:0:0:0:
256,192,212397,1,0,0:0:0:0:
256,192,212670,1,8,0:0:0:0:
256,192,213079,1,0,0:0:0:0:
256,192,214034,1,0,0:0:0:0:
256,192,214306,1,8,0:0:0:0:
256,192,214579,1,8,0:0:0:0:
256,192,214852,1,4,0:0:0:0:
256,192,215124,1,8,0:0:0:0:
256,192,215261,1,0,0:0:0:0:
256,192,215534,1,0,0:0:0:0:
256,192,215670,1,12,0:0:0:0:
256,192,216215,1,8,0:0:0:0:
256,192,216488,1,0,0:0:0:0:
256,192,216761,1,8,0:0:0:0:
256,192,217034,1,0,0:0:0:0:
256,192,217306,1,0,0:0:0:0:
256,192,217443,1,8,0:0:0:0:
256,192,218397,1,0,0:0:0:0:
256,192,218670,1,8,0:0:0:0:
256,192,218943,1,8,0:0:0:0:
256,192,219215,1,4,0:0:0:0:
256,192,219488,1,8,0:0:0:0:
256,192,219624,1,0,0:0:0:0:
256,192,219761,1,0,0:0:0:0:
256,192,219897,1,0,0:0:0:0:
256,192,220034,1,12,0:0:0:0:
256,192,221124,1,8,0:0:0:0:
256,192,221397,1,8,0:0:0:0:
256,192,221670,1,8,0:0:0:0:
256,192,221806,1,0,0:0:0:0:
256,192,221943,1,0,0:0:0:0:
256,192,222079,1,0,0:0:0:0:
256,192,222215,1,12,0:0:0:0:
256,192,222488,1,8,0:0:0:0:
256,192,222624,1,0,0:0:0:0:
256,192,222761,1,0,0:0:0:0:
256,192,222897,1,12,0:0:0:0:
256,192,223170,1,0,0:0:0:0:
256,192,223306,1,0,0:0:0:0:
256,192,223443,1,8,0:0:0:0:
256,192,223579,1,8,0:0:0:0:
256,192,223715,1,0,0:0:0:0:
256,192,223852,1,8,0:0:0:0:
256,192,223988,1,8,0:0:0:0:
256,192,224124,1,0,0:0:0:0:
256,192,224261,1,0,0:0:0:0:
256,192,224397,1,8,0:0:0:0:
256,192,224534,1,8,0:0:0:0:
256,192,224670,1,0,0:0:0:0:
256,192,224806,1,8,0:0:0:0:
256,192,224943,1,0,0:0:0:0:
256,192,225011,1,0,0:0:0:0:
256,192,225079,1,0,0:0:0:0:
256,192,225215,1,8,0:0:0:0:
256,192,225488,1,8,0:0:0:0:
256,192,225624,1,0,0:0:0:0:
256,192,225693,1,0,0:0:0:0:
256,192,225761,1,8,0:0:0:0:
256,192,225897,1,0,0:0:0:0:
256,192,226034,1,0,0:0:0:0:
256,192,226170,1,8,0:0:0:0:
256,192,226306,1,0,0:0:0:0:
256,192,226443,1,0,0:0:0:0:
256,192,226579,1,8,0:0:0:0:
256,192,226715,1,0,0:0:0:0:
256,192,226852,1,8,0:0:0:0:
256,192,226988,1,8,0:0:0:0:
256,192,227124,1,0,0:0:0:0:
256,192,227193,1,0,0:0:0:0:
256,192,227261,1,0,0:0:0:0:
256,192,227397,1,8,0:0:0:0:
256,192,227670,1,8,0:0:0:0:
256,192,227806,1,0,0:0:0:0:
256,192,227874,1,0,0:0:0:0:
256,192,227943,1,8,0:0:0:0:
256,192,228079,1,0,0:0:0:0:
256,192,228215,1,8,0:0:0:0:
256,192,228352,1,0,0:0:0:0:
256,192,228488,1,8,0:0:0:0:
256,192,228624,1,0,0:0:0:0:
256,192,228761,1,8,0:0:0:0:
256,192,228829,1,8,0:0:0:0:
256,192,228897,1,0,0:0:0:0:
256,192,229034,1,0,0:0:0:0:
256,192,229170,1,8,0:0:0:0:
256,192,229306,1,0,0:0:0:0:
256,192,229374,1,0,0:0:0:0:
256,192,229443,1,0,0:0:0:0:
256,192,229579,1,8,0:0:0:0:
224,192,229852,1,8,0:0:0:0:
256,192,229988,1,0,0:0:0:0:
256,192,230056,1,0,0:0:0:0:
224,192,230124,1,8,0:0:0:0:
256,192,230261,1,0,0:0:0:0:
256,192,230397,1,0,0:0:0:0:
256,192,230465,1,0,0:0:0:0:
256,192,230534,1,8,0:0:0:0:
256,192,230670,1,0,0:0:0:0:
256,192,230806,1,0,0:0:0:0:
256,192,230943,1,8,0:0:0:0:
256,192,231011,1,8,0:0:0:0:
256,192,231079,1,0,0:0:0:0:
256,192,231147,1,0,0:0:0:0:
256,192,231215,1,8,0:0:0:0:
256,192,231352,1,0,0:0:0:0:
256,192,231488,1,0,0:0:0:0:
256,192,231624,1,8,0:0:0:0:
256,192,231693,1,8,0:0:0:0:
256,192,231761,1,0,0:0:0:0:
256,192,231897,1,0,0:0:0:0:
256,192,232034,1,8,0:0:0:0:
256,192,232170,1,0,0:0:0:0:
256,192,232306,1,8,0:0:0:0:
256,192,232374,1,8,0:0:0:0:
256,192,232443,1,0,0:0:0:0:
256,192,232511,1,0,0:0:0:0:
256,192,232579,1,8,0:0:0:0:
256,192,232647,1,0,0:0:0:0:
256,192,232715,1,0,0:0:0:0:
256,192,232784,1,0,0:0:0:0:
256,192,232852,1,8,0:0:0:0:
256,192,232920,1,0,0:0:0:0:
256,192,232988,1,0,0:0:0:0:
256,192,233056,1,0,0:0:0:0:
256,192,233124,1,8,0:0:0:0:
256,192,233193,1,0,0:0:0:0:
256,192,233261,1,0,0:0:0:0:
256,192,233329,1,0,0:0:0:0:
256,192,233397,1,8,0:0:0:0:
256,192,233465,1,8,0:0:0:0:
256,192,233534,1,0,0:0:0:0:
256,192,233602,1,0,0:0:0:0:
256,192,233670,1,8,0:0:0:0:
256,192,233738,1,8,0:0:0:0:
256,192,233806,1,0,0:0:0:0:
256,192,233874,1,0,0:0:0:0:
256,192,233943,1,8,0:0:0:0:
256,192,234011,1,8,0:0:0:0:
256,192,234079,1,0,0:0:0:0:
256,192,234147,1,0,0:0:0:0:
256,192,234215,1,8,0:0:0:0:
256,192,234284,1,0,0:0:0:0:
256,192,234352,1,8,0:0:0:0:
256,192,234420,1,8,0:0:0:0:
256,192,234488,1,0,0:0:0:0:
256,192,234624,1,0,0:0:0:0:
256,192,234693,1,0,0:0:0:0:
256,192,234761,1,8,0:0:0:0:
256,192,234829,1,8,0:0:0:0:
256,192,234897,1,8,0:0:0:0:
256,192,234965,1,8,0:0:0:0:
256,192,235034,1,0,0:0:0:0:
256,192,235102,1,0,0:0:0:0:
256,192,235170,1,8,0:0:0:0:
256,192,235238,1,8,0:0:0:0:
256,192,235306,1,8,0:0:0:0:
256,192,235374,1,8,0:0:0:0:
256,192,235443,1,0,0:0:0:0:
256,192,235511,1,0,0:0:0:0:
256,192,235579,1,8,0:0:0:0:
256,192,235647,1,0,0:0:0:0:
256,192,235715,1,8,0:0:0:0:
256,192,235784,1,8,0:0:0:0:
256,192,235852,1,0,0:0:0:0:
256,192,235920,1,0,0:0:0:0:
256,192,235988,1,8,0:0:0:0:
256,192,236056,1,0,0:0:0:0:
256,192,236124,1,8,0:0:0:0:
256,192,236193,1,8,0:0:0:0:
256,192,236261,1,0,0:0:0:0:
256,192,236329,1,0,0:0:0:0:
256,192,236397,1,8,0:0:0:0:
256,192,236465,1,8,0:0:0:0:
256,192,236534,1,8,0:0:0:0:
256,192,236602,1,8,0:0:0:0:
256,192,236670,1,0,0:0:0:0:
256,192,236806,1,0,0:0:0:0:
256,192,236943,1,8,0:0:0:0:
256,192,237079,1,0,0:0:0:0:
256,192,237147,1,0,0:0:0:0:
256,192,237215,1,8,0:0:0:0:
256,192,237284,1,8,0:0:0:0:
256,192,237352,1,0,0:0:0:0:
256,192,237420,1,0,0:0:0:0:
256,192,237488,1,8,0:0:0:0:
256,192,237624,1,0,0:0:0:0:
256,192,237761,1,8,0:0:0:0:
256,192,237897,1,0,0:0:0:0:
256,192,237965,1,0,0:0:0:0:
256,192,238034,1,8,0:0:0:0:
256,192,238170,1,8,0:0:0:0:
256,192,238306,1,0,0:0:0:0:
256,192,238374,1,0,0:0:0:0:
256,192,238443,1,8,0:0:0:0:
256,192,238511,1,0,0:0:0:0:
256,192,238579,1,8,0:0:0:0:
256,192,238715,1,8,0:0:0:0:
256,192,238852,1,4,0:0:0:0:
256,192,239124,1,4,0:0:0:0:
256,192,239397,1,4,0:0:0:0:
256,192,239670,1,4,0:0:0:0:
256,192,239943,1,8,0:0:0:0:
256,192,240215,1,8,0:0:0:0:
256,192,240488,1,0,0:0:0:0:
256,192,240761,1,0,0:0:0:0:
256,192,241034,1,8,0:0:0:0:
256,192,241852,1,0,0:0:0:0:
256,192,242124,1,8,0:0:0:0:
256,192,242397,1,8,0:0:0:0:
256,192,242534,1,0,0:0:0:0:
256,192,242670,1,8,0:0:0:0:
256,192,242943,1,0,0:0:0:0:
256,192,243215,1,8,0:0:0:0:
256,192,244034,1,0,0:0:0:0:
256,192,244306,1,8,0:0:0:0:
256,192,244579,1,8,0:0:0:0:
256,192,244852,1,0,0:0:0:0:
256,192,245124,1,0,0:0:0:0:
256,192,245397,1,8,0:0:0:0:
256,192,246215,1,0,0:0:0:0:
256,192,246488,1,8,0:0:0:0:
256,192,246761,1,0,0:0:0:0:
256,192,247034,1,0,0:0:0:0:
256,192,247306,1,8,0:0:0:0:
256,192,247443,1,8,0:0:0:0:
256,192,247579,1,0,0:0:0:0:
256,192,248397,1,0,0:0:0:0:
256,192,248534,1,0,0:0:0:0:
256,192,248670,1,8,0:0:0:0:
256,192,248943,1,8,0:0:0:0:
256,192,249215,1,0,0:0:0:0:
256,192,249488,1,0,0:0:0:0:
256,192,249624,1,0,0:0:0:0:
256,192,249761,1,12,0:0:0:0:
256,192,250306,1,0,0:0:0:0:
256,192,250579,1,8,0:0:0:0:
256,192,250715,1,0,0:0:0:0:
256,192,250852,1,8,0:0:0:0:
256,192,251124,1,0,0:0:0:0:
256,192,251397,1,8,0:0:0:0:
256,192,251670,1,0,0:0:0:0:
256,192,251806,1,8,0:0:0:0:
256,192,251943,1,8,0:0:0:0:
256,192,252215,1,0,0:0:0:0:
256,192,252352,1,0,0:0:0:0:
256,192,252488,1,8,0:0:0:0:
256,192,252761,1,12,0:0:0:0:
256,192,253034,1,0,0:0:0:0:
256,192,253170,1,8,0:0:0:0:
256,192,253306,1,0,0:0:0:0:
256,192,253579,1,0,0:0:0:0:
256,192,253715,1,8,0:0:0:0:
256,192,253852,1,8,0:0:0:0:
256,192,253988,1,0,0:0:0:0:
256,192,254124,1,12,0:0:0:0:
256,192,254397,1,0,0:0:0:0:
256,192,254670,1,0,0:0:0:0:
256,192,254943,1,8,0:0:0:0:
256,192,255079,1,8,0:0:0:0:
256,192,255215,1,0,0:0:0:0:
256,192,255488,1,0,0:0:0:0:
256,192,255624,1,8,0:0:0:0:
256,192,255761,1,0,0:0:0:0:
256,192,255897,1,0,0:0:0:0:
256,192,255965,1,0,0:0:0:0:
256,192,256034,1,8,0:0:0:0:
256,192,256170,1,0,0:0:0:0:
256,192,256306,1,8,0:0:0:0:
256,192,256443,1,0,0:0:0:0:
256,192,256579,1,8,0:0:0:0:
256,192,256647,1,8,0:0:0:0:
256,192,256715,1,0,0:0:0:0:
256,192,256852,1,8,0:0:0:0:
256,192,256920,1,8,0:0:0:0:
256,192,256988,1,0,0:0:0:0:
256,192,257124,1,8,0:0:0:0:
256,192,257193,1,8,0:0:0:0:
256,192,257261,1,0,0:0:0:0:
256,192,257397,1,8,0:0:0:0:
256,192,257465,1,8,0:0:0:0:
256,192,257534,1,0,0:0:0:0:
256,192,257670,1,8,0:0:0:0:
256,192,257738,1,8,0:0:0:0:
256,192,257806,1,0,0:0:0:0:
256,192,257943,1,8,0:0:0:0:
256,192,258011,1,8,0:0:0:0:
256,192,258079,1,0,0:0:0:0:
256,192,258215,1,8,0:0:0:0:
256,192,258284,1,8,0:0:0:0:
256,192,258352,1,0,0:0:0:0:
256,192,258488,1,8,0:0:0:0:
256,192,258556,1,8,0:0:0:0:
256,192,258624,1,0,0:0:0:0:
256,192,258693,1,0,0:0:0:0:
256,192,258761,1,8,0:0:0:0:
256,192,258829,1,0,0:0:0:0:
256,192,258897,1,8,0:0:0:0:
256,192,258965,1,8,0:0:0:0:
256,192,259034,1,0,0:0:0:0:
256,192,259102,1,0,0:0:0:0:
256,192,259170,1,0,0:0:0:0:
256,192,259238,1,0,0:0:0:0:
256,192,259306,1,8,0:0:0:0:
256,192,259374,1,8,0:0:0:0:
256,192,259443,1,0,0:0:0:0:
256,192,259511,1,0,0:0:0:0:
256,192,259579,1,12,0:0:0:0:
256,192,259852,1,8,0:0:0:0:
256,192,260124,1,8,0:0:0:0:
256,192,260397,1,0,0:0:0:0:
256,192,260670,1,12,0:0:0:0:
256,192,260806,1,0,0:0:0:0:
256,192,260943,1,8,0:0:0:0:
256,192,261079,1,0,0:0:0:0:
256,192,261215,1,8,0:0:0:0:
256,192,261284,1,8,0:0:0:0:
256,192,261352,1,0,0:0:0:0:
256,192,261488,1,8,0:0:0:0:
256,192,261624,1,0,0:0:0:0:
256,192,261761,1,8,0:0:0:0:
256,192,261829,1,8,0:0:0:0:
256,192,261897,1,0,0:0:0:0:
256,192,261965,1,0,0:0:0:0:
256,192,262034,1,8,0:0:0:0:
256,192,262170,1,0,0:0:0:0:
256,192,262306,1,8,0:0:0:0:
256,192,262374,1,0,0:0:0:0:
256,192,262443,1,0,0:0:0:0:
256,192,262511,1,0,0:0:0:0:
256,192,262579,1,8,0:0:0:0:
256,192,262715,1,0,0:0:0:0:
256,192,262852,1,8,0:0:0:0:
256,192,262920,1,0,0:0:0:0:
256,192,262988,1,8,0:0:0:0:
256,192,263124,1,0,0:0:0:0:
256,192,263261,1,8,0:0:0:0:
256,192,263397,1,0,0:0:0:0:
256,192,263465,1,0,0:0:0:0:
256,192,263534,1,8,0:0:0:0:
256,192,263670,1,8,0:0:0:0:
256,192,263806,1,0,0:0:0:0:
256,192,263943,1,8,0:0:0:0:
256,192,264011,1,0,0:0:0:0:
256,192,264079,1,0,0:0:0:0:
256,192,264147,1,0,0:0:0:0:
256,192,264215,1,8,0:0:0:0:
256,192,264352,1,0,0:0:0:0:
256,192,264488,1,8,0:0:0:0:
256,192,264556,1,8,0:0:0:0:
256,192,264624,1,0,0:0:0:0:
256,192,264693,1,0,0:0:0:0:
256,192,264761,1,8,0:0:0:0:
256,192,264897,1,0,0:0:0:0:
256,192,265034,1,8,0:0:0:0:
256,192,265102,1,8,0:0:0:0:
256,192,265170,1,0,0:0:0:0:
256,192,265306,1,8,0:0:0:0:
256,192,265443,1,0,0:0:0:0:
256,192,265579,1,8,0:0:0:0:
256,192,265647,1,8,0:0:0:0:
256,192,265715,1,0,0:0:0:0:
256,192,265784,1,8,0:0:0:0:
256,192,265852,1,0,0:0:0:0:
256,192,265920,1,0,0:0:0:0:
256,192,265988,1,8,0:0:0:0:
256,192,266056,1,8,0:0:0:0:
256,192,266124,1,0,0:0:0:0:
256,192,266261,1,0,0:0:0:0:
256,192,266397,1,8,0:0:0:0:
256,192,266465,1,8,0:0:0:0:
256,192,266534,1,0,0:0:0:0:
256,192,266602,1,0,0:0:0:0:
256,192,266670,1,8,0:0:0:0:
256,192,266806,1,0,0:0:0:0:
256,192,266943,1,8,0:0:0:0:
256,192,267011,1,0,0:0:0:0:
256,192,267079,1,8,0:0:0:0:
256,192,267215,1,0,0:0:0:0:
256,192,267352,1,0,0:0:0:0:
256,192,267488,1,8,0:0:0:0:
256,192,267624,1,8,0:0:0:0:
256,192,267761,1,0,0:0:0:0:
256,192,267897,1,0,0:0:0:0:
256,192,268034,1,8,0:0:0:0:
256,192,268170,1,0,0:0:0:0:
256,192,268306,1,8,0:0:0:0:
256,192,268374,1,8,0:0:0:0:
256,192,268443,1,0,0:0:0:0:
256,192,268511,1,0,0:0:0:0:
256,192,268579,1,8,0:0:0:0:
256,192,268715,1,0,0:0:0:0:
256,192,268852,1,8,0:0:0:0:
256,192,268988,1,8,0:0:0:0:
256,192,269056,1,8,0:0:0:0:
256,192,269124,1,0,0:0:0:0:
256,192,269193,1,0,0:0:0:0:
256,192,269261,1,8,0:0:0:0:
256,192,269329,1,0,0:0:0:0:
256,192,269397,1,8,0:0:0:0:
256,192,269534,1,0,0:0:0:0:
256,192,269670,1,8,0:0:0:0:
256,192,269806,1,0,0:0:0:0:
256,192,269943,1,8,0:0:0:0:
256,192,270011,1,0,0:0:0:0:
256,192,270079,1,0,0:0:0:0:
256,192,270215,1,8,0:0:0:0:
256,192,270284,1,8,0:0:0:0:
256,192,270352,1,0,0:0:0:0:
256,192,270488,1,8,0:0:0:0:
256,192,270556,1,8,0:0:0:0:
256,192,270624,1,8,0:0:0:0:
256,192,270693,1,0,0:0:0:0:
256,192,270761,1,8,0:0:0:0:
256,192,270897,1,0,0:0:0:0:
256,192,271034,1,8,0:0:0:0:
256,192,271102,1,8,0:0:0:0:
256,192,271170,1,0,0:0:0:0:
256,192,271238,1,0,0:0:0:0:
256,192,271306,1,8,0:0:0:0:
256,192,271443,1,0,0:0:0:0:
256,192,271579,1,8,0:0:0:0:
256,192,271647,1,8,0:0:0:0:
256,192,271715,1,0,0:0:0:0:
256,192,271852,1,8,0:0:0:0:
256,192,271988,1,0,0:0:0:0:
256,192,272124,1,8,0:0:0:0:
256,192,272193,1,8,0:0:0:0:
256,192,272261,1,0,0:0:0:0:
256,192,272397,1,8,0:0:0:0:
256,192,272534,1,0,0:0:0:0:
256,192,272602,1,0,0:0:0:0:
256,192,272670,1,8,0:0:0:0:
256,192,272806,1,8,0:0:0:0:
256,192,272874,1,8,0:0:0:0:
256,192,272943,1,0,0:0:0:0:
256,192,273011,1,8,0:0:0:0:
256,192,273079,1,0,0:0:0:0:
256,192,273147,1,8,0:0:0:0:
256,192,273215,1,0,0:0:0:0:
256,192,273284,1,0,0:0:0:0:
256,192,273352,1,8,0:0:0:0:
256,192,273488,1,8,0:0:0:0:
256,192,273624,1,0,0:0:0:0:
256,192,273761,1,8,0:0:0:0:
256,192,273897,1,0,0:0:0:0:
256,192,274034,1,8,0:0:0:0:
256,192,274102,1,8,0:0:0:0:
256,192,274170,1,0,0:0:0:0:
256,192,274238,1,0,0:0:0:0:
256,192,274306,1,8,0:0:0:0:
256,192,274443,1,8,0:0:0:0:
256,192,274579,1,0,0:0:0:0:
256,192,274647,1,0,0:0:0:0:
256,192,274715,1,8,0:0:0:0:
256,192,274784,1,8,0:0:0:0:
256,192,274852,1,0,0:0:0:0:
256,192,274988,1,0,0:0:0:0:
256,192,275124,1,8,0:0:0:0:
256,192,275193,1,0,0:0:0:0:
256,192,275261,1,8,0:0:0:0:
256,192,275329,1,8,0:0:0:0:
256,192,275397,1,0,0:0:0:0:
256,192,275534,1,0,0:0:0:0:
256,192,275602,1,0,0:0:0:0:
256,192,275670,1,8,0:0:0:0:
256,192,275806,1,0,0:0:0:0:
256,192,275943,1,8,0:0:0:0:
256,192,276011,1,8,0:0:0:0:
256,192,276079,1,0,0:0:0:0:
256,192,276215,1,8,0:0:0:0:
256,192,276352,1,0,0:0:0:0:
256,192,276488,1,8,0:0:0:0:
256,192,276556,1,8,0:0:0:0:
256,192,276624,1,8,0:0:0:0:
256,192,276761,1,0,0:0:0:0:
256,192,276897,1,8,0:0:0:0:
256,192,277034,1,0,0:0:0:0:
256,192,277102,1,0,0:0:0:0:
256,192,277170,1,8,0:0:0:0:
256,192,277238,1,8,0:0:0:0:
256,192,277306,1,0,0:0:0:0:
256,192,277443,1,0,0:0:0:0:
256,192,277579,1,8,0:0:0:0:
256,192,277647,1,0,0:0:0:0:
256,192,277715,1,8,0:0:0:0:
256,192,277784,1,0,0:0:0:0:
256,192,277852,1,8,0:0:0:0:
256,192,277920,1,8,0:0:0:0:
256,192,277988,1,8,0:0:0:0:
256,192,278056,1,8,0:0:0:0:
256,192,278124,1,0,0:0:0:0:
256,192,278261,1,0,0:0:0:0:
256,192,278397,1,8,0:0:0:0:
256,192,278534,1,8,0:0:0:0:
256,192,278602,1,8,0:0:0:0:
256,192,278670,1,0,0:0:0:0:
256,192,278806,1,0,0:0:0:0:
256,192,278943,1,8,0:0:0:0:
256,192,279011,1,8,0:0:0:0:
256,192,279079,1,0,0:0:0:0:
256,192,279215,1,0,0:0:0:0:
256,192,279284,1,0,0:0:0:0:
256,192,279352,1,8,0:0:0:0:
256,192,279420,1,0,0:0:0:0:
256,192,279488,1,8,0:0:0:0:
256,192,279624,1,0,0:0:0:0:
256,192,279761,1,0,0:0:0:0:
256,192,279897,1,8,0:0:0:0:
256,192,279965,1,8,0:0:0:0:
256,192,280034,1,0,0:0:0:0:
256,192,280102,1,8,0:0:0:0:
256,192,280170,1,0,0:0:0:0:
256,192,280306,1,0,0:0:0:0:
256,192,280374,1,8,0:0:0:0:
256,192,280443,1,0,0:0:0:0:
256,192,280511,1,0,0:0:0:0:
256,192,280579,1,8,0:0:0:0:
256,192,280715,1,8,0:0:0:0:
256,192,280784,1,8,0:0:0:0:
256,192,280852,1,0,0:0:0:0:
256,192,280988,1,0,0:0:0:0:
256,192,281124,1,8,0:0:0:0:
256,192,281193,1,8,0:0:0:0:
256,192,281261,1,0,0:0:0:0:
256,192,281397,1,8,0:0:0:0:
256,192,281465,1,8,0:0:0:0:
256,192,281534,1,0,0:0:0:0:
256,192,281602,1,0,0:0:0:0:
256,192,281670,1,8,0:0:0:0:
256,192,281806,1,8,0:0:0:0:
256,192,281943,1,0,0:0:0:0:
256,192,282079,1,0,0:0:0:0:
256,192,282215,1,8,0:0:0:0:
256,192,282352,1,0,0:0:0:0:
256,192,282488,1,8,0:0:0:0:
256,192,282556,1,8,0:0:0:0:
256,192,282624,1,0,0:0:0:0:
256,192,282761,1,8,0:0:0:0:
256,192,282897,1,0,0:0:0:0:
256,192,282965,1,0,0:0:0:0:
256,192,283034,1,8,0:0:0:0:
256,192,283170,1,0,0:0:0:0:
256,192,283306,1,0,0:0:0:0:
256,192,283374,1,8,0:0:0:0:
256,192,283443,1,0,0:0:0:0:
256,192,283511,1,0,0:0:0:0:
256,192,283579,1,8,0:0:0:0:
256,192,283647,1,8,0:0:0:0:
256,192,283715,1,0,0:0:0:0:
256,192,283784,1,0,0:0:0:0:
256,192,283852,1,8,0:0:0:0:
256,192,283988,1,0,0:0:0:0:
256,192,284124,1,8,0:0:0:0:
256,192,284261,1,8,0:0:0:0:
256,192,284397,1,0,0:0:0:0:
256,192,284465,1,8,0:0:0:0:
256,192,284534,1,0,0:0:0:0:
256,192,284602,1,0,0:0:0:0:
256,192,284670,1,8,0:0:0:0:
256,192,284738,1,8,0:0:0:0:
256,192,284806,1,0,0:0:0:0:
256,192,284874,1,0,0:0:0:0:
256,192,284943,1,8,0:0:0:0:
256,192,285079,1,0,0:0:0:0:
256,192,285215,1,8,0:0:0:0:
256,192,285284,1,8,0:0:0:0:
256,192,285352,1,0,0:0:0:0:
256,192,285488,1,8,0:0:0:0:
256,192,285556,1,8,0:0:0:0:
256,192,285624,1,0,0:0:0:0:
256,192,285693,1,8,0:0:0:0:
256,192,285761,1,0,0:0:0:0:
256,192,285897,1,8,0:0:0:0:
256,192,286034,1,0,0:0:0:0:
256,192,286102,1,0,0:0:0:0:
256,192,286170,1,8,0:0:0:0:
256,192,286238,1,8,0:0:0:0:
256,192,286306,1,0,0:0:0:0:
256,192,286374,1,0,0:0:0:0:
256,192,286443,1,0,0:0:0:0:
256,192,286511,1,0,0:0:0:0:
256,192,286579,1,8,0:0:0:0:
256,192,286647,1,8,0:0:0:0:
256,192,286715,1,8,0:0:0:0:
256,192,286784,1,8,0:0:0:0:
256,192,286852,1,0,0:0:0:0:
256,192,286988,1,0,0:0:0:0:
256,192,287124,1,8,0:0:0:0:
256,192,287261,1,8,0:0:0:0:
256,192,287329,1,8,0:0:0:0:
256,192,287397,1,0,0:0:0:0:
256,192,287534,1,0,0:0:0:0:
256,192,287670,1,8,0:0:0:0:
256,192,287738,1,8,0:0:0:0:
256,192,287806,1,0,0:0:0:0:
256,192,287943,1,0,0:0:0:0:
256,192,288011,1,8,0:0:0:0:
256,192,288079,1,0,0:0:0:0:
256,192,288215,1,8,0:0:0:0:
256,192,288352,1,0,0:0:0:0:
256,192,288488,1,8,0:0:0:0:
256,192,288556,1,8,0:0:0:0:
256,192,288624,1,0,0:0:0:0:
256,192,288761,1,8,0:0:0:0:
256,192,288897,1,8,0:0:0:0:
256,192,289034,1,0,0:0:0:0:
256,192,289102,1,8,0:0:0:0:
256,192,289170,1,0,0:0:0:0:
256,192,289306,1,8,0:0:0:0:
256,192,289443,1,0,0:0:0:0:
256,192,289579,1,0,0:0:0:0:
256,192,289647,1,0,0:0:0:0:
256,192,289715,1,8,0:0:0:0:
256,192,289852,1,8,0:0:0:0:
256,192,289920,1,8,0:0:0:0:
256,192,289988,1,0,0:0:0:0:
256,192,290056,1,0,0:0:0:0:
256,192,290124,1,8,0:0:0:0:
256,192,290261,1,8,0:0:0:0:
256,192,290397,1,0,0:0:0:0:
256,192,290465,1,0,0:0:0:0:
256,192,290534,1,8,0:0:0:0:
256,192,290602,1,8,0:0:0:0:
256,192,290670,1,0,0:0:0:0:
256,192,290806,1,0,0:0:0:0:
256,192,290943,1,8,0:0:0:0:
256,192,291011,1,0,0:0:0:0:
256,192,291079,1,0,0:0:0:0:
256,192,291147,1,0,0:0:0:0:
256,192,291215,1,8,0:0:0:0:
256,192,291352,1,0,0:0:0:0:
256,192,291488,1,8,0:0:0:0:
256,192,291624,1,0,0:0:0:0:
256,192,291761,1,8,0:0:0:0:
256,192,291829,1,8,0:0:0:0:
256,192,291897,1,8,0:0:0:0:
256,192,292034,1,0,0:0:0:0:
256,192,292170,1,0,0:0:0:0:
256,192,292238,1,0,0:0:0:0:
256,192,292306,1,8,0:0:0:0:
256,192,292374,1,8,0:0:0:0:
256,192,292443,1,0,0:0:0:0:
256,192,292579,1,0,0:0:0:0:
256,192,292715,1,8,0:0:0:0:
256,192,292852,1,8,0:0:0:0:
256,192,292943,1,0,0:0:0:0:
256,192,293034,1,8,0:0:0:0:
256,192,293124,1,8,0:0:0:0:
256,192,293215,1,0,0:0:0:0:
256,192,293306,1,0,0:0:0:0:
256,192,293397,1,12,0:0:0:0:
256,192,293534,1,0,0:0:0:0:
256,192,293670,1,0,0:0:0:0:
256,192,293806,1,8,0:0:0:0:
256,192,293874,1,8,0:0:0:0:
256,192,293943,1,0,0:0:0:0:
256,192,294079,1,8,0:0:0:0:
256,192,294215,1,8,0:0:0:0:
256,192,294284,1,8,0:0:0:0:
256,192,294352,1,0,0:0:0:0:
256,192,294488,1,0,0:0:0:0:
256,192,294624,1,8,0:0:0:0:
256,192,294693,1,8,0:0:0:0:
256,192,294761,1,0,0:0:0:0:
256,192,294897,1,0,0:0:0:0:
256,192,295034,1,8,0:0:0:0:
256,192,295102,1,0,0:0:0:0:
256,192,295170,1,0,0:0:0:0:
256,192,295238,1,0,0:0:0:0:
256,192,295306,1,8,0:0:0:0:
256,192,295443,1,0,0:0:0:0:
256,192,295579,1,8,0:0:0:0:
256,192,295647,1,8,0:0:0:0:
256,192,295715,1,0,0:0:0:0:
256,192,295852,1,0,0:0:0:0:
256,192,295988,1,8,0:0:0:0:
256,192,296056,1,8,0:0:0:0:
256,192,296124,1,0,0:0:0:0:
256,192,296261,1,0,0:0:0:0:
256,192,296397,1,8,0:0:0:0:
256,192,296465,1,0,0:0:0:0:
256,192,296534,1,8,0:0:0:0:
256,192,296670,1,0,0:0:0:0:
256,192,296806,1,8,0:0:0:0:
256,192,296874,1,0,0:0:0:0:
256,192,296943,1,8,0:0:0:0:
256,192,297079,1,0,0:0:0:0:
256,192,297215,1,8,0:0:0:0:
256,192,297284,1,8,0:0:0:0:
256,192,297352,1,8,0:0:0:0:
256,192,297420,1,8,0:0:0:0:
256,192,297488,1,0,0:0:0:0:
256,192,297556,1,0,0:0:0:0:
256,192,297624,1,0,0:0:0:0:
256,192,297693,1,0,0:0:0:0:
256,192,297761,1,8,0:0:0:0:
256,192,297829,1,8,0:0:0:0:
256,192,297897,1,0,0:0:0:0:
256,192,298034,1,0,0:0:0:0:
256,192,298170,1,8,0:0:0:0:
256,192,298238,1,8,0:0:0:0:
256,192,298306,1,0,0:0:0:0:
256,192,298443,1,0,0:0:0:0:
256,192,298579,1,8,0:0:0:0:
256,192,298647,1,8,0:0:0:0:
256,192,298715,1,0,0:0:0:0:
256,192,298852,1,0,0:0:0:0:
256,192,298988,1,8,0:0:0:0:
256,192,299056,1,8,0:0:0:0:
256,192,299124,1,0,0:0:0:0:
256,192,299261,1,0,0:0:0:0:
256,192,299329,1,0,0:0:0:0:
256,192,299397,1,8,0:0:0:0:
256,192,299534,1,0,0:0:0:0:
256,192,299602,1,0,0:0:0:0:
256,192,299670,1,8,0:0:0:0:
256,192,299806,1,0,0:0:0:0:
256,192,299943,1,8,0:0:0:0:
256,192,300011,1,8,0:0:0:0:
256,192,300079,1,0,0:0:0:0:
256,192,300215,1,8,0:0:0:0:
256,192,300284,1,0,0:0:0:0:
256,192,300352,1,8,0:0:0:0:
256,192,300488,1,0,0:0:0:0:
256,192,300624,1,8,0:0:0:0:
256,192,300693,1,0,0:0:0:0:
256,192,300761,1,8,0:0:0:0:
256,192,300897,1,0,0:0:0:0:
256,192,300965,1,0,0:0:0:0:
256,192,301034,1,8,0:0:0:0:
256,192,301170,1,8,0:0:0:0:
256,192,301306,1,0,0:0:0:0:
256,192,301374,1,8,0:0:0:0:
256,192,301443,1,0,0:0:0:0:
256,192,301579,1,12,0:0:0:0:
256,192,301852,1,12,0:0:0:0:
256,192,302124,1,4,0:0:0:0:
256,192,302261,1,4,0:0:0:0:
256,192,302397,1,4,0:0:0:0:
256,192,302670,1,4,0:0:0:0:
256,192,302806,1,4,0:0:0:0:
256,192,302943,1,4,0:0:0:0:
