osu file format v14

[General]
AudioFilename: audio.mp3
AudioLeadIn: 0
PreviewTime: 146461
Countdown: 0
SampleSet: Soft
StackLeniency: 0.7
Mode: 3
LetterboxInBreaks: 0
SpecialStyle: 0
WidescreenStoryboard: 0

[Editor]
DistanceSpacing: 0.9
BeatDivisor: 4
GridSize: 32
TimelineZoom: 1.7

[Metadata]
Title:GR4VITY G4ME
TitleUnicode:GR4VITY G4ME
Artist:WAGAMAMA RAKIA
ArtistUnicode:我儘ラキア
Creator:Mirsaaa
Version:NORM4L // DOBSONIAN
Source:
Tags:japanese rock jrock j-rock gravity game 岸和田一樹 星熊 南巫 川﨑 怜奈 海羽 凜 Hoshikuma Minami Kaine Rin Kawasaki Layna Kazuki Kishiwada miri onyx L エル ワガママラキア Darkebluu ainer
BeatmapID:3954946
BeatmapSetID:1916684

[Difficulty]
HPDrainRate:7
CircleSize:4
OverallDifficulty:7.5
ApproachRate:5
SliderMultiplier:1.4
SliderTickRate:1

[Events]
//Background and Video events
0,0,"BEGEH.jpg",0,0
//Break Periods
//Storyboard Layer 0 (Background)
//Storyboard Layer 1 (Fail)
//Storyboard Layer 2 (Pass)
//Storyboard Layer 3 (Foreground)
//Storyboard Layer 4 (Overlay)
//Storyboard Sound Samples
Sample,14011,0,"Tom3.wav",40
Sample,18961,0,"Tom3.wav",40
Sample,20161,0,"Hat open.wav",40
Sample,21811,0,"soft-hitfinish.wav",20
Sample,22111,0,"soft-hitfinish.wav",20
Sample,22411,0,"soft-hitfinish.wav",20
Sample,22711,0,"soft-hitfinish.wav",20
Sample,23011,0,"soft-hitfinish.wav",20
Sample,23311,0,"soft-hitfinish.wav",20
Sample,23611,0,"soft-hitfinish.wav",20
Sample,23911,0,"soft-hitfinish.wav",20
Sample,24211,0,"soft-hitfinish.wav",20
Sample,24511,0,"soft-hitfinish.wav",20
Sample,24811,0,"soft-hitfinish.wav",20
Sample,25111,0,"soft-hitfinish.wav",20
Sample,25411,0,"soft-hitfinish.wav",20
Sample,25711,0,"soft-hitfinish.wav",20
Sample,26611,0,"soft-hitfinish.wav",20
Sample,26911,0,"soft-hitfinish.wav",20
Sample,27211,0,"soft-hitfinish.wav",20
Sample,27511,0,"soft-hitfinish.wav",20
Sample,27811,0,"soft-hitfinish.wav",20
Sample,28111,0,"soft-hitfinish.wav",20
Sample,28411,0,"soft-hitfinish.wav",20
Sample,29011,0,"soft-hitfinish.wav",20
Sample,29311,0,"soft-hitfinish.wav",20
Sample,29761,0,"Hat open.wav",40
Sample,30661,0,"Tom1.wav",40
Sample,30811,0,"Tom1.wav",40
Sample,30961,0,"Tom1.wav",40
Sample,38461,0,"Tom2.wav",40
Sample,39061,0,"Hat open.wav",40
Sample,41311,0,"Hat open.wav",40
Sample,41911,0,"Hat open.wav",40
Sample,43711,0,"Hat open.wav",40
Sample,44311,0,"Hat open.wav",40
Sample,60511,0,"Hat open.wav",40
Sample,61711,0,"Hat open.wav",40
Sample,62911,0,"Hat open.wav",40
Sample,65311,0,"Hat open.wav",40
Sample,70111,0,"Hat open.wav",40
Sample,71311,0,"Hat open.wav",40
Sample,72511,0,"Hat open.wav",40
Sample,73111,0,"Hat open.wav",40
Sample,78211,0,"Hat open.wav",40
Sample,80611,0,"soft-hitfinish.wav",20
Sample,80911,0,"soft-hitfinish.wav",20
Sample,81211,0,"soft-hitfinish.wav",20
Sample,81511,0,"soft-hitfinish.wav",20
Sample,81811,0,"soft-hitfinish.wav",20
Sample,82111,0,"soft-hitfinish.wav",20
Sample,82411,0,"soft-hitfinish.wav",20
Sample,82711,0,"soft-hitfinish.wav",20
Sample,83011,0,"soft-hitfinish.wav",20
Sample,83311,0,"soft-hitfinish.wav",20
Sample,83611,0,"soft-hitfinish.wav",20
Sample,83911,0,"soft-hitfinish.wav",20
Sample,84211,0,"soft-hitfinish.wav",20
Sample,84511,0,"soft-hitfinish.wav",20
Sample,85411,0,"soft-hitfinish.wav",20
Sample,85711,0,"soft-hitfinish.wav",20
Sample,86011,0,"soft-hitfinish.wav",20
Sample,86311,0,"soft-hitfinish.wav",20
Sample,86611,0,"soft-hitfinish.wav",20
Sample,86911,0,"soft-hitfinish.wav",20
Sample,87211,0,"soft-hitfinish.wav",20
Sample,88561,0,"Tom3.wav",40
Sample,100111,0,"Hat open.wav",40
Sample,100711,0,"Hat open.wav",40
Sample,101311,0,"Hat open.wav",40
Sample,102511,0,"Hat open.wav",40
Sample,103111,0,"Hat open.wav",40
Sample,107911,0,"Hat open.wav",40
Sample,108111,0,"Hat open.wav",40
Sample,108311,0,"Hat open.wav",40
Sample,108511,0,"Hat open.wav",40
Sample,108711,0,"Hat open.wav",40
Sample,108911,0,"Hat open.wav",40
Sample,111361,0,"Snare.wav",30
Sample,112561,0,"Snare.wav",30
Sample,112711,0,"Snare.wav",30
Sample,113761,0,"Snare.wav",30
Sample,118261,0,"Snare.wav",30
Sample,139111,0,"Hat open.wav",40
Sample,146011,0,"Hat open.wav",40
Sample,146161,0,"Hat open.wav",40
Sample,148111,0,"Hat open.wav",40
Sample,149311,0,"Hat open.wav",40
Sample,150511,0,"Hat open.wav",40
Sample,152911,0,"Hat open.wav",40
Sample,157711,0,"Hat open.wav",40
Sample,158911,0,"Hat open.wav",40
Sample,160111,0,"Hat open.wav",40
Sample,160711,0,"Hat open.wav",40
Sample,162511,0,"Hat open.wav",40
Sample,163111,0,"Hat open.wav",40
Sample,164911,0,"Hat open.wav",40
Sample,198811,0,"Hat open.wav",40
Sample,203311,0,"Hat open.wav",40
Sample,204511,0,"Hat open.wav",40
Sample,205711,0,"Hat open.wav",40
Sample,218911,0,"Hat open.wav",40
Sample,222211,0,"Hat open.wav",40
Sample,222511,0,"Hat open.wav",40
Sample,224611,0,"Hat open.wav",40
Sample,224911,0,"Hat open.wav",40
Sample,228211,0,"Hat open.wav",40

[TimingPoints]
1111,300,4,2,1,40,1,0
59761,-100,4,2,1,40,0,1
79111,-100,4,2,1,40,0,0
147361,-100,4,2,1,40,0,1
166711,-100,4,2,1,40,0,0
197761,-100,4,2,1,40,0,1
207511,-100,4,2,1,40,0,0

[HitObjects]
448,192,1111,1,0,0:0:0:0:
64,192,2311,1,6,0:0:0:0:
192,192,2311,1,0,0:0:0:40:AWP.wav
320,192,2911,1,0,0:0:0:30:Snare.wav
64,192,3361,1,0,0:0:0:30:Snare.wav
448,192,3811,1,2,0:0:0:0:
192,192,4111,1,0,0:0:0:30:Snare.wav
320,192,4711,1,2,0:0:0:0:
64,192,5311,1,0,0:0:0:30:Snare.wav
448,192,5761,1,0,0:0:0:30:Snare.wav
192,192,6211,1,2,0:0:0:0:
320,192,6511,1,0,0:0:0:30:Snare.wav
64,192,6661,1,2,0:0:0:0:
448,192,7111,1,2,0:0:0:0:
192,192,7711,1,0,0:0:0:30:Snare.wav
320,192,8161,1,0,0:0:0:30:Snare.wav
64,192,8611,1,2,0:0:0:0:
448,192,8911,1,0,0:0:0:30:Snare.wav
192,192,9511,1,2,0:0:0:0:
320,192,10111,1,0,0:0:0:30:Snare.wav
448,192,10561,1,0,0:0:0:30:Snare.wav
64,192,11011,1,2,0:0:0:0:
320,192,11311,1,0,0:0:0:30:Snare.wav
192,192,11461,128,2,11911:0:0:0:0:
320,192,11911,1,4,0:0:0:0:
448,192,11911,1,2,0:0:0:0:
448,192,12211,1,2,0:0:0:0:
64,192,12511,1,2,0:0:0:0:
64,192,12811,1,2,0:0:0:0:
320,192,12961,1,8,0:0:0:0:
448,192,12961,1,0,0:0:0:0:
192,192,13111,1,2,0:0:0:0:
448,192,13411,1,2,0:0:0:0:
64,192,13561,1,0,0:0:0:40:Tom1.wav
320,192,13711,1,2,0:0:0:0:
192,192,13861,1,0,0:0:0:40:Tom2.wav
64,192,14011,1,2,0:0:0:0:
448,192,14161,1,0,0:0:0:40:Tom3.wav
192,192,14311,1,2,0:0:0:0:
320,192,14311,1,4,0:0:0:0:
192,192,14611,1,2,0:0:0:0:
448,192,14911,1,2,0:0:0:0:
64,192,15061,1,8,0:0:0:0:
192,192,15061,1,4,0:0:0:0:
320,192,15211,1,2,0:0:0:0:
320,192,15511,1,2,0:0:0:0:
192,192,15661,1,8,0:0:0:0:
192,192,15811,1,8,0:0:0:0:
448,192,15961,1,2,0:0:0:0:
64,192,16111,1,8,0:0:0:0:
320,192,16111,1,0,0:0:0:0:
448,192,16261,1,2,0:0:0:0:
64,192,16411,1,8,0:0:0:0:
192,192,16411,1,4,0:0:0:0:
320,192,16711,1,8,0:0:0:0:
448,192,16711,1,4,0:0:0:0:
64,192,16861,1,2,0:0:0:0:
64,192,17011,1,2,0:0:0:0:
320,192,17161,1,8,0:0:0:0:
448,192,17161,1,4,0:0:0:0:
192,192,17311,1,2,0:0:0:0:
192,192,17461,1,2,0:0:0:0:
64,192,17611,1,8,0:0:0:0:
448,192,17611,1,4,0:0:0:0:
64,192,17911,1,8,0:0:0:0:
192,192,17911,1,4,0:0:0:0:
320,192,18061,1,2,0:0:0:0:
320,192,18211,1,2,0:0:0:0:
64,192,18361,1,8,0:0:0:0:
192,192,18361,1,4,0:0:0:0:
448,192,18511,1,2,0:0:0:0:
448,192,18661,1,2,0:0:0:0:
64,192,18811,1,8,0:0:0:0:
320,192,18811,1,0,0:0:0:0:
192,192,18961,1,2,0:0:0:0:
320,192,19111,1,8,0:0:0:0:
448,192,19111,1,4,0:0:0:0:
64,192,19411,1,2,0:0:0:0:
320,192,19711,1,10,0:0:0:0:
320,192,19861,1,10,0:0:0:0:
192,192,20011,1,10,0:0:0:0:
192,192,20161,1,10,0:0:0:0:
192,192,21211,1,2,0:0:0:0:
320,192,21211,1,0,0:0:0:60:Tom1.wav
320,192,21511,1,2,0:0:0:0:
448,192,21511,128,0,22711:0:0:0:20:soft-hitfinish.wav
64,192,21811,1,10,0:0:0:0:
320,192,22111,1,2,0:0:0:0:
64,192,22411,1,10,0:0:0:0:
192,192,22711,128,2,23911:0:0:0:0:
448,192,23011,1,10,0:0:0:0:
64,192,23311,1,2,0:0:0:0:
448,192,23611,1,10,0:0:0:0:
320,192,23911,128,2,25111:0:0:0:0:
192,192,24211,1,10,0:0:0:0:
448,192,24511,1,2,0:0:0:0:
192,192,24811,1,10,0:0:0:0:
64,192,25111,128,2,26011:0:0:0:0:
320,192,25411,1,10,0:0:0:0:
192,192,25711,1,2,0:0:0:0:
320,192,26011,1,10,0:0:0:0:
192,192,26161,1,8,0:0:0:0:
64,192,26311,1,2,0:0:0:0:
448,192,26311,128,4,27511:0:0:0:0:
320,192,26611,1,10,0:0:0:0:
64,192,26911,1,2,0:0:0:0:
320,192,27211,1,10,0:0:0:0:
64,192,27511,128,2,28711:0:0:0:0:
448,192,27811,1,10,0:0:0:0:
192,192,28111,1,2,0:0:0:0:
448,192,28411,1,10,0:0:0:0:
320,192,28711,1,2,0:0:0:0:
192,192,28861,1,8,0:0:0:0:
192,192,29011,1,8,0:0:0:0:
448,192,29161,1,2,0:0:0:0:
64,192,29311,1,8,0:0:0:0:
320,192,29461,1,2,0:0:0:0:
192,192,29611,1,8,0:0:0:0:
448,192,29611,1,0,0:0:0:20:soft-hitfinish.wav
64,192,29761,1,2,0:0:0:0:
448,192,30061,1,8,0:0:0:0:
448,192,30211,1,8,0:0:0:0:
192,192,30361,1,2,0:0:0:0:
64,192,30511,1,8,0:0:0:0:
320,192,30511,1,0,0:0:0:40:Hat open.wav
448,192,30661,1,2,0:0:0:0:
192,192,30811,1,2,0:0:0:0:
320,192,30961,1,2,0:0:0:0:
64,192,31111,128,2,31561:0:0:0:0:
448,192,31111,1,4,0:0:0:0:
320,192,31561,128,2,32311:0:0:0:0:
192,192,32311,128,0,32761:0:0:0:0:
448,192,32761,128,0,33511:0:0:0:0:
320,192,33511,128,2,33961:0:0:0:0:
64,192,33961,128,2,34711:0:0:0:0:
192,192,34711,128,0,35161:0:0:0:0:
448,192,35161,128,0,35911:0:0:0:0:
64,192,35911,128,2,36361:0:0:0:0:
320,192,36361,128,2,37111:0:0:0:0:
448,192,37111,128,2,37561:0:0:0:0:
192,192,37561,128,2,38311:0:0:0:0:
448,192,38311,1,0,0:0:0:40:Tom1.wav
320,192,38461,1,2,0:0:0:0:
64,192,38611,1,8,0:0:0:0:
448,192,38761,1,2,0:0:0:0:
64,192,38911,1,8,0:0:0:0:
448,192,39061,1,2,0:0:0:0:
64,192,39211,1,8,0:0:0:0:
320,192,39361,1,2,0:0:0:0:
448,192,39361,1,0,0:0:0:40:Hat open.wav
64,192,40111,1,2,0:0:0:0:
448,192,40111,1,8,0:0:0:0:
192,192,40261,1,8,0:0:0:0:
320,192,40411,1,8,0:0:0:0:
448,192,40411,1,0,0:0:0:0:
64,192,40561,1,8,0:0:0:0:
192,192,40711,1,4,0:0:0:0:
448,192,40711,1,2,0:0:0:0:
320,192,40861,1,2,0:0:0:0:
64,192,41011,1,8,0:0:0:0:
192,192,41011,1,0,0:0:0:40:Hat open.wav
448,192,41311,1,2,0:0:0:0:
64,192,41461,1,2,0:0:0:0:
192,192,41611,1,8,0:0:0:0:
320,192,41611,1,0,0:0:0:40:Hat open.wav
64,192,41911,1,2,0:0:0:0:
448,192,42061,1,2,0:0:0:0:
192,192,42211,1,8,0:0:0:0:
320,192,42211,1,0,0:0:0:40:Hat open.wav
64,192,42361,1,2,0:0:0:0:
320,192,42661,1,2,0:0:0:0:
192,192,42811,1,8,0:0:0:0:
448,192,42811,1,0,0:0:0:40:Hat open.wav
64,192,43111,1,4,0:0:0:0:
320,192,43111,1,2,0:0:0:0:
192,192,43261,1,2,0:0:0:0:
320,192,43411,1,8,0:0:0:0:
448,192,43411,1,0,0:0:0:40:Hat open.wav
64,192,43711,1,2,0:0:0:0:
320,192,43861,1,2,0:0:0:0:
192,192,44011,1,8,0:0:0:0:
448,192,44011,1,0,0:0:0:40:Hat open.wav
448,192,44311,1,2,0:0:0:0:
192,192,44461,1,2,0:0:0:0:
64,192,44611,1,8,0:0:0:0:
320,192,44611,1,0,0:0:0:40:Hat open.wav
320,192,44911,1,8,0:0:0:0:
448,192,44911,1,0,0:0:0:0:
64,192,45061,1,0,0:0:0:40:Tom1.wav
192,192,45211,1,8,0:0:0:0:
320,192,45211,1,0,0:0:0:0:
448,192,45361,1,8,0:0:0:0:
64,192,45511,1,0,0:0:0:0:
320,192,45811,1,6,0:0:0:0:
448,192,45811,1,8,0:0:0:0:
192,192,46111,1,2,0:0:0:0:
320,192,46261,1,2,0:0:0:0:
64,192,46411,1,8,0:0:0:0:
448,192,46411,1,0,0:0:0:0:
320,192,46711,1,2,0:0:0:0:
192,192,46861,1,2,0:0:0:0:
64,192,47011,1,8,0:0:0:0:
448,192,47011,1,0,0:0:0:0:
320,192,47161,1,2,0:0:0:0:
64,192,47461,1,2,0:0:0:0:
320,192,47611,1,8,0:0:0:0:
448,192,47611,1,0,0:0:0:0:
192,192,47761,1,8,0:0:0:0:
64,192,47911,1,2,0:0:0:0:
320,192,47911,1,4,0:0:0:0:
448,192,48061,1,2,0:0:0:0:
64,192,48211,1,8,0:0:0:0:
192,192,48211,1,0,0:0:0:40:Hat open.wav
320,192,48511,1,8,0:0:0:0:
448,192,48511,1,0,0:0:0:40:Hat open.wav
64,192,48811,1,8,0:0:0:0:
192,192,48811,1,0,0:0:0:40:Hat open.wav
320,192,48961,1,2,0:0:0:0:
64,192,49111,1,8,0:0:0:0:
448,192,49111,1,0,0:0:0:0:
192,192,49261,1,2,0:0:0:0:
320,192,49261,1,4,0:0:0:0:
448,192,49561,1,0,0:0:0:40:Tom1.wav
64,192,49711,1,4,0:0:0:0:
192,192,49711,1,2,0:0:0:0:
320,192,49861,1,8,0:0:0:0:
64,192,50011,1,8,0:0:0:0:
320,192,50161,1,8,0:0:0:0:
192,192,50311,1,2,0:0:0:0:
448,192,50311,1,4,0:0:0:0:
64,192,50461,128,2,50761:0:0:0:0:
320,192,50461,1,4,0:0:0:0:
192,192,50761,1,2,0:0:0:0:
320,192,50911,1,4,0:0:0:0:
448,192,50911,128,8,51211:0:0:0:0:
64,192,51211,1,2,0:0:0:0:
320,192,51361,1,2,0:0:0:0:
192,192,51661,1,2,0:0:0:0:
448,192,51811,1,2,0:0:0:0:
192,192,51961,1,2,0:0:0:0:
320,192,52111,1,8,0:0:0:0:
320,192,52261,1,10,0:0:0:0:
64,192,52411,1,10,0:0:0:0:
64,192,52561,1,10,0:0:0:0:
448,192,52711,1,2,0:0:0:0:
192,192,52861,128,2,53161:0:0:0:0:
320,192,53161,1,2,0:0:0:0:
64,192,53311,1,8,0:0:0:0:
448,192,53311,1,0,0:0:0:0:
192,192,53461,1,2,0:0:0:0:
320,192,53761,128,2,54061:0:0:0:0:
64,192,54061,1,2,0:0:0:0:
192,192,54211,1,2,0:0:0:0:
448,192,54361,1,2,0:0:0:0:
64,192,54511,1,8,0:0:0:0:
320,192,54511,1,0,0:0:0:0:
192,192,54661,1,2,0:0:0:0:
320,192,54811,1,8,0:0:0:0:
448,192,54811,1,0,0:0:0:0:
192,192,54961,1,2,0:0:0:0:
64,192,55111,128,8,55411:0:0:0:0:
320,192,55111,1,4,0:0:0:0:
448,192,55411,1,2,0:0:0:0:
192,192,55561,1,8,0:0:0:0:
320,192,55561,128,4,55861:0:0:0:0:
64,192,55861,1,2,0:0:0:0:
192,192,56011,1,8,0:0:0:0:
448,192,56011,128,4,56311:0:0:0:0:
320,192,56311,1,2,0:0:0:0:
64,192,56461,128,8,56761:0:0:0:0:
192,192,56461,1,4,0:0:0:0:
320,192,56761,1,2,0:0:0:0:
192,192,56911,1,8,0:0:0:0:
448,192,56911,1,0,0:0:0:0:
64,192,57061,1,0,0:0:0:40:Tom1.wav
320,192,57211,1,0,0:0:0:40:Tom2.wav
448,192,57211,1,0,0:0:0:0:
192,192,57361,1,0,0:0:0:40:Tom3.wav
64,192,57511,1,0,0:0:0:40:Tom3.wav
320,192,57661,1,0,0:0:0:0:
192,192,57811,1,0,0:0:0:0:
448,192,57961,1,0,0:0:0:0:
64,192,58111,1,0,0:0:0:0:
192,192,58261,1,0,0:0:0:0:
320,192,58411,1,0,0:0:0:0:
64,192,58561,1,2,0:0:0:0:
448,192,58561,1,0,0:0:0:40:Hat open.wav
320,192,59761,1,2,0:0:0:0:
448,192,59761,128,4,60061:0:0:0:0:
192,192,60061,1,2,0:0:0:0:
64,192,60211,128,8,60511:0:0:0:0:
320,192,60211,1,0,0:0:0:40:Hat open.wav
448,192,60511,1,2,0:0:0:0:
192,192,60661,1,2,0:0:0:0:
64,192,60811,1,8,0:0:0:0:
320,192,60811,1,0,0:0:0:40:Hat open.wav
448,192,60961,128,2,61261:0:0:0:0:
192,192,61261,1,2,0:0:0:0:
64,192,61411,1,8,0:0:0:0:
320,192,61411,128,0,61711:0:0:0:40:Hat open.wav
192,192,61711,1,2,0:0:0:0:
448,192,61861,1,2,0:0:0:0:
64,192,62011,1,8,0:0:0:0:
320,192,62011,1,0,0:0:0:40:Hat open.wav
192,192,62161,128,2,62461:0:0:0:0:
448,192,62161,1,4,0:0:0:0:
320,192,62461,1,2,0:0:0:0:
64,192,62611,128,8,62911:0:0:0:0:
448,192,62611,1,0,0:0:0:40:Hat open.wav
192,192,62911,1,2,0:0:0:0:
320,192,63061,1,2,0:0:0:0:
64,192,63211,1,8,0:0:0:0:
448,192,63211,1,0,0:0:0:40:Hat open.wav
192,192,63361,1,2,0:0:0:0:
320,192,63511,1,8,0:0:0:0:
448,192,63511,1,4,0:0:0:0:
64,192,63811,1,8,0:0:0:0:
192,192,63811,1,4,0:0:0:0:
448,192,64111,1,8,0:0:0:0:
320,192,64261,1,0,0:0:0:40:Tom1.wav
192,192,64411,1,0,0:0:0:40:Tom2.wav
64,192,64561,1,2,0:0:0:0:
448,192,64561,1,4,0:0:0:0:
320,192,64861,1,2,0:0:0:0:
64,192,65011,1,8,0:0:0:0:
192,192,65011,1,0,0:0:0:40:Hat open.wav
64,192,65311,1,2,0:0:0:0:
448,192,65461,1,2,0:0:0:0:
192,192,65611,1,8,0:0:0:0:
320,192,65611,1,0,0:0:0:40:Hat open.wav
64,192,65911,1,2,0:0:0:0:
448,192,65911,1,4,0:0:0:0:
192,192,66061,1,2,0:0:0:0:
320,192,66211,1,8,0:0:0:0:
448,192,66211,1,0,0:0:0:40:Hat open.wav
192,192,66511,1,8,0:0:0:0:
320,192,66511,1,0,0:0:0:40:Hat open.wav
64,192,66811,1,8,0:0:0:0:
192,192,66811,1,0,0:0:0:40:Hat open.wav
320,192,66961,1,2,0:0:0:0:
448,192,66961,128,4,67261:0:0:0:0:
64,192,67261,1,2,0:0:0:0:
192,192,67411,1,8,0:0:0:0:
320,192,67411,1,0,0:0:0:40:Hat open.wav
320,192,67711,1,8,0:0:0:0:
448,192,67711,1,0,0:0:0:40:Hat open.wav
64,192,68011,1,8,0:0:0:0:
448,192,68011,1,0,0:0:0:40:Hat open.wav
64,192,68311,1,8,0:0:0:0:
192,192,68311,1,0,0:0:0:40:Hat open.wav
448,192,68461,1,8,0:0:0:0:
192,192,68611,1,8,0:0:0:0:
320,192,68611,1,0,0:0:0:0:
64,192,68761,1,8,0:0:0:0:
448,192,68911,1,2,0:0:0:0:
320,192,69061,1,0,0:0:0:40:Tom2.wav
192,192,69211,1,0,0:0:0:40:Tom3.wav
64,192,69361,128,2,69661:0:0:0:0:
448,192,69361,1,4,0:0:0:0:
320,192,69661,1,2,0:0:0:0:
192,192,69811,1,8,0:0:0:0:
448,192,69811,128,0,70111:0:0:0:40:Hat open.wav
64,192,70111,1,2,0:0:0:0:
192,192,70261,1,2,0:0:0:0:
320,192,70411,1,8,0:0:0:0:
448,192,70411,1,0,0:0:0:40:Hat open.wav
64,192,70561,128,2,70861:0:0:0:0:
320,192,70861,1,2,0:0:0:0:
192,192,71011,128,8,71311:0:0:0:0:
448,192,71011,1,0,0:0:0:40:Hat open.wav
64,192,71311,1,2,0:0:0:0:
320,192,71461,1,2,0:0:0:0:
64,192,71611,1,8,0:0:0:0:
448,192,71611,1,0,0:0:0:40:Hat open.wav
192,192,71761,1,2,0:0:0:0:
320,192,71761,128,4,72061:0:0:0:0:
192,192,72061,1,2,0:0:0:0:
64,192,72211,1,8,0:0:0:0:
448,192,72211,128,0,72511:0:0:0:40:Hat open.wav
192,192,72511,128,2,72811:0:0:0:0:
64,192,72811,1,8,0:0:0:0:
448,192,72811,1,0,0:0:0:40:Hat open.wav
320,192,72961,1,0,0:0:0:0:
192,192,73111,1,2,0:0:0:0:
320,192,73261,1,2,0:0:0:0:
64,192,73411,1,8,0:0:0:0:
448,192,73411,1,0,0:0:0:40:Hat open.wav
192,192,73561,1,0,0:0:0:40:Tom1.wav
320,192,73711,1,8,0:0:0:0:
448,192,73711,1,0,0:0:0:40:Hat open.wav
64,192,73861,1,2,0:0:0:0:
320,192,74011,1,8,0:0:0:0:
448,192,74011,1,0,0:0:0:40:Hat open.wav
64,192,74161,1,2,0:0:0:0:
192,192,74161,1,4,0:0:0:0:
320,192,74611,1,8,0:0:0:0:
448,192,74611,1,0,0:0:0:40:Hat open.wav
320,192,74911,1,8,0:0:0:0:
448,192,74911,1,0,0:0:0:40:Hat open.wav
64,192,75211,1,8,0:0:0:0:
192,192,75211,1,0,0:0:0:40:Hat open.wav
64,192,75511,1,8,0:0:0:0:
192,192,75511,1,0,0:0:0:40:Hat open.wav
320,192,75811,1,8,0:0:0:0:
448,192,75811,1,0,0:0:0:40:Hat open.wav
320,192,76111,1,8,0:0:0:0:
448,192,76111,1,0,0:0:0:40:Hat open.wav
64,192,76411,1,8,0:0:0:0:
192,192,76411,1,0,0:0:0:40:Hat open.wav
320,192,76561,1,4,0:0:0:0:
448,192,76561,128,2,76861:0:0:0:0:
64,192,76861,1,0,0:0:0:40:Tom1.wav
192,192,77011,1,0,0:0:0:40:Tom1.wav
448,192,77161,1,2,0:0:0:0:
320,192,77311,1,0,0:0:0:40:Tom2.wav
192,192,77461,1,2,0:0:0:0:
64,192,77611,128,0,77911:0:0:0:40:Tom3.wav
320,192,77911,1,8,0:0:0:0:
448,192,77911,1,0,0:0:0:0:
192,192,78061,1,8,0:0:0:0:
64,192,78211,1,2,0:0:0:0:
448,192,78361,1,0,0:0:0:0:
192,192,78511,1,10,0:0:0:0:
192,192,78661,1,8,0:0:0:0:
320,192,78811,1,10,0:0:0:0:
320,192,78961,1,8,0:0:0:0:
64,192,80311,128,2,81511:0:0:0:0:
192,192,80311,1,4,0:0:0:0:
448,192,80611,1,10,0:0:0:0:
192,192,80911,1,2,0:0:0:0:
448,192,81211,1,10,0:0:0:0:
320,192,81511,128,2,82711:0:0:0:0:
64,192,81811,1,10,0:0:0:0:
448,192,82111,1,2,0:0:0:0:
64,192,82411,1,10,0:0:0:0:
192,192,82711,128,2,83911:0:0:0:0:
320,192,83011,1,10,0:0:0:0:
64,192,83311,1,2,0:0:0:0:
320,192,83611,1,10,0:0:0:0:
448,192,83911,128,2,84811:0:0:0:0:
192,192,84211,1,10,0:0:0:0:
320,192,84511,1,2,0:0:0:0:
192,192,84811,1,10,0:0:0:0:
320,192,84961,1,8,0:0:0:0:
64,192,85111,128,2,86311:0:0:0:0:
448,192,85111,1,4,0:0:0:0:
192,192,85411,1,10,0:0:0:0:
448,192,85711,1,2,0:0:0:0:
192,192,86011,1,10,0:0:0:0:
448,192,86311,128,2,87511:0:0:0:0:
64,192,86611,1,10,0:0:0:0:
320,192,86911,1,2,0:0:0:0:
64,192,87211,1,10,0:0:0:0:
192,192,87511,1,2,0:0:0:0:
320,192,87661,1,8,0:0:0:0:
320,192,87811,1,8,0:0:0:0:
64,192,87961,1,0,0:0:0:40:Tom1.wav
448,192,88111,1,2,0:0:0:0:
192,192,88261,1,0,0:0:0:40:Tom2.wav
320,192,88411,1,0,0:0:0:40:Tom3.wav
448,192,88561,1,2,0:0:0:0:
64,192,88711,1,8,0:0:0:0:
192,192,88711,1,0,0:0:0:0:
320,192,88861,1,2,0:0:0:0:
64,192,89011,1,0,0:0:0:40:Tom3.wav
448,192,89161,1,8,0:0:0:0:
448,192,89311,1,8,0:0:0:0:
64,192,89611,1,8,0:0:0:0:
192,192,89611,1,0,0:0:0:0:
320,192,89761,1,8,0:0:0:0:
64,192,89911,1,2,0:0:0:0:
448,192,89911,1,4,0:0:0:0:
192,192,90211,128,0,90511:0:0:0:0:
320,192,90511,1,0,0:0:0:0:
448,192,90661,128,2,90961:0:0:0:0:
64,192,90961,128,0,91711:0:0:0:0:
448,192,91861,1,2,0:0:0:0:
320,192,92011,1,0,0:0:0:15:Snare.wav
192,192,92161,128,0,92761:0:0:0:0:
320,192,93211,128,0,93511:0:0:0:15:Snare.wav
64,192,93511,128,2,93811:0:0:0:0:
192,192,93811,1,0,0:0:0:15:Snare.wav
320,192,93961,1,0,0:0:0:0:
448,192,94111,128,0,94411:0:0:0:0:
192,192,94411,128,0,94711:0:0:0:15:Snare.wav
320,192,94711,1,2,0:0:0:0:
64,192,95011,128,0,95311:0:0:0:15:Snare.wav
448,192,95311,1,0,0:0:0:0:
320,192,95461,128,2,95761:0:0:0:0:
192,192,95761,128,0,96361:0:0:0:0:
448,192,96811,128,0,97111:0:0:0:15:Snare.wav
64,192,97111,128,2,98011:0:0:0:0:
320,192,98011,128,0,98311:0:0:0:15:Snare.wav
192,192,98311,1,0,0:0:0:0:
448,192,98611,1,0,0:0:0:0:
64,192,98761,1,0,0:0:0:0:
192,192,99061,1,0,0:0:0:0:
320,192,99211,1,0,0:0:0:0:
448,192,99361,1,0,0:0:0:0:
64,192,99511,1,2,0:0:0:0:
192,192,99511,1,4,0:0:0:0:
320,192,99811,1,8,0:0:0:0:
448,192,99811,1,0,0:0:0:40:Hat open.wav
192,192,100111,1,2,0:0:0:0:
320,192,100261,1,2,0:0:0:0:
64,192,100411,1,8,0:0:0:0:
448,192,100411,1,0,0:0:0:40:Hat open.wav
320,192,100711,1,2,0:0:0:0:
192,192,100861,1,2,0:0:0:0:
64,192,101011,1,8,0:0:0:0:
448,192,101011,1,0,0:0:0:40:Hat open.wav
320,192,101311,1,2,0:0:0:0:
64,192,101461,1,2,0:0:0:0:
192,192,101611,1,8,0:0:0:0:
448,192,101611,1,0,0:0:0:40:Hat open.wav
320,192,101911,1,2,0:0:0:0:
448,192,101911,1,4,0:0:0:0:
64,192,102061,1,2,0:0:0:0:
192,192,102211,1,8,0:0:0:0:
320,192,102211,1,0,0:0:0:40:Hat open.wav
448,192,102511,1,2,0:0:0:0:
64,192,102661,1,2,0:0:0:0:
192,192,102811,1,8,0:0:0:0:
320,192,102811,1,0,0:0:0:40:Hat open.wav
64,192,103111,1,2,0:0:0:0:
448,192,103261,1,2,0:0:0:0:
192,192,103411,1,8,0:0:0:0:
320,192,103411,1,0,0:0:0:0:
64,192,103561,1,2,0:0:0:0:
448,192,103711,1,8,0:0:0:0:
448,192,103861,1,8,0:0:0:0:
192,192,104011,1,8,0:0:0:0:
192,192,104161,1,8,0:0:0:0:
64,192,104311,1,2,0:0:0:0:
320,192,104311,1,4,0:0:0:0:
448,192,104461,1,0,0:0:0:0:
192,192,104611,128,2,104911:0:0:0:0:
320,192,104911,1,12,0:0:0:0:
320,192,105061,1,2,0:0:0:0:
64,192,105211,128,0,105511:0:0:0:0:
192,192,105511,1,2,0:0:0:0:
448,192,105511,128,4,105811:0:0:0:0:
320,192,105811,1,0,0:0:0:0:
64,192,105961,1,2,0:0:0:0:
192,192,106111,1,8,0:0:0:0:
448,192,106111,1,0,0:0:0:0:
320,192,106261,1,2,0:0:0:0:
64,192,106411,1,8,0:0:0:0:
192,192,106411,1,0,0:0:0:0:
448,192,106561,1,8,0:0:0:0:
192,192,106711,1,2,0:0:0:0:
320,192,106711,1,4,0:0:0:0:
64,192,107311,1,8,0:0:0:0:
192,192,107311,1,4,0:0:0:0:
320,192,107611,1,8,0:0:0:0:
448,192,107611,1,0,0:0:0:0:
64,192,107911,1,2,0:0:0:0:
192,192,108111,1,2,0:0:0:0:
320,192,108311,1,2,0:0:0:0:
448,192,108511,1,2,0:0:0:0:
64,192,108711,1,2,0:0:0:0:
192,192,108911,1,2,0:0:0:0:
320,192,109111,1,2,0:0:0:0:
448,192,109111,1,4,0:0:0:0:
192,192,110311,1,2,0:0:0:0:
320,192,111361,1,2,0:0:0:0:
64,192,111511,1,2,0:0:0:0:
448,192,111811,1,2,0:0:0:0:
64,192,112411,1,2,0:0:0:0:
192,192,112561,1,2,0:0:0:0:
320,192,112711,1,2,0:0:0:0:
192,192,112936,1,2,0:0:0:0:
448,192,113161,1,2,0:0:0:0:
64,192,113461,1,2,0:0:0:0:
320,192,113761,1,2,0:0:0:0:
192,192,113911,128,0,115111:0:0:0:0:
448,192,114511,1,0,0:0:0:30:Snare.wav
64,192,115111,128,0,116311:0:0:0:0:
320,192,115711,1,0,0:0:0:30:Snare.wav
448,192,116311,128,2,117511:0:0:0:0:
64,192,116911,1,0,0:0:0:30:Snare.wav
192,192,117511,1,2,0:0:0:0:
320,192,117711,1,2,0:0:0:0:
64,192,117911,1,2,0:0:0:0:
448,192,118261,1,2,0:0:0:0:
192,192,118411,1,0,0:0:0:30:Snare.wav
320,192,118711,128,2,119911:0:0:0:0:
192,192,119311,1,0,0:0:0:30:Snare.wav
64,192,119911,128,0,121111:0:0:0:0:
448,192,120511,1,0,0:0:0:30:Snare.wav
320,192,121111,1,2,0:0:0:0:
448,192,121111,1,4,0:0:0:0:
192,192,121411,1,0,0:0:0:0:
64,192,121561,1,2,0:0:0:0:
448,192,121561,1,4,0:0:0:0:
320,192,121861,1,0,0:0:0:0:
64,192,122011,1,2,0:0:0:0:
192,192,122011,1,4,0:0:0:0:
448,192,122311,1,0,0:0:0:0:
320,192,122461,1,0,0:0:0:0:
192,192,122611,1,2,0:0:0:0:
448,192,122761,1,0,0:0:0:0:
64,192,122911,1,0,0:0:0:30:Snare.wav
192,192,123061,1,2,0:0:0:0:
320,192,123211,1,0,0:0:0:30:Snare.wav
64,192,123511,128,2,124111:0:0:0:0:
448,192,124111,1,0,0:0:0:0:
320,192,124711,128,2,125911:0:0:0:0:
64,192,125311,1,0,0:0:0:30:Snare.wav
192,192,125911,128,2,126511:0:0:0:0:
448,192,126511,1,0,0:0:0:30:Snare.wav
320,192,127111,1,2,0:0:0:0:
448,192,127111,128,4,128311:0:0:0:0:
64,192,127711,1,0,0:0:0:40:Tom1.wav
192,192,127861,1,0,0:0:0:40:Tom1.wav
320,192,128011,1,0,0:0:0:40:Tom2.wav
64,192,128161,1,0,0:0:0:40:Tom3.wav
192,192,128311,1,2,0:0:0:0:
320,192,128311,1,0,0:0:0:20:soft-hitfinish.wav
448,192,128611,1,0,0:0:0:0:
64,192,128761,1,0,0:0:0:0:
64,192,129061,1,0,0:0:0:0:
448,192,129211,1,0,0:0:0:0:
192,192,129511,1,0,0:0:0:0:
320,192,129811,1,0,0:0:0:0:
64,192,129961,1,0,0:0:0:0:
448,192,130261,1,0,0:0:0:0:
192,192,130411,1,0,0:0:0:0:
320,192,130711,1,0,0:0:0:0:
448,192,131011,1,0,0:0:0:0:
320,192,131161,1,0,0:0:0:0:
64,192,131311,1,0,0:0:0:0:
192,192,131461,1,0,0:0:0:0:
320,192,131611,1,0,0:0:0:0:
448,192,131761,1,0,0:0:0:0:
64,192,131911,1,0,0:0:0:0:
320,192,132211,1,0,0:0:0:0:
192,192,132361,1,0,0:0:0:0:
448,192,132661,1,0,0:0:0:0:
192,192,132961,1,0,0:0:0:0:
320,192,133111,128,0,133411:0:0:0:0:
64,192,133411,1,0,0:0:0:0:
192,192,133561,1,0,0:0:0:0:
448,192,133861,1,0,0:0:0:0:
64,192,134011,128,0,134311:0:0:0:0:
320,192,134311,1,0,0:0:0:0:
192,192,135361,1,0,0:0:0:0:
448,192,135511,128,0,135811:0:0:0:0:
64,192,135811,1,0,0:0:0:0:
320,192,135961,1,0,0:0:0:0:
448,192,136261,1,0,0:0:0:0:
192,192,136411,128,0,137011:0:0:0:0:
320,192,137011,128,0,137911:0:0:0:0:
64,192,137911,1,2,0:0:0:0:
192,192,137911,1,4,0:0:0:0:
320,192,138361,1,2,0:0:0:0:
64,192,138511,1,8,0:0:0:0:
448,192,138511,1,0,0:0:0:40:Hat open.wav
192,192,138661,1,2,0:0:0:0:
320,192,139111,1,2,0:0:0:0:
192,192,139261,1,2,0:0:0:0:
64,192,139561,1,2,0:0:0:0:
320,192,139711,1,8,0:0:0:0:
448,192,139711,1,0,0:0:0:40:Hat open.wav
192,192,139861,1,2,0:0:0:0:
64,192,140311,1,2,0:0:0:0:
448,192,140311,1,4,0:0:0:0:
320,192,140461,1,2,0:0:0:0:
192,192,140761,1,2,0:0:0:0:
64,192,140911,1,8,0:0:0:0:
448,192,140911,1,4,0:0:0:0:
320,192,141061,1,2,0:0:0:0:
192,192,141511,1,8,0:0:0:0:
448,192,141511,1,0,0:0:0:40:Hat open.wav
64,192,141811,1,8,0:0:0:0:
320,192,141811,1,0,0:0:0:40:Hat open.wav
192,192,142111,1,8,0:0:0:0:
448,192,142111,1,0,0:0:0:40:Hat open.wav
64,192,142411,1,8,0:0:0:0:
320,192,142411,1,0,0:0:0:0:
192,192,142561,1,0,0:0:0:40:Tom2.wav
320,192,142711,1,8,0:0:0:0:
448,192,142711,1,0,0:0:0:40:Hat open.wav
64,192,142861,1,2,0:0:0:0:
64,192,143011,1,2,0:0:0:0:
320,192,143161,1,8,0:0:0:0:
448,192,143161,1,0,0:0:0:40:Hat open.wav
192,192,143311,1,2,0:0:0:0:
192,192,143461,1,2,0:0:0:0:
64,192,143611,1,8,0:0:0:0:
448,192,143611,1,0,0:0:0:40:Hat open.wav
64,192,143911,1,8,0:0:0:0:
192,192,143911,1,0,0:0:0:0:
448,192,144061,1,2,0:0:0:0:
320,192,144211,1,0,0:0:0:40:Tom3.wav
192,192,144361,1,2,0:0:0:0:
64,192,144511,1,8,0:0:0:0:
448,192,144611,1,8,0:0:0:0:
320,192,144711,1,8,0:0:0:0:
64,192,144811,1,8,0:0:0:0:
192,192,144911,1,8,0:0:0:0:
320,192,145011,1,8,0:0:0:0:
64,192,145111,1,2,0:0:0:0:
448,192,145111,1,0,0:0:0:40:Hat open.wav
192,192,145561,1,2,0:0:0:0:
320,192,145561,1,0,0:0:0:40:Hat open.wav
448,192,146011,1,8,0:0:0:0:
448,192,146161,1,8,0:0:0:0:
64,192,146461,1,2,0:0:0:0:
192,192,146611,1,8,0:0:0:0:
448,192,146611,1,0,0:0:0:0:
320,192,146761,1,2,0:0:0:0:
64,192,146911,1,0,0:0:0:40:Tom2.wav
192,192,147061,1,2,0:0:0:0:
320,192,147211,1,8,0:0:0:0:
448,192,147211,1,0,0:0:0:0:
64,192,147361,128,2,147661:0:0:0:0:
192,192,147361,1,4,0:0:0:0:
320,192,147661,1,2,0:0:0:0:
192,192,147811,1,8,0:0:0:0:
448,192,147811,128,0,148111:0:0:0:40:Hat open.wav
64,192,148111,1,2,0:0:0:0:
320,192,148261,1,2,0:0:0:0:
192,192,148411,1,8,0:0:0:0:
448,192,148411,1,0,0:0:0:40:Hat open.wav
64,192,148561,128,2,148861:0:0:0:0:
320,192,148861,1,2,0:0:0:0:
192,192,149011,128,8,149311:0:0:0:0:
448,192,149011,1,0,0:0:0:40:Hat open.wav
320,192,149311,1,2,0:0:0:0:
64,192,149461,1,2,0:0:0:0:
192,192,149611,1,8,0:0:0:0:
448,192,149611,1,0,0:0:0:40:Hat open.wav
64,192,149761,1,2,0:0:0:0:
320,192,149761,128,4,150061:0:0:0:0:
192,192,150061,1,2,0:0:0:0:
64,192,150211,1,8,0:0:0:0:
448,192,150211,128,0,150511:0:0:0:40:Hat open.wav
320,192,150511,1,2,0:0:0:0:
192,192,150661,1,2,0:0:0:0:
64,192,150811,1,8,0:0:0:0:
448,192,150811,1,0,0:0:0:40:Hat open.wav
320,192,150961,1,0,0:0:0:0:
64,192,151111,1,2,0:0:0:0:
192,192,151111,1,4,0:0:0:0:
448,192,151261,1,2,0:0:0:0:
192,192,151411,1,8,0:0:0:0:
320,192,151411,1,0,0:0:0:40:Hat open.wav
64,192,151711,1,8,0:0:0:0:
448,192,151711,1,0,0:0:0:0:
192,192,151861,1,8,0:0:0:0:
320,192,152011,1,8,0:0:0:0:
448,192,152011,1,0,0:0:0:0:
64,192,152161,1,4,0:0:0:0:
192,192,152161,1,2,0:0:0:0:
192,192,152461,1,2,0:0:0:0:
320,192,152611,1,8,0:0:0:0:
448,192,152611,1,0,0:0:0:40:Hat open.wav
448,192,152911,1,2,0:0:0:0:
64,192,153061,1,2,0:0:0:0:
192,192,153211,1,8,0:0:0:0:
320,192,153211,1,0,0:0:0:40:Hat open.wav
64,192,153511,1,2,0:0:0:0:
448,192,153511,1,4,0:0:0:0:
320,192,153661,1,2,0:0:0:0:
64,192,153811,1,8,0:0:0:0:
192,192,153811,1,0,0:0:0:40:Hat open.wav
192,192,154111,1,8,0:0:0:0:
320,192,154111,1,4,0:0:0:0:
320,192,154411,1,8,0:0:0:0:
448,192,154411,1,0,0:0:0:40:Hat open.wav
64,192,154561,128,2,154861:0:0:0:0:
192,192,154561,1,4,0:0:0:0:
448,192,154861,1,2,0:0:0:0:
192,192,155011,1,8,0:0:0:0:
320,192,155011,1,0,0:0:0:40:Hat open.wav
64,192,155311,1,8,0:0:0:0:
192,192,155311,1,0,0:0:0:40:Hat open.wav
64,192,155611,1,8,0:0:0:0:
448,192,155611,1,0,0:0:0:40:Hat open.wav
320,192,155911,1,8,0:0:0:0:
448,192,155911,1,0,0:0:0:40:Hat open.wav
64,192,156061,1,2,0:0:0:0:
192,192,156211,1,0,0:0:0:40:Tom2.wav
320,192,156361,1,2,0:0:0:0:
64,192,156511,1,8,0:0:0:0:
448,192,156511,1,0,0:0:0:0:
192,192,156661,1,8,0:0:0:0:
320,192,156811,1,0,0:0:0:40:Tom1.wav
64,192,156961,1,2,0:0:0:0:
448,192,156961,128,4,157261:0:0:0:0:
192,192,157261,1,2,0:0:0:0:
64,192,157411,128,8,157711:0:0:0:0:
320,192,157411,1,0,0:0:0:40:Hat open.wav
448,192,157711,1,2,0:0:0:0:
320,192,157861,1,2,0:0:0:0:
64,192,158011,1,8,0:0:0:0:
192,192,158011,1,0,0:0:0:40:Hat open.wav
448,192,158161,128,2,158461:0:0:0:0:
192,192,158461,1,2,0:0:0:0:
64,192,158611,1,8,0:0:0:0:
320,192,158611,128,0,158911:0:0:0:40:Hat open.wav
448,192,158911,1,2,0:0:0:0:
192,192,159061,1,2,0:0:0:0:
64,192,159211,1,8,0:0:0:0:
448,192,159211,1,0,0:0:0:40:Hat open.wav
192,192,159361,128,2,159661:0:0:0:0:
320,192,159361,1,4,0:0:0:0:
320,192,159661,1,2,0:0:0:0:
64,192,159811,128,8,160111:0:0:0:0:
448,192,159811,1,0,0:0:0:40:Hat open.wav
320,192,160111,128,2,160411:0:0:0:0:
64,192,160411,1,8,0:0:0:0:
448,192,160411,1,0,0:0:0:40:Hat open.wav
192,192,160561,1,0,0:0:0:0:
320,192,160711,1,2,0:0:0:0:
192,192,160861,1,2,0:0:0:0:
64,192,161011,1,8,0:0:0:0:
448,192,161011,1,0,0:0:0:40:Hat open.wav
320,192,161161,1,0,0:0:0:40:Tom1.wav
64,192,161311,1,8,0:0:0:0:
192,192,161311,1,0,0:0:0:40:Hat open.wav
448,192,161461,1,2,0:0:0:0:
64,192,161611,1,8,0:0:0:0:
192,192,161611,1,0,0:0:0:40:Hat open.wav
320,192,161761,1,2,0:0:0:0:
448,192,161761,1,4,0:0:0:0:
64,192,162211,1,8,0:0:0:0:
192,192,162211,1,0,0:0:0:40:Hat open.wav
320,192,162511,1,2,0:0:0:0:
192,192,162661,1,2,0:0:0:0:
64,192,162811,1,8,0:0:0:0:
448,192,162811,1,0,0:0:0:40:Hat open.wav
192,192,163111,1,2,0:0:0:0:
320,192,163261,1,2,0:0:0:0:
64,192,163411,1,8,0:0:0:0:
448,192,163411,1,0,0:0:0:40:Hat open.wav
64,192,163711,1,8,0:0:0:0:
192,192,163711,1,0,0:0:0:40:Hat open.wav
320,192,164011,1,8,0:0:0:0:
448,192,164011,1,0,0:0:0:40:Hat open.wav
64,192,164161,128,2,164461:0:0:0:0:
192,192,164161,1,4,0:0:0:0:
448,192,164461,1,2,0:0:0:0:
192,192,164611,1,8,0:0:0:0:
320,192,164611,1,4,0:0:0:0:
64,192,164911,1,2,0:0:0:0:
192,192,165061,1,2,0:0:0:0:
320,192,165211,1,8,0:0:0:0:
448,192,165211,1,0,0:0:0:40:Hat open.wav
64,192,165511,1,8,0:0:0:0:
192,192,165511,1,0,0:0:0:0:
64,192,165811,1,8,0:0:0:0:
192,192,165811,1,0,0:0:0:0:
320,192,166111,1,8,0:0:0:0:
320,192,166261,1,8,0:0:0:0:
192,192,166411,1,8,0:0:0:0:
192,192,166561,1,8,0:0:0:0:
320,192,166711,1,2,0:0:0:0:
448,192,166711,1,4,0:0:0:0:
320,192,167161,1,2,0:0:0:0:
64,192,168211,1,2,0:0:0:0:
64,192,168661,1,2,0:0:0:0:
320,192,169111,1,4,0:0:0:0:
448,192,169111,128,2,169411:0:0:0:0:
192,192,169411,1,0,0:0:0:0:
64,192,169561,128,4,169861:0:0:0:0:
320,192,169561,1,2,0:0:0:0:
448,192,169861,1,0,0:0:0:0:
192,192,170011,1,4,0:0:0:0:
320,192,170011,128,2,170311:0:0:0:0:
64,192,170311,1,0,0:0:0:0:
192,192,170461,128,4,170761:0:0:0:0:
448,192,170461,1,2,0:0:0:0:
320,192,170761,1,0,0:0:0:0:
64,192,170911,1,4,0:0:0:0:
448,192,170911,128,2,171211:0:0:0:0:
192,192,171211,1,0,0:0:0:0:
320,192,171361,1,0,0:0:0:0:
64,192,171511,128,6,172111:0:0:0:0:
448,192,171511,128,0,172111:0:0:0:60:AWP.wav
192,192,172111,1,0,0:0:0:30:Snare.wav
320,192,172561,1,0,0:0:0:30:Snare.wav
448,192,173011,1,2,0:0:0:0:
64,192,173311,1,0,0:0:0:30:Snare.wav
320,192,173911,1,2,0:0:0:0:
192,192,174511,1,0,0:0:0:30:Snare.wav
64,192,174961,1,0,0:0:0:30:Snare.wav
448,192,175411,1,2,0:0:0:0:
192,192,175711,1,0,0:0:0:30:Snare.wav
320,192,175861,1,2,0:0:0:0:
64,192,176311,1,2,0:0:0:0:
192,192,176911,1,0,0:0:0:30:Snare.wav
320,192,177361,1,0,0:0:0:30:Snare.wav
448,192,177811,1,2,0:0:0:0:
64,192,178111,1,0,0:0:0:30:Snare.wav
320,192,178711,1,2,0:0:0:0:
192,192,179311,1,0,0:0:0:30:Snare.wav
448,192,179761,1,0,0:0:0:30:Snare.wav
64,192,180211,1,2,0:0:0:0:
320,192,180511,1,0,0:0:0:30:Snare.wav
192,192,180661,1,2,0:0:0:0:
320,192,181111,1,4,0:0:0:0:
448,192,181111,1,2,0:0:0:0:
64,192,181411,1,2,0:0:0:0:
448,192,181711,1,2,0:0:0:0:
64,192,182011,1,2,0:0:0:0:
192,192,182311,1,2,0:0:0:0:
320,192,182611,1,2,0:0:0:0:
192,192,182911,1,2,0:0:0:0:
320,192,183211,1,2,0:0:0:0:
64,192,183511,1,2,0:0:0:0:
448,192,183811,1,2,0:0:0:0:
64,192,184111,1,2,0:0:0:0:
320,192,184411,1,10,0:0:0:0:
320,192,184561,1,8,0:0:0:0:
64,192,184711,1,10,0:0:0:0:
64,192,184861,1,8,0:0:0:0:
448,192,185011,1,8,0:0:0:0:
448,192,185161,1,8,0:0:0:0:
64,192,185311,1,8,0:0:0:0:
192,192,185311,1,0,0:0:0:0:
320,192,185461,1,2,0:0:0:0:
448,192,185611,1,0,0:0:0:40:Tom1.wav
64,192,185761,1,2,0:0:0:0:
320,192,185911,1,8,0:0:0:0:
448,192,185911,1,4,0:0:0:0:
192,192,186061,1,2,0:0:0:0:
192,192,186211,1,2,0:0:0:0:
320,192,186361,1,8,0:0:0:0:
448,192,186361,1,4,0:0:0:0:
64,192,186511,1,2,0:0:0:0:
64,192,186661,1,2,0:0:0:0:
192,192,186811,1,8,0:0:0:0:
448,192,186811,1,0,0:0:0:0:
64,192,187111,1,8,0:0:0:0:
192,192,187111,1,0,0:0:0:0:
448,192,187261,1,2,0:0:0:0:
448,192,187411,1,2,0:0:0:0:
64,192,187561,1,4,0:0:0:0:
192,192,187561,1,8,0:0:0:0:
320,192,187711,1,2,0:0:0:0:
320,192,187861,1,2,0:0:0:0:
64,192,188011,1,8,0:0:0:0:
448,192,188011,1,4,0:0:0:0:
192,192,188161,1,2,0:0:0:0:
320,192,188311,1,4,0:0:0:0:
448,192,188311,1,8,0:0:0:0:
64,192,188611,1,2,0:0:0:0:
320,192,188761,1,8,0:0:0:0:
320,192,188911,1,8,0:0:0:0:
192,192,189061,1,8,0:0:0:0:
192,192,189211,1,8,0:0:0:0:
448,192,189361,1,8,0:0:0:0:
64,192,190711,1,4,0:0:0:0:
192,192,190711,1,8,0:0:0:0:
320,192,190861,1,8,0:0:0:0:
448,192,190861,1,4,0:0:0:0:
64,192,191011,1,2,0:0:0:0:
192,192,191161,1,0,0:0:0:40:Tom1.wav
448,192,191311,1,2,0:0:0:0:
320,192,191461,1,0,0:0:0:40:Tom1.wav
192,192,191611,1,0,0:0:0:40:Tom2.wav
64,192,191761,1,2,0:0:0:0:
448,192,191911,1,0,0:0:0:60:soft-hitwhistle.wav
192,192,192961,128,4,194311:0:0:0:0:
320,192,192961,1,2,0:0:0:0:
64,192,194311,1,4,0:0:0:0:
448,192,194311,1,2,0:0:0:0:
320,192,194461,1,6,0:0:0:0:
192,192,194611,1,0,0:0:0:40:Tom1.wav
64,192,194761,1,2,0:0:0:0:
320,192,194911,1,8,0:0:0:0:
448,192,194911,1,0,0:0:0:0:
192,192,195061,1,2,0:0:0:0:
64,192,195361,1,4,0:0:0:0:
320,192,195361,128,2,195811:0:0:0:0:
64,192,195811,1,2,0:0:0:0:
192,192,195811,1,0,0:0:0:30:soft-hitclap.wav
448,192,195961,1,0,0:0:0:30:soft-hitclap.wav
64,192,196111,1,8,0:0:0:0:
320,192,196111,1,2,0:0:0:0:
192,192,196261,1,8,0:0:0:0:
320,192,196411,1,8,0:0:0:0:
448,192,196411,1,2,0:0:0:0:
64,192,196561,1,8,0:0:0:0:
192,192,196711,1,10,0:0:0:0:
320,192,196861,1,0,0:0:0:0:
448,192,197011,1,0,0:0:0:40:Tom1.wav
320,192,197161,1,0,0:0:0:0:
64,192,197311,1,8,0:0:0:0:
192,192,197311,1,0,0:0:0:0:
448,192,197461,1,2,0:0:0:0:
192,192,197761,1,4,0:0:0:0:
320,192,197761,1,2,0:0:0:0:
64,192,198061,1,2,0:0:0:0:
448,192,198361,1,2,0:0:0:0:
64,192,198511,1,8,0:0:0:0:
192,192,198511,1,4,0:0:0:0:
192,192,198811,1,2,0:0:0:0:
320,192,198961,1,2,0:0:0:0:
64,192,199311,1,0,0:0:0:0:
448,192,199311,1,8,0:0:0:0:
320,192,199561,1,2,0:0:0:0:
64,192,199711,1,8,0:0:0:0:
192,192,199711,1,4,0:0:0:0:
320,192,200011,1,8,0:0:0:0:
448,192,200011,1,4,0:0:0:0:
64,192,200161,1,2,0:0:0:0:
192,192,200161,1,4,0:0:0:0:
320,192,200461,1,2,0:0:0:0:
64,192,200611,1,8,0:0:0:0:
448,192,200611,1,4,0:0:0:0:
192,192,200911,1,8,0:0:0:0:
192,192,201061,1,8,0:0:0:0:
320,192,201211,1,8,0:0:0:0:
448,192,201211,1,0,0:0:0:0:
64,192,201361,1,2,0:0:0:0:
192,192,201511,1,8,0:0:0:0:
320,192,201511,1,4,0:0:0:0:
64,192,201811,1,8,0:0:0:0:
448,192,201811,1,0,0:0:0:40:Hat open.wav
64,192,202111,1,2,0:0:0:0:
192,192,202111,1,8,0:0:0:0:
448,192,202261,1,8,0:0:0:0:
64,192,202411,1,8,0:0:0:0:
320,192,202411,1,0,0:0:0:0:
192,192,202561,1,2,0:0:0:0:
448,192,202561,128,4,202861:0:0:0:0:
64,192,202861,1,2,0:0:0:0:
192,192,203011,128,8,203311:0:0:0:0:
320,192,203011,1,0,0:0:0:40:Hat open.wav
448,192,203311,1,2,0:0:0:0:
320,192,203461,1,2,0:0:0:0:
64,192,203611,1,8,0:0:0:0:
192,192,203611,1,0,0:0:0:40:Hat open.wav
320,192,203761,128,2,204061:0:0:0:0:
192,192,204061,1,2,0:0:0:0:
64,192,204211,128,8,204511:0:0:0:0:
448,192,204211,1,0,0:0:0:40:Hat open.wav
192,192,204511,1,2,0:0:0:0:
320,192,204661,1,2,0:0:0:0:
64,192,204811,1,8,0:0:0:0:
448,192,204811,1,0,0:0:0:40:Hat open.wav
192,192,204961,128,2,205261:0:0:0:0:
320,192,204961,1,4,0:0:0:0:
448,192,205261,1,2,0:0:0:0:
64,192,205411,1,8,0:0:0:0:
320,192,205411,128,0,205711:0:0:0:40:Hat open.wav
192,192,205711,1,2,0:0:0:0:
448,192,205861,1,2,0:0:0:0:
64,192,206011,1,8,0:0:0:0:
320,192,206011,1,0,0:0:0:40:Hat open.wav
192,192,206161,1,0,0:0:0:0:
448,192,206311,1,2,0:0:0:0:
64,192,206411,1,8,0:0:0:0:
192,192,206511,1,8,0:0:0:0:
320,192,206611,1,8,0:0:0:0:
448,192,206711,1,0,0:0:0:40:Tom1.wav
64,192,206811,1,0,0:0:0:40:Tom1.wav
192,192,206911,1,10,0:0:0:0:
448,192,207011,1,0,0:0:0:40:Tom1.wav
320,192,207111,1,8,0:0:0:0:
64,192,207211,1,0,0:0:0:40:Tom1.wav
192,192,207311,1,0,0:0:0:40:Tom3.wav
320,192,207411,1,0,0:0:0:40:Tom3.wav
64,192,207511,1,2,0:0:0:0:
448,192,207511,1,4,0:0:0:0:
192,192,208111,1,0,0:0:0:0:
320,192,208711,1,0,0:0:0:0:
64,192,209311,1,0,0:0:0:40:Hat open.wav
192,192,209761,1,0,0:0:0:0:
320,192,209911,1,4,0:0:0:0:
448,192,209911,1,2,0:0:0:0:
64,192,210211,1,10,0:0:0:0:
64,192,210361,1,8,0:0:0:0:
320,192,210511,1,10,0:0:0:0:
320,192,210661,1,8,0:0:0:0:
192,192,210811,1,10,0:0:0:0:
192,192,210961,1,8,0:0:0:0:
320,192,211111,1,8,0:0:0:0:
192,192,211261,1,2,0:0:0:0:
64,192,211411,1,4,0:0:0:0:
448,192,211411,1,8,0:0:0:0:
320,192,211711,1,4,0:0:0:0:
448,192,211711,1,8,0:0:0:0:
64,192,211861,1,8,0:0:0:0:
192,192,212011,1,8,0:0:0:0:
448,192,212011,1,0,0:0:0:0:
320,192,212161,1,8,0:0:0:0:
64,192,212311,1,4,0:0:0:0:
192,192,212311,1,2,0:0:0:0:
320,192,212611,1,10,0:0:0:0:
448,192,212611,1,0,0:0:0:40:Hat open.wav
64,192,212911,1,2,0:0:0:0:
192,192,212911,1,0,0:0:0:40:Hat open.wav
320,192,213211,1,10,0:0:0:0:
448,192,213211,1,0,0:0:0:40:Hat open.wav
64,192,213511,1,2,0:0:0:0:
448,192,213511,1,0,0:0:0:40:Hat open.wav
192,192,213811,1,10,0:0:0:0:
320,192,213811,1,0,0:0:0:40:Hat open.wav
64,192,214111,1,2,0:0:0:0:
448,192,214111,1,0,0:0:0:40:Hat open.wav
192,192,214411,1,10,0:0:0:0:
320,192,214411,1,0,0:0:0:40:Hat open.wav
320,192,214711,1,2,0:0:0:0:
448,192,214711,1,0,0:0:0:40:Hat open.wav
64,192,215011,1,10,0:0:0:0:
192,192,215011,1,0,0:0:0:40:Hat open.wav
320,192,215311,1,2,0:0:0:0:
448,192,215311,1,0,0:0:0:40:Hat open.wav
64,192,215611,1,10,0:0:0:0:
192,192,215611,1,0,0:0:0:40:Hat open.wav
192,192,215911,1,2,0:0:0:0:
448,192,215911,1,0,0:0:0:40:Hat open.wav
64,192,216211,1,10,0:0:0:0:
320,192,216211,1,0,0:0:0:40:Hat open.wav
192,192,216511,1,2,0:0:0:0:
448,192,216511,1,0,0:0:0:40:Hat open.wav
64,192,216811,1,8,0:0:0:0:
320,192,216811,1,2,0:0:0:0:
192,192,216961,1,8,0:0:0:0:
320,192,217111,1,4,0:0:0:0:
448,192,217111,1,2,0:0:0:0:
64,192,217411,1,10,0:0:0:0:
192,192,217411,1,0,0:0:0:40:Hat open.wav
320,192,217711,1,2,0:0:0:0:
448,192,217711,1,0,0:0:0:40:Hat open.wav
64,192,218011,1,10,0:0:0:0:
192,192,218011,1,0,0:0:0:40:Hat open.wav
64,192,218311,1,2,0:0:0:0:
448,192,218311,1,0,0:0:0:40:Hat open.wav
192,192,218611,1,10,0:0:0:0:
320,192,218611,1,0,0:0:0:40:Hat open.wav
448,192,218911,1,2,0:0:0:0:
320,192,219061,1,2,0:0:0:0:
64,192,219211,1,8,0:0:0:0:
192,192,219211,1,0,0:0:0:40:Hat open.wav
64,192,219511,1,8,0:0:0:0:
448,192,219511,128,0,219811:0:0:0:0:
192,192,219811,1,4,0:0:0:0:
320,192,219811,1,8,0:0:0:0:
64,192,220111,1,4,0:0:0:0:
192,192,220111,1,8,0:0:0:0:
320,192,220411,1,12,0:0:0:0:
320,192,220561,1,12,0:0:0:0:
64,192,220711,1,0,0:0:0:40:Tom1.wav
192,192,220861,1,2,0:0:0:0:
320,192,221011,1,4,0:0:0:0:
448,192,221011,1,8,0:0:0:0:
64,192,221161,1,2,0:0:0:0:
192,192,221311,1,4,0:0:0:0:
320,192,221311,1,8,0:0:0:0:
448,192,221461,1,2,0:0:0:0:
64,192,221611,1,4,0:0:0:0:
192,192,221611,1,8,0:0:0:0:
320,192,221911,1,4,0:0:0:0:
448,192,221911,128,2,222211:0:0:0:0:
64,192,222211,1,8,0:0:0:0:
320,192,222361,1,2,0:0:0:0:
192,192,222511,1,8,0:0:0:0:
448,192,222661,1,2,0:0:0:0:
64,192,222961,128,2,223261:0:0:0:0:
320,192,223261,128,2,223561:0:0:0:0:
448,192,223561,128,2,223861:0:0:0:0:
192,192,223861,128,2,224161:0:0:0:0:
448,192,224161,1,2,0:0:0:0:
64,192,224311,128,4,224611:0:0:0:0:
320,192,224311,1,8,0:0:0:0:
448,192,224611,1,8,0:0:0:0:
192,192,224761,1,2,0:0:0:0:
320,192,224911,1,8,0:0:0:0:
64,192,225061,1,2,0:0:0:0:
448,192,225361,1,2,0:0:0:0:
64,192,225511,1,4,0:0:0:0:
192,192,225511,1,8,0:0:0:0:
320,192,225661,128,2,225961:0:0:0:0:
64,192,225961,128,2,226261:0:0:0:0:
448,192,226261,1,2,0:0:0:0:
64,192,226411,1,8,0:0:0:0:
192,192,226411,1,0,0:0:0:0:
320,192,226561,1,8,0:0:0:0:
192,192,226711,1,4,0:0:0:0:
448,192,226711,1,2,0:0:0:0:
64,192,226861,1,2,0:0:0:0:
320,192,227011,1,8,0:0:0:0:
448,192,227011,1,0,0:0:0:40:Hat open.wav
192,192,227161,1,2,0:0:0:0:
64,192,227461,1,2,0:0:0:0:
320,192,227611,1,8,0:0:0:0:
448,192,227611,1,0,0:0:0:40:Hat open.wav
192,192,227761,1,8,0:0:0:0:
64,192,227911,1,4,0:0:0:0:
448,192,227911,1,2,0:0:0:0:
320,192,228061,1,8,0:0:0:0:
320,192,228211,1,8,0:0:0:0:
64,192,228361,1,2,0:0:0:0:
192,192,228511,1,0,0:0:0:40:Hat open.wav
320,192,228661,1,2,0:0:0:0:
64,192,228811,1,4,0:0:0:0:
448,192,228811,1,8,0:0:0:0:
64,192,229111,1,4,0:0:0:0:
192,192,229111,1,2,0:0:0:0:
320,192,229411,1,8,0:0:0:0:
448,192,229411,128,0,229711:0:0:0:40:Hat open.wav
64,192,229711,128,8,230011:0:0:0:0:
192,192,229711,1,0,0:0:0:40:Hat open.wav
320,192,230011,128,8,230311:0:0:0:0:
448,192,230011,1,0,0:0:0:40:Hat open.wav
64,192,230311,1,2,0:0:0:0:
192,192,230311,1,4,0:0:0:0:
448,192,230461,1,8,0:0:0:0:
192,192,230611,1,8,0:0:0:0:
320,192,230611,1,0,0:0:0:0:
64,192,230761,1,2,0:0:0:0:
448,192,230911,1,0,0:0:0:40:Tom1.wav
320,192,231061,1,2,0:0:0:0:
64,192,231211,1,4,0:0:0:0:
192,192,231211,1,8,0:0:0:0:
192,192,231511,1,4,0:0:0:0:
448,192,231511,1,2,0:0:0:0:
64,192,231661,128,4,231961:0:0:0:0:
320,192,231661,1,2,0:0:0:0:
192,192,231961,1,2,0:0:0:0:
320,192,232111,1,4,0:0:0:0:
448,192,232111,1,8,0:0:0:0:
64,192,232411,1,4,0:0:0:0:
192,192,232411,1,8,0:0:0:0:
320,192,232561,128,4,232861:0:0:0:0:
448,192,232561,1,2,0:0:0:0:
192,192,232861,1,2,0:0:0:0:
64,192,233011,1,8,0:0:0:0:
448,192,233011,1,0,0:0:0:40:Hat open.wav
320,192,233161,1,2,0:0:0:0:
192,192,233311,1,8,0:0:0:0:
192,192,233461,1,8,0:0:0:0:
320,192,233611,1,8,0:0:0:0:
448,192,233611,1,0,0:0:0:0:
64,192,233761,1,8,0:0:0:0:
192,192,233761,1,0,0:0:0:40:Hat open.wav
