osu file format v14

[General]
AudioFilename: audio.mp3
AudioLeadIn: 0
PreviewTime: 146461
Countdown: 0
SampleSet: Soft
StackLeniency: 0.7
Mode: 3
LetterboxInBreaks: 0
SpecialStyle: 0
WidescreenStoryboard: 1

[Editor]
DistanceSpacing: 0.9
BeatDivisor: 3
GridSize: 32
TimelineZoom: 2.5

[Metadata]
Title:GR4VITY G4ME
TitleUnicode:GR4VITY G4ME
Artist:WAGAMAMA RAKIA
ArtistUnicode:我儘ラキア
Creator:Mirsaaa
Version:EXTR4 // GRAVITATION
Source:
Tags:japanese rock jrock j-rock gravity game 岸和田一樹 星熊 南巫 川﨑 怜奈 海羽 凜 Hoshikuma Minami Kaine Rin Kawasaki Layna Kazuki Kishiwada miri onyx L エル ワガママラキア Darkebluu ainer
BeatmapID:3957784
BeatmapSetID:1916684

[Difficulty]
HPDrainRate:8.5
CircleSize:4
OverallDifficulty:8.5
ApproachRate:5
SliderMultiplier:1.4
SliderTickRate:1

[Events]
//Background and Video events
0,0,"BEGEH.jpg",0,0
//Break Periods
//Storyboard Layer 0 (Background)
//Storyboard Layer 1 (Fail)
//Storyboard Layer 2 (Pass)
//Storyboard Layer 3 (Foreground)
//Storyboard Layer 4 (Overlay)
//Storyboard Sound Samples
Sample,88636,0,"Tom3.wav",40

[TimingPoints]
1111,300,4,2,1,40,1,0
1112,-10,4,2,1,40,0,0
1148,-1000,4,2,1,40,0,0
1711,-500,4,2,1,40,0,0
1748,-400,4,2,1,40,0,0
1786,-333.333312988281,4,2,1,40,0,0
1824,-285.714294433594,4,2,1,40,0,0
1861,-250,4,2,1,40,0,0
1898,-222.222229003906,4,2,1,40,0,0
1936,-200,4,2,1,40,0,0
1974,-181.818176269531,4,2,1,40,0,0
2011,-166.666656494141,4,2,1,40,0,0
2048,-153.846160888672,4,2,1,40,0,0
2086,-142.857147216797,4,2,1,40,0,0
2124,-133.33332824707,4,2,1,40,0,0
2161,-125,4,2,1,40,0,0
2198,-117.64705657959,4,2,1,40,0,0
2236,-111.111114501953,4,2,1,40,0,0
2274,-105.263160705566,4,2,1,40,0,0
2311,-100,4,2,1,40,0,0
16411,-512.8310546875,4,2,1,40,0,0
16430,-429.866973876953,4,2,1,40,0,0
16448,-360.324554443359,4,2,1,40,0,0
16467,-302.032501220703,4,2,1,40,0,0
16486,-253.170715332031,4,2,1,40,0,0
16505,-212.213638305664,4,2,1,40,0,0
16524,-177.882446289063,4,2,1,40,0,0
16542,-149.105224609375,4,2,1,40,0,0
16561,-124.983497619629,4,2,1,40,0,0
16580,-104.764099121094,4,2,1,40,0,0
16598,-87.8157196044922,4,2,1,40,0,0
16617,-73.6091918945313,4,2,1,40,0,0
16636,-61.7009544372559,4,2,1,40,0,0
16655,-51.7191848754883,4,2,1,40,0,0
16674,-43.3522300720215,4,2,1,40,0,0
16692,-36.3388557434082,4,2,1,40,0,0
16711,-100,4,2,1,40,0,0
19111,-32.2580642700195,4,2,1,40,0,0
19148,-333.333282470703,4,2,1,40,0,0
19261,-246.971862792969,4,2,1,40,0,0
19280,-197.759613037109,4,2,1,40,0,0
19298,-158.353515625,4,2,1,40,0,0
19317,-126.799583435059,4,2,1,40,0,0
19336,-101.533172607422,4,2,1,40,0,0
19355,-81.3014068603516,4,2,1,40,0,0
19374,-65.1010818481445,4,2,1,40,0,0
19392,-52.1288681030273,4,2,1,40,0,0
19411,-41.0325965881348,4,2,1,40,0,0
19430,-57.2656021118164,4,2,1,40,0,0
19448,-79.9205856323242,4,2,1,40,0,0
19467,-111.538162231445,4,2,1,40,0,0
19486,-155.664047241211,4,2,1,40,0,0
19505,-217.246673583984,4,2,1,40,0,0
19524,-303.192169189453,4,2,1,40,0,0
19542,-423.138763427734,4,2,1,40,0,0
19561,-33.8413238525391,4,2,1,40,0,0
19580,-52.7797241210938,4,2,1,40,0,0
19598,-82.3165054321289,4,2,1,40,0,0
19617,-128.382751464844,4,2,1,40,0,0
19636,-200.228744506836,4,2,1,40,0,0
19655,-312.281463623047,4,2,1,40,0,0
19674,-487.04150390625,4,2,1,40,0,0
19692,-759.601440429688,4,2,1,40,0,0
19711,-28.9813575744629,4,2,1,40,0,0
19730,-50.5118675231934,4,2,1,40,0,0
19748,-88.0375900268555,4,2,1,40,0,0
19767,-153.441513061523,4,2,1,40,0,0
19786,-267.434600830078,4,2,1,40,0,0
19805,-466.114135742188,4,2,1,40,0,0
19824,-812.39453125,4,2,1,40,0,0
19842,-1415.92980957031,4,2,1,40,0,0
19861,-28.9813575744629,4,2,1,40,0,0
19880,-50.5118675231934,4,2,1,40,0,0
19898,-88.0375900268555,4,2,1,40,0,0
19917,-153.441513061523,4,2,1,40,0,0
19936,-267.434600830078,4,2,1,40,0,0
19955,-466.114135742188,4,2,1,40,0,0
19974,-812.39453125,4,2,1,40,0,0
19992,-1415.92980957031,4,2,1,40,0,0
20011,-28.9813575744629,4,2,1,40,0,0
20030,-50.5118675231934,4,2,1,40,0,0
20048,-88.0375900268555,4,2,1,40,0,0
20067,-153.441513061523,4,2,1,40,0,0
20086,-267.434600830078,4,2,1,40,0,0
20105,-466.114135742188,4,2,1,40,0,0
20124,-812.39453125,4,2,1,40,0,0
20142,-1415.92980957031,4,2,1,40,0,0
20161,-28.9813575744629,4,2,1,40,0,0
20180,-50.5118675231934,4,2,1,40,0,0
20198,-88.0375900268555,4,2,1,40,0,0
20217,-153.441513061523,4,2,1,40,0,0
20236,-267.434600830078,4,2,1,40,0,0
20255,-466.114135742188,4,2,1,40,0,0
20274,-812.39453125,4,2,1,40,0,0
20292,-1415.92980957031,4,2,1,40,0,0
20311,-20,4,2,1,40,0,0
20386,-1000,4,2,1,40,0,0
20911,-500,4,2,1,40,0,0
20930,-320,4,2,1,40,0,0
20948,-235.29411315918,4,2,1,40,0,0
20967,-186.046508789063,4,2,1,40,0,0
20986,-153.846160888672,4,2,1,40,0,0
21005,-131.147537231445,4,2,1,40,0,0
21024,-114.285713195801,4,2,1,40,0,0
21042,-101.265823364258,4,2,1,40,0,0
21061,-90.9090881347656,4,2,1,40,0,0
21080,-82.4742279052734,4,2,1,40,0,0
21098,-75.4716949462891,4,2,1,40,0,0
21117,-69.5652160644531,4,2,1,40,0,0
21136,-64.5161285400391,4,2,1,40,0,0
21155,-60.1503753662109,4,2,1,40,0,0
21174,-56.3380279541016,4,2,1,40,0,0
21192,-52.9801292419434,4,2,1,40,0,0
21211,-10,4,2,1,40,0,0
21248,-303.192169189453,4,2,1,40,0,0
21286,-217.246673583984,4,2,1,40,0,0
21324,-155.664047241211,4,2,1,40,0,0
21361,-111.538162231445,4,2,1,40,0,0
21398,-79.9205856323242,4,2,1,40,0,0
21436,-57.2656021118164,4,2,1,40,0,0
21474,-41.0325965881348,4,2,1,40,0,0
21511,-100,4,2,1,40,0,0
39511,-10,4,2,1,40,0,0
39548,-1000,4,2,1,40,0,0
39811,-499.9999925,4,2,0,25,0,0
39848.57031,-259.2592547,4,2,0,25,0,0
39886.14453,-174.9999922,4,2,0,25,0,0
39923.71484,-132.0754744,4,2,0,25,0,0
39961.28516,-106.0606057,4,2,0,25,0,0
39998.85547,-88.60759788,4,2,0,25,0,0
40036.42969,-76.08695416,4,2,0,25,0,0
40074,-66.66666667,4,2,0,25,0,0
40111,-100,4,2,1,40,0,0
45511,-41.0325965881348,4,2,1,40,0,0
45530,-57.2656021118164,4,2,1,40,0,0
45548,-79.9205856323242,4,2,1,40,0,0
45567,-111.538162231445,4,2,1,40,0,0
45586,-155.664047241211,4,2,1,40,0,0
45605,-217.246673583984,4,2,1,40,0,0
45624,-303.192169189453,4,2,1,40,0,0
45642,-423.138763427734,4,2,1,40,0,0
45680,-303.192169189453,4,2,1,40,0,0
45698,-217.246673583984,4,2,1,40,0,0
45717,-155.664047241211,4,2,1,40,0,0
45736,-111.538162231445,4,2,1,40,0,0
45755,-79.9205856323242,4,2,1,40,0,0
45774,-57.2656021118164,4,2,1,40,0,0
45792,-41.0325965881348,4,2,1,40,0,0
45811,-100,4,2,1,40,0,0
59761,-100,4,2,1,40,0,1
79111,-100,4,2,1,40,0,0
107911,-32.2580642700195,4,2,1,40,0,0
107936,-333.333343505859,4,2,1,40,0,0
108011,-250,4,2,1,40,0,0
108036,-166.66667175293,4,2,1,40,0,0
108061,-90.9090881347656,4,2,1,40,0,0
108086,-52.6315803527832,4,2,1,40,0,0
108111,-32.2580642700195,4,2,1,40,0,0
108136,-333.333343505859,4,2,1,40,0,0
108211,-250,4,2,1,40,0,0
108236,-166.66667175293,4,2,1,40,0,0
108261,-90.9090881347656,4,2,1,40,0,0
108286,-52.6315803527832,4,2,1,40,0,0
108311,-32.2580642700195,4,2,1,40,0,0
108336,-333.333343505859,4,2,1,40,0,0
108411,-250,4,2,1,40,0,0
108436,-166.66667175293,4,2,1,40,0,0
108461,-90.9090881347656,4,2,1,40,0,0
108486,-52.6315803527832,4,2,1,40,0,0
108511,-32.2580642700195,4,2,1,40,0,0
108536,-333.333343505859,4,2,1,40,0,0
108611,-250,4,2,1,40,0,0
108636,-166.66667175293,4,2,1,40,0,0
108661,-90.9090881347656,4,2,1,40,0,0
108686,-52.6315803527832,4,2,1,40,0,0
108711,-32.2580642700195,4,2,1,40,0,0
108736,-333.333343505859,4,2,1,40,0,0
108811,-250,4,2,1,40,0,0
108836,-166.66667175293,4,2,1,40,0,0
108861,-90.9090881347656,4,2,1,40,0,0
108886,-52.6315803527832,4,2,1,40,0,0
108911,-32.2580642700195,4,2,1,40,0,0
108936,-333.333343505859,4,2,1,40,0,0
109011,-250,4,2,1,40,0,0
109036,-166.66667175293,4,2,1,40,0,0
109061,-90.9090881347656,4,2,1,40,0,0
109086,-52.6315803527832,4,2,1,40,0,0
109111,-100,4,2,1,40,0,0
117511,-246.971862792969,4,2,1,40,0,0
117536,-197.759613037109,4,2,1,40,0,0
117561,-158.353515625,4,2,1,40,0,0
117586,-126.799583435059,4,2,1,40,0,0
117611,-101.533172607422,4,2,1,40,0,0
117636,-81.3014068603516,4,2,1,40,0,0
117661,-65.1010818481445,4,2,1,40,0,0
117686,-52.1288681030273,4,2,1,40,0,0
117711,-246.971862792969,4,2,1,40,0,0
117736,-197.759613037109,4,2,1,40,0,0
117761,-158.353515625,4,2,1,40,0,0
117786,-126.799583435059,4,2,1,40,0,0
117811,-101.533172607422,4,2,1,40,0,0
117836,-81.3014068603516,4,2,1,40,0,0
117861,-65.1010818481445,4,2,1,40,0,0
117886,-52.1288681030273,4,2,1,40,0,0
117911,-273.768981933594,4,2,1,40,0,0
117936,-239.595291137695,4,2,1,40,0,0
117961,-209.687423706055,4,2,1,40,0,0
117986,-183.512832641602,4,2,1,40,0,0
118011,-160.605545043945,4,2,1,40,0,0
118036,-140.557678222656,4,2,1,40,0,0
118061,-123.012329101563,4,2,1,40,0,0
118086,-107.657112121582,4,2,1,40,0,0
118111,-94.218635559082,4,2,1,40,0,0
118136,-82.457633972168,4,2,1,40,0,0
118161,-72.1647186279297,4,2,1,40,0,0
118186,-63.1566390991211,4,2,1,40,0,0
118211,-55.2730026245117,4,2,1,40,0,0
118236,-48.3734588623047,4,2,1,40,0,0
118261,-100,4,2,1,40,0,0
121111,-10.9890108108521,4,2,1,40,0,0
121118,-1000.00042724609,4,2,1,40,0,0
121186,-267.340087890625,4,2,1,40,0,0
121205,-229.21842956543,4,2,1,40,0,0
121224,-196.532791137695,4,2,1,40,0,0
121242,-168.50798034668,4,2,1,40,0,0
121261,-144.479400634766,4,2,1,40,0,0
121280,-123.87720489502,4,2,1,40,0,0
121298,-106.212799072266,4,2,1,40,0,0
121317,-91.067268371582,4,2,1,40,0,0
121336,-78.0814361572266,4,2,1,40,0,0
121355,-66.9473266601563,4,2,1,40,0,0
121374,-57.4009017944336,4,2,1,40,0,0
121392,-49.2157554626465,4,2,1,40,0,0
121411,-100,4,2,1,40,0,0
121448,-250,4,2,1,40,0,0
121524,-45.0819664001465,4,2,1,40,0,0
121561,-10.9890108108521,4,2,1,40,0,0
121568,-1000.00042724609,4,2,1,40,0,0
121636,-267.340087890625,4,2,1,40,0,0
121655,-229.21842956543,4,2,1,40,0,0
121674,-196.532791137695,4,2,1,40,0,0
121692,-168.50798034668,4,2,1,40,0,0
121711,-144.479400634766,4,2,1,40,0,0
121730,-123.87720489502,4,2,1,40,0,0
121748,-106.212799072266,4,2,1,40,0,0
121767,-91.067268371582,4,2,1,40,0,0
121786,-78.0814361572266,4,2,1,40,0,0
121805,-66.9473266601563,4,2,1,40,0,0
121824,-57.4009017944336,4,2,1,40,0,0
121842,-49.2157554626465,4,2,1,40,0,0
121861,-100,4,2,1,40,0,0
121899,-250,4,2,1,40,0,0
121993,-24.0963840484619,4,2,1,40,0,0
122011,-10.9890108108521,4,2,1,40,0,0
122018,-1000.00042724609,4,2,1,40,0,0
122086,-267.340087890625,4,2,1,40,0,0
122105,-229.21842956543,4,2,1,40,0,0
122124,-196.532791137695,4,2,1,40,0,0
122142,-168.50798034668,4,2,1,40,0,0
122161,-144.479400634766,4,2,1,40,0,0
122180,-123.87720489502,4,2,1,40,0,0
122198,-106.212799072266,4,2,1,40,0,0
122217,-91.067268371582,4,2,1,40,0,0
122236,-78.0814361572266,4,2,1,40,0,0
122255,-66.9473266601563,4,2,1,40,0,0
122274,-57.4009017944336,4,2,1,40,0,0
122292,-49.2157554626465,4,2,1,40,0,0
122311,-100,4,2,1,40,0,0
127111,-10.9890108108521,4,2,1,40,0,0
127118,-1000.00042724609,4,2,1,40,0,0
127186,-267.340087890625,4,2,1,40,0,0
127205,-229.21842956543,4,2,1,40,0,0
127224,-196.532791137695,4,2,1,40,0,0
127242,-168.50798034668,4,2,1,40,0,0
127261,-144.479400634766,4,2,1,40,0,0
127280,-123.87720489502,4,2,1,40,0,0
127298,-106.212799072266,4,2,1,40,0,0
127317,-91.067268371582,4,2,1,40,0,0
127336,-78.0814361572266,4,2,1,40,0,0
127355,-66.9473266601563,4,2,1,40,0,0
127374,-57.4009017944336,4,2,1,40,0,0
127392,-49.2157554626465,4,2,1,40,0,0
127411,-278.788330078125,4,2,1,40,0,0
127430,-247.845520019531,4,2,1,40,0,0
127448,-220.337097167969,4,2,1,40,0,0
127467,-195.8818359375,4,2,1,40,0,0
127486,-174.140853881836,4,2,1,40,0,0
127505,-154.812927246094,4,2,1,40,0,0
127524,-137.63020324707,4,2,1,40,0,0
127542,-122.354591369629,4,2,1,40,0,0
127561,-108.774421691895,4,2,1,40,0,0
127580,-96.701530456543,4,2,1,40,0,0
127598,-85.9685974121094,4,2,1,40,0,0
127617,-76.4269256591797,4,2,1,40,0,0
127636,-67.9442825317383,4,2,1,40,0,0
127655,-60.403133392334,4,2,1,40,0,0
127674,-53.698974609375,4,2,1,40,0,0
127692,-47.7389106750488,4,2,1,40,0,0
127711,-62.5,4,2,1,40,0,0
127748,-250.000015258789,4,2,1,40,0,0
127786,-62.5,4,2,1,40,0,0
127824,-250.000015258789,4,2,1,40,0,0
127861,-246.971862792969,4,2,1,40,0,0
127880,-197.759613037109,4,2,1,40,0,0
127898,-158.353515625,4,2,1,40,0,0
127917,-126.799583435059,4,2,1,40,0,0
127936,-101.533172607422,4,2,1,40,0,0
127955,-81.3014068603516,4,2,1,40,0,0
127974,-65.1010818481445,4,2,1,40,0,0
127992,-52.1288681030273,4,2,1,40,0,0
128011,-62.5,4,2,1,40,0,0
128048,-250.000015258789,4,2,1,40,0,0
128086,-62.5,4,2,1,40,0,0
128124,-250.000015258789,4,2,1,40,0,0
128161,-62.5,4,2,1,40,0,0
128198,-250.000015258789,4,2,1,40,0,0
128236,-62.5,4,2,1,40,0,0
128274,-250.000015258789,4,2,1,40,0,0
128311,-100,4,2,1,40,0,0
145111,-15.625,4,2,1,40,0,0
145118,-250.000015258789,4,2,1,40,0,0
145186,-246.971862792969,4,2,1,40,0,0
145205,-197.759613037109,4,2,1,40,0,0
145224,-158.353515625,4,2,1,40,0,0
145242,-126.799583435059,4,2,1,40,0,0
145261,-101.533172607422,4,2,1,40,0,0
145280,-81.3014068603516,4,2,1,40,0,0
145298,-65.1010818481445,4,2,1,40,0,0
145317,-52.1288681030273,4,2,1,40,0,0
145336,-100,4,2,1,40,0,0
145411,-200.937057495117,4,2,1,40,0,0
145448,-134.692138671875,4,2,1,40,0,0
145486,-90.2868423461914,4,2,1,40,0,0
145524,-60.5210800170898,4,2,1,40,0,0
145561,-15.625,4,2,1,40,0,0
145568,-250.000015258789,4,2,1,40,0,0
145636,-246.971862792969,4,2,1,40,0,0
145655,-197.759613037109,4,2,1,40,0,0
145674,-158.353515625,4,2,1,40,0,0
145692,-126.799583435059,4,2,1,40,0,0
145711,-101.533172607422,4,2,1,40,0,0
145730,-81.3014068603516,4,2,1,40,0,0
145748,-65.1010818481445,4,2,1,40,0,0
145767,-52.1288681030273,4,2,1,40,0,0
145786,-100,4,2,1,40,0,0
145861,-40,4,2,1,40,0,0
145880,-200,4,2,1,40,0,0
145936,-40,4,2,1,40,0,0
145955,-200,4,2,1,40,0,0
146011,-35.7142868041992,4,2,1,40,0,0
146030,-250,4,2,1,40,0,0
146086,-200.937057495117,4,2,1,40,0,0
146105,-134.692138671875,4,2,1,40,0,0
146124,-90.2868423461914,4,2,1,40,0,0
146142,-60.5210800170898,4,2,1,40,0,0
146161,-10,4,2,1,40,0,0
146198,-1000,4,2,1,40,0,0
146236,-267.340087890625,4,2,1,40,0,0
146255,-229.21842956543,4,2,1,40,0,0
146274,-196.532791137695,4,2,1,40,0,0
146292,-168.50798034668,4,2,1,40,0,0
146311,-144.479400634766,4,2,1,40,0,0
146330,-123.87720489502,4,2,1,40,0,0
146348,-106.212799072266,4,2,1,40,0,0
146367,-91.067268371582,4,2,1,40,0,0
146386,-78.0814361572266,4,2,1,40,0,0
146405,-66.9473266601563,4,2,1,40,0,0
146424,-57.4009017944336,4,2,1,40,0,0
146442,-49.2157554626465,4,2,1,40,0,0
146461,-100,4,2,1,40,0,0
147211,-423.138763427734,4,2,1,40,0,0
147230,-303.192169189453,4,2,1,40,0,0
147248,-217.246673583984,4,2,1,40,0,0
147267,-155.664047241211,4,2,1,40,0,0
147286,-111.538162231445,4,2,1,40,0,0
147305,-79.9205856323242,4,2,1,40,0,0
147324,-57.2656021118164,4,2,1,40,0,0
147342,-41.0325965881348,4,2,1,40,0,0
147361,-100,4,2,1,40,0,1
166711,-100,4,2,1,40,0,0
169111,-41.0325965881348,4,2,1,40,0,0
169130,-57.2656021118164,4,2,1,40,0,0
169148,-79.9205856323242,4,2,1,40,0,0
169167,-111.538162231445,4,2,1,40,0,0
169186,-155.664047241211,4,2,1,40,0,0
169205,-217.246673583984,4,2,1,40,0,0
169224,-303.192169189453,4,2,1,40,0,0
169242,-423.138763427734,4,2,1,40,0,0
169261,-100,4,2,1,40,0,0
169411,-423.138763427734,4,2,1,40,0,0
169430,-303.192169189453,4,2,1,40,0,0
169448,-217.246673583984,4,2,1,40,0,0
169467,-155.664047241211,4,2,1,40,0,0
169486,-111.538162231445,4,2,1,40,0,0
169505,-79.9205856323242,4,2,1,40,0,0
169524,-57.2656021118164,4,2,1,40,0,0
169542,-41.0325965881348,4,2,1,40,0,0
169580,-57.2656021118164,4,2,1,40,0,0
169598,-79.9205856323242,4,2,1,40,0,0
169617,-111.538162231445,4,2,1,40,0,0
169636,-155.664047241211,4,2,1,40,0,0
169655,-217.246673583984,4,2,1,40,0,0
169674,-303.192169189453,4,2,1,40,0,0
169692,-423.138763427734,4,2,1,40,0,0
169711,-100,4,2,1,40,0,0
169861,-423.138763427734,4,2,1,40,0,0
169880,-303.192169189453,4,2,1,40,0,0
169898,-217.246673583984,4,2,1,40,0,0
169917,-155.664047241211,4,2,1,40,0,0
169936,-111.538162231445,4,2,1,40,0,0
169955,-79.9205856323242,4,2,1,40,0,0
169974,-57.2656021118164,4,2,1,40,0,0
169992,-41.0325965881348,4,2,1,40,0,0
170030,-57.2656021118164,4,2,1,40,0,0
170048,-79.9205856323242,4,2,1,40,0,0
170067,-111.538162231445,4,2,1,40,0,0
170086,-155.664047241211,4,2,1,40,0,0
170105,-217.246673583984,4,2,1,40,0,0
170124,-303.192169189453,4,2,1,40,0,0
170142,-423.138763427734,4,2,1,40,0,0
170161,-100,4,2,1,40,0,0
170311,-423.138763427734,4,2,1,40,0,0
170330,-303.192169189453,4,2,1,40,0,0
170348,-217.246673583984,4,2,1,40,0,0
170367,-155.664047241211,4,2,1,40,0,0
170386,-111.538162231445,4,2,1,40,0,0
170405,-79.9205856323242,4,2,1,40,0,0
170424,-57.2656021118164,4,2,1,40,0,0
170442,-41.0325965881348,4,2,1,40,0,0
170480,-57.2656021118164,4,2,1,40,0,0
170498,-79.9205856323242,4,2,1,40,0,0
170517,-111.538162231445,4,2,1,40,0,0
170536,-155.664047241211,4,2,1,40,0,0
170555,-217.246673583984,4,2,1,40,0,0
170574,-303.192169189453,4,2,1,40,0,0
170592,-423.138763427734,4,2,1,40,0,0
170611,-100,4,2,1,40,0,0
170761,-423.138763427734,4,2,1,40,0,0
170780,-303.192169189453,4,2,1,40,0,0
170798,-217.246673583984,4,2,1,40,0,0
170817,-155.664047241211,4,2,1,40,0,0
170836,-111.538162231445,4,2,1,40,0,0
170855,-79.9205856323242,4,2,1,40,0,0
170874,-57.2656021118164,4,2,1,40,0,0
170892,-41.0325965881348,4,2,1,40,0,0
170911,-10.9890108108521,4,2,1,40,0,0
170918,-1000.00042724609,4,2,1,40,0,0
170986,-267.340087890625,4,2,1,40,0,0
171005,-229.21842956543,4,2,1,40,0,0
171024,-196.532791137695,4,2,1,40,0,0
171042,-168.50798034668,4,2,1,40,0,0
171061,-144.479400634766,4,2,1,40,0,0
171080,-123.87720489502,4,2,1,40,0,0
171098,-106.212799072266,4,2,1,40,0,0
171117,-91.067268371582,4,2,1,40,0,0
171136,-78.0814361572266,4,2,1,40,0,0
171155,-66.9473266601563,4,2,1,40,0,0
171174,-57.4009017944336,4,2,1,40,0,0
171192,-49.2157554626465,4,2,1,40,0,0
171211,-62.5,4,2,1,40,0,0
171286,-250.000015258789,4,2,1,40,0,0
171361,-62.5,4,2,1,40,0,0
171398,-250.000015258789,4,2,1,40,0,0
171436,-62.5,4,2,1,40,0,0
171474,-250.000015258789,4,2,1,40,0,0
171511,-27.027027130127,4,2,1,40,0,0
171548,-100,4,2,1,40,0,0
188311,-32.25806427,4,2,1,40,0,0
188348,-333.3332825,4,2,1,40,0,0
188461,-246.9718628,4,2,1,40,0,0
188480,-197.759613,4,2,1,40,0,0
188498,-158.3535156,4,2,1,40,0,0
188517,-126.7995834,4,2,1,40,0,0
188536,-101.5331726,4,2,1,40,0,0
188555,-81.30140686,4,2,1,40,0,0
188574,-65.10108185,4,2,1,40,0,0
188592,-52.1288681,4,2,1,40,0,0
188611,-41.03259659,4,2,1,40,0,0
188630,-57.26560211,4,2,1,40,0,0
188648,-79.92058563,4,2,1,40,0,0
188667,-111.5381622,4,2,1,40,0,0
188686,-155.6640472,4,2,1,40,0,0
188705,-217.2466736,4,2,1,40,0,0
188724,-303.1921692,4,2,1,40,0,0
188742,-423.1387634,4,2,1,40,0,0
188761,-33.84132385,4,2,1,40,0,0
188780,-52.77972412,4,2,1,40,0,0
188798,-82.31650543,4,2,1,40,0,0
188817,-128.3827515,4,2,1,40,0,0
188836,-200.2287445,4,2,1,40,0,0
188855,-312.2814636,4,2,1,40,0,0
188874,-487.0415039,4,2,1,40,0,0
188892,-759.6014404,4,2,1,40,0,0
188911,-28.98135757,4,2,1,40,0,0
188930,-50.51186752,4,2,1,40,0,0
188948,-88.03759003,4,2,1,40,0,0
188967,-153.4415131,4,2,1,40,0,0
188986,-267.4346008,4,2,1,40,0,0
189005,-466.1141357,4,2,1,40,0,0
189024,-812.3945313,4,2,1,40,0,0
189042,-1415.92981,4,2,1,40,0,0
189061,-28.98135757,4,2,1,40,0,0
189080,-50.51186752,4,2,1,40,0,0
189098,-88.03759003,4,2,1,40,0,0
189117,-153.4415131,4,2,1,40,0,0
189136,-267.4346008,4,2,1,40,0,0
189155,-466.1141357,4,2,1,40,0,0
189174,-812.3945313,4,2,1,40,0,0
189192,-1415.92981,4,2,1,40,0,0
189211,-28.98135757,4,2,1,40,0,0
189230,-50.51186752,4,2,1,40,0,0
189248,-88.03759003,4,2,1,40,0,0
189267,-153.4415131,4,2,1,40,0,0
189286,-267.4346008,4,2,1,40,0,0
189305,-466.1141357,4,2,1,40,0,0
189324,-812.3945313,4,2,1,40,0,0
189342,-1415.92981,4,2,1,40,0,0
189361,-28.98135757,4,2,1,40,0,0
189380,-50.51186752,4,2,1,40,0,0
189398,-88.03759003,4,2,1,40,0,0
189417,-153.4415131,4,2,1,40,0,0
189436,-267.4346008,4,2,1,40,0,0
189455,-466.1141357,4,2,1,40,0,0
189474,-812.3945313,4,2,1,40,0,0
189492,-1415.92981,4,2,1,40,0,0
189511,-62.5,4,2,1,40,0,0
189548,-250.000015258789,4,2,1,40,0,0
189586,-64,4,2,1,40,0,0
189624,-228.571426391602,4,2,1,40,0,0
189661,-65.5737686157227,4,2,1,40,0,0
189717,-210.526321411133,4,2,1,40,0,0
189773,-67.2268905639648,4,2,1,40,0,0
189810,-195.121948242188,4,2,1,40,0,0
189848,-68.9655151367188,4,2,1,40,0,0
189904,-181.818176269531,4,2,1,40,0,0
189961,-70.7964553833008,4,2,1,40,0,0
190008,-170.212753295898,4,2,1,40,0,0
190054,-72.7272720336914,4,2,1,40,0,0
190120,-160,4,2,1,40,0,0
190186,-74.766357421875,4,2,1,40,0,0
190242,-150.943389892578,4,2,1,40,0,0
190298,-76.9230804443359,4,2,1,40,0,0
190382,-142.857131958008,4,2,1,40,0,0
190467,-246.971862792969,4,2,1,40,0,0
190498,-197.759613037109,4,2,1,40,0,0
190528,-158.353515625,4,2,1,40,0,0
190558,-126.799583435059,4,2,1,40,0,0
190589,-101.533172607422,4,2,1,40,0,0
190620,-81.3014068603516,4,2,1,40,0,0
190650,-65.1010818481445,4,2,1,40,0,0
190680,-52.1288681030273,4,2,1,40,0,0
190711,-100,4,2,1,40,0,0
195061,-278.788330078125,4,2,1,40,0,0
195080,-247.845520019531,4,2,1,40,0,0
195098,-220.337097167969,4,2,1,40,0,0
195117,-195.8818359375,4,2,1,40,0,0
195136,-174.140853881836,4,2,1,40,0,0
195155,-154.812927246094,4,2,1,40,0,0
195174,-137.63020324707,4,2,1,40,0,0
195192,-122.354591369629,4,2,1,40,0,0
195211,-108.774421691895,4,2,1,40,0,0
195230,-96.701530456543,4,2,1,40,0,0
195248,-85.9685974121094,4,2,1,40,0,0
195267,-76.4269256591797,4,2,1,40,0,0
195286,-67.9442825317383,4,2,1,40,0,0
195305,-60.403133392334,4,2,1,40,0,0
195324,-53.698974609375,4,2,1,40,0,0
195342,-47.7389106750488,4,2,1,40,0,0
195361,-100,4,2,1,40,0,0
197461,-278.788330078125,4,2,1,40,0,0
197480,-247.845520019531,4,2,1,40,0,0
197498,-220.337097167969,4,2,1,40,0,0
197517,-195.8818359375,4,2,1,40,0,0
197536,-174.140853881836,4,2,1,40,0,0
197555,-154.812927246094,4,2,1,40,0,0
197574,-137.63020324707,4,2,1,40,0,0
197592,-122.354591369629,4,2,1,40,0,0
197611,-108.774421691895,4,2,1,40,0,0
197630,-96.701530456543,4,2,1,40,0,0
197648,-85.9685974121094,4,2,1,40,0,0
197667,-76.4269256591797,4,2,1,40,0,0
197686,-67.9442825317383,4,2,1,40,0,0
197705,-60.403133392334,4,2,1,40,0,0
197724,-53.698974609375,4,2,1,40,0,0
197742,-47.7389106750488,4,2,1,40,0,0
197761,-100,4,2,1,40,0,1
207511,-100,4,2,1,40,0,0
231211,-278.7883301,4,2,1,40,0,0
231230,-247.84552,4,2,1,40,0,0
231248,-220.3370972,4,2,1,40,0,0
231267,-195.8818359,4,2,1,40,0,0
231286,-174.1408539,4,2,1,40,0,0
231305,-154.8129272,4,2,1,40,0,0
231324,-137.6302032,4,2,1,40,0,0
231342,-122.3545914,4,2,1,40,0,0
231361,-108.7744217,4,2,1,40,0,0
231380,-96.70153046,4,2,1,40,0,0
231398,-85.96859741,4,2,1,40,0,0
231417,-76.42692566,4,2,1,40,0,0
231436,-67.94428253,4,2,1,40,0,0
231455,-60.40313339,4,2,1,40,0,0
231474,-53.69897461,4,2,1,40,0,0
231492,-47.73891068,4,2,1,40,0,0
231511,-35.7142868,4,2,1,40,0,0
231530,-250,4,2,1,40,0,0
231586,-200.9370575,4,2,1,40,0,0
231605,-134.6921387,4,2,1,40,0,0
231624,-90.28684235,4,2,1,40,0,0
231642,-60.52108002,4,2,1,40,0,0
231661,-32.25806427,4,2,1,40,0,0
231698,-333.3332825,4,2,1,40,0,0
231811,-246.9718628,4,2,1,40,0,0
231830,-197.759613,4,2,1,40,0,0
231848,-158.3535156,4,2,1,40,0,0
231867,-126.7995834,4,2,1,40,0,0
231886,-101.5331726,4,2,1,40,0,0
231905,-81.30140686,4,2,1,40,0,0
231924,-65.10108185,4,2,1,40,0,0
231942,-52.1288681,4,2,1,40,0,0
231961,-40,4,2,1,40,0,0
231979,-200,4,2,1,40,0,0
232036,-40,4,2,1,40,0,0
232054,-200,4,2,1,40,0,0
232111,-32.258064516129,4,2,1,40,0,0
232148,-333.333333333333,4,2,1,40,0,0
232261,-250,4,2,1,40,0,0
232298,-166.666666666667,4,2,1,40,0,0
232336,-90.9090909090909,4,2,1,40,0,0
232373,-52.6315789473684,4,2,1,40,0,0
232411,-35.7142868,4,2,1,40,0,0
232430,-250,4,2,1,40,0,0
232486,-200.9370575,4,2,1,40,0,0
232505,-134.6921387,4,2,1,40,0,0
232524,-90.28684235,4,2,1,40,0,0
232542,-60.52108002,4,2,1,40,0,0
232561,-32.25806427,4,2,1,40,0,0
232598,-333.3332825,4,2,1,40,0,0
232711,-246.9718628,4,2,1,40,0,0
232730,-197.759613,4,2,1,40,0,0
232748,-158.3535156,4,2,1,40,0,0
232767,-126.7995834,4,2,1,40,0,0
232786,-101.5331726,4,2,1,40,0,0
232805,-81.30140686,4,2,1,40,0,0
232824,-65.10108185,4,2,1,40,0,0
232842,-52.1288681,4,2,1,40,0,0
232861,-40,4,2,1,40,0,0
232879,-200,4,2,1,40,0,0
232936,-40,4,2,1,40,0,0
232954,-200,4,2,1,40,0,0
233011,-32.25806452,4,2,1,40,0,0
233048,-333.3333333,4,2,1,40,0,0
233161,-250,4,2,1,40,0,0
233198,-166.6666667,4,2,1,40,0,0
233236,-90.90909091,4,2,1,40,0,0
233273,-52.63157895,4,2,1,40,0,0
233311,-28.98135757,4,2,1,40,0,0
233330,-50.51186752,4,2,1,40,0,0
233348,-88.03759003,4,2,1,40,0,0
233367,-153.4415131,4,2,1,40,0,0
233386,-267.4346008,4,2,1,40,0,0
233405,-466.1141357,4,2,1,40,0,0
233424,-812.3945313,4,2,1,40,0,0
233442,-1415.92981,4,2,1,40,0,0
233461,-28.98135757,4,2,1,40,0,0
233480,-50.51186752,4,2,1,40,0,0
233498,-88.03759003,4,2,1,40,0,0
233517,-153.4415131,4,2,1,40,0,0
233536,-267.4346008,4,2,1,40,0,0
233555,-466.1141357,4,2,1,40,0,0
233574,-812.3945313,4,2,1,40,0,0
233592,-1415.92981,4,2,1,40,0,0
233611,-28.98135757,4,2,1,40,0,0
233630,-50.51186752,4,2,1,40,0,0
233648,-88.03759003,4,2,1,40,0,0
233667,-153.4415131,4,2,1,40,0,0
233686,-267.4346008,4,2,1,40,0,0
233705,-466.1141357,4,2,1,40,0,0
233724,-812.3945313,4,2,1,40,0,0
233742,-1415.92981,4,2,1,40,0,0
233761,-100,4,2,1,40,0,0

[HitObjects]
448,192,1111,5,0,0:0:0:0:
64,192,2311,1,2,0:0:0:0:
192,192,2311,1,4,0:0:0:0:
320,192,2311,128,0,2761:0:0:0:40:AWP.wav
448,192,2311,128,0,3361:0:0:0:0:
64,192,2761,128,0,3211:0:0:0:0:
320,192,2911,1,0,0:0:0:30:Snare.wav
192,192,3211,128,0,3361:0:0:0:0:
64,192,3361,1,0,0:0:0:30:Snare.wav
320,192,3361,128,0,5911:0:0:0:0:
448,192,3511,1,0,0:0:0:0:
64,192,3811,1,2,0:0:0:0:
192,192,3811,1,0,0:0:0:0:
448,192,4111,1,0,0:0:0:30:Snare.wav
64,192,4711,128,2,5311:0:0:0:0:
448,192,4711,1,0,0:0:0:0:
192,192,5311,128,0,5461:0:0:0:30:Snare.wav
448,192,5311,1,0,0:0:0:0:
448,192,5461,128,0,5911:0:0:0:0:
192,192,5761,1,0,0:0:0:30:Snare.wav
64,192,5911,128,0,6211:0:0:0:0:
192,192,6061,128,0,6211:0:0:0:0:
320,192,6211,1,2,0:0:0:0:
448,192,6211,128,0,6511:0:0:0:0:
64,192,6511,128,0,6811:0:0:0:30:Snare.wav
192,192,6511,1,0,0:0:0:0:
320,192,6661,1,2,0:0:0:0:
448,192,6661,1,0,0:0:0:0:
192,192,6811,128,0,7111:0:0:0:0:
64,192,7111,1,2,0:0:0:0:
320,192,7111,128,0,7561:0:0:0:0:
64,192,7561,128,0,8011:0:0:0:0:
320,192,7711,1,0,0:0:0:30:Snare.wav
448,192,8011,128,0,8161:0:0:0:0:
192,192,8161,128,0,9511:0:0:0:30:Snare.wav
320,192,8161,1,0,0:0:0:0:
64,192,8311,1,0,0:0:0:0:
320,192,8611,1,2,0:0:0:0:
448,192,8611,128,0,10711:0:0:0:0:
64,192,8911,1,0,0:0:0:30:Snare.wav
64,192,9511,128,2,10111:0:0:0:0:
320,192,9511,1,0,0:0:0:0:
192,192,10111,128,0,10261:0:0:0:30:Snare.wav
320,192,10111,1,0,0:0:0:0:
320,192,10261,128,0,10711:0:0:0:0:
64,192,10561,1,0,0:0:0:30:Snare.wav
192,192,10711,128,0,11011:0:0:0:0:
64,192,10861,128,0,11011:0:0:0:0:
320,192,11011,128,2,11311:0:0:0:0:
448,192,11011,1,0,0:0:0:0:
64,192,11311,128,0,11836:0:0:0:30:Snare.wav
192,192,11311,1,0,0:0:0:0:
320,192,11461,1,2,0:0:0:0:
448,192,11461,128,0,11836:0:0:0:0:
192,192,11611,128,0,11836:0:0:0:0:
64,192,11911,128,4,12061:0:0:0:0:
192,192,11911,1,2,0:0:0:0:
320,192,11911,128,0,12061:0:0:0:0:
448,192,11911,1,0,0:0:0:0:
320,192,12211,1,2,0:0:0:0:
448,192,12211,1,0,0:0:0:0:
320,192,12361,1,0,0:0:0:0:
448,192,12361,1,0,0:0:0:0:
64,192,12511,1,2,0:0:0:0:
192,192,12511,1,0,0:0:0:0:
64,192,12661,1,0,0:0:0:0:
192,192,12661,1,0,0:0:0:0:
320,192,12811,1,2,0:0:0:0:
448,192,12811,1,0,0:0:0:0:
64,192,12961,1,8,0:0:0:0:
192,192,12961,1,0,0:0:0:0:
448,192,12961,1,0,0:0:0:0:
192,192,13111,128,2,13261:0:0:0:0:
320,192,13111,128,0,13261:0:0:0:0:
64,192,13411,1,2,0:0:0:0:
448,192,13411,1,0,0:0:0:0:
64,192,13561,1,0,0:0:0:40:Tom1.wav
192,192,13561,1,0,0:0:0:0:
320,192,13636,1,0,0:0:0:40:Tom1.wav
448,192,13636,1,0,0:0:0:0:
64,192,13711,1,2,0:0:0:0:
192,192,13711,1,0,0:0:0:0:
320,192,13861,1,0,0:0:0:40:Tom2.wav
448,192,13861,1,0,0:0:0:0:
64,192,14011,1,2,0:0:0:0:
192,192,14011,1,0,0:0:0:40:Tom3.wav
64,192,14161,1,0,0:0:0:40:Tom3.wav
192,192,14161,1,0,0:0:0:0:
64,192,14311,128,2,14461:0:0:0:0:
192,192,14311,1,4,0:0:0:0:
320,192,14311,128,0,14461:0:0:0:0:
448,192,14311,1,0,0:0:0:0:
320,192,14611,1,2,0:0:0:0:
448,192,14611,1,0,0:0:0:0:
320,192,14761,1,0,0:0:0:0:
448,192,14761,1,0,0:0:0:0:
64,192,14911,1,2,0:0:0:0:
192,192,14911,1,0,0:0:0:0:
64,192,15061,1,8,0:0:0:0:
192,192,15061,1,4,0:0:0:0:
448,192,15061,1,0,0:0:0:0:
320,192,15211,1,2,0:0:0:0:
448,192,15211,1,0,0:0:0:0:
320,192,15361,1,0,0:0:0:0:
448,192,15361,1,0,0:0:0:0:
64,192,15511,128,2,15661:0:0:0:0:
192,192,15511,128,0,15661:0:0:0:0:
320,192,15661,1,8,0:0:0:0:
448,192,15661,1,0,0:0:0:0:
64,192,15811,1,8,0:0:0:0:
320,192,15811,1,0,0:0:0:0:
448,192,15811,1,0,0:0:0:0:
192,192,15961,1,2,0:0:0:0:
320,192,15961,1,0,0:0:0:0:
64,192,16111,1,8,0:0:0:0:
320,192,16111,1,0,0:0:0:0:
448,192,16111,1,0,0:0:0:0:
192,192,16186,1,0,0:0:0:40:Tom1.wav
64,192,16261,1,2,0:0:0:0:
448,192,16261,1,0,0:0:0:0:
320,192,16336,1,2,0:0:0:0:
64,192,16411,1,8,0:0:0:0:
192,192,16411,1,4,0:0:0:0:
448,192,16411,1,0,0:0:0:0:
64,192,16711,1,8,0:0:0:0:
192,192,16711,1,4,0:0:0:0:
320,192,16711,1,0,0:0:0:0:
192,192,16861,1,2,0:0:0:0:
448,192,16861,1,0,0:0:0:0:
192,192,17011,1,2,0:0:0:0:
448,192,17011,1,0,0:0:0:0:
64,192,17161,1,8,0:0:0:0:
320,192,17161,1,4,0:0:0:0:
448,192,17161,1,0,0:0:0:0:
192,192,17311,1,2,0:0:0:0:
320,192,17311,1,0,0:0:0:0:
192,192,17461,1,2,0:0:0:0:
320,192,17461,1,0,0:0:0:0:
64,192,17611,1,8,0:0:0:0:
192,192,17611,1,4,0:0:0:0:
448,192,17611,1,0,0:0:0:0:
64,192,17761,1,2,0:0:0:0:
320,192,17761,1,0,0:0:0:0:
192,192,17836,1,2,0:0:0:0:
64,192,17911,1,8,0:0:0:0:
320,192,17911,1,4,0:0:0:0:
448,192,17911,1,0,0:0:0:0:
192,192,18061,1,2,0:0:0:0:
448,192,18061,1,0,0:0:0:0:
192,192,18211,1,2,0:0:0:0:
448,192,18211,1,0,0:0:0:0:
64,192,18361,1,8,0:0:0:0:
192,192,18361,1,4,0:0:0:0:
320,192,18361,1,0,0:0:0:0:
64,192,18511,1,2,0:0:0:0:
448,192,18511,1,0,0:0:0:0:
64,192,18661,1,2,0:0:0:0:
448,192,18661,1,0,0:0:0:0:
64,192,18811,1,8,0:0:0:0:
192,192,18811,1,0,0:0:0:0:
448,192,18811,1,0,0:0:0:0:
320,192,18886,1,0,0:0:0:40:Tom1.wav
64,192,18961,1,2,0:0:0:0:
448,192,18961,1,0,0:0:0:40:Tom3.wav
192,192,19036,1,2,0:0:0:0:
64,192,19111,1,8,0:0:0:0:
320,192,19111,1,4,0:0:0:0:
448,192,19111,1,0,0:0:0:0:
320,192,19411,1,2,0:0:0:0:
448,192,19411,1,0,0:0:0:0:
64,192,19561,1,0,0:0:0:0:
192,192,19561,1,0,0:0:0:0:
64,192,19711,1,8,0:0:0:0:
320,192,19711,1,2,0:0:0:0:
448,192,19711,1,0,0:0:0:0:
64,192,19861,1,8,0:0:0:0:
320,192,19861,1,2,0:0:0:0:
448,192,19861,1,0,0:0:0:0:
64,192,20011,1,8,0:0:0:0:
192,192,20011,1,2,0:0:0:0:
448,192,20011,1,0,0:0:0:0:
64,192,20161,128,8,20311:0:0:0:0:
192,192,20161,128,2,20311:0:0:0:0:
320,192,20161,128,0,20311:0:0:0:40:Hat open.wav
448,192,20161,128,0,20311:0:0:0:0:
192,192,21211,1,2,0:0:0:0:
320,192,21211,1,0,0:0:0:60:Tom1.wav
64,192,21511,128,2,21661:0:0:0:0:
320,192,21511,1,0,0:0:0:20:soft-hitfinish.wav
448,192,21511,1,0,0:0:0:0:
192,192,21661,128,0,21811:0:0:0:0:
320,192,21811,128,10,21961:0:0:0:0:
448,192,21811,1,0,0:0:0:20:soft-hitfinish.wav
64,192,21961,128,0,22111:0:0:0:0:
192,192,22111,128,2,22261:0:0:0:0:
320,192,22111,1,0,0:0:0:20:soft-hitfinish.wav
448,192,22261,128,0,22411:0:0:0:0:
64,192,22411,128,10,22561:0:0:0:0:
320,192,22411,1,0,0:0:0:20:soft-hitfinish.wav
192,192,22561,128,0,22711:0:0:0:0:
320,192,22711,128,2,22861:0:0:0:0:
448,192,22711,1,0,0:0:0:20:soft-hitfinish.wav
64,192,22861,128,0,23011:0:0:0:0:
192,192,23011,1,10,0:0:0:0:
448,192,23011,128,0,23161:0:0:0:20:soft-hitfinish.wav
320,192,23161,128,0,23311:0:0:0:0:
64,192,23311,128,2,23461:0:0:0:0:
192,192,23311,1,0,0:0:0:20:soft-hitfinish.wav
320,192,23461,128,0,23611:0:0:0:0:
192,192,23611,1,10,0:0:0:0:
448,192,23611,128,0,23761:0:0:0:20:soft-hitfinish.wav
64,192,23761,128,0,23911:0:0:0:0:
192,192,23911,1,2,0:0:0:0:
448,192,23911,128,0,24061:0:0:0:20:soft-hitfinish.wav
320,192,24061,128,0,24211:0:0:0:0:
64,192,24211,1,10,0:0:0:0:
192,192,24211,128,0,24361:0:0:0:20:soft-hitfinish.wav
448,192,24361,128,0,24511:0:0:0:0:
64,192,24511,1,2,0:0:0:0:
320,192,24511,128,0,24661:0:0:0:20:soft-hitfinish.wav
192,192,24661,128,0,24811:0:0:0:0:
64,192,24811,1,10,0:0:0:0:
448,192,24811,128,0,24961:0:0:0:20:soft-hitfinish.wav
192,192,24961,128,0,25111:0:0:0:0:
320,192,25111,128,2,25261:0:0:0:0:
448,192,25111,1,0,0:0:0:20:soft-hitfinish.wav
64,192,25261,128,0,25411:0:0:0:0:
192,192,25411,128,10,25561:0:0:0:0:
320,192,25411,1,0,0:0:0:20:soft-hitfinish.wav
448,192,25561,128,0,25711:0:0:0:0:
64,192,25711,1,2,0:0:0:0:
320,192,25711,128,0,25861:0:0:0:20:soft-hitfinish.wav
192,192,25861,128,0,26011:0:0:0:0:
320,192,26011,1,2,0:0:0:0:
448,192,26011,1,8,0:0:0:0:
64,192,26086,1,8,0:0:0:0:
192,192,26086,1,0,0:0:0:0:
320,192,26161,1,8,0:0:0:0:
448,192,26161,1,0,0:0:0:0:
192,192,26236,1,8,0:0:0:0:
64,192,26311,1,2,0:0:0:0:
320,192,26311,1,4,0:0:0:0:
448,192,26311,128,0,26461:0:0:0:0:
192,192,26461,128,0,26611:0:0:0:0:
64,192,26611,1,10,0:0:0:0:
320,192,26611,128,0,26761:0:0:0:20:soft-hitfinish.wav
448,192,26761,128,0,26911:0:0:0:0:
64,192,26911,1,2,0:0:0:0:
192,192,26911,128,0,27061:0:0:0:20:soft-hitfinish.wav
320,192,27061,128,0,27211:0:0:0:0:
64,192,27211,1,10,0:0:0:0:
448,192,27211,128,0,27361:0:0:0:20:soft-hitfinish.wav
192,192,27361,128,0,27511:0:0:0:0:
64,192,27511,1,2,0:0:0:0:
320,192,27511,128,0,27661:0:0:0:20:soft-hitfinish.wav
448,192,27661,128,0,27811:0:0:0:0:
64,192,27811,128,10,27961:0:0:0:0:
192,192,27811,1,0,0:0:0:20:soft-hitfinish.wav
320,192,27961,128,0,28111:0:0:0:0:
192,192,28111,128,2,28261:0:0:0:0:
448,192,28111,1,0,0:0:0:20:soft-hitfinish.wav
64,192,28261,128,0,28411:0:0:0:0:
192,192,28411,1,10,0:0:0:0:
320,192,28411,128,0,28561:0:0:0:20:soft-hitfinish.wav
448,192,28561,128,0,28711:0:0:0:0:
64,192,28711,1,2,0:0:0:0:
192,192,28711,1,0,0:0:0:0:
320,192,28786,1,2,0:0:0:0:
64,192,28861,1,8,0:0:0:0:
192,192,28861,1,0,0:0:0:0:
448,192,28861,1,0,0:0:0:0:
192,192,29011,1,8,0:0:0:0:
320,192,29011,1,0,0:0:0:20:soft-hitfinish.wav
448,192,29011,1,0,0:0:0:0:
64,192,29161,1,2,0:0:0:0:
448,192,29161,1,0,0:0:0:0:
320,192,29236,1,2,0:0:0:0:
64,192,29311,1,8,0:0:0:0:
192,192,29311,1,0,0:0:0:20:soft-hitfinish.wav
448,192,29311,1,0,0:0:0:0:
320,192,29386,1,0,0:0:0:40:Tom1.wav
64,192,29461,1,2,0:0:0:0:
448,192,29461,1,0,0:0:0:0:
192,192,29536,1,2,0:0:0:0:
64,192,29611,1,8,0:0:0:0:
320,192,29611,1,0,0:0:0:20:soft-hitfinish.wav
192,192,29686,1,8,0:0:0:0:
448,192,29686,1,0,0:0:0:0:
64,192,29761,1,2,0:0:0:0:
320,192,29761,128,0,29911:0:0:0:40:Hat open.wav
192,192,29911,128,0,30061:0:0:0:0:
64,192,30061,1,8,0:0:0:0:
320,192,30061,1,0,0:0:0:0:
448,192,30061,1,0,0:0:0:0:
64,192,30211,1,8,0:0:0:0:
192,192,30211,1,0,0:0:0:0:
448,192,30211,1,0,0:0:0:0:
64,192,30361,1,2,0:0:0:0:
320,192,30361,1,0,0:0:0:0:
192,192,30436,1,2,0:0:0:0:
64,192,30511,1,8,0:0:0:0:
320,192,30511,1,0,0:0:0:40:Hat open.wav
448,192,30511,1,0,0:0:0:0:
192,192,30661,1,2,0:0:0:0:
448,192,30661,1,0,0:0:0:40:Tom1.wav
64,192,30811,1,2,0:0:0:0:
320,192,30811,1,0,0:0:0:40:Tom1.wav
192,192,30961,1,2,0:0:0:0:
448,192,30961,1,0,0:0:0:40:Tom1.wav
64,192,31111,1,2,0:0:0:0:
192,192,31111,1,4,0:0:0:0:
320,192,31111,128,0,32311:0:0:0:0:
448,192,31111,1,0,0:0:0:0:
448,192,31411,1,0,0:0:0:0:
64,192,31561,1,2,0:0:0:0:
192,192,31561,1,0,0:0:0:0:
448,192,31861,1,0,0:0:0:0:
64,192,32011,1,0,0:0:0:0:
192,192,32161,1,0,0:0:0:0:
448,192,32311,128,0,33511:0:0:0:0:
64,192,32611,1,2,0:0:0:0:
192,192,32611,1,0,0:0:0:0:
320,192,32761,1,0,0:0:0:0:
64,192,32911,1,2,0:0:0:0:
192,192,32911,1,0,0:0:0:0:
320,192,33061,1,0,0:0:0:0:
192,192,33211,1,0,0:0:0:0:
64,192,33511,128,2,34711:0:0:0:0:
320,192,33511,1,0,0:0:0:0:
448,192,33811,1,0,0:0:0:0:
192,192,33961,1,2,0:0:0:0:
320,192,33961,1,0,0:0:0:0:
448,192,34111,1,0,0:0:0:0:
192,192,34261,1,0,0:0:0:0:
320,192,34411,128,0,34711:0:0:0:20:Hat open.wav
192,192,34711,128,0,35911:0:0:0:0:
448,192,34861,1,0,0:0:0:0:
64,192,35011,1,2,0:0:0:0:
320,192,35011,1,0,0:0:0:0:
448,192,35161,1,0,0:0:0:0:
64,192,35311,1,2,0:0:0:0:
320,192,35311,1,0,0:0:0:0:
448,192,35461,1,0,0:0:0:0:
64,192,35611,1,0,0:0:0:0:
320,192,35761,1,2,0:0:0:0:
448,192,35761,1,0,0:0:0:0:
320,192,35911,1,2,0:0:0:0:
448,192,35911,1,0,0:0:0:0:
192,192,36211,1,0,0:0:0:0:
64,192,36361,1,2,0:0:0:0:
320,192,36361,1,0,0:0:0:0:
192,192,36511,1,0,0:0:0:0:
320,192,36511,1,0,0:0:0:0:
448,192,36661,1,0,0:0:0:0:
64,192,36811,128,0,37111:0:0:0:20:Hat open.wav
192,192,36811,1,0,0:0:0:0:
320,192,37111,1,2,0:0:0:0:
448,192,37111,1,0,0:0:0:0:
192,192,37261,1,0,0:0:0:0:
448,192,37411,1,0,0:0:0:0:
64,192,37561,1,2,0:0:0:0:
320,192,37561,1,0,0:0:0:0:
64,192,37711,1,0,0:0:0:0:
192,192,37711,1,0,0:0:0:0:
448,192,37861,1,0,0:0:0:0:
64,192,38011,128,0,38311:0:0:0:20:Hat open.wav
320,192,38011,1,0,0:0:0:0:
320,192,38311,1,0,0:0:0:40:Tom1.wav
448,192,38311,1,0,0:0:0:0:
64,192,38386,1,0,0:0:0:40:Tom1.wav
192,192,38386,1,0,0:0:0:0:
320,192,38461,1,2,0:0:0:0:
448,192,38461,1,0,0:0:0:40:Tom2.wav
64,192,38611,1,8,0:0:0:0:
192,192,38611,1,0,0:0:0:0:
448,192,38611,1,0,0:0:0:0:
192,192,38761,1,2,0:0:0:0:
320,192,38761,1,0,0:0:0:0:
64,192,38911,1,8,0:0:0:0:
320,192,38911,1,0,0:0:0:0:
448,192,38911,1,0,0:0:0:0:
64,192,39061,1,2,0:0:0:0:
192,192,39061,1,0,0:0:0:40:Hat open.wav
192,192,39211,1,8,0:0:0:0:
320,192,39211,1,0,0:0:0:0:
448,192,39211,1,0,0:0:0:0:
64,192,39361,1,2,0:0:0:0:
320,192,39361,1,0,0:0:0:40:Hat open.wav
448,192,39361,1,0,0:0:0:0:
64,192,40111,1,2,0:0:0:0:
320,192,40111,1,8,0:0:0:0:
448,192,40111,1,0,0:0:0:0:
192,192,40186,1,0,0:0:0:0:
320,192,40261,1,8,0:0:0:0:
448,192,40261,1,0,0:0:0:0:
64,192,40336,1,8,0:0:0:0:
192,192,40336,1,0,0:0:0:0:
320,192,40411,1,8,0:0:0:0:
448,192,40411,1,0,0:0:0:0:
64,192,40486,1,8,0:0:0:0:
192,192,40486,1,0,0:0:0:0:
320,192,40561,1,8,0:0:0:0:
448,192,40561,1,0,0:0:0:0:
192,192,40636,1,8,0:0:0:0:
64,192,40711,1,4,0:0:0:0:
320,192,40711,1,2,0:0:0:0:
448,192,40711,1,0,0:0:0:0:
192,192,40861,1,2,0:0:0:0:
320,192,40861,1,0,0:0:0:0:
64,192,41011,1,8,0:0:0:0:
192,192,41011,1,0,0:0:0:40:Hat open.wav
448,192,41011,1,0,0:0:0:0:
320,192,41161,128,0,41311:0:0:0:0:
64,192,41311,1,2,0:0:0:0:
192,192,41311,1,0,0:0:0:40:Hat open.wav
64,192,41461,1,2,0:0:0:0:
448,192,41461,1,0,0:0:0:0:
192,192,41611,1,8,0:0:0:0:
320,192,41611,1,0,0:0:0:40:Hat open.wav
448,192,41611,128,0,41761:0:0:0:0:
64,192,41761,1,0,0:0:0:0:
320,192,41911,1,2,0:0:0:0:
448,192,41911,1,0,0:0:0:40:Hat open.wav
64,192,42061,1,2,0:0:0:0:
192,192,42061,128,0,42211:0:0:0:0:
64,192,42211,1,8,0:0:0:0:
320,192,42211,1,0,0:0:0:40:Hat open.wav
448,192,42211,1,0,0:0:0:0:
192,192,42361,1,2,0:0:0:0:
320,192,42361,1,0,0:0:0:0:
448,192,42511,128,0,42661:0:0:0:40:Hat open.wav
64,192,42661,1,2,0:0:0:0:
320,192,42661,1,0,0:0:0:0:
192,192,42811,1,8,0:0:0:0:
320,192,42811,1,0,0:0:0:40:Hat open.wav
448,192,42811,1,0,0:0:0:0:
64,192,42961,128,0,43111:0:0:0:0:
192,192,43111,1,4,0:0:0:0:
320,192,43111,1,2,0:0:0:0:
448,192,43111,1,0,0:0:0:0:
64,192,43261,1,2,0:0:0:0:
320,192,43261,1,0,0:0:0:0:
64,192,43411,1,8,0:0:0:0:
192,192,43411,1,0,0:0:0:40:Hat open.wav
448,192,43411,128,0,43561:0:0:0:0:
320,192,43561,1,0,0:0:0:0:
192,192,43711,1,2,0:0:0:0:
448,192,43711,1,0,0:0:0:40:Hat open.wav
64,192,43861,128,2,44011:0:0:0:0:
320,192,43861,1,0,0:0:0:0:
192,192,44011,1,8,0:0:0:0:
320,192,44011,1,0,0:0:0:40:Hat open.wav
448,192,44011,1,0,0:0:0:0:
64,192,44161,1,0,0:0:0:0:
192,192,44311,1,2,0:0:0:0:
448,192,44311,128,0,44461:0:0:0:40:Hat open.wav
64,192,44461,1,2,0:0:0:0:
320,192,44461,1,0,0:0:0:0:
64,192,44611,1,8,0:0:0:0:
192,192,44611,1,0,0:0:0:40:Hat open.wav
448,192,44611,1,0,0:0:0:0:
320,192,44761,128,2,44911:0:0:0:0:
448,192,44761,1,0,0:0:0:0:
64,192,44911,1,8,0:0:0:0:
192,192,44911,1,0,0:0:0:0:
320,192,44986,1,8,0:0:0:0:
448,192,44986,1,0,0:0:0:0:
192,192,45061,1,0,0:0:0:40:Tom1.wav
64,192,45136,1,2,0:0:0:0:
320,192,45211,1,8,0:0:0:0:
448,192,45211,1,0,0:0:0:0:
64,192,45286,1,8,0:0:0:0:
192,192,45286,1,0,0:0:0:0:
320,192,45361,1,8,0:0:0:0:
448,192,45361,1,0,0:0:0:0:
64,192,45436,1,8,0:0:0:0:
192,192,45436,1,0,0:0:0:0:
448,192,45511,128,0,45661:0:0:0:0:
192,192,45661,1,0,0:0:0:0:
64,192,45811,1,4,0:0:0:0:
192,192,45811,1,2,0:0:0:0:
320,192,45811,1,8,0:0:0:0:
448,192,45811,1,0,0:0:0:0:
320,192,46111,1,2,0:0:0:0:
448,192,46111,1,0,0:0:0:0:
320,192,46261,1,2,0:0:0:0:
448,192,46261,1,0,0:0:0:0:
64,192,46411,1,8,0:0:0:0:
192,192,46411,1,0,0:0:0:0:
448,192,46411,1,0,0:0:0:0:
320,192,46561,1,0,0:0:0:0:
64,192,46711,1,2,0:0:0:0:
192,192,46711,1,0,0:0:0:0:
64,192,46861,1,2,0:0:0:0:
192,192,46861,1,0,0:0:0:0:
64,192,47011,1,8,0:0:0:0:
320,192,47011,1,0,0:0:0:0:
448,192,47011,1,0,0:0:0:0:
192,192,47161,1,2,0:0:0:0:
320,192,47161,1,0,0:0:0:0:
448,192,47311,1,0,0:0:0:0:
64,192,47461,1,2,0:0:0:0:
192,192,47461,1,0,0:0:0:0:
320,192,47611,1,8,0:0:0:0:
448,192,47611,1,0,0:0:0:0:
64,192,47686,1,8,0:0:0:0:
192,192,47686,1,0,0:0:0:0:
320,192,47761,1,8,0:0:0:0:
448,192,47761,1,0,0:0:0:0:
192,192,47836,1,8,0:0:0:0:
64,192,47911,1,2,0:0:0:0:
320,192,47911,1,4,0:0:0:0:
448,192,47911,1,0,0:0:0:0:
64,192,48061,1,2,0:0:0:0:
192,192,48061,1,0,0:0:0:0:
192,192,48211,1,8,0:0:0:0:
320,192,48211,1,0,0:0:0:40:Hat open.wav
448,192,48211,1,0,0:0:0:0:
64,192,48361,1,2,0:0:0:0:
320,192,48361,1,0,0:0:0:0:
64,192,48511,1,8,0:0:0:0:
192,192,48511,1,0,0:0:0:40:Hat open.wav
448,192,48511,1,0,0:0:0:0:
192,192,48661,1,2,0:0:0:0:
320,192,48661,1,0,0:0:0:0:
64,192,48811,1,8,0:0:0:0:
320,192,48811,1,0,0:0:0:40:Hat open.wav
448,192,48811,1,0,0:0:0:0:
192,192,48886,1,0,0:0:0:40:Tom1.wav
64,192,48961,1,2,0:0:0:0:
448,192,48961,1,0,0:0:0:0:
320,192,49036,1,2,0:0:0:0:
64,192,49111,1,8,0:0:0:0:
192,192,49111,1,0,0:0:0:0:
448,192,49111,1,0,0:0:0:0:
64,192,49261,1,2,0:0:0:0:
192,192,49261,1,4,0:0:0:0:
320,192,49261,1,0,0:0:0:0:
448,192,49261,1,0,0:0:0:0:
64,192,49561,1,0,0:0:0:40:Tom1.wav
320,192,49561,1,0,0:0:0:0:
192,192,49636,1,0,0:0:0:40:Tom1.wav
64,192,49711,1,4,0:0:0:0:
320,192,49711,1,2,0:0:0:0:
448,192,49711,1,0,0:0:0:0:
64,192,49861,1,8,0:0:0:0:
192,192,49861,1,0,0:0:0:0:
448,192,49861,1,0,0:0:0:0:
64,192,50011,1,8,0:0:0:0:
192,192,50011,1,0,0:0:0:0:
448,192,50011,1,0,0:0:0:0:
64,192,50161,1,8,0:0:0:0:
192,192,50161,1,0,0:0:0:0:
448,192,50161,1,0,0:0:0:0:
64,192,50311,1,2,0:0:0:0:
192,192,50311,1,4,0:0:0:0:
320,192,50311,1,0,0:0:0:0:
448,192,50311,1,0,0:0:0:0:
64,192,50461,1,2,0:0:0:0:
192,192,50461,1,4,0:0:0:0:
320,192,50461,1,0,0:0:0:0:
448,192,50461,1,0,0:0:0:0:
192,192,50761,1,2,0:0:0:0:
448,192,50761,1,0,0:0:0:0:
320,192,50836,1,2,0:0:0:0:
64,192,50911,1,4,0:0:0:0:
192,192,50911,1,8,0:0:0:0:
448,192,50911,1,0,0:0:0:0:
320,192,51061,1,0,0:0:0:0:
64,192,51211,1,2,0:0:0:0:
192,192,51211,1,0,0:0:0:0:
64,192,51361,1,2,0:0:0:0:
192,192,51361,1,0,0:0:0:0:
320,192,51511,1,4,0:0:0:0:
192,192,51661,1,2,0:0:0:0:
448,192,51661,1,0,0:0:0:0:
64,192,51736,1,2,0:0:0:0:
320,192,51736,1,0,0:0:0:0:
192,192,51811,1,2,0:0:0:0:
448,192,51811,1,0,0:0:0:0:
64,192,51961,1,2,0:0:0:0:
320,192,51961,1,0,0:0:0:0:
192,192,52111,1,8,0:0:0:0:
320,192,52111,1,0,0:0:0:0:
448,192,52111,1,0,0:0:0:0:
192,192,52261,1,2,0:0:0:0:
320,192,52261,1,8,0:0:0:0:
448,192,52261,1,0,0:0:0:0:
64,192,52411,1,8,0:0:0:0:
192,192,52411,1,2,0:0:0:0:
448,192,52411,1,0,0:0:0:0:
64,192,52561,1,8,0:0:0:0:
192,192,52561,1,2,0:0:0:0:
448,192,52561,1,0,0:0:0:0:
64,192,52711,1,2,0:0:0:0:
320,192,52711,1,0,0:0:0:0:
64,192,52861,1,2,0:0:0:0:
320,192,52861,1,0,0:0:0:0:
192,192,53011,1,0,0:0:0:0:
64,192,53161,1,2,0:0:0:0:
320,192,53161,1,0,0:0:0:0:
192,192,53236,1,2,0:0:0:0:
64,192,53311,1,8,0:0:0:0:
320,192,53311,1,0,0:0:0:0:
448,192,53311,1,0,0:0:0:0:
192,192,53461,1,2,0:0:0:0:
448,192,53461,1,0,0:0:0:0:
320,192,53611,1,0,0:0:0:0:
64,192,53761,1,2,0:0:0:0:
448,192,53761,1,0,0:0:0:0:
192,192,53911,1,0,0:0:0:0:
320,192,54061,1,2,0:0:0:0:
448,192,54061,1,0,0:0:0:0:
64,192,54136,1,2,0:0:0:0:
192,192,54136,1,0,0:0:0:0:
320,192,54211,1,2,0:0:0:0:
448,192,54211,1,0,0:0:0:0:
64,192,54361,1,2,0:0:0:0:
192,192,54361,1,0,0:0:0:0:
64,192,54511,1,8,0:0:0:0:
320,192,54511,1,0,0:0:0:0:
448,192,54511,1,0,0:0:0:0:
192,192,54661,1,2,0:0:0:0:
448,192,54661,1,0,0:0:0:0:
320,192,54736,1,2,0:0:0:0:
64,192,54811,1,8,0:0:0:0:
192,192,54811,1,0,0:0:0:0:
320,192,54886,1,8,0:0:0:0:
448,192,54886,1,0,0:0:0:0:
64,192,54961,1,2,0:0:0:0:
192,192,55036,1,2,0:0:0:0:
64,192,55111,1,8,0:0:0:0:
320,192,55111,1,4,0:0:0:0:
448,192,55111,1,0,0:0:0:0:
192,192,55261,1,2,0:0:0:0:
448,192,55261,1,0,0:0:0:0:
192,192,55411,1,2,0:0:0:0:
448,192,55411,1,0,0:0:0:0:
64,192,55561,1,8,0:0:0:0:
192,192,55561,1,4,0:0:0:0:
320,192,55561,1,0,0:0:0:0:
64,192,55711,1,2,0:0:0:0:
448,192,55711,1,0,0:0:0:0:
64,192,55861,1,2,0:0:0:0:
448,192,55861,1,0,0:0:0:0:
192,192,56011,1,8,0:0:0:0:
320,192,56011,1,4,0:0:0:0:
448,192,56011,1,0,0:0:0:0:
64,192,56161,1,2,0:0:0:0:
320,192,56161,1,0,0:0:0:0:
64,192,56311,1,2,0:0:0:0:
320,192,56311,1,0,0:0:0:0:
64,192,56461,1,8,0:0:0:0:
192,192,56461,1,4,0:0:0:0:
448,192,56461,1,0,0:0:0:0:
192,192,56611,1,2,0:0:0:0:
320,192,56611,1,0,0:0:0:0:
192,192,56761,1,2,0:0:0:0:
320,192,56761,1,0,0:0:0:0:
64,192,56911,1,8,0:0:0:0:
448,192,56911,1,0,0:0:0:0:
192,192,56986,1,8,0:0:0:0:
320,192,56986,1,0,0:0:0:0:
64,192,57061,1,0,0:0:0:40:Tom1.wav
448,192,57061,1,0,0:0:0:0:
192,192,57136,1,0,0:0:0:40:Tom1.wav
320,192,57211,1,0,0:0:0:40:Tom2.wav
448,192,57211,1,0,0:0:0:0:
192,192,57286,1,0,0:0:0:40:Tom2.wav
64,192,57361,1,0,0:0:0:40:Tom3.wav
320,192,57361,1,0,0:0:0:0:
448,192,57436,1,0,0:0:0:40:Tom3.wav
64,192,57511,128,0,57961:0:0:0:40:Tom3.wav
192,192,57661,128,0,57961:0:0:0:0:
320,192,57811,128,0,57961:0:0:0:0:
448,192,57961,128,0,58486:0:0:0:0:
320,192,58111,128,0,58486:0:0:0:0:
192,192,58261,128,0,58486:0:0:0:0:
64,192,58411,128,0,58486:0:0:0:0:
64,192,58561,128,2,58711:0:0:0:0:
192,192,58561,128,0,58711:0:0:0:40:Hat open.wav
320,192,58561,128,0,58711:0:0:0:0:
448,192,58561,128,0,58711:0:0:0:0:
64,192,59011,128,0,59686:0:0:0:0:
320,192,59311,128,0,59686:0:0:0:0:
448,192,59461,128,0,59686:0:0:0:0:
64,192,59761,1,2,0:0:0:0:
192,192,59761,1,4,0:0:0:0:
320,192,59761,128,0,60061:0:0:0:0:
448,192,59761,128,0,60061:0:0:0:0:
64,192,60061,1,2,0:0:0:0:
192,192,60061,1,0,0:0:0:0:
64,192,60211,128,8,60511:0:0:0:0:
320,192,60211,1,0,0:0:0:40:Hat open.wav
448,192,60211,1,0,0:0:0:0:
192,192,60361,128,0,60511:0:0:0:0:
320,192,60511,1,2,0:0:0:0:
448,192,60511,1,0,0:0:0:40:Hat open.wav
192,192,60661,1,2,0:0:0:0:
320,192,60661,1,0,0:0:0:0:
64,192,60811,1,8,0:0:0:0:
320,192,60811,1,0,0:0:0:40:Hat open.wav
448,192,60811,1,0,0:0:0:0:
192,192,60961,1,2,0:0:0:0:
448,192,60961,128,0,61261:0:0:0:0:
320,192,61111,128,0,61261:0:0:0:40:Hat open.wav
64,192,61261,1,2,0:0:0:0:
192,192,61261,1,0,0:0:0:0:
64,192,61411,1,8,0:0:0:0:
320,192,61411,128,0,61711:0:0:0:40:Hat open.wav
448,192,61411,1,0,0:0:0:0:
192,192,61561,128,0,61711:0:0:0:0:
64,192,61711,1,2,0:0:0:0:
448,192,61711,1,0,0:0:0:40:Hat open.wav
64,192,61861,1,2,0:0:0:0:
320,192,61861,1,0,0:0:0:0:
192,192,62011,1,8,0:0:0:0:
320,192,62011,1,0,0:0:0:40:Hat open.wav
448,192,62011,1,0,0:0:0:0:
64,192,62161,128,2,62461:0:0:0:0:
192,192,62161,128,4,62611:0:0:0:0:
320,192,62161,1,0,0:0:0:0:
448,192,62161,1,0,0:0:0:0:
320,192,62461,1,2,0:0:0:0:
448,192,62461,1,0,0:0:0:0:
64,192,62611,1,8,0:0:0:0:
320,192,62611,1,0,0:0:0:40:Hat open.wav
448,192,62611,128,0,62911:0:0:0:0:
192,192,62761,128,0,62911:0:0:0:0:
64,192,62911,1,2,0:0:0:0:
320,192,62911,1,0,0:0:0:40:Hat open.wav
192,192,63061,1,2,0:0:0:0:
320,192,63061,1,0,0:0:0:0:
64,192,63211,1,8,0:0:0:0:
192,192,63211,1,0,0:0:0:40:Hat open.wav
448,192,63211,1,0,0:0:0:0:
64,192,63361,1,2,0:0:0:0:
320,192,63361,1,0,0:0:0:0:
192,192,63436,1,2,0:0:0:0:
64,192,63511,1,8,0:0:0:0:
320,192,63511,1,4,0:0:0:0:
448,192,63511,1,0,0:0:0:0:
192,192,63661,1,2,0:0:0:0:
448,192,63661,1,0,0:0:0:0:
64,192,63811,1,8,0:0:0:0:
192,192,63811,128,4,63961:0:0:0:0:
320,192,63811,1,0,0:0:0:0:
64,192,63961,1,2,0:0:0:0:
448,192,63961,1,0,0:0:0:0:
320,192,64036,1,2,0:0:0:0:
64,192,64111,1,8,0:0:0:0:
192,192,64111,1,0,0:0:0:0:
320,192,64186,1,8,0:0:0:0:
448,192,64186,1,0,0:0:0:0:
64,192,64261,1,0,0:0:0:40:Tom1.wav
192,192,64261,1,0,0:0:0:0:
320,192,64336,1,0,0:0:0:40:Tom1.wav
64,192,64411,1,0,0:0:0:40:Tom2.wav
448,192,64411,1,0,0:0:0:0:
192,192,64486,1,0,0:0:0:40:Tom2.wav
64,192,64561,128,2,64861:0:0:0:0:
320,192,64561,1,4,0:0:0:0:
448,192,64561,1,0,0:0:0:0:
192,192,64711,128,0,64861:0:0:0:0:
320,192,64861,1,2,0:0:0:0:
448,192,64861,1,0,0:0:0:0:
192,192,64936,1,2,0:0:0:0:
64,192,65011,1,8,0:0:0:0:
320,192,65011,1,0,0:0:0:40:Hat open.wav
448,192,65011,128,0,65161:0:0:0:0:
192,192,65161,1,0,0:0:0:0:
64,192,65311,128,2,65611:0:0:0:0:
448,192,65311,1,0,0:0:0:40:Hat open.wav
192,192,65461,1,2,0:0:0:0:
320,192,65461,1,0,0:0:0:0:
192,192,65611,1,8,0:0:0:0:
320,192,65611,1,0,0:0:0:40:Hat open.wav
448,192,65611,128,0,65761:0:0:0:0:
192,192,65761,128,0,65911:0:0:0:0:
64,192,65911,1,2,0:0:0:0:
320,192,65911,1,4,0:0:0:0:
448,192,65911,1,0,0:0:0:0:
192,192,66061,1,2,0:0:0:0:
448,192,66061,1,0,0:0:0:0:
64,192,66211,1,8,0:0:0:0:
192,192,66211,1,0,0:0:0:40:Hat open.wav
320,192,66211,1,0,0:0:0:0:
64,192,66361,1,2,0:0:0:0:
448,192,66361,1,0,0:0:0:0:
192,192,66511,1,8,0:0:0:0:
320,192,66511,1,0,0:0:0:40:Hat open.wav
448,192,66511,1,0,0:0:0:0:
64,192,66661,1,2,0:0:0:0:
320,192,66661,1,0,0:0:0:0:
64,192,66811,1,8,0:0:0:0:
192,192,66811,1,0,0:0:0:40:Hat open.wav
448,192,66811,1,0,0:0:0:0:
64,192,66961,1,2,0:0:0:0:
192,192,66961,1,4,0:0:0:0:
320,192,66961,128,0,67261:0:0:0:0:
448,192,66961,128,0,67261:0:0:0:0:
64,192,67261,1,2,0:0:0:0:
192,192,67261,1,0,0:0:0:0:
64,192,67411,1,8,0:0:0:0:
320,192,67411,1,0,0:0:0:40:Hat open.wav
448,192,67411,1,0,0:0:0:0:
192,192,67561,1,2,0:0:0:0:
320,192,67561,1,0,0:0:0:0:
64,192,67711,1,8,0:0:0:0:
192,192,67711,1,0,0:0:0:40:Hat open.wav
448,192,67711,1,0,0:0:0:0:
64,192,67861,1,2,0:0:0:0:
320,192,67861,1,0,0:0:0:0:
192,192,68011,1,8,0:0:0:0:
320,192,68011,1,0,0:0:0:40:Hat open.wav
448,192,68011,1,0,0:0:0:0:
64,192,68161,1,2,0:0:0:0:
192,192,68161,1,0,0:0:0:0:
320,192,68236,1,2,0:0:0:0:
64,192,68311,1,8,0:0:0:0:
192,192,68311,1,0,0:0:0:40:Hat open.wav
448,192,68311,1,0,0:0:0:0:
320,192,68461,1,8,0:0:0:0:
448,192,68461,1,0,0:0:0:0:
64,192,68536,1,8,0:0:0:0:
192,192,68536,1,0,0:0:0:0:
320,192,68611,1,8,0:0:0:0:
448,192,68611,1,0,0:0:0:0:
64,192,68686,1,8,0:0:0:0:
192,192,68686,1,0,0:0:0:0:
320,192,68761,1,8,0:0:0:0:
448,192,68761,1,0,0:0:0:0:
64,192,68836,1,8,0:0:0:0:
192,192,68836,1,0,0:0:0:0:
320,192,68911,1,2,0:0:0:0:
448,192,68911,1,0,0:0:0:0:
192,192,68986,1,0,0:0:0:40:Tom1.wav
64,192,69061,1,0,0:0:0:40:Tom2.wav
448,192,69061,1,0,0:0:0:0:
320,192,69136,1,0,0:0:0:40:Tom2.wav
64,192,69211,1,0,0:0:0:40:Tom3.wav
192,192,69211,1,0,0:0:0:0:
320,192,69286,1,0,0:0:0:40:Tom3.wav
64,192,69361,128,2,69661:0:0:0:0:
192,192,69361,1,4,0:0:0:0:
448,192,69361,1,0,0:0:0:0:
320,192,69511,128,0,69661:0:0:0:0:
192,192,69661,1,2,0:0:0:0:
448,192,69661,1,0,0:0:0:0:
320,192,69736,1,2,0:0:0:0:
64,192,69811,1,8,0:0:0:0:
192,192,69811,128,0,70111:0:0:0:40:Hat open.wav
448,192,69811,1,0,0:0:0:0:
320,192,69961,128,0,70111:0:0:0:0:
64,192,70111,1,2,0:0:0:0:
448,192,70111,1,0,0:0:0:40:Hat open.wav
192,192,70261,1,2,0:0:0:0:
448,192,70261,1,0,0:0:0:0:
64,192,70411,1,8,0:0:0:0:
192,192,70411,1,0,0:0:0:40:Hat open.wav
320,192,70411,1,0,0:0:0:0:
64,192,70561,1,2,0:0:0:0:
448,192,70561,128,0,70861:0:0:0:0:
320,192,70711,128,0,70861:0:0:0:40:Hat open.wav
64,192,70861,1,2,0:0:0:0:
192,192,70861,1,0,0:0:0:0:
64,192,71011,1,8,0:0:0:0:
320,192,71011,128,0,71311:0:0:0:40:Hat open.wav
448,192,71011,1,0,0:0:0:0:
192,192,71161,128,0,71311:0:0:0:0:
64,192,71311,1,2,0:0:0:0:
448,192,71311,1,0,0:0:0:40:Hat open.wav
64,192,71461,1,2,0:0:0:0:
320,192,71461,1,0,0:0:0:0:
192,192,71611,1,8,0:0:0:0:
320,192,71611,1,0,0:0:0:40:Hat open.wav
448,192,71611,1,0,0:0:0:0:
64,192,71761,128,2,72061:0:0:0:0:
192,192,71761,1,4,0:0:0:0:
320,192,71761,1,0,0:0:0:0:
448,192,71761,1,0,0:0:0:0:
448,192,71911,128,0,72061:0:0:0:0:
192,192,72061,1,2,0:0:0:0:
320,192,72061,1,0,0:0:0:0:
64,192,72211,1,8,0:0:0:0:
192,192,72211,1,0,0:0:0:40:Hat open.wav
320,192,72211,128,0,72511:0:0:0:0:
448,192,72361,128,0,72511:0:0:0:0:
64,192,72511,1,2,0:0:0:0:
192,192,72511,1,0,0:0:0:40:Hat open.wav
192,192,72661,1,2,0:0:0:0:
320,192,72661,1,0,0:0:0:0:
64,192,72811,1,8,0:0:0:0:
320,192,72811,1,0,0:0:0:40:Hat open.wav
448,192,72811,1,0,0:0:0:0:
192,192,72961,128,0,73111:0:0:0:0:
320,192,73111,1,2,0:0:0:0:
448,192,73111,1,0,0:0:0:40:Hat open.wav
192,192,73261,1,2,0:0:0:0:
320,192,73261,1,0,0:0:0:0:
64,192,73411,1,8,0:0:0:0:
192,192,73411,1,0,0:0:0:40:Hat open.wav
448,192,73411,1,0,0:0:0:0:
64,192,73561,1,0,0:0:0:40:Tom1.wav
320,192,73561,1,0,0:0:0:0:
192,192,73636,1,0,0:0:0:40:Tom1.wav
64,192,73711,1,8,0:0:0:0:
320,192,73711,1,0,0:0:0:40:Hat open.wav
448,192,73711,1,0,0:0:0:0:
192,192,73861,1,2,0:0:0:0:
448,192,73861,1,0,0:0:0:0:
320,192,73936,1,2,0:0:0:0:
64,192,74011,1,8,0:0:0:0:
192,192,74011,1,0,0:0:0:40:Hat open.wav
448,192,74011,1,0,0:0:0:0:
64,192,74161,1,2,0:0:0:0:
192,192,74161,1,4,0:0:0:0:
320,192,74161,1,0,0:0:0:0:
448,192,74161,1,0,0:0:0:0:
320,192,74461,1,2,0:0:0:0:
448,192,74461,1,0,0:0:0:0:
64,192,74611,1,8,0:0:0:0:
192,192,74611,1,0,0:0:0:40:Hat open.wav
448,192,74611,1,0,0:0:0:0:
192,192,74761,1,2,0:0:0:0:
320,192,74761,1,0,0:0:0:0:
64,192,74911,1,8,0:0:0:0:
320,192,74911,1,0,0:0:0:40:Hat open.wav
448,192,74911,1,0,0:0:0:0:
64,192,75061,1,2,0:0:0:0:
192,192,75061,1,0,0:0:0:0:
192,192,75211,1,8,0:0:0:0:
320,192,75211,1,0,0:0:0:40:Hat open.wav
448,192,75211,1,0,0:0:0:0:
64,192,75361,1,2,0:0:0:0:
320,192,75361,1,0,0:0:0:0:
192,192,75436,1,2,0:0:0:0:
64,192,75511,1,8,0:0:0:0:
320,192,75511,1,0,0:0:0:40:Hat open.wav
448,192,75511,1,0,0:0:0:0:
192,192,75661,1,2,0:0:0:0:
448,192,75661,1,0,0:0:0:0:
64,192,75811,1,8,0:0:0:0:
192,192,75811,1,0,0:0:0:40:Hat open.wav
320,192,75811,1,0,0:0:0:0:
64,192,75961,1,2,0:0:0:0:
448,192,75961,1,0,0:0:0:0:
192,192,76111,1,8,0:0:0:0:
320,192,76111,1,0,0:0:0:40:Hat open.wav
448,192,76111,1,0,0:0:0:0:
64,192,76261,1,2,0:0:0:0:
320,192,76261,1,0,0:0:0:0:
192,192,76336,1,2,0:0:0:0:
64,192,76411,1,8,0:0:0:0:
320,192,76411,1,0,0:0:0:40:Hat open.wav
448,192,76411,1,0,0:0:0:0:
64,192,76561,1,4,0:0:0:0:
192,192,76561,1,2,0:0:0:0:
320,192,76561,1,0,0:0:0:0:
448,192,76561,1,0,0:0:0:0:
64,192,76861,1,0,0:0:0:40:Tom1.wav
448,192,76861,1,0,0:0:0:0:
320,192,76936,1,0,0:0:0:40:Tom1.wav
64,192,77011,1,0,0:0:0:40:Tom1.wav
192,192,77011,1,0,0:0:0:0:
448,192,77086,1,0,0:0:0:40:Tom1.wav
192,192,77161,1,2,0:0:0:0:
320,192,77161,1,0,0:0:0:0:
64,192,77236,1,2,0:0:0:0:
320,192,77311,1,0,0:0:0:40:Tom2.wav
448,192,77311,1,0,0:0:0:0:
192,192,77386,1,0,0:0:0:40:Tom2.wav
64,192,77461,1,2,0:0:0:0:
448,192,77461,1,0,0:0:0:0:
320,192,77536,1,2,0:0:0:0:
64,192,77611,1,0,0:0:0:40:Tom3.wav
192,192,77611,1,0,0:0:0:0:
320,192,77686,1,0,0:0:0:40:Tom3.wav
64,192,77761,1,2,0:0:0:0:
448,192,77761,1,0,0:0:0:0:
192,192,77836,1,2,0:0:0:0:
320,192,77911,1,8,0:0:0:0:
448,192,77911,1,0,0:0:0:0:
64,192,77986,1,8,0:0:0:0:
192,192,77986,1,0,0:0:0:0:
320,192,78061,1,8,0:0:0:0:
448,192,78061,1,0,0:0:0:0:
64,192,78136,1,8,0:0:0:0:
192,192,78136,1,0,0:0:0:0:
320,192,78211,1,2,0:0:0:0:
448,192,78211,1,0,0:0:0:40:Hat open.wav
192,192,78361,1,0,0:0:0:0:
64,192,78511,1,2,0:0:0:0:
320,192,78511,1,8,0:0:0:0:
448,192,78511,1,0,0:0:0:0:
64,192,78661,1,8,0:0:0:0:
320,192,78661,1,0,0:0:0:0:
448,192,78661,1,0,0:0:0:0:
64,192,78811,1,2,0:0:0:0:
192,192,78811,1,8,0:0:0:0:
448,192,78811,1,0,0:0:0:0:
64,192,78961,1,8,0:0:0:0:
192,192,78961,1,0,0:0:0:0:
448,192,78961,1,0,0:0:0:0:
320,192,79111,1,0,0:0:0:30:soft-hitwhistle.wav
320,192,79261,1,0,0:0:0:30:soft-hitwhistle.wav
64,192,79411,1,0,0:0:0:30:Snare.wav
192,192,79411,1,0,0:0:0:0:
64,192,79636,1,0,0:0:0:30:Snare.wav
192,192,79636,1,0,0:0:0:0:
320,192,79711,1,0,0:0:0:30:soft-hitwhistle.wav
320,192,79861,1,0,0:0:0:30:soft-hitwhistle.wav
192,192,79936,1,0,0:0:0:30:soft-hitwhistle.wav
64,192,80011,1,0,0:0:0:30:Snare.wav
448,192,80011,1,0,0:0:0:0:
192,192,80161,1,0,0:0:0:30:Snare.wav
320,192,80236,1,0,0:0:0:30:Snare.wav
64,192,80311,1,2,0:0:0:0:
192,192,80311,1,4,0:0:0:0:
448,192,80311,128,0,80461:0:0:0:0:
320,192,80461,128,0,80611:0:0:0:0:
64,192,80611,1,10,0:0:0:0:
192,192,80611,128,0,80761:0:0:0:20:soft-hitfinish.wav
448,192,80761,128,0,80911:0:0:0:0:
192,192,80911,1,2,0:0:0:0:
320,192,80911,128,0,81061:0:0:0:20:soft-hitfinish.wav
64,192,81061,128,0,81211:0:0:0:0:
192,192,81211,1,10,0:0:0:0:
448,192,81211,128,0,81361:0:0:0:20:soft-hitfinish.wav
320,192,81361,128,0,81511:0:0:0:0:
64,192,81511,1,2,0:0:0:0:
192,192,81511,128,0,81661:0:0:0:20:soft-hitfinish.wav
448,192,81661,128,0,81811:0:0:0:0:
64,192,81811,128,10,81961:0:0:0:0:
320,192,81811,1,0,0:0:0:20:soft-hitfinish.wav
192,192,81961,128,0,82111:0:0:0:0:
320,192,82111,1,2,0:0:0:0:
448,192,82111,128,0,82261:0:0:0:20:soft-hitfinish.wav
192,192,82261,128,0,82411:0:0:0:0:
64,192,82411,128,10,82561:0:0:0:0:
320,192,82411,1,0,0:0:0:20:soft-hitfinish.wav
448,192,82561,128,0,82711:0:0:0:0:
64,192,82711,128,2,82861:0:0:0:0:
320,192,82711,1,0,0:0:0:20:soft-hitfinish.wav
192,192,82861,128,0,83011:0:0:0:0:
320,192,83011,128,10,83161:0:0:0:0:
448,192,83011,1,0,0:0:0:20:soft-hitfinish.wav
64,192,83161,128,0,83311:0:0:0:0:
192,192,83311,128,2,83461:0:0:0:0:
448,192,83311,1,0,0:0:0:20:soft-hitfinish.wav
320,192,83461,128,0,83611:0:0:0:0:
64,192,83611,128,10,83761:0:0:0:0:
448,192,83611,1,0,0:0:0:20:soft-hitfinish.wav
320,192,83761,128,0,83911:0:0:0:0:
64,192,83911,1,2,0:0:0:0:
192,192,83911,128,0,84061:0:0:0:20:soft-hitfinish.wav
448,192,84061,128,0,84211:0:0:0:0:
192,192,84211,1,10,0:0:0:0:
320,192,84211,128,0,84361:0:0:0:20:soft-hitfinish.wav
64,192,84361,128,0,84511:0:0:0:0:
192,192,84511,128,2,84661:0:0:0:0:
448,192,84511,1,0,0:0:0:20:soft-hitfinish.wav
320,192,84661,128,0,84811:0:0:0:0:
64,192,84811,1,2,0:0:0:0:
192,192,84811,1,8,0:0:0:0:
320,192,84886,1,8,0:0:0:0:
448,192,84886,1,0,0:0:0:0:
64,192,84961,1,8,0:0:0:0:
192,192,84961,1,0,0:0:0:0:
320,192,85036,1,8,0:0:0:0:
64,192,85111,128,2,85261:0:0:0:0:
192,192,85111,1,4,0:0:0:0:
448,192,85111,1,0,0:0:0:0:
320,192,85261,128,0,85411:0:0:0:0:
192,192,85411,128,10,85561:0:0:0:0:
448,192,85411,1,0,0:0:0:20:soft-hitfinish.wav
64,192,85561,128,0,85711:0:0:0:0:
320,192,85711,128,2,85861:0:0:0:0:
448,192,85711,1,0,0:0:0:20:soft-hitfinish.wav
192,192,85861,128,0,86011:0:0:0:0:
64,192,86011,128,10,86161:0:0:0:0:
448,192,86011,1,0,0:0:0:20:soft-hitfinish.wav
320,192,86161,128,0,86311:0:0:0:0:
192,192,86311,128,2,86461:0:0:0:0:
448,192,86311,1,0,0:0:0:20:soft-hitfinish.wav
64,192,86461,128,0,86611:0:0:0:0:
320,192,86611,1,10,0:0:0:0:
448,192,86611,128,0,86761:0:0:0:20:soft-hitfinish.wav
192,192,86761,128,0,86911:0:0:0:0:
64,192,86911,1,2,0:0:0:0:
320,192,86911,128,0,87061:0:0:0:20:soft-hitfinish.wav
448,192,87061,128,0,87211:0:0:0:0:
192,192,87211,128,10,87361:0:0:0:0:
320,192,87211,1,0,0:0:0:20:soft-hitfinish.wav
64,192,87361,128,0,87511:0:0:0:0:
320,192,87511,1,2,0:0:0:0:
448,192,87511,1,0,0:0:0:0:
192,192,87586,1,2,0:0:0:0:
64,192,87661,1,8,0:0:0:0:
320,192,87661,1,0,0:0:0:0:
448,192,87661,1,0,0:0:0:0:
64,192,87811,1,8,0:0:0:0:
192,192,87811,1,0,0:0:0:0:
448,192,87811,1,0,0:0:0:0:
64,192,87961,1,0,0:0:0:40:Tom1.wav
320,192,87961,1,0,0:0:0:0:
192,192,88036,1,0,0:0:0:40:Tom1.wav
320,192,88111,1,2,0:0:0:0:
448,192,88111,1,0,0:0:0:0:
64,192,88186,1,2,0:0:0:0:
192,192,88261,1,0,0:0:0:40:Tom2.wav
448,192,88261,1,0,0:0:0:0:
320,192,88336,1,0,0:0:0:40:Tom2.wav
64,192,88411,1,0,0:0:0:40:Tom3.wav
192,192,88411,1,0,0:0:0:0:
320,192,88486,1,0,0:0:0:40:Tom3.wav
64,192,88561,1,2,0:0:0:0:
448,192,88561,1,0,0:0:0:40:Tom3.wav
192,192,88636,1,2,0:0:0:0:
64,192,88711,1,8,0:0:0:0:
320,192,88711,1,0,0:0:0:0:
448,192,88711,1,0,0:0:0:0:
192,192,88786,1,0,0:0:0:40:Tom1.wav
320,192,88861,1,2,0:0:0:0:
448,192,88861,1,0,0:0:0:0:
64,192,88936,1,2,0:0:0:0:
192,192,89011,1,0,0:0:0:40:Tom3.wav
320,192,89011,1,0,0:0:0:0:
448,192,89086,1,0,0:0:0:40:Tom1.wav
64,192,89161,1,8,0:0:0:0:
192,192,89161,1,0,0:0:0:0:
320,192,89236,1,0,0:0:0:40:Tom1.wav
64,192,89311,1,8,0:0:0:0:
192,192,89311,1,0,0:0:0:0:
448,192,89386,1,0,0:0:0:40:Tom1.wav
64,192,89461,1,2,0:0:0:0:
320,192,89461,1,0,0:0:0:0:
192,192,89536,1,2,0:0:0:0:
320,192,89611,1,8,0:0:0:0:
448,192,89611,1,0,0:0:0:0:
64,192,89686,1,8,0:0:0:0:
192,192,89686,1,0,0:0:0:0:
320,192,89761,1,8,0:0:0:0:
448,192,89761,1,0,0:0:0:0:
192,192,89836,1,8,0:0:0:0:
64,192,89911,1,2,0:0:0:0:
320,192,89911,1,4,0:0:0:0:
448,192,89911,1,0,0:0:0:0:
192,192,90211,128,0,90511:0:0:0:0:
320,192,90511,128,0,90661:0:0:0:0:
64,192,90661,128,2,90961:0:0:0:0:
448,192,90661,1,0,0:0:0:0:
448,192,90961,128,0,91711:0:0:0:0:
64,192,91111,1,2,0:0:0:0:
192,192,91111,1,0,0:0:0:0:
64,192,91861,1,2,0:0:0:0:
192,192,91861,128,0,92011:0:0:0:0:
320,192,92011,128,0,92161:0:0:0:15:Snare.wav
64,192,92161,128,0,92761:0:0:0:0:
320,192,92311,1,2,0:0:0:0:
448,192,92311,1,0,0:0:0:0:
192,192,92611,1,0,0:0:0:15:Snare.wav
448,192,92611,1,0,0:0:0:0:
320,192,92836,1,0,0:0:0:0:
192,192,92986,1,0,0:0:0:0:
320,192,93061,1,2,0:0:0:0:
448,192,93061,1,0,0:0:0:0:
64,192,93211,1,0,0:0:0:15:Snare.wav
192,192,93211,128,0,93511:0:0:0:0:
320,192,93511,1,2,0:0:0:0:
448,192,93511,128,0,93811:0:0:0:0:
64,192,93811,1,0,0:0:0:15:Snare.wav
192,192,93811,1,0,0:0:0:0:
448,192,93961,1,0,0:0:0:0:
320,192,94036,1,0,0:0:0:0:
192,192,94111,128,0,94411:0:0:0:0:
64,192,94186,1,0,0:0:0:0:
320,192,94261,1,2,0:0:0:0:
448,192,94261,1,0,0:0:0:0:
64,192,94411,1,0,0:0:0:15:Snare.wav
448,192,94411,128,0,94711:0:0:0:0:
192,192,94636,1,0,0:0:0:0:
64,192,94711,1,2,0:0:0:0:
320,192,94711,1,0,0:0:0:0:
64,192,95011,1,0,0:0:0:15:Snare.wav
192,192,95011,1,0,0:0:0:0:
320,192,95236,1,0,0:0:0:15:Snare.wav
448,192,95236,1,0,0:0:0:0:
64,192,95386,1,0,0:0:0:15:Snare.wav
192,192,95386,1,0,0:0:0:0:
320,192,95461,1,2,0:0:0:0:
448,192,95461,1,0,0:0:0:0:
64,192,95611,1,0,0:0:0:15:Snare.wav
192,192,95611,1,0,0:0:0:0:
320,192,95836,1,0,0:0:0:15:Snare.wav
448,192,95836,1,0,0:0:0:0:
64,192,95911,1,2,0:0:0:0:
192,192,95911,1,0,0:0:0:0:
64,192,96211,1,0,0:0:0:15:Snare.wav
448,192,96211,1,0,0:0:0:0:
64,192,96436,1,0,0:0:0:15:Snare.wav
192,192,96436,1,0,0:0:0:0:
320,192,96586,1,0,0:0:0:15:Snare.wav
448,192,96586,1,0,0:0:0:0:
64,192,96661,1,2,0:0:0:0:
192,192,96661,1,0,0:0:0:0:
320,192,96811,1,0,0:0:0:15:Snare.wav
448,192,96811,1,0,0:0:0:0:
64,192,97036,1,0,0:0:0:15:Snare.wav
448,192,97036,1,0,0:0:0:0:
192,192,97111,1,2,0:0:0:0:
320,192,97111,1,0,0:0:0:0:
320,192,97411,1,0,0:0:0:15:Snare.wav
448,192,97411,1,0,0:0:0:0:
64,192,97636,1,0,0:0:0:15:Snare.wav
448,192,97636,1,0,0:0:0:0:
64,192,97786,1,0,0:0:0:15:Snare.wav
192,192,97786,1,0,0:0:0:0:
320,192,97861,1,2,0:0:0:0:
448,192,97861,1,0,0:0:0:0:
64,192,98011,1,0,0:0:0:15:Snare.wav
192,192,98011,1,0,0:0:0:0:
320,192,98236,1,0,0:0:0:15:Snare.wav
448,192,98236,1,0,0:0:0:0:
64,192,98311,1,0,0:0:0:0:
192,192,98311,1,0,0:0:0:0:
448,192,98386,1,0,0:0:0:0:
320,192,98461,1,0,0:0:0:0:
192,192,98536,1,0,0:0:0:0:
64,192,98611,1,0,0:0:0:0:
448,192,98611,1,0,0:0:0:0:
320,192,98686,1,0,0:0:0:0:
64,192,98761,1,0,0:0:0:0:
192,192,98761,1,0,0:0:0:0:
320,192,98836,1,0,0:0:0:0:
448,192,98911,1,0,0:0:0:0:
64,192,98986,1,0,0:0:0:0:
192,192,99061,1,0,0:0:0:0:
320,192,99061,1,0,0:0:0:0:
448,192,99136,1,0,0:0:0:0:
64,192,99211,1,0,0:0:0:0:
192,192,99211,1,0,0:0:0:0:
320,192,99286,1,0,0:0:0:0:
64,192,99361,1,0,0:0:0:0:
448,192,99361,1,0,0:0:0:0:
192,192,99436,1,0,0:0:0:0:
64,192,99511,1,2,0:0:0:0:
320,192,99511,1,4,0:0:0:0:
448,192,99511,128,0,99661:0:0:0:0:
64,192,99811,1,8,0:0:0:0:
192,192,99811,1,0,0:0:0:40:Hat open.wav
448,192,99811,1,0,0:0:0:0:
320,192,99961,1,0,0:0:0:0:
64,192,100111,1,2,0:0:0:0:
192,192,100111,1,0,0:0:0:40:Hat open.wav
64,192,100261,1,2,0:0:0:0:
192,192,100261,1,0,0:0:0:0:
64,192,100411,1,8,0:0:0:0:
320,192,100411,1,0,0:0:0:40:Hat open.wav
448,192,100411,1,0,0:0:0:0:
192,192,100561,1,0,0:0:0:0:
320,192,100711,128,2,100861:0:0:0:0:
448,192,100711,1,0,0:0:0:40:Hat open.wav
64,192,100861,1,2,0:0:0:0:
192,192,100861,1,0,0:0:0:0:
64,192,101011,1,8,0:0:0:0:
320,192,101011,1,0,0:0:0:40:Hat open.wav
448,192,101011,1,0,0:0:0:0:
192,192,101161,1,0,0:0:0:0:
320,192,101311,1,2,0:0:0:0:
448,192,101311,1,0,0:0:0:40:Hat open.wav
320,192,101461,1,2,0:0:0:0:
448,192,101461,1,0,0:0:0:0:
64,192,101611,1,8,0:0:0:0:
192,192,101611,1,0,0:0:0:40:Hat open.wav
448,192,101611,1,0,0:0:0:0:
320,192,101761,1,0,0:0:0:0:
64,192,101911,128,2,102061:0:0:0:0:
192,192,101911,1,4,0:0:0:0:
448,192,101911,1,0,0:0:0:0:
320,192,102061,1,2,0:0:0:0:
448,192,102061,1,0,0:0:0:0:
64,192,102211,1,8,0:0:0:0:
192,192,102211,1,0,0:0:0:40:Hat open.wav
320,192,102211,1,0,0:0:0:0:
448,192,102361,1,0,0:0:0:0:
64,192,102511,1,2,0:0:0:0:
192,192,102511,1,0,0:0:0:40:Hat open.wav
64,192,102661,1,2,0:0:0:0:
192,192,102661,1,0,0:0:0:0:
64,192,102811,1,8,0:0:0:0:
320,192,102811,1,0,0:0:0:40:Hat open.wav
448,192,102811,1,0,0:0:0:0:
192,192,102961,1,0,0:0:0:0:
320,192,103111,1,2,0:0:0:0:
448,192,103111,128,0,103261:0:0:0:40:Hat open.wav
64,192,103261,1,2,0:0:0:0:
192,192,103261,1,0,0:0:0:0:
64,192,103411,1,8,0:0:0:0:
320,192,103411,1,0,0:0:0:0:
448,192,103411,1,0,0:0:0:0:
192,192,103486,1,0,0:0:0:40:Tom1.wav
64,192,103561,1,2,0:0:0:0:
448,192,103561,1,0,0:0:0:0:
320,192,103636,1,2,0:0:0:0:
64,192,103711,1,8,0:0:0:0:
192,192,103711,1,0,0:0:0:0:
448,192,103711,1,0,0:0:0:0:
64,192,103861,1,8,0:0:0:0:
192,192,103861,1,0,0:0:0:0:
448,192,103861,1,0,0:0:0:0:
192,192,104011,1,8,0:0:0:0:
320,192,104011,1,0,0:0:0:0:
448,192,104011,1,0,0:0:0:0:
192,192,104161,1,8,0:0:0:0:
320,192,104161,1,0,0:0:0:0:
448,192,104161,1,0,0:0:0:0:
64,192,104311,1,2,0:0:0:0:
192,192,104311,1,4,0:0:0:0:
320,192,104311,1,0,0:0:0:0:
448,192,104411,1,2,0:0:0:0:
64,192,104511,1,2,0:0:0:0:
192,192,104511,1,0,0:0:0:0:
320,192,104611,1,2,0:0:0:0:
64,192,104711,1,2,0:0:0:0:
448,192,104711,1,0,0:0:0:0:
192,192,104811,1,2,0:0:0:0:
64,192,104911,1,8,0:0:0:0:
320,192,104911,1,4,0:0:0:0:
448,192,104911,1,0,0:0:0:0:
192,192,105061,1,2,0:0:0:0:
320,192,105061,1,0,0:0:0:0:
320,192,105211,1,0,0:0:0:0:
64,192,105511,1,2,0:0:0:0:
192,192,105511,1,4,0:0:0:0:
320,192,105511,1,0,0:0:0:0:
448,192,105511,1,0,0:0:0:0:
64,192,105736,1,2,0:0:0:0:
448,192,105736,1,0,0:0:0:0:
192,192,105811,1,0,0:0:0:0:
320,192,105961,1,2,0:0:0:0:
448,192,105961,1,0,0:0:0:0:
192,192,106036,1,2,0:0:0:0:
64,192,106111,1,8,0:0:0:0:
320,192,106111,1,0,0:0:0:0:
448,192,106111,1,0,0:0:0:0:
64,192,106261,1,2,0:0:0:0:
192,192,106261,1,0,0:0:0:0:
320,192,106411,1,8,0:0:0:0:
448,192,106411,1,0,0:0:0:0:
64,192,106486,1,8,0:0:0:0:
192,192,106486,1,0,0:0:0:0:
320,192,106561,1,8,0:0:0:0:
448,192,106561,1,0,0:0:0:0:
192,192,106636,1,8,0:0:0:0:
64,192,106711,1,2,0:0:0:0:
320,192,106711,1,4,0:0:0:0:
448,192,106711,1,0,0:0:0:0:
64,192,107161,1,2,0:0:0:0:
320,192,107161,1,0,0:0:0:0:
192,192,107236,1,2,0:0:0:0:
64,192,107311,1,8,0:0:0:0:
320,192,107311,1,4,0:0:0:0:
448,192,107311,1,0,0:0:0:0:
320,192,107611,1,8,0:0:0:0:
448,192,107611,1,0,0:0:0:0:
64,192,107686,1,8,0:0:0:0:
192,192,107686,1,0,0:0:0:0:
448,192,107761,1,0,0:0:0:40:Tom2.wav
320,192,107836,1,0,0:0:0:40:Tom2.wav
64,192,107911,1,2,0:0:0:0:
192,192,107911,1,0,0:0:0:40:Hat open.wav
448,192,107911,1,0,0:0:0:0:
64,192,108111,1,2,0:0:0:0:
320,192,108111,1,0,0:0:0:40:Hat open.wav
448,192,108111,1,0,0:0:0:0:
64,192,108311,1,2,0:0:0:0:
192,192,108311,1,0,0:0:0:40:Hat open.wav
320,192,108311,1,0,0:0:0:0:
192,192,108511,1,2,0:0:0:0:
320,192,108511,1,0,0:0:0:40:Hat open.wav
448,192,108511,1,0,0:0:0:0:
64,192,108711,1,2,0:0:0:0:
192,192,108711,1,0,0:0:0:40:Hat open.wav
448,192,108711,1,0,0:0:0:0:
64,192,108911,1,2,0:0:0:0:
320,192,108911,1,0,0:0:0:40:Hat open.wav
448,192,108911,1,0,0:0:0:0:
64,192,109111,1,2,0:0:0:0:
192,192,109111,1,4,0:0:0:0:
320,192,109111,1,0,0:0:0:0:
448,192,109111,1,0,0:0:0:0:
192,192,109261,1,0,0:0:0:0:
448,192,109411,1,0,0:0:0:0:
64,192,109561,1,0,0:0:0:0:
320,192,109711,128,0,109861:0:0:0:0:
192,192,109861,1,0,0:0:0:0:
448,192,110011,128,0,110161:0:0:0:0:
64,192,110311,1,2,0:0:0:0:
192,192,110311,1,0,0:0:0:0:
448,192,110311,1,0,0:0:0:0:
320,192,110461,1,0,0:0:0:0:
192,192,110611,1,0,0:0:0:0:
448,192,110761,1,0,0:0:0:0:
64,192,110911,1,0,0:0:0:0:
192,192,111061,1,0,0:0:0:0:
320,192,111211,1,0,0:0:0:30:Snare.wav
448,192,111211,1,0,0:0:0:0:
64,192,111361,1,2,0:0:0:0:
192,192,111361,1,0,0:0:0:30:Snare.wav
320,192,111436,1,2,0:0:0:0:
64,192,111511,1,2,0:0:0:0:
192,192,111511,1,0,0:0:0:0:
448,192,111511,1,0,0:0:0:0:
320,192,111661,1,0,0:0:0:0:
64,192,111811,1,2,0:0:0:0:
192,192,111811,1,0,0:0:0:0:
448,192,111811,1,0,0:0:0:0:
320,192,111961,1,0,0:0:0:0:
64,192,112111,1,0,0:0:0:0:
192,192,112261,1,0,0:0:0:30:Snare.wav
448,192,112261,1,0,0:0:0:0:
64,192,112411,1,2,0:0:0:0:
320,192,112411,1,0,0:0:0:0:
320,192,112561,1,2,0:0:0:0:
448,192,112561,1,0,0:0:0:30:Snare.wav
64,192,112711,1,2,0:0:0:0:
192,192,112711,1,0,0:0:0:30:Snare.wav
448,192,112711,1,0,0:0:0:0:
64,192,112861,1,0,0:0:0:30:Snare.wav
192,192,112861,1,0,0:0:0:0:
320,192,112936,1,2,0:0:0:0:
448,192,112936,1,0,0:0:0:0:
64,192,113011,1,0,0:0:0:30:Snare.wav
192,192,113048,1,0,0:0:0:30:Snare.wav
320,192,113086,1,0,0:0:0:30:Snare.wav
448,192,113123,1,0,0:0:0:30:Snare.wav
64,192,113161,1,2,0:0:0:0:
192,192,113161,1,0,0:0:0:0:
448,192,113311,1,0,0:0:0:30:Snare.wav
320,192,113348,1,0,0:0:0:30:Snare.wav
192,192,113386,1,0,0:0:0:30:Snare.wav
64,192,113423,1,0,0:0:0:30:Snare.wav
320,192,113461,1,2,0:0:0:0:
448,192,113461,1,0,0:0:0:0:
192,192,113611,1,0,0:0:0:30:Snare.wav
448,192,113611,1,0,0:0:0:0:
64,192,113686,1,0,0:0:0:30:Snare.wav
320,192,113686,1,0,0:0:0:0:
192,192,113761,1,2,0:0:0:0:
448,192,113761,1,0,0:0:0:30:Snare.wav
64,192,113836,1,0,0:0:0:30:Snare.wav
320,192,113836,1,0,0:0:0:0:
192,192,113911,1,0,0:0:0:0:
448,192,113911,128,0,115111:0:0:0:0:
64,192,114211,1,0,0:0:0:0:
320,192,114436,1,0,0:0:0:0:
64,192,114511,1,0,0:0:0:30:Snare.wav
192,192,114511,1,0,0:0:0:0:
320,192,114661,1,0,0:0:0:0:
64,192,114811,1,2,0:0:0:0:
320,192,114811,1,0,0:0:0:0:
64,192,114961,1,0,0:0:0:0:
192,192,115111,128,0,116311:0:0:0:0:
320,192,115261,1,0,0:0:0:0:
64,192,115411,1,2,0:0:0:0:
448,192,115411,1,0,0:0:0:0:
320,192,115561,1,0,0:0:0:0:
64,192,115711,1,0,0:0:0:30:Snare.wav
320,192,115711,1,0,0:0:0:0:
448,192,115861,1,0,0:0:0:0:
64,192,116011,1,2,0:0:0:0:
448,192,116011,1,0,0:0:0:0:
320,192,116161,1,0,0:0:0:0:
64,192,116311,128,2,117361:0:0:0:0:
448,192,116311,1,0,0:0:0:0:
320,192,116461,1,0,0:0:0:0:
192,192,116611,1,0,0:0:0:0:
320,192,116761,1,2,0:0:0:0:
448,192,116761,1,0,0:0:0:0:
192,192,116911,1,0,0:0:0:30:Snare.wav
448,192,116911,1,0,0:0:0:0:
320,192,117061,1,0,0:0:0:0:
192,192,117211,1,2,0:0:0:0:
320,192,117211,1,0,0:0:0:0:
448,192,117361,1,0,0:0:0:0:
320,192,117398,1,0,0:0:0:0:
192,192,117436,1,0,0:0:0:0:
64,192,117473,1,0,0:0:0:0:
320,192,117511,1,2,0:0:0:0:
448,192,117511,1,0,0:0:0:0:
64,192,117711,1,2,0:0:0:0:
192,192,117711,1,0,0:0:0:0:
192,192,117911,1,2,0:0:0:0:
320,192,117911,1,0,0:0:0:0:
320,192,118261,1,2,0:0:0:0:
448,192,118261,1,0,0:0:0:30:Snare.wav
64,192,118411,1,0,0:0:0:30:Snare.wav
192,192,118448,1,0,0:0:0:30:Snare.wav
448,192,118486,1,0,0:0:0:30:Snare.wav
320,192,118523,1,0,0:0:0:30:Snare.wav
192,192,118561,1,0,0:0:0:0:
64,192,118711,1,2,0:0:0:0:
448,192,118711,1,0,0:0:0:0:
320,192,118861,1,0,0:0:0:0:
64,192,119011,1,0,0:0:0:0:
192,192,119086,1,0,0:0:0:0:
320,192,119161,1,0,0:0:0:0:
448,192,119311,1,0,0:0:0:30:Snare.wav
192,192,119461,1,0,0:0:0:0:
320,192,119536,1,0,0:0:0:0:
64,192,119611,1,2,0:0:0:0:
448,192,119611,1,0,0:0:0:0:
192,192,119761,1,0,0:0:0:0:
320,192,119911,1,0,0:0:0:0:
448,192,119911,1,0,0:0:0:0:
192,192,120061,1,0,0:0:0:0:
320,192,120136,1,0,0:0:0:0:
64,192,120211,1,2,0:0:0:0:
448,192,120211,1,0,0:0:0:0:
192,192,120361,1,0,0:0:0:0:
448,192,120511,1,0,0:0:0:30:Snare.wav
320,192,120548,1,0,0:0:0:0:
192,192,120586,1,0,0:0:0:0:
64,192,120623,1,0,0:0:0:0:
320,192,120811,1,0,0:0:0:0:
192,192,120961,1,0,0:0:0:0:
64,192,121111,1,2,0:0:0:0:
192,192,121111,1,4,0:0:0:0:
320,192,121111,128,0,121411:0:0:0:0:
448,192,121111,128,0,121411:0:0:0:0:
64,192,121411,1,0,0:0:0:0:
64,192,121561,128,2,121861:0:0:0:0:
192,192,121561,128,4,121861:0:0:0:0:
320,192,121561,1,0,0:0:0:0:
448,192,121561,1,0,0:0:0:0:
448,192,121861,1,0,0:0:0:0:
64,192,122011,1,2,0:0:0:0:
192,192,122011,128,4,122311:0:0:0:0:
320,192,122011,1,0,0:0:0:0:
448,192,122011,128,0,122311:0:0:0:0:
64,192,122311,1,0,0:0:0:0:
320,192,122461,1,0,0:0:0:0:
64,192,122611,1,2,0:0:0:0:
192,192,122611,1,0,0:0:0:0:
448,192,122761,128,0,122911:0:0:0:0:
64,192,122911,1,0,0:0:0:30:Snare.wav
192,192,122911,128,0,123061:0:0:0:0:
320,192,123061,128,2,123211:0:0:0:0:
64,192,123211,1,0,0:0:0:30:Snare.wav
192,192,123248,1,0,0:0:0:30:Snare.wav
320,192,123286,1,0,0:0:0:30:Snare.wav
448,192,123323,1,0,0:0:0:30:Snare.wav
64,192,123361,1,0,0:0:0:0:
192,192,123511,1,2,0:0:0:0:
320,192,123511,1,0,0:0:0:0:
448,192,123661,1,0,0:0:0:0:
64,192,123736,1,2,0:0:0:0:
192,192,123736,1,0,0:0:0:0:
320,192,123811,1,0,0:0:0:0:
448,192,123886,1,0,0:0:0:0:
64,192,123961,1,2,0:0:0:0:
192,192,123961,1,0,0:0:0:0:
320,192,124036,1,0,0:0:0:0:
64,192,124111,1,0,0:0:0:0:
192,192,124311,1,0,0:0:0:0:
448,192,124411,1,0,0:0:0:0:
320,192,124511,1,0,0:0:0:0:
192,192,124611,1,0,0:0:0:0:
64,192,124711,1,2,0:0:0:0:
448,192,124711,1,0,0:0:0:0:
320,192,124861,1,0,0:0:0:0:
64,192,125011,1,0,0:0:0:0:
320,192,125161,1,2,0:0:0:0:
448,192,125161,1,0,0:0:0:0:
64,192,125311,1,0,0:0:0:30:Snare.wav
192,192,125348,1,0,0:0:0:0:
448,192,125386,1,0,0:0:0:0:
320,192,125423,1,0,0:0:0:0:
192,192,125461,1,0,0:0:0:0:
64,192,125611,1,2,0:0:0:0:
448,192,125611,1,0,0:0:0:0:
320,192,125761,1,0,0:0:0:0:
64,192,125911,1,2,0:0:0:0:
192,192,125911,1,0,0:0:0:0:
320,192,126061,1,2,0:0:0:0:
448,192,126061,1,0,0:0:0:0:
192,192,126211,1,0,0:0:0:0:
64,192,126361,1,2,0:0:0:0:
448,192,126361,1,0,0:0:0:0:
64,192,126511,1,0,0:0:0:30:Snare.wav
320,192,126511,1,0,0:0:0:0:
192,192,126661,1,2,0:0:0:0:
448,192,126661,1,0,0:0:0:0:
64,192,126811,1,0,0:0:0:0:
320,192,126961,1,2,0:0:0:0:
448,192,126961,1,0,0:0:0:30:Snare.wav
64,192,127111,128,2,128236:0:0:0:0:
192,192,127111,1,4,0:0:0:0:
320,192,127111,1,0,0:0:0:0:
448,192,127111,1,0,0:0:0:0:
192,192,127411,1,2,0:0:0:0:
448,192,127411,1,0,0:0:0:0:
192,192,127711,1,0,0:0:0:40:Tom1.wav
320,192,127786,1,0,0:0:0:40:Tom1.wav
448,192,127861,1,0,0:0:0:40:Tom1.wav
192,192,128011,1,0,0:0:0:40:Tom2.wav
448,192,128086,1,0,0:0:0:40:Tom2.wav
320,192,128161,1,0,0:0:0:40:Tom3.wav
192,192,128236,1,0,0:0:0:40:Tom3.wav
64,192,128311,1,2,0:0:0:0:
320,192,128311,1,0,0:0:0:20:soft-hitfinish.wav
448,192,128311,1,0,0:0:0:0:
192,192,128611,128,0,128761:0:0:0:0:
320,192,128761,128,0,129061:0:0:0:0:
64,192,129061,128,0,129211:0:0:0:0:
448,192,129211,128,0,129511:0:0:0:0:
64,192,129511,1,0,0:0:0:0:
320,192,129511,128,0,129811:0:0:0:0:
192,192,129811,128,0,129961:0:0:0:0:
64,192,129961,128,0,130261:0:0:0:0:
448,192,130261,128,0,130411:0:0:0:0:
192,192,130411,128,0,130711:0:0:0:0:
64,192,130711,1,0,0:0:0:0:
448,192,130711,1,0,0:0:0:0:
448,192,131011,128,0,131761:0:0:0:0:
320,192,131161,128,0,131611:0:0:0:0:
192,192,131311,128,0,131461:0:0:0:0:
64,192,131461,128,0,131761:0:0:0:0:
192,192,131611,128,0,131911:0:0:0:0:
320,192,131761,128,0,131911:0:0:0:0:
64,192,131911,1,0,0:0:0:0:
448,192,131911,128,0,132211:0:0:0:0:
64,192,132211,128,0,132361:0:0:0:0:
320,192,132361,128,0,132661:0:0:0:0:
448,192,132661,128,0,132961:0:0:0:0:
64,192,132961,128,0,133411:0:0:0:0:
192,192,133111,128,0,133411:0:0:0:0:
320,192,133111,1,0,0:0:0:0:
448,192,133411,128,0,133561:0:0:0:0:
192,192,133561,128,0,133861:0:0:0:0:
320,192,133711,128,0,134011:0:0:0:0:
448,192,133861,128,0,134311:0:0:0:0:
64,192,134011,128,0,134311:0:0:0:0:
192,192,134311,1,0,0:0:0:0:
320,192,134311,1,0,0:0:0:0:
448,192,135361,128,0,135811:0:0:0:0:
192,192,135511,1,0,0:0:0:0:
320,192,135511,128,0,135811:0:0:0:0:
64,192,135811,128,0,135961:0:0:0:0:
320,192,135961,128,0,136261:0:0:0:0:
192,192,136111,128,0,136411:0:0:0:0:
64,192,136261,128,0,137011:0:0:0:0:
448,192,136411,128,0,137011:0:0:0:0:
320,192,137011,128,0,137836:0:0:0:0:
192,192,137311,128,0,137836:0:0:0:0:
64,192,137911,1,2,0:0:0:0:
192,192,137911,1,4,0:0:0:0:
320,192,137911,1,0,0:0:0:0:
448,192,137911,1,0,0:0:0:0:
320,192,138211,128,0,138361:0:0:0:40:Hat open.wav
64,192,138361,1,2,0:0:0:0:
192,192,138361,1,0,0:0:0:0:
64,192,138511,1,8,0:0:0:0:
320,192,138511,1,0,0:0:0:40:Hat open.wav
448,192,138511,1,0,0:0:0:0:
192,192,138661,128,2,138811:0:0:0:0:
320,192,138661,1,0,0:0:0:0:
448,192,138811,1,0,0:0:0:40:Hat open.wav
64,192,138961,128,0,139111:0:0:0:0:
320,192,139111,1,2,0:0:0:0:
448,192,139111,128,0,139411:0:0:0:40:Hat open.wav
64,192,139261,1,2,0:0:0:0:
192,192,139261,1,0,0:0:0:0:
192,192,139411,128,0,139561:0:0:0:40:Hat open.wav
64,192,139561,1,2,0:0:0:0:
448,192,139561,1,0,0:0:0:0:
64,192,139711,1,8,0:0:0:0:
192,192,139711,1,0,0:0:0:40:Hat open.wav
320,192,139711,1,0,0:0:0:0:
192,192,139861,1,2,0:0:0:0:
448,192,139861,128,0,140011:0:0:0:0:
64,192,140011,128,0,140311:0:0:0:40:Hat open.wav
192,192,140311,1,2,0:0:0:0:
320,192,140311,1,4,0:0:0:0:
448,192,140311,1,0,0:0:0:0:
64,192,140461,1,2,0:0:0:0:
320,192,140461,1,0,0:0:0:0:
192,192,140611,128,0,140761:0:0:0:40:Hat open.wav
320,192,140761,1,2,0:0:0:0:
448,192,140761,1,0,0:0:0:0:
64,192,140911,1,8,0:0:0:0:
192,192,140911,1,4,0:0:0:0:
448,192,140911,1,0,0:0:0:0:
64,192,141061,1,2,0:0:0:0:
320,192,141061,1,0,0:0:0:0:
448,192,141211,128,0,141361:0:0:0:40:Hat open.wav
64,192,141361,1,2,0:0:0:0:
192,192,141361,1,0,0:0:0:0:
64,192,141511,1,8,0:0:0:0:
320,192,141511,1,0,0:0:0:40:Hat open.wav
448,192,141511,1,0,0:0:0:0:
192,192,141661,1,2,0:0:0:0:
320,192,141661,1,0,0:0:0:0:
64,192,141811,1,8,0:0:0:0:
192,192,141811,1,0,0:0:0:40:Hat open.wav
448,192,141811,1,0,0:0:0:0:
64,192,141961,1,2,0:0:0:0:
320,192,141961,1,0,0:0:0:0:
192,192,142111,1,8,0:0:0:0:
320,192,142111,1,0,0:0:0:40:Hat open.wav
448,192,142111,1,0,0:0:0:0:
64,192,142261,1,2,0:0:0:0:
448,192,142261,1,0,0:0:0:0:
64,192,142411,1,8,0:0:0:0:
192,192,142411,1,0,0:0:0:0:
320,192,142486,1,8,0:0:0:0:
448,192,142486,1,0,0:0:0:0:
64,192,142561,1,0,0:0:0:40:Tom2.wav
192,192,142636,1,0,0:0:0:40:Tom2.wav
64,192,142711,1,8,0:0:0:0:
320,192,142711,1,0,0:0:0:40:Hat open.wav
448,192,142711,1,0,0:0:0:0:
192,192,142861,1,2,0:0:0:0:
448,192,142861,1,0,0:0:0:0:
192,192,143011,1,2,0:0:0:0:
448,192,143011,1,0,0:0:0:0:
64,192,143161,1,8,0:0:0:0:
192,192,143161,1,0,0:0:0:40:Hat open.wav
320,192,143161,1,0,0:0:0:0:
64,192,143311,1,2,0:0:0:0:
448,192,143311,1,0,0:0:0:0:
64,192,143461,1,2,0:0:0:0:
448,192,143461,1,0,0:0:0:0:
192,192,143611,1,8,0:0:0:0:
320,192,143611,1,0,0:0:0:40:Hat open.wav
448,192,143611,1,0,0:0:0:0:
64,192,143761,1,2,0:0:0:0:
320,192,143761,1,0,0:0:0:0:
64,192,143911,1,8,0:0:0:0:
192,192,143911,1,0,0:0:0:0:
320,192,143986,1,8,0:0:0:0:
448,192,143986,1,0,0:0:0:0:
64,192,144061,1,2,0:0:0:0:
192,192,144136,1,2,0:0:0:0:
320,192,144211,1,0,0:0:0:40:Tom3.wav
448,192,144211,1,0,0:0:0:0:
64,192,144286,1,0,0:0:0:40:Tom3.wav
192,192,144361,1,2,0:0:0:0:
448,192,144361,1,0,0:0:0:0:
320,192,144436,1,2,0:0:0:0:
64,192,144511,1,8,0:0:0:0:
192,192,144511,1,0,0:0:0:0:
320,192,144611,1,8,0:0:0:0:
448,192,144611,1,0,0:0:0:0:
64,192,144711,1,8,0:0:0:0:
192,192,144711,1,0,0:0:0:0:
320,192,144811,1,8,0:0:0:0:
448,192,144811,1,0,0:0:0:0:
64,192,144911,1,8,0:0:0:0:
192,192,144911,1,0,0:0:0:0:
320,192,145011,1,8,0:0:0:0:
64,192,145111,128,2,145336:0:0:0:0:
192,192,145111,128,0,145336:0:0:0:40:Hat open.wav
448,192,145111,128,0,145336:0:0:0:0:
64,192,145561,128,2,145786:0:0:0:0:
192,192,145561,128,0,145786:0:0:0:40:Hat open.wav
448,192,145561,128,0,145786:0:0:0:0:
64,192,145861,1,2,0:0:0:0:
192,192,145861,1,0,0:0:0:0:
320,192,145936,1,2,0:0:0:0:
64,192,146011,1,8,0:0:0:0:
192,192,146011,1,0,0:0:0:40:Hat open.wav
448,192,146011,1,0,0:0:0:0:
64,192,146161,1,8,0:0:0:0:
320,192,146161,1,0,0:0:0:40:Hat open.wav
448,192,146161,1,0,0:0:0:0:
192,192,146461,1,2,0:0:0:0:
448,192,146461,1,0,0:0:0:0:
320,192,146536,1,2,0:0:0:0:
64,192,146611,1,8,0:0:0:0:
192,192,146611,1,0,0:0:0:0:
448,192,146686,1,0,0:0:0:40:Tom1.wav
64,192,146761,1,2,0:0:0:0:
320,192,146761,1,0,0:0:0:0:
192,192,146836,1,2,0:0:0:0:
320,192,146911,1,0,0:0:0:40:Tom2.wav
448,192,146911,1,0,0:0:0:0:
192,192,146986,1,0,0:0:0:40:Tom2.wav
64,192,147061,1,2,0:0:0:0:
448,192,147061,1,0,0:0:0:0:
320,192,147136,1,2,0:0:0:0:
64,192,147211,1,8,0:0:0:0:
192,192,147211,1,0,0:0:0:0:
448,192,147211,1,0,0:0:0:0:
64,192,147361,128,2,147661:0:0:0:0:
192,192,147361,128,4,147661:0:0:0:0:
320,192,147361,1,0,0:0:0:0:
448,192,147361,1,0,0:0:0:0:
320,192,147661,1,2,0:0:0:0:
448,192,147661,1,0,0:0:0:0:
64,192,147811,1,8,0:0:0:0:
192,192,147811,1,0,0:0:0:40:Hat open.wav
448,192,147811,128,0,148111:0:0:0:0:
320,192,147961,128,0,148111:0:0:0:0:
64,192,148111,1,2,0:0:0:0:
192,192,148111,1,0,0:0:0:40:Hat open.wav
192,192,148261,1,2,0:0:0:0:
320,192,148261,1,0,0:0:0:0:
64,192,148411,1,8,0:0:0:0:
192,192,148411,1,0,0:0:0:40:Hat open.wav
448,192,148411,1,0,0:0:0:0:
64,192,148561,128,2,148861:0:0:0:0:
320,192,148561,1,0,0:0:0:0:
192,192,148711,128,0,148861:0:0:0:40:Hat open.wav
320,192,148861,1,2,0:0:0:0:
448,192,148861,1,0,0:0:0:0:
64,192,149011,1,8,0:0:0:0:
192,192,149011,128,0,149311:0:0:0:40:Hat open.wav
448,192,149011,1,0,0:0:0:0:
320,192,149161,128,0,149311:0:0:0:0:
64,192,149311,1,2,0:0:0:0:
448,192,149311,1,0,0:0:0:40:Hat open.wav
192,192,149461,1,2,0:0:0:0:
448,192,149461,1,0,0:0:0:0:
64,192,149611,1,8,0:0:0:0:
192,192,149611,1,0,0:0:0:40:Hat open.wav
320,192,149611,1,0,0:0:0:0:
64,192,149761,1,2,0:0:0:0:
192,192,149761,1,4,0:0:0:0:
320,192,149761,128,0,150211:0:0:0:0:
448,192,149761,128,0,150061:0:0:0:0:
64,192,150061,1,2,0:0:0:0:
192,192,150061,1,0,0:0:0:0:
64,192,150211,128,8,150511:0:0:0:0:
192,192,150211,1,0,0:0:0:40:Hat open.wav
448,192,150211,1,0,0:0:0:0:
320,192,150361,128,0,150511:0:0:0:0:
192,192,150511,1,2,0:0:0:0:
448,192,150511,1,0,0:0:0:40:Hat open.wav
192,192,150661,1,2,0:0:0:0:
320,192,150661,1,0,0:0:0:0:
64,192,150811,1,8,0:0:0:0:
320,192,150811,1,0,0:0:0:40:Hat open.wav
448,192,150811,1,0,0:0:0:0:
192,192,150961,128,0,151111:0:0:0:0:
64,192,151111,1,2,0:0:0:0:
320,192,151111,1,4,0:0:0:0:
448,192,151111,1,0,0:0:0:0:
192,192,151261,1,2,0:0:0:0:
320,192,151261,1,0,0:0:0:0:
64,192,151411,1,8,0:0:0:0:
192,192,151411,1,0,0:0:0:40:Hat open.wav
448,192,151411,128,0,151561:0:0:0:0:
64,192,151561,1,2,0:0:0:0:
320,192,151561,1,0,0:0:0:0:
192,192,151636,1,2,0:0:0:0:
320,192,151711,1,8,0:0:0:0:
448,192,151711,1,0,0:0:0:0:
64,192,151786,1,8,0:0:0:0:
192,192,151786,1,0,0:0:0:0:
320,192,151861,1,8,0:0:0:0:
448,192,151861,1,0,0:0:0:0:
64,192,151936,1,8,0:0:0:0:
192,192,151936,1,0,0:0:0:0:
320,192,152011,1,8,0:0:0:0:
448,192,152011,1,0,0:0:0:0:
192,192,152086,1,8,0:0:0:0:
64,192,152161,1,4,0:0:0:0:
320,192,152161,128,2,152461:0:0:0:0:
448,192,152161,1,0,0:0:0:0:
64,192,152461,1,2,0:0:0:0:
192,192,152461,1,0,0:0:0:0:
64,192,152611,1,8,0:0:0:0:
320,192,152611,1,0,0:0:0:40:Hat open.wav
448,192,152611,128,0,152761:0:0:0:0:
64,192,152911,1,2,0:0:0:0:
192,192,152911,128,0,153211:0:0:0:40:Hat open.wav
320,192,153061,1,2,0:0:0:0:
448,192,153061,1,0,0:0:0:0:
64,192,153211,128,8,153361:0:0:0:0:
320,192,153211,1,0,0:0:0:40:Hat open.wav
448,192,153211,1,0,0:0:0:0:
320,192,153361,128,0,153511:0:0:0:0:
64,192,153511,1,2,0:0:0:0:
192,192,153511,1,4,0:0:0:0:
448,192,153511,1,0,0:0:0:0:
192,192,153661,1,2,0:0:0:0:
320,192,153661,1,0,0:0:0:0:
64,192,153811,1,8,0:0:0:0:
320,192,153811,1,0,0:0:0:40:Hat open.wav
448,192,153811,1,0,0:0:0:0:
192,192,153961,1,2,0:0:0:0:
448,192,153961,1,0,0:0:0:0:
320,192,154036,1,2,0:0:0:0:
64,192,154111,1,8,0:0:0:0:
192,192,154111,1,4,0:0:0:0:
448,192,154111,1,0,0:0:0:0:
64,192,154261,1,2,0:0:0:0:
320,192,154261,1,0,0:0:0:0:
192,192,154411,1,8,0:0:0:0:
320,192,154411,1,0,0:0:0:40:Hat open.wav
448,192,154411,1,0,0:0:0:0:
64,192,154561,128,2,154861:0:0:0:0:
192,192,154561,128,4,154861:0:0:0:0:
320,192,154561,1,0,0:0:0:0:
448,192,154561,1,0,0:0:0:0:
320,192,154861,1,2,0:0:0:0:
448,192,154861,1,0,0:0:0:0:
64,192,155011,1,8,0:0:0:0:
192,192,155011,1,0,0:0:0:40:Hat open.wav
448,192,155011,1,0,0:0:0:0:
320,192,155161,1,0,0:0:0:0:
64,192,155311,1,8,0:0:0:0:
192,192,155311,1,0,0:0:0:40:Hat open.wav
448,192,155311,1,0,0:0:0:0:
192,192,155461,1,2,0:0:0:0:
320,192,155461,1,0,0:0:0:0:
64,192,155611,1,8,0:0:0:0:
320,192,155611,1,0,0:0:0:40:Hat open.wav
448,192,155611,1,0,0:0:0:0:
192,192,155761,1,2,0:0:0:0:
448,192,155761,1,0,0:0:0:0:
320,192,155836,1,2,0:0:0:0:
64,192,155911,1,8,0:0:0:0:
192,192,155911,1,0,0:0:0:40:Hat open.wav
448,192,155986,1,0,0:0:0:40:Tom1.wav
192,192,156061,1,2,0:0:0:0:
320,192,156061,1,0,0:0:0:0:
64,192,156136,1,2,0:0:0:0:
320,192,156211,1,0,0:0:0:40:Tom2.wav
448,192,156211,1,0,0:0:0:0:
192,192,156286,1,0,0:0:0:40:Tom2.wav
64,192,156361,1,2,0:0:0:0:
448,192,156361,1,0,0:0:0:0:
320,192,156436,1,2,0:0:0:0:
64,192,156511,1,8,0:0:0:0:
192,192,156511,1,0,0:0:0:0:
320,192,156586,1,8,0:0:0:0:
448,192,156586,1,0,0:0:0:0:
64,192,156661,1,8,0:0:0:0:
192,192,156661,1,0,0:0:0:0:
320,192,156736,1,8,0:0:0:0:
448,192,156736,1,0,0:0:0:0:
64,192,156811,1,0,0:0:0:40:Tom1.wav
192,192,156811,1,0,0:0:0:0:
320,192,156886,1,0,0:0:0:40:Tom1.wav
64,192,156961,128,2,157261:0:0:0:0:
192,192,156961,1,4,0:0:0:0:
448,192,156961,1,0,0:0:0:0:
320,192,157111,128,0,157261:0:0:0:0:
192,192,157261,1,2,0:0:0:0:
448,192,157261,1,0,0:0:0:0:
320,192,157336,1,2,0:0:0:0:
64,192,157411,1,8,0:0:0:0:
192,192,157411,128,0,157711:0:0:0:40:Hat open.wav
448,192,157411,1,0,0:0:0:0:
320,192,157561,128,0,157711:0:0:0:0:
64,192,157711,1,2,0:0:0:0:
448,192,157711,1,0,0:0:0:40:Hat open.wav
192,192,157861,1,2,0:0:0:0:
448,192,157861,1,0,0:0:0:0:
64,192,158011,1,8,0:0:0:0:
192,192,158011,1,0,0:0:0:40:Hat open.wav
320,192,158011,1,0,0:0:0:0:
64,192,158161,1,2,0:0:0:0:
448,192,158161,128,0,158461:0:0:0:0:
320,192,158311,128,0,158461:0:0:0:40:Hat open.wav
64,192,158461,1,2,0:0:0:0:
192,192,158461,1,0,0:0:0:0:
64,192,158611,1,8,0:0:0:0:
320,192,158611,128,0,158911:0:0:0:40:Hat open.wav
448,192,158611,1,0,0:0:0:0:
192,192,158761,128,0,158911:0:0:0:0:
64,192,158911,1,2,0:0:0:0:
448,192,158911,1,0,0:0:0:40:Hat open.wav
64,192,159061,1,2,0:0:0:0:
320,192,159061,1,0,0:0:0:0:
192,192,159211,1,8,0:0:0:0:
320,192,159211,1,0,0:0:0:40:Hat open.wav
448,192,159211,1,0,0:0:0:0:
64,192,159361,128,2,159661:0:0:0:0:
192,192,159361,1,4,0:0:0:0:
320,192,159361,1,0,0:0:0:0:
448,192,159361,1,0,0:0:0:0:
448,192,159511,128,0,159661:0:0:0:0:
192,192,159661,1,2,0:0:0:0:
320,192,159661,1,0,0:0:0:0:
64,192,159811,1,8,0:0:0:0:
192,192,159811,1,0,0:0:0:40:Hat open.wav
320,192,159811,128,0,160111:0:0:0:0:
448,192,159961,128,0,160111:0:0:0:0:
64,192,160111,1,2,0:0:0:0:
192,192,160111,1,0,0:0:0:40:Hat open.wav
192,192,160261,1,2,0:0:0:0:
320,192,160261,1,0,0:0:0:0:
64,192,160411,1,8,0:0:0:0:
320,192,160411,1,0,0:0:0:40:Hat open.wav
448,192,160411,1,0,0:0:0:0:
192,192,160561,128,0,160711:0:0:0:0:
320,192,160711,1,2,0:0:0:0:
448,192,160711,1,0,0:0:0:40:Hat open.wav
192,192,160861,1,2,0:0:0:0:
320,192,160861,1,0,0:0:0:0:
64,192,161011,1,8,0:0:0:0:
192,192,161011,1,0,0:0:0:40:Hat open.wav
448,192,161011,1,0,0:0:0:0:
64,192,161161,1,0,0:0:0:40:Tom1.wav
320,192,161161,1,0,0:0:0:0:
192,192,161236,1,0,0:0:0:40:Tom1.wav
64,192,161311,1,8,0:0:0:0:
320,192,161311,1,0,0:0:0:40:Hat open.wav
448,192,161311,1,0,0:0:0:0:
192,192,161461,1,2,0:0:0:0:
448,192,161461,1,0,0:0:0:0:
320,192,161536,1,2,0:0:0:0:
64,192,161611,1,8,0:0:0:0:
192,192,161611,1,0,0:0:0:40:Hat open.wav
448,192,161611,1,0,0:0:0:0:
64,192,161761,1,2,0:0:0:0:
192,192,161761,1,4,0:0:0:0:
320,192,161761,1,0,0:0:0:0:
448,192,161761,1,0,0:0:0:0:
320,192,162061,1,2,0:0:0:0:
448,192,162061,1,0,0:0:0:0:
64,192,162211,1,8,0:0:0:0:
192,192,162211,1,0,0:0:0:40:Hat open.wav
448,192,162211,1,0,0:0:0:0:
320,192,162361,1,0,0:0:0:0:
64,192,162511,1,2,0:0:0:0:
192,192,162511,1,0,0:0:0:40:Hat open.wav
192,192,162661,1,2,0:0:0:0:
320,192,162661,1,0,0:0:0:0:
64,192,162811,1,8,0:0:0:0:
320,192,162811,1,0,0:0:0:40:Hat open.wav
448,192,162811,1,0,0:0:0:0:
192,192,162961,1,0,0:0:0:0:
320,192,163111,1,2,0:0:0:0:
448,192,163111,1,0,0:0:0:40:Hat open.wav
192,192,163261,1,2,0:0:0:0:
320,192,163261,1,0,0:0:0:0:
64,192,163411,1,8,0:0:0:0:
192,192,163411,1,0,0:0:0:40:Hat open.wav
448,192,163411,1,0,0:0:0:0:
64,192,163561,1,2,0:0:0:0:
320,192,163561,1,0,0:0:0:0:
192,192,163636,1,2,0:0:0:0:
64,192,163711,1,8,0:0:0:0:
320,192,163711,1,0,0:0:0:40:Hat open.wav
448,192,163711,1,0,0:0:0:0:
192,192,163861,1,2,0:0:0:0:
448,192,163861,1,0,0:0:0:0:
64,192,164011,1,8,0:0:0:0:
192,192,164011,1,0,0:0:0:40:Hat open.wav
320,192,164011,1,0,0:0:0:0:
64,192,164161,1,2,0:0:0:0:
192,192,164161,1,4,0:0:0:0:
320,192,164161,1,0,0:0:0:0:
448,192,164161,1,0,0:0:0:0:
320,192,164461,1,2,0:0:0:0:
448,192,164461,1,0,0:0:0:0:
64,192,164611,1,8,0:0:0:0:
192,192,164611,1,4,0:0:0:0:
320,192,164611,1,0,0:0:0:0:
448,192,164611,1,0,0:0:0:0:
64,192,164911,1,2,0:0:0:0:
192,192,164911,1,0,0:0:0:40:Hat open.wav
192,192,165061,1,2,0:0:0:0:
320,192,165061,1,0,0:0:0:0:
64,192,165211,1,8,0:0:0:0:
320,192,165211,1,0,0:0:0:40:Hat open.wav
448,192,165211,1,0,0:0:0:0:
192,192,165361,1,2,0:0:0:0:
448,192,165361,1,0,0:0:0:0:
64,192,165511,1,8,0:0:0:0:
192,192,165511,1,0,0:0:0:0:
320,192,165511,1,0,0:0:0:0:
64,192,165661,1,2,0:0:0:0:
448,192,165661,1,0,0:0:0:0:
192,192,165811,1,8,0:0:0:0:
320,192,165811,1,0,0:0:0:0:
448,192,165811,1,0,0:0:0:0:
64,192,165961,1,2,0:0:0:0:
320,192,165961,1,0,0:0:0:0:
192,192,166036,1,2,0:0:0:0:
64,192,166111,1,8,0:0:0:0:
320,192,166111,1,0,0:0:0:0:
448,192,166111,1,0,0:0:0:0:
64,192,166261,1,8,0:0:0:0:
320,192,166261,1,0,0:0:0:0:
448,192,166261,1,0,0:0:0:0:
64,192,166411,1,8,0:0:0:0:
192,192,166411,1,0,0:0:0:0:
448,192,166411,1,0,0:0:0:0:
64,192,166561,1,8,0:0:0:0:
192,192,166561,1,0,0:0:0:0:
448,192,166561,1,0,0:0:0:0:
64,192,166711,1,2,0:0:0:0:
192,192,166711,1,4,0:0:0:0:
320,192,166711,1,0,0:0:0:0:
448,192,166711,1,0,0:0:0:0:
320,192,166861,128,0,167161:0:0:0:0:
448,192,167011,128,0,167161:0:0:0:0:
64,192,167161,128,2,167311:0:0:0:0:
192,192,167161,1,0,0:0:0:0:
448,192,167311,128,0,167561:0:0:0:0:
192,192,167461,128,0,167561:0:0:0:0:
320,192,167561,128,0,167761:0:0:0:0:
64,192,167761,128,0,167911:0:0:0:0:
192,192,167911,128,0,168061:0:0:0:0:
320,192,168061,128,0,168211:0:0:0:0:
64,192,168211,1,2,0:0:0:0:
448,192,168211,128,0,168361:0:0:0:0:
192,192,168361,128,0,168511:0:0:0:0:
320,192,168511,128,0,168661:0:0:0:0:
64,192,168661,128,2,169036:0:0:0:0:
192,192,168661,1,0,0:0:0:0:
448,192,168811,128,0,169036:0:0:0:0:
192,192,168961,128,0,169036:0:0:0:0:
64,192,169111,1,4,0:0:0:0:
320,192,169111,128,2,169261:0:0:0:0:
448,192,169111,1,0,0:0:0:0:
192,192,169261,128,0,169411:0:0:0:0:
448,192,169411,128,0,169561:0:0:0:0:
64,192,169561,128,4,169711:0:0:0:0:
192,192,169561,1,2,0:0:0:0:
320,192,169561,1,0,0:0:0:0:
320,192,169711,128,0,169861:0:0:0:0:
192,192,169861,128,0,170011:0:0:0:0:
64,192,170011,1,4,0:0:0:0:
320,192,170011,1,2,0:0:0:0:
448,192,170011,128,0,170161:0:0:0:0:
64,192,170161,128,0,170311:0:0:0:0:
192,192,170311,128,0,170461:0:0:0:0:
64,192,170461,1,4,0:0:0:0:
320,192,170461,1,2,0:0:0:0:
448,192,170461,128,0,170611:0:0:0:0:
64,192,170611,128,0,170761:0:0:0:0:
320,192,170761,128,0,170911:0:0:0:0:
64,192,170911,128,4,171211:0:0:0:0:
192,192,170911,128,2,171211:0:0:0:0:
448,192,170911,1,0,0:0:0:0:
320,192,171211,1,0,0:0:0:0:
448,192,171211,1,0,0:0:0:0:
64,192,171361,1,0,0:0:0:0:
192,192,171361,1,0,0:0:0:0:
320,192,171436,1,0,0:0:0:0:
64,192,171511,128,2,172561:0:0:0:0:
192,192,171511,128,4,171961:0:0:0:0:
448,192,171511,128,0,172111:0:0:0:60:AWP.wav
320,192,171961,128,0,172411:0:0:0:0:
192,192,172111,1,0,0:0:0:30:Snare.wav
448,192,172411,128,0,172561:0:0:0:0:
192,192,172561,128,0,175111:0:0:0:30:Snare.wav
320,192,172561,1,0,0:0:0:0:
64,192,172711,1,0,0:0:0:0:
320,192,173011,1,2,0:0:0:0:
448,192,173011,1,0,0:0:0:0:
64,192,173311,1,0,0:0:0:30:Snare.wav
64,192,173911,1,2,0:0:0:0:
448,192,173911,128,0,174511:0:0:0:0:
64,192,174511,1,0,0:0:0:30:Snare.wav
320,192,174511,128,0,174661:0:0:0:0:
64,192,174661,128,0,175111:0:0:0:0:
320,192,174961,1,0,0:0:0:30:Snare.wav
448,192,175111,128,0,175411:0:0:0:0:
320,192,175261,128,0,175411:0:0:0:0:
64,192,175411,128,2,175561:0:0:0:0:
192,192,175411,1,0,0:0:0:0:
448,192,175561,128,0,176011:0:0:0:0:
320,192,175711,1,0,0:0:0:30:Snare.wav
64,192,175861,1,2,0:0:0:0:
192,192,175861,1,0,0:0:0:0:
320,192,176011,128,0,176311:0:0:0:0:
192,192,176311,128,2,176761:0:0:0:0:
448,192,176311,1,0,0:0:0:0:
448,192,176761,128,0,177211:0:0:0:0:
192,192,176911,1,0,0:0:0:30:Snare.wav
320,192,177211,128,0,177361:0:0:0:0:
64,192,177361,1,0,0:0:0:30:Snare.wav
192,192,177361,128,0,178711:0:0:0:0:
448,192,177511,1,0,0:0:0:0:
64,192,177811,128,2,179911:0:0:0:0:
320,192,177811,1,0,0:0:0:0:
448,192,178111,1,0,0:0:0:30:Snare.wav
320,192,178711,1,2,0:0:0:0:
448,192,178711,128,0,179311:0:0:0:0:
192,192,179311,1,0,0:0:0:30:Snare.wav
320,192,179311,128,0,179461:0:0:0:0:
192,192,179461,128,0,179911:0:0:0:0:
448,192,179761,1,0,0:0:0:30:Snare.wav
320,192,179911,128,0,180211:0:0:0:0:
448,192,180061,128,0,180211:0:0:0:0:
64,192,180211,1,2,0:0:0:0:
192,192,180211,128,0,180511:0:0:0:0:
320,192,180361,128,0,180511:0:0:0:0:
64,192,180511,1,0,0:0:0:30:Snare.wav
448,192,180511,128,0,181036:0:0:0:0:
64,192,180661,128,2,181036:0:0:0:0:
192,192,180661,1,0,0:0:0:0:
320,192,180811,128,0,181036:0:0:0:0:
64,192,181111,1,4,0:0:0:0:
192,192,181111,128,2,181261:0:0:0:0:
320,192,181111,1,0,0:0:0:0:
448,192,181111,128,0,181261:0:0:0:0:
64,192,181411,128,2,181486:0:0:0:0:
448,192,181411,1,0,0:0:0:0:
64,192,181561,128,0,181636:0:0:0:0:
64,192,181711,128,2,181786:0:0:0:0:
448,192,181711,1,0,0:0:0:0:
64,192,181861,128,0,181936:0:0:0:0:
192,192,182011,1,2,0:0:0:0:
320,192,182011,128,0,182086:0:0:0:0:
320,192,182161,128,0,182236:0:0:0:0:
64,192,182311,128,2,182611:0:0:0:0:
192,192,182311,1,0,0:0:0:0:
448,192,182311,128,0,182461:0:0:0:0:
320,192,182461,128,0,182611:0:0:0:0:
192,192,182611,1,2,0:0:0:0:
448,192,182611,128,0,182686:0:0:0:0:
448,192,182761,128,0,182836:0:0:0:0:
192,192,182911,1,2,0:0:0:0:
448,192,182911,128,0,182986:0:0:0:0:
448,192,183061,128,0,183136:0:0:0:0:
64,192,183211,128,2,183286:0:0:0:0:
320,192,183211,1,0,0:0:0:0:
64,192,183361,128,0,183436:0:0:0:0:
192,192,183511,128,2,183661:0:0:0:0:
320,192,183511,1,0,0:0:0:0:
448,192,183511,128,0,183811:0:0:0:0:
64,192,183661,128,0,183811:0:0:0:0:
192,192,183811,128,2,183886:0:0:0:0:
320,192,183811,1,0,0:0:0:0:
192,192,183961,128,0,184036:0:0:0:0:
192,192,184111,128,2,184186:0:0:0:0:
320,192,184111,1,0,0:0:0:0:
192,192,184261,128,0,184336:0:0:0:0:
64,192,184411,1,2,0:0:0:0:
320,192,184411,1,8,0:0:0:0:
448,192,184411,1,0,0:0:0:0:
64,192,184561,1,8,0:0:0:0:
320,192,184561,1,0,0:0:0:0:
448,192,184561,1,0,0:0:0:0:
64,192,184711,1,2,0:0:0:0:
192,192,184711,1,8,0:0:0:0:
448,192,184711,1,0,0:0:0:0:
64,192,184861,1,8,0:0:0:0:
192,192,184861,1,0,0:0:0:0:
448,192,184861,1,0,0:0:0:0:
64,192,185011,1,8,0:0:0:0:
320,192,185011,1,0,0:0:0:0:
448,192,185011,1,0,0:0:0:0:
64,192,185161,1,8,0:0:0:0:
320,192,185161,1,0,0:0:0:0:
448,192,185161,1,0,0:0:0:0:
64,192,185311,1,8,0:0:0:0:
192,192,185311,1,0,0:0:0:0:
320,192,185386,1,8,0:0:0:0:
448,192,185386,1,0,0:0:0:0:
64,192,185461,1,2,0:0:0:0:
192,192,185461,1,0,0:0:0:0:
320,192,185536,1,2,0:0:0:0:
64,192,185611,1,0,0:0:0:40:Tom1.wav
448,192,185611,1,0,0:0:0:0:
192,192,185686,1,0,0:0:0:40:Tom1.wav
320,192,185761,1,2,0:0:0:0:
448,192,185761,1,0,0:0:0:0:
64,192,185836,1,2,0:0:0:0:
192,192,185911,1,8,0:0:0:0:
320,192,185911,1,4,0:0:0:0:
448,192,185911,1,0,0:0:0:0:
64,192,186061,1,2,0:0:0:0:
320,192,186061,1,0,0:0:0:0:
64,192,186211,1,2,0:0:0:0:
320,192,186211,1,0,0:0:0:0:
64,192,186361,1,8,0:0:0:0:
192,192,186361,1,4,0:0:0:0:
448,192,186361,1,0,0:0:0:0:
192,192,186511,1,2,0:0:0:0:
320,192,186511,1,0,0:0:0:0:
192,192,186661,1,2,0:0:0:0:
320,192,186661,1,0,0:0:0:0:
64,192,186811,1,8,0:0:0:0:
320,192,186811,1,0,0:0:0:0:
448,192,186811,1,0,0:0:0:0:
192,192,186886,1,0,0:0:0:40:Tom1.wav
64,192,186961,1,0,0:0:0:40:Tom2.wav
448,192,186961,1,0,0:0:0:0:
320,192,187036,1,0,0:0:0:40:Tom3.wav
64,192,187111,1,8,0:0:0:0:
192,192,187111,1,0,0:0:0:0:
448,192,187111,1,0,0:0:0:0:
64,192,187261,1,2,0:0:0:0:
320,192,187261,1,0,0:0:0:0:
192,192,187336,1,2,0:0:0:0:
320,192,187411,1,2,0:0:0:0:
448,192,187411,1,0,0:0:0:0:
64,192,187486,1,2,0:0:0:0:
192,192,187561,1,4,0:0:0:0:
320,192,187561,1,8,0:0:0:0:
448,192,187561,1,0,0:0:0:0:
64,192,187711,1,2,0:0:0:0:
448,192,187711,1,0,0:0:0:0:
320,192,187786,1,2,0:0:0:0:
64,192,187861,1,2,0:0:0:0:
192,192,187861,1,0,0:0:0:0:
448,192,187936,1,2,0:0:0:0:
64,192,188011,1,8,0:0:0:0:
192,192,188011,1,4,0:0:0:0:
320,192,188011,1,0,0:0:0:0:
192,192,188161,1,2,0:0:0:0:
448,192,188161,1,0,0:0:0:0:
320,192,188236,1,2,0:0:0:0:
64,192,188311,128,4,188611:0:0:0:0:
192,192,188311,1,8,0:0:0:0:
448,192,188311,128,0,188611:0:0:0:0:
192,192,188611,1,2,0:0:0:0:
320,192,188611,1,0,0:0:0:0:
64,192,188761,1,8,0:0:0:0:
320,192,188761,1,0,0:0:0:0:
448,192,188761,1,0,0:0:0:0:
64,192,188911,1,8,0:0:0:0:
320,192,188911,1,0,0:0:0:0:
448,192,188911,1,0,0:0:0:0:
64,192,189061,1,8,0:0:0:0:
192,192,189061,1,0,0:0:0:0:
448,192,189061,1,0,0:0:0:0:
64,192,189211,1,8,0:0:0:0:
192,192,189211,1,0,0:0:0:0:
448,192,189211,1,0,0:0:0:0:
192,192,189361,128,8,189511:0:0:0:0:
320,192,189361,128,0,189511:0:0:0:0:
448,192,189361,128,0,189511:0:0:0:0:
64,192,189511,1,0,0:0:0:0:
192,192,189586,1,0,0:0:0:0:
320,192,189661,1,0,0:0:0:0:
448,192,189773,1,0,0:0:0:0:
320,192,189848,1,0,0:0:0:0:
192,192,189961,1,0,0:0:0:0:
64,192,190054,1,0,0:0:0:0:
448,192,190186,1,0,0:0:0:0:
320,192,190298,1,0,0:0:0:0:
192,192,190467,1,0,0:0:0:0:
64,192,190711,1,4,0:0:0:0:
320,192,190711,1,8,0:0:0:0:
448,192,190711,1,0,0:0:0:0:
64,192,190861,1,8,0:0:0:0:
320,192,190861,1,4,0:0:0:0:
448,192,190861,1,0,0:0:0:0:
192,192,191011,1,2,0:0:0:0:
448,192,191011,1,0,0:0:0:0:
320,192,191086,1,2,0:0:0:0:
64,192,191161,1,0,0:0:0:40:Tom1.wav
192,192,191161,1,0,0:0:0:0:
448,192,191236,1,0,0:0:0:40:Tom1.wav
192,192,191311,1,2,0:0:0:0:
320,192,191311,1,0,0:0:0:0:
64,192,191386,1,2,0:0:0:0:
320,192,191461,1,0,0:0:0:40:Tom1.wav
448,192,191461,1,0,0:0:0:0:
192,192,191536,1,0,0:0:0:40:Tom1.wav
64,192,191611,1,0,0:0:0:40:Tom2.wav
448,192,191611,1,0,0:0:0:0:
320,192,191686,1,0,0:0:0:40:Tom3.wav
64,192,191761,1,2,0:0:0:0:
192,192,191761,1,0,0:0:0:0:
320,192,191836,1,2,0:0:0:0:
64,192,191911,1,0,0:0:0:60:soft-hitwhistle.wav
192,192,191911,1,0,0:0:0:0:
448,192,191911,1,0,0:0:0:0:
64,192,192211,128,0,192886:0:0:0:0:
448,192,192511,128,0,192886:0:0:0:0:
320,192,192661,128,0,192886:0:0:0:0:
64,192,192961,128,4,193411:0:0:0:0:
192,192,192961,128,2,193411:0:0:0:0:
320,192,192961,1,0,0:0:0:0:
448,192,192961,1,0,0:0:0:0:
320,192,193411,128,0,194161:0:0:0:0:
64,192,193711,128,0,194161:0:0:0:0:
448,192,193861,128,0,194161:0:0:0:0:
192,192,194161,128,0,194311:0:0:0:0:
64,192,194311,1,4,0:0:0:0:
320,192,194311,1,2,0:0:0:0:
448,192,194311,1,0,0:0:0:0:
64,192,194461,1,2,0:0:0:0:
320,192,194461,1,4,0:0:0:0:
448,192,194461,1,0,0:0:0:0:
192,192,194611,1,0,0:0:0:40:Tom1.wav
448,192,194611,1,0,0:0:0:0:
320,192,194686,1,0,0:0:0:40:Tom1.wav
64,192,194761,1,2,0:0:0:0:
192,192,194761,1,0,0:0:0:0:
448,192,194836,1,2,0:0:0:0:
64,192,194911,1,8,0:0:0:0:
192,192,194911,1,0,0:0:0:0:
320,192,194911,1,0,0:0:0:0:
64,192,195061,128,2,195361:0:0:0:0:
448,192,195061,1,0,0:0:0:0:
192,192,195361,1,4,0:0:0:0:
320,192,195361,1,2,0:0:0:0:
448,192,195361,128,0,195811:0:0:0:0:
64,192,195811,1,2,0:0:0:0:
192,192,195811,1,0,0:0:0:30:soft-hitclap.wav
320,192,195886,1,0,0:0:0:30:soft-hitclap.wav
64,192,195961,1,0,0:0:0:30:soft-hitclap.wav
448,192,195961,1,0,0:0:0:0:
192,192,196036,1,0,0:0:0:30:soft-hitclap.wav
320,192,196111,1,8,0:0:0:0:
448,192,196111,1,2,0:0:0:0:
64,192,196186,1,8,0:0:0:0:
192,192,196186,1,0,0:0:0:0:
320,192,196261,1,8,0:0:0:0:
448,192,196261,1,0,0:0:0:0:
64,192,196336,1,8,0:0:0:0:
192,192,196336,1,0,0:0:0:0:
320,192,196411,1,8,0:0:0:0:
448,192,196411,1,2,0:0:0:0:
64,192,196486,1,8,0:0:0:0:
192,192,196486,1,0,0:0:0:0:
320,192,196561,1,8,0:0:0:0:
448,192,196561,1,0,0:0:0:0:
64,192,196636,1,8,0:0:0:0:
192,192,196636,1,0,0:0:0:0:
320,192,196711,1,8,0:0:0:0:
448,192,196711,1,2,0:0:0:0:
192,192,196811,1,8,0:0:0:0:
64,192,196911,1,8,0:0:0:0:
448,192,196911,1,0,0:0:0:0:
320,192,197011,1,0,0:0:0:40:Tom1.wav
64,192,197111,1,0,0:0:0:40:Tom3.wav
192,192,197111,1,0,0:0:0:0:
320,192,197211,1,2,0:0:0:0:
64,192,197311,1,8,0:0:0:0:
192,192,197311,1,0,0:0:0:0:
448,192,197311,1,0,0:0:0:0:
192,192,197461,1,2,0:0:0:0:
320,192,197461,1,0,0:0:0:0:
64,192,197761,1,4,0:0:0:0:
192,192,197761,1,2,0:0:0:0:
320,192,197761,1,0,0:0:0:0:
448,192,197761,1,0,0:0:0:0:
64,192,198061,1,2,0:0:0:0:
192,192,198061,1,0,0:0:0:0:
320,192,198211,128,0,198361:0:0:0:40:Hat open.wav
64,192,198361,1,2,0:0:0:0:
192,192,198361,1,0,0:0:0:0:
320,192,198436,1,2,0:0:0:0:
64,192,198511,1,8,0:0:0:0:
192,192,198511,1,4,0:0:0:0:
448,192,198511,128,0,198811:0:0:0:0:
64,192,198811,1,2,0:0:0:0:
320,192,198811,1,0,0:0:0:40:Hat open.wav
192,192,198961,1,2,0:0:0:0:
320,192,198961,1,0,0:0:0:0:
64,192,199111,128,0,199411:0:0:0:40:Hat open.wav
320,192,199311,1,8,0:0:0:0:
448,192,199311,1,0,0:0:0:0:
192,192,199411,1,0,0:0:0:40:Hat open.wav
64,192,199561,1,2,0:0:0:0:
320,192,199561,1,0,0:0:0:0:
192,192,199636,1,2,0:0:0:0:
64,192,199711,1,8,0:0:0:0:
320,192,199711,1,4,0:0:0:0:
448,192,199711,128,0,200011:0:0:0:0:
64,192,200011,1,8,0:0:0:0:
192,192,200011,1,4,0:0:0:0:
320,192,200011,1,0,0:0:0:0:
64,192,200161,128,2,200461:0:0:0:0:
192,192,200161,128,4,200461:0:0:0:0:
320,192,200161,1,0,0:0:0:0:
448,192,200161,1,0,0:0:0:0:
320,192,200461,1,2,0:0:0:0:
448,192,200461,1,0,0:0:0:0:
192,192,200536,1,2,0:0:0:0:
64,192,200611,1,8,0:0:0:0:
320,192,200611,1,4,0:0:0:0:
448,192,200611,1,0,0:0:0:0:
192,192,200761,1,2,0:0:0:0:
320,192,200761,1,0,0:0:0:0:
64,192,200911,1,8,0:0:0:0:
192,192,200911,1,0,0:0:0:0:
448,192,200911,1,0,0:0:0:0:
64,192,201061,1,8,0:0:0:0:
192,192,201061,1,0,0:0:0:0:
448,192,201061,1,0,0:0:0:0:
320,192,201211,1,8,0:0:0:0:
448,192,201211,1,0,0:0:0:0:
64,192,201361,1,2,0:0:0:0:
192,192,201361,1,0,0:0:0:0:
320,192,201436,1,2,0:0:0:0:
64,192,201511,1,8,0:0:0:0:
192,192,201511,1,4,0:0:0:0:
448,192,201511,1,0,0:0:0:0:
64,192,201661,1,2,0:0:0:0:
320,192,201661,1,0,0:0:0:0:
192,192,201811,1,8,0:0:0:0:
320,192,201811,1,0,0:0:0:40:Hat open.wav
448,192,201811,1,0,0:0:0:0:
64,192,201961,1,2,0:0:0:0:
448,192,201961,1,0,0:0:0:0:
64,192,202111,1,2,0:0:0:0:
192,192,202111,1,8,0:0:0:0:
320,192,202186,1,8,0:0:0:0:
448,192,202186,1,0,0:0:0:0:
64,192,202261,1,8,0:0:0:0:
192,192,202261,1,0,0:0:0:0:
320,192,202336,1,8,0:0:0:0:
448,192,202336,1,0,0:0:0:0:
64,192,202411,1,8,0:0:0:0:
192,192,202411,1,0,0:0:0:0:
320,192,202486,1,8,0:0:0:0:
64,192,202561,128,2,202861:0:0:0:0:
192,192,202561,1,4,0:0:0:0:
448,192,202561,1,0,0:0:0:0:
320,192,202711,128,0,202861:0:0:0:0:
192,192,202861,1,2,0:0:0:0:
448,192,202861,1,0,0:0:0:0:
320,192,202936,1,2,0:0:0:0:
64,192,203011,1,8,0:0:0:0:
192,192,203011,128,0,203311:0:0:0:40:Hat open.wav
448,192,203011,1,0,0:0:0:0:
320,192,203161,128,0,203311:0:0:0:0:
64,192,203311,1,2,0:0:0:0:
448,192,203311,1,0,0:0:0:40:Hat open.wav
192,192,203461,1,2,0:0:0:0:
320,192,203461,1,0,0:0:0:0:
64,192,203611,1,8,0:0:0:0:
192,192,203611,1,0,0:0:0:40:Hat open.wav
448,192,203611,1,0,0:0:0:0:
64,192,203761,128,2,204061:0:0:0:0:
320,192,203761,1,0,0:0:0:0:
192,192,203911,128,0,204061:0:0:0:40:Hat open.wav
320,192,204061,1,2,0:0:0:0:
448,192,204061,1,0,0:0:0:0:
64,192,204211,1,8,0:0:0:0:
192,192,204211,1,0,0:0:0:40:Hat open.wav
448,192,204211,128,0,204511:0:0:0:0:
320,192,204361,128,0,204511:0:0:0:0:
64,192,204511,1,2,0:0:0:0:
192,192,204511,1,0,0:0:0:40:Hat open.wav
320,192,204661,1,2,0:0:0:0:
448,192,204661,1,0,0:0:0:0:
64,192,204811,1,8,0:0:0:0:
192,192,204811,1,0,0:0:0:40:Hat open.wav
448,192,204811,1,0,0:0:0:0:
64,192,204961,1,2,0:0:0:0:
192,192,204961,1,4,0:0:0:0:
320,192,204961,128,0,205261:0:0:0:0:
448,192,204961,1,0,0:0:0:0:
64,192,205111,128,0,205261:0:0:0:0:
192,192,205261,1,2,0:0:0:0:
448,192,205261,1,0,0:0:0:0:
64,192,205411,1,8,0:0:0:0:
192,192,205411,128,0,205711:0:0:0:40:Hat open.wav
320,192,205411,1,0,0:0:0:0:
448,192,205561,128,0,205711:0:0:0:0:
64,192,205711,1,2,0:0:0:0:
320,192,205711,1,0,0:0:0:40:Hat open.wav
192,192,205861,1,2,0:0:0:0:
320,192,205861,1,0,0:0:0:0:
64,192,206011,1,8,0:0:0:0:
192,192,206011,1,0,0:0:0:40:Hat open.wav
448,192,206011,1,0,0:0:0:0:
320,192,206161,128,0,206311:0:0:0:0:
64,192,206311,1,2,0:0:0:0:
192,192,206311,1,0,0:0:0:0:
320,192,206411,1,8,0:0:0:0:
448,192,206411,1,0,0:0:0:0:
64,192,206511,1,8,0:0:0:0:
192,192,206511,1,0,0:0:0:0:
320,192,206611,1,8,0:0:0:0:
448,192,206611,1,0,0:0:0:0:
64,192,206711,1,0,0:0:0:40:Tom1.wav
192,192,206811,1,0,0:0:0:40:Tom1.wav
320,192,206911,1,8,0:0:0:0:
448,192,206911,1,2,0:0:0:0:
192,192,207011,1,0,0:0:0:40:Tom1.wav
64,192,207111,1,8,0:0:0:0:
448,192,207111,1,0,0:0:0:0:
320,192,207211,1,0,0:0:0:40:Tom1.wav
64,192,207311,1,0,0:0:0:40:Tom3.wav
192,192,207411,1,0,0:0:0:40:Tom3.wav
64,192,207511,1,2,0:0:0:0:
320,192,207511,1,4,0:0:0:0:
448,192,207511,1,0,0:0:0:0:
320,192,208111,128,0,208711:0:0:0:0:
64,192,208711,1,0,0:0:0:0:
192,192,208711,128,0,209311:0:0:0:0:
448,192,209311,128,0,209836:0:0:0:40:Hat open.wav
320,192,209761,128,0,209836:0:0:0:0:
64,192,209911,1,4,0:0:0:0:
192,192,209911,1,2,0:0:0:0:
320,192,209911,1,0,0:0:0:0:
448,192,209911,1,0,0:0:0:0:
64,192,210211,1,2,0:0:0:0:
320,192,210211,1,8,0:0:0:0:
448,192,210211,1,0,0:0:0:0:
64,192,210361,1,8,0:0:0:0:
320,192,210361,1,0,0:0:0:0:
448,192,210361,1,0,0:0:0:0:
64,192,210511,1,2,0:0:0:0:
192,192,210511,1,8,0:0:0:0:
320,192,210511,1,0,0:0:0:0:
64,192,210661,1,8,0:0:0:0:
192,192,210661,1,0,0:0:0:0:
320,192,210661,1,0,0:0:0:0:
192,192,210811,1,2,0:0:0:0:
320,192,210811,1,8,0:0:0:0:
448,192,210811,1,0,0:0:0:0:
192,192,210961,1,8,0:0:0:0:
320,192,210961,1,0,0:0:0:0:
448,192,210961,1,0,0:0:0:0:
64,192,211111,1,8,0:0:0:0:
192,192,211111,1,0,0:0:0:0:
448,192,211111,1,0,0:0:0:0:
64,192,211261,1,2,0:0:0:0:
320,192,211261,1,0,0:0:0:0:
192,192,211411,1,4,0:0:0:0:
320,192,211411,1,8,0:0:0:0:
448,192,211411,1,0,0:0:0:0:
64,192,211561,1,2,0:0:0:0:
192,192,211561,1,0,0:0:0:0:
64,192,211711,1,4,0:0:0:0:
320,192,211711,1,8,0:0:0:0:
448,192,211711,1,0,0:0:0:0:
192,192,211786,1,0,0:0:0:0:
320,192,211861,1,8,0:0:0:0:
448,192,211861,1,0,0:0:0:0:
64,192,211936,1,8,0:0:0:0:
192,192,211936,1,0,0:0:0:0:
320,192,212011,1,8,0:0:0:0:
448,192,212011,1,0,0:0:0:0:
64,192,212086,1,8,0:0:0:0:
192,192,212086,1,0,0:0:0:0:
320,192,212161,1,8,0:0:0:0:
448,192,212161,1,0,0:0:0:0:
192,192,212236,1,8,0:0:0:0:
64,192,212311,1,4,0:0:0:0:
320,192,212311,128,2,212536:0:0:0:0:
448,192,212311,128,0,212536:0:0:0:0:
64,192,212611,128,8,212836:0:0:0:0:
192,192,212611,128,2,212836:0:0:0:0:
448,192,212611,128,0,212836:0:0:0:40:Hat open.wav
64,192,212911,1,2,0:0:0:0:
192,192,212911,128,0,213136:0:0:0:40:Hat open.wav
320,192,212911,128,0,213136:0:0:0:0:
64,192,213211,128,8,213436:0:0:0:0:
320,192,213211,128,2,213436:0:0:0:0:
448,192,213211,128,0,213436:0:0:0:40:Hat open.wav
64,192,213511,128,2,213736:0:0:0:0:
192,192,213511,128,0,213736:0:0:0:40:Hat open.wav
448,192,213511,1,0,0:0:0:0:
192,192,213811,128,8,214036:0:0:0:0:
320,192,213811,128,2,214036:0:0:0:0:
448,192,213811,128,0,214036:0:0:0:40:Hat open.wav
64,192,214111,128,2,214336:0:0:0:0:
320,192,214111,128,0,214336:0:0:0:40:Hat open.wav
448,192,214111,1,0,0:0:0:0:
64,192,214411,128,8,214636:0:0:0:0:
192,192,214411,128,2,214636:0:0:0:0:
448,192,214411,128,0,214636:0:0:0:40:Hat open.wav
192,192,214711,128,2,214936:0:0:0:0:
320,192,214711,128,0,214936:0:0:0:40:Hat open.wav
448,192,214711,1,0,0:0:0:0:
64,192,215011,128,8,215236:0:0:0:0:
320,192,215011,128,2,215236:0:0:0:0:
448,192,215011,128,0,215236:0:0:0:40:Hat open.wav
64,192,215311,1,2,0:0:0:0:
192,192,215311,128,0,215536:0:0:0:40:Hat open.wav
448,192,215311,128,0,215536:0:0:0:0:
64,192,215611,128,8,215836:0:0:0:0:
192,192,215611,128,2,215836:0:0:0:0:
320,192,215611,128,0,215836:0:0:0:40:Hat open.wav
64,192,215911,128,2,216136:0:0:0:0:
320,192,215911,1,0,0:0:0:40:Hat open.wav
448,192,215911,128,0,216136:0:0:0:0:
192,192,216211,128,8,216436:0:0:0:0:
320,192,216211,128,2,216436:0:0:0:0:
448,192,216211,128,0,216436:0:0:0:40:Hat open.wav
64,192,216511,128,2,216736:0:0:0:0:
192,192,216511,128,0,216736:0:0:0:40:Hat open.wav
320,192,216511,1,0,0:0:0:0:
320,192,216811,1,8,0:0:0:0:
448,192,216811,1,2,0:0:0:0:
64,192,216886,1,8,0:0:0:0:
192,192,216886,1,0,0:0:0:0:
320,192,216961,1,8,0:0:0:0:
448,192,216961,1,0,0:0:0:0:
192,192,217036,1,8,0:0:0:0:
64,192,217111,1,4,0:0:0:0:
320,192,217111,128,2,217336:0:0:0:0:
448,192,217111,128,0,217336:0:0:0:0:
64,192,217411,128,2,217636:0:0:0:0:
192,192,217411,128,8,217636:0:0:0:0:
448,192,217411,128,0,217636:0:0:0:40:Hat open.wav
64,192,217711,1,2,0:0:0:0:
192,192,217711,128,0,217936:0:0:0:40:Hat open.wav
320,192,217711,128,0,217936:0:0:0:0:
64,192,218011,128,2,218236:0:0:0:0:
320,192,218011,128,8,218236:0:0:0:0:
448,192,218011,128,0,218236:0:0:0:40:Hat open.wav
64,192,218311,128,2,218536:0:0:0:0:
192,192,218311,128,0,218536:0:0:0:40:Hat open.wav
448,192,218311,1,0,0:0:0:0:
192,192,218611,128,2,218836:0:0:0:0:
320,192,218611,128,8,218836:0:0:0:0:
448,192,218611,128,0,218836:0:0:0:40:Hat open.wav
320,192,218911,1,2,0:0:0:0:
448,192,218911,1,0,0:0:0:40:Hat open.wav
64,192,219061,1,2,0:0:0:0:
192,192,219061,1,0,0:0:0:0:
64,192,219211,1,8,0:0:0:0:
320,192,219211,1,0,0:0:0:40:Hat open.wav
448,192,219211,1,0,0:0:0:0:
320,192,219361,1,2,0:0:0:0:
448,192,219361,1,0,0:0:0:0:
192,192,219436,1,2,0:0:0:0:
64,192,219511,1,8,0:0:0:0:
320,192,219511,1,0,0:0:0:0:
448,192,219511,1,0,0:0:0:0:
192,192,219586,1,2,0:0:0:0:
448,192,219661,1,2,0:0:0:0:
320,192,219736,1,2,0:0:0:0:
64,192,219811,1,4,0:0:0:0:
192,192,219811,1,8,0:0:0:0:
448,192,219811,1,0,0:0:0:0:
64,192,219961,1,2,0:0:0:0:
192,192,219961,1,0,0:0:0:0:
320,192,220036,1,2,0:0:0:0:
64,192,220111,1,4,0:0:0:0:
192,192,220111,1,8,0:0:0:0:
448,192,220111,1,0,0:0:0:0:
320,192,220186,1,2,0:0:0:0:
64,192,220261,1,2,0:0:0:0:
192,192,220336,1,2,0:0:0:0:
64,192,220411,1,4,0:0:0:0:
320,192,220411,1,8,0:0:0:0:
448,192,220411,1,0,0:0:0:0:
64,192,220561,1,4,0:0:0:0:
320,192,220561,1,8,0:0:0:0:
448,192,220561,1,0,0:0:0:0:
192,192,220711,1,0,0:0:0:40:Tom1.wav
448,192,220711,1,0,0:0:0:0:
320,192,220786,1,0,0:0:0:40:Tom1.wav
64,192,220861,1,2,0:0:0:0:
448,192,220861,1,0,0:0:0:0:
192,192,220936,1,2,0:0:0:0:
64,192,221011,1,4,0:0:0:0:
320,192,221011,1,8,0:0:0:0:
448,192,221011,1,0,0:0:0:0:
192,192,221161,1,2,0:0:0:0:
448,192,221161,1,0,0:0:0:0:
64,192,221311,1,4,0:0:0:0:
192,192,221311,1,8,0:0:0:0:
320,192,221386,1,8,0:0:0:0:
448,192,221386,1,0,0:0:0:0:
64,192,221461,1,2,0:0:0:0:
192,192,221536,1,2,0:0:0:0:
64,192,221611,1,4,0:0:0:0:
320,192,221611,1,8,0:0:0:0:
448,192,221611,1,0,0:0:0:0:
192,192,221761,1,2,0:0:0:0:
448,192,221761,1,0,0:0:0:0:
64,192,221911,128,4,222211:0:0:0:0:
192,192,221911,1,2,0:0:0:0:
320,192,221911,1,0,0:0:0:0:
448,192,221911,1,0,0:0:0:0:
192,192,222211,1,8,0:0:0:0:
320,192,222211,1,0,0:0:0:40:Hat open.wav
448,192,222211,1,0,0:0:0:0:
64,192,222361,1,2,0:0:0:0:
320,192,222361,1,0,0:0:0:0:
64,192,222511,1,8,0:0:0:0:
192,192,222511,1,0,0:0:0:40:Hat open.wav
448,192,222511,1,0,0:0:0:0:
192,192,222661,1,2,0:0:0:0:
320,192,222661,1,0,0:0:0:0:
64,192,222811,1,8,0:0:0:0:
320,192,222811,1,0,0:0:0:40:Hat open.wav
448,192,222811,1,0,0:0:0:0:
192,192,222961,128,2,223111:0:0:0:0:
448,192,222961,1,0,0:0:0:0:
64,192,223111,1,8,0:0:0:0:
320,192,223111,1,0,0:0:0:40:Hat open.wav
448,192,223111,1,0,0:0:0:0:
192,192,223261,1,2,0:0:0:0:
320,192,223261,128,0,223411:0:0:0:0:
64,192,223411,1,8,0:0:0:0:
192,192,223411,1,0,0:0:0:40:Hat open.wav
448,192,223411,1,0,0:0:0:0:
64,192,223561,128,2,223711:0:0:0:0:
320,192,223561,1,0,0:0:0:0:
192,192,223711,1,8,0:0:0:0:
320,192,223711,1,0,0:0:0:40:Hat open.wav
448,192,223711,1,0,0:0:0:0:
64,192,223861,1,2,0:0:0:0:
448,192,223861,128,0,224011:0:0:0:0:
64,192,224011,1,8,0:0:0:0:
192,192,224011,1,0,0:0:0:40:Hat open.wav
320,192,224011,1,0,0:0:0:0:
192,192,224161,1,2,0:0:0:0:
448,192,224161,1,0,0:0:0:0:
64,192,224311,1,4,0:0:0:0:
192,192,224311,1,8,0:0:0:0:
320,192,224311,1,0,0:0:0:0:
448,192,224311,128,0,224611:0:0:0:0:
64,192,224611,1,8,0:0:0:0:
192,192,224611,1,0,0:0:0:40:Hat open.wav
320,192,224611,1,0,0:0:0:0:
192,192,224761,1,2,0:0:0:0:
448,192,224761,1,0,0:0:0:0:
64,192,224911,1,8,0:0:0:0:
320,192,224911,1,0,0:0:0:40:Hat open.wav
448,192,224911,1,0,0:0:0:0:
192,192,225061,1,2,0:0:0:0:
320,192,225061,1,0,0:0:0:0:
64,192,225211,1,8,0:0:0:0:
192,192,225211,1,0,0:0:0:40:Hat open.wav
448,192,225211,1,0,0:0:0:0:
64,192,225361,1,2,0:0:0:0:
320,192,225361,1,0,0:0:0:0:
192,192,225511,1,4,0:0:0:0:
320,192,225511,1,8,0:0:0:0:
448,192,225511,1,0,0:0:0:0:
64,192,225586,1,2,0:0:0:0:
320,192,225661,1,2,0:0:0:0:
448,192,225661,1,0,0:0:0:0:
192,192,225736,1,2,0:0:0:0:
64,192,225811,1,8,0:0:0:0:
448,192,225811,1,0,0:0:0:40:Hat open.wav
320,192,225886,1,2,0:0:0:0:
64,192,225961,1,2,0:0:0:0:
192,192,225961,1,0,0:0:0:0:
320,192,226036,1,2,0:0:0:0:
64,192,226111,1,8,0:0:0:0:
448,192,226111,1,0,0:0:0:40:Hat open.wav
192,192,226186,1,2,0:0:0:0:
320,192,226261,1,2,0:0:0:0:
448,192,226261,1,0,0:0:0:0:
192,192,226336,1,2,0:0:0:0:
64,192,226411,1,8,0:0:0:0:
448,192,226411,1,0,0:0:0:0:
192,192,226486,1,8,0:0:0:0:
320,192,226486,1,0,0:0:0:0:
64,192,226561,1,8,0:0:0:0:
448,192,226561,1,0,0:0:0:0:
320,192,226636,1,8,0:0:0:0:
64,192,226711,1,4,0:0:0:0:
192,192,226711,1,2,0:0:0:0:
448,192,226711,1,0,0:0:0:0:
192,192,226861,1,2,0:0:0:0:
320,192,226861,1,0,0:0:0:0:
64,192,227011,1,8,0:0:0:0:
320,192,227011,1,0,0:0:0:40:Hat open.wav
448,192,227011,1,0,0:0:0:0:
192,192,227161,1,2,0:0:0:0:
448,192,227161,1,0,0:0:0:0:
64,192,227311,128,0,227461:0:0:0:40:Hat open.wav
320,192,227461,1,2,0:0:0:0:
448,192,227461,1,0,0:0:0:0:
64,192,227611,1,8,0:0:0:0:
192,192,227611,1,0,0:0:0:40:Hat open.wav
320,192,227686,1,8,0:0:0:0:
448,192,227686,1,0,0:0:0:0:
64,192,227761,1,8,0:0:0:0:
192,192,227761,1,0,0:0:0:0:
320,192,227836,1,8,0:0:0:0:
64,192,227911,1,4,0:0:0:0:
192,192,227911,1,2,0:0:0:0:
448,192,227911,1,0,0:0:0:0:
192,192,228061,1,8,0:0:0:0:
320,192,228061,1,0,0:0:0:0:
192,192,228211,1,8,0:0:0:0:
320,192,228211,1,0,0:0:0:40:Hat open.wav
64,192,228361,1,2,0:0:0:0:
448,192,228361,1,0,0:0:0:0:
320,192,228436,1,2,0:0:0:0:
64,192,228511,1,0,0:0:0:40:Hat open.wav
192,192,228511,1,0,0:0:0:0:
320,192,228586,1,0,0:0:0:40:Tom1.wav
64,192,228661,1,2,0:0:0:0:
448,192,228661,1,0,0:0:0:0:
192,192,228736,1,2,0:0:0:0:
64,192,228811,1,4,0:0:0:0:
320,192,228811,1,8,0:0:0:0:
448,192,228811,128,0,229111:0:0:0:0:
64,192,229111,1,4,0:0:0:0:
192,192,229111,1,2,0:0:0:0:
320,192,229111,1,0,0:0:0:0:
192,192,229261,1,2,0:0:0:0:
448,192,229261,1,0,0:0:0:0:
64,192,229411,1,8,0:0:0:0:
320,192,229411,1,0,0:0:0:40:Hat open.wav
448,192,229411,1,0,0:0:0:0:
64,192,229561,1,2,0:0:0:0:
192,192,229561,1,0,0:0:0:0:
320,192,229636,1,2,0:0:0:0:
64,192,229711,1,8,0:0:0:0:
192,192,229711,1,0,0:0:0:40:Hat open.wav
448,192,229711,1,0,0:0:0:0:
320,192,229861,1,2,0:0:0:0:
448,192,229861,1,0,0:0:0:0:
192,192,229936,1,2,0:0:0:0:
64,192,230011,1,8,0:0:0:0:
320,192,230011,1,0,0:0:0:40:Hat open.wav
448,192,230011,1,0,0:0:0:0:
64,192,230161,1,2,0:0:0:0:
192,192,230161,1,0,0:0:0:0:
64,192,230311,1,2,0:0:0:0:
192,192,230311,1,4,0:0:0:0:
320,192,230311,1,0,0:0:0:0:
448,192,230311,1,0,0:0:0:0:
320,192,230461,1,8,0:0:0:0:
448,192,230461,1,0,0:0:0:0:
64,192,230536,1,8,0:0:0:0:
192,192,230536,1,0,0:0:0:0:
320,192,230611,1,8,0:0:0:0:
448,192,230611,1,0,0:0:0:0:
64,192,230686,1,8,0:0:0:0:
192,192,230686,1,0,0:0:0:0:
320,192,230761,1,2,0:0:0:0:
448,192,230761,1,0,0:0:0:0:
192,192,230836,1,2,0:0:0:0:
64,192,230911,1,0,0:0:0:40:Tom1.wav
448,192,230911,1,0,0:0:0:0:
320,192,230986,1,0,0:0:0:40:Tom1.wav
64,192,231061,1,2,0:0:0:0:
192,192,231061,1,0,0:0:0:0:
320,192,231136,1,2,0:0:0:0:
64,192,231211,1,4,0:0:0:0:
192,192,231211,1,8,0:0:0:0:
448,192,231211,1,0,0:0:0:0:
64,192,231511,1,4,0:0:0:0:
192,192,231511,1,2,0:0:0:0:
320,192,231511,1,0,0:0:0:0:
448,192,231511,1,0,0:0:0:0:
64,192,231661,1,4,0:0:0:0:
192,192,231661,1,2,0:0:0:0:
320,192,231661,1,0,0:0:0:0:
448,192,231661,1,0,0:0:0:0:
64,192,231961,1,2,0:0:0:0:
320,192,231961,1,0,0:0:0:0:
192,192,232036,1,2,0:0:0:0:
64,192,232111,1,4,0:0:0:0:
320,192,232111,1,8,0:0:0:0:
448,192,232111,1,0,0:0:0:0:
192,192,232261,1,2,0:0:0:0:
448,192,232261,1,0,0:0:0:0:
64,192,232411,1,4,0:0:0:0:
192,192,232411,1,8,0:0:0:0:
320,192,232411,1,0,0:0:0:0:
64,192,232561,1,4,0:0:0:0:
192,192,232561,1,2,0:0:0:0:
320,192,232561,1,0,0:0:0:0:
448,192,232561,1,0,0:0:0:0:
192,192,232861,1,2,0:0:0:0:
448,192,232861,1,0,0:0:0:0:
320,192,232936,1,2,0:0:0:0:
64,192,233011,1,8,0:0:0:0:
192,192,233011,1,0,0:0:0:40:Hat open.wav
448,192,233011,1,0,0:0:0:0:
64,192,233161,1,2,0:0:0:0:
320,192,233161,1,0,0:0:0:0:
192,192,233311,1,8,0:0:0:0:
320,192,233311,1,0,0:0:0:0:
448,192,233311,1,0,0:0:0:0:
192,192,233461,1,8,0:0:0:0:
320,192,233461,1,0,0:0:0:0:
448,192,233461,1,0,0:0:0:0:
64,192,233611,1,8,0:0:0:0:
192,192,233611,1,0,0:0:0:0:
448,192,233611,1,0,0:0:0:0:
64,192,233761,1,8,0:0:0:0:
192,192,233761,1,0,0:0:0:40:Hat open.wav
320,192,233761,1,0,0:0:0:0:
448,192,233761,1,0,0:0:0:0:
