osu file format v14

[General]
AudioFilename: audio.mp3
AudioLeadIn: 0
PreviewTime: 146461
Countdown: 0
SampleSet: Soft
StackLeniency: 0.7
Mode: 3
LetterboxInBreaks: 0
SpecialStyle: 0
WidescreenStoryboard: 1

[Editor]
DistanceSpacing: 0.9
BeatDivisor: 2
GridSize: 32
TimelineZoom: 1.7

[Metadata]
Title:GR4VITY G4ME
TitleUnicode:GR4VITY G4ME
Artist:WAGAMAMA RAKIA
ArtistUnicode:我儘ラキア
Creator:Mirsaaa
Version:E4SY // CONSTELLATION
Source:
Tags:japanese rock jrock j-rock gravity game 岸和田一樹 星熊 南巫 川﨑 怜奈 海羽 凜 Hoshikuma Minami Kaine Rin Kawasaki Layna Kazuki Kishiwada miri onyx L エル ワガママラキア Darkebluu ainer
BeatmapID:3954944
BeatmapSetID:1916684

[Difficulty]
HPDrainRate:7
CircleSize:4
OverallDifficulty:7
ApproachRate:5
SliderMultiplier:1.4
SliderTickRate:1

[Events]
//Background and Video events
0,0,"BEGEH.jpg",0,0
//Break Periods
//Storyboard Layer 0 (Background)
//Storyboard Layer 1 (Fail)
//Storyboard Layer 2 (Pass)
//Storyboard Layer 3 (Foreground)
//Storyboard Layer 4 (Overlay)
//Storyboard Sound Samples
Sample,14011,0,"Tom3.wav",40
Sample,20161,0,"Hat open.wav",40
Sample,21811,0,"soft-hitfinish.wav",20
Sample,22111,0,"soft-hitfinish.wav",20
Sample,22411,0,"soft-hitfinish.wav",20
Sample,22711,0,"soft-hitfinish.wav",20
Sample,23011,0,"soft-hitfinish.wav",20
Sample,23311,0,"soft-hitfinish.wav",20
Sample,23611,0,"soft-hitfinish.wav",20
Sample,23911,0,"soft-hitfinish.wav",20
Sample,24211,0,"soft-hitfinish.wav",20
Sample,24511,0,"soft-hitfinish.wav",20
Sample,24811,0,"soft-hitfinish.wav",20
Sample,25111,0,"soft-hitfinish.wav",20
Sample,25411,0,"soft-hitfinish.wav",20
Sample,25711,0,"soft-hitfinish.wav",20
Sample,26611,0,"soft-hitfinish.wav",20
Sample,26911,0,"soft-hitfinish.wav",20
Sample,27211,0,"soft-hitfinish.wav",20
Sample,27511,0,"soft-hitfinish.wav",20
Sample,27811,0,"soft-hitfinish.wav",20
Sample,28111,0,"soft-hitfinish.wav",20
Sample,28411,0,"soft-hitfinish.wav",20
Sample,29011,0,"soft-hitfinish.wav",20
Sample,29311,0,"soft-hitfinish.wav",20
Sample,29611,0,"soft-hitfinish.wav",20
Sample,29761,0,"Hat open.wav",40
Sample,30511,0,"Hat open.wav",40
Sample,30661,0,"Tom1.wav",40
Sample,30811,0,"Tom1.wav",40
Sample,38461,0,"Tom2.wav",40
Sample,41011,0,"Hat open.wav",40
Sample,41311,0,"Hat open.wav",40
Sample,41611,0,"Hat open.wav",40
Sample,41911,0,"Hat open.wav",40
Sample,42211,0,"Hat open.wav",40
Sample,42811,0,"Hat open.wav",40
Sample,43411,0,"Hat open.wav",40
Sample,43711,0,"Hat open.wav",40
Sample,44011,0,"Hat open.wav",40
Sample,44311,0,"Hat open.wav",40
Sample,44611,0,"Hat open.wav",40
Sample,48211,0,"Hat open.wav",40
Sample,48511,0,"Hat open.wav",40
Sample,48811,0,"Hat open.wav",40
Sample,60211,0,"Hat open.wav",40
Sample,60511,0,"Hat open.wav",40
Sample,60811,0,"Hat open.wav",40
Sample,61411,0,"Hat open.wav",40
Sample,61711,0,"Hat open.wav",40
Sample,62011,0,"Hat open.wav",40
Sample,62611,0,"Hat open.wav",40
Sample,62911,0,"Hat open.wav",40
Sample,63211,0,"Hat open.wav",40
Sample,65011,0,"Hat open.wav",40
Sample,65311,0,"Hat open.wav",40
Sample,65611,0,"Hat open.wav",40
Sample,66211,0,"Hat open.wav",40
Sample,66511,0,"Hat open.wav",40
Sample,66811,0,"Hat open.wav",40
Sample,67411,0,"Hat open.wav",40
Sample,67711,0,"Hat open.wav",40
Sample,68011,0,"Hat open.wav",40
Sample,68311,0,"Hat open.wav",40
Sample,69811,0,"Hat open.wav",40
Sample,70111,0,"Hat open.wav",40
Sample,71011,0,"Hat open.wav",40
Sample,71311,0,"Hat open.wav",40
Sample,72211,0,"Hat open.wav",40
Sample,72511,0,"Hat open.wav",40
Sample,72811,0,"Hat open.wav",40
Sample,73111,0,"Hat open.wav",40
Sample,73411,0,"Hat open.wav",40
Sample,73711,0,"Hat open.wav",40
Sample,74011,0,"Hat open.wav",40
Sample,74611,0,"Hat open.wav",40
Sample,74911,0,"Hat open.wav",40
Sample,75211,0,"Hat open.wav",40
Sample,75511,0,"Hat open.wav",40
Sample,75811,0,"Hat open.wav",40
Sample,76111,0,"Hat open.wav",40
Sample,76411,0,"Hat open.wav",40
Sample,78211,0,"Hat open.wav",40
Sample,80611,0,"soft-hitfinish.wav",20
Sample,80911,0,"soft-hitfinish.wav",20
Sample,81211,0,"soft-hitfinish.wav",20
Sample,81511,0,"soft-hitfinish.wav",20
Sample,81811,0,"soft-hitfinish.wav",20
Sample,82111,0,"soft-hitfinish.wav",20
Sample,82411,0,"soft-hitfinish.wav",20
Sample,82711,0,"soft-hitfinish.wav",20
Sample,83011,0,"soft-hitfinish.wav",20
Sample,83311,0,"soft-hitfinish.wav",20
Sample,83611,0,"soft-hitfinish.wav",20
Sample,83911,0,"soft-hitfinish.wav",20
Sample,84211,0,"soft-hitfinish.wav",20
Sample,84511,0,"soft-hitfinish.wav",20
Sample,85411,0,"soft-hitfinish.wav",20
Sample,85711,0,"soft-hitfinish.wav",20
Sample,86011,0,"soft-hitfinish.wav",20
Sample,86311,0,"soft-hitfinish.wav",20
Sample,86611,0,"soft-hitfinish.wav",20
Sample,86911,0,"soft-hitfinish.wav",20
Sample,87211,0,"soft-hitfinish.wav",20
Sample,99811,0,"Hat open.wav",40
Sample,100111,0,"Hat open.wav",40
Sample,100411,0,"Hat open.wav",40
Sample,100711,0,"Hat open.wav",40
Sample,101011,0,"Hat open.wav",40
Sample,101311,0,"Hat open.wav",40
Sample,101611,0,"Hat open.wav",40
Sample,102211,0,"Hat open.wav",40
Sample,102511,0,"Hat open.wav",40
Sample,102811,0,"Hat open.wav",40
Sample,103111,0,"Hat open.wav",40
Sample,107911,0,"Hat open.wav",40
Sample,108511,0,"Hat open.wav",40
Sample,112561,0,"Snare.wav",30
Sample,112711,0,"Snare.wav",30
Sample,113761,0,"Snare.wav",30
Sample,118261,0,"Snare.wav",30
Sample,128311,0,"soft-hitfinish.wav",20
Sample,138511,0,"Hat open.wav",40
Sample,139111,0,"Hat open.wav",40
Sample,139711,0,"Hat open.wav",40
Sample,141811,0,"Hat open.wav",40
Sample,142111,0,"Hat open.wav",40
Sample,143161,0,"Hat open.wav",40
Sample,143611,0,"Hat open.wav",40
Sample,146011,0,"Hat open.wav",40
Sample,146161,0,"Hat open.wav",40
Sample,147811,0,"Hat open.wav",40
Sample,148111,0,"Hat open.wav",40
Sample,148411,0,"Hat open.wav",40
Sample,149011,0,"Hat open.wav",40
Sample,149311,0,"Hat open.wav",40
Sample,149611,0,"Hat open.wav",40
Sample,150211,0,"Hat open.wav",40
Sample,150511,0,"Hat open.wav",40
Sample,150811,0,"Hat open.wav",40
Sample,151411,0,"Hat open.wav",40
Sample,152611,0,"Hat open.wav",40
Sample,152911,0,"Hat open.wav",40
Sample,153211,0,"Hat open.wav",40
Sample,153811,0,"Hat open.wav",40
Sample,154411,0,"Hat open.wav",40
Sample,155011,0,"Hat open.wav",40
Sample,155311,0,"Hat open.wav",40
Sample,155611,0,"Hat open.wav",40
Sample,155911,0,"Hat open.wav",40
Sample,157411,0,"Hat open.wav",40
Sample,157711,0,"Hat open.wav",40
Sample,158611,0,"Hat open.wav",40
Sample,158911,0,"Hat open.wav",40
Sample,159811,0,"Hat open.wav",40
Sample,160111,0,"Hat open.wav",40
Sample,160411,0,"Hat open.wav",40
Sample,160711,0,"Hat open.wav",40
Sample,161011,0,"Hat open.wav",40
Sample,161311,0,"Hat open.wav",40
Sample,161611,0,"Hat open.wav",40
Sample,162211,0,"Hat open.wav",40
Sample,162511,0,"Hat open.wav",40
Sample,162811,0,"Hat open.wav",40
Sample,163111,0,"Hat open.wav",40
Sample,163411,0,"Hat open.wav",40
Sample,163711,0,"Hat open.wav",40
Sample,164011,0,"Hat open.wav",40
Sample,164911,0,"Hat open.wav",40
Sample,165211,0,"Hat open.wav",40
Sample,195811,0,"soft-hitclap.wav",30
Sample,198811,0,"Hat open.wav",40
Sample,201811,0,"Hat open.wav",40
Sample,203011,0,"Hat open.wav",40
Sample,203311,0,"Hat open.wav",40
Sample,204211,0,"Hat open.wav",40
Sample,204511,0,"Hat open.wav",40
Sample,205411,0,"Hat open.wav",40
Sample,205711,0,"Hat open.wav",40
Sample,206011,0,"Hat open.wav",40
Sample,212611,0,"Hat open.wav",40
Sample,212911,0,"Hat open.wav",40
Sample,213211,0,"Hat open.wav",40
Sample,213511,0,"Hat open.wav",40
Sample,213811,0,"Hat open.wav",40
Sample,214111,0,"Hat open.wav",40
Sample,214411,0,"Hat open.wav",40
Sample,214711,0,"Hat open.wav",40
Sample,215011,0,"Hat open.wav",40
Sample,215311,0,"Hat open.wav",40
Sample,215611,0,"Hat open.wav",40
Sample,215911,0,"Hat open.wav",40
Sample,216211,0,"Hat open.wav",40
Sample,216511,0,"Hat open.wav",40
Sample,217411,0,"Hat open.wav",40
Sample,217711,0,"Hat open.wav",40
Sample,218011,0,"Hat open.wav",40
Sample,218311,0,"Hat open.wav",40
Sample,218611,0,"Hat open.wav",40
Sample,218911,0,"Hat open.wav",40
Sample,219211,0,"Hat open.wav",40
Sample,222211,0,"Hat open.wav",40
Sample,222511,0,"Hat open.wav",40
Sample,222811,0,"Hat open.wav",40
Sample,223111,0,"Hat open.wav",40
Sample,223411,0,"Hat open.wav",40
Sample,223711,0,"Hat open.wav",40
Sample,224011,0,"Hat open.wav",40
Sample,224611,0,"Hat open.wav",40
Sample,224911,0,"Hat open.wav",40
Sample,225211,0,"Hat open.wav",40
Sample,225811,0,"Hat open.wav",40
Sample,226111,0,"Hat open.wav",40
Sample,227011,0,"Hat open.wav",40
Sample,227611,0,"Hat open.wav",40
Sample,228211,0,"Hat open.wav",40
Sample,229411,0,"Hat open.wav",40
Sample,229711,0,"Hat open.wav",40
Sample,230011,0,"Hat open.wav",40
Sample,233011,0,"Hat open.wav",40

[TimingPoints]
1111,300,4,2,1,40,1,0
59761,-100,4,2,1,40,0,1
79111,-100,4,2,1,40,0,0
147361,-100,4,2,1,40,0,1
166711,-100,4,2,1,40,0,0
197761,-100,4,2,1,40,0,1
207511,-100,4,2,1,40,0,0

[HitObjects]
448,192,1111,1,0,0:0:0:0:
64,192,2311,128,6,3511:0:0:0:0:
192,192,2311,1,0,0:0:0:40:AWP.wav
448,192,3511,128,0,4711:0:0:0:0:
192,192,4711,128,2,5911:0:0:0:0:
320,192,5911,128,0,7111:0:0:0:0:
64,192,7111,128,2,8311:0:0:0:0:
448,192,8311,128,0,9511:0:0:0:0:
192,192,9511,128,2,10711:0:0:0:0:
320,192,10711,128,0,11911:0:0:0:0:
64,192,11911,1,4,0:0:0:0:
192,192,11911,1,2,0:0:0:0:
448,192,12211,1,2,0:0:0:0:
320,192,12511,1,2,0:0:0:0:
192,192,12811,1,2,0:0:0:0:
448,192,12961,1,8,0:0:0:0:
64,192,13111,1,2,0:0:0:0:
192,192,13411,1,2,0:0:0:0:
320,192,13711,1,2,0:0:0:0:
448,192,14011,1,2,0:0:0:0:
64,192,14311,1,2,0:0:0:0:
192,192,14311,1,4,0:0:0:0:
320,192,14611,1,2,0:0:0:0:
192,192,14911,1,2,0:0:0:0:
448,192,15061,1,12,0:0:0:0:
64,192,15211,1,2,0:0:0:0:
192,192,15511,1,2,0:0:0:0:
320,192,15661,1,8,0:0:0:0:
64,192,15811,1,8,0:0:0:0:
448,192,16111,128,8,16411:0:0:0:0:
64,192,16411,1,8,0:0:0:0:
192,192,16411,1,4,0:0:0:0:
320,192,16711,128,12,17161:0:0:0:0:
64,192,17161,128,12,17611:0:0:0:0:
448,192,17611,128,12,17911:0:0:0:0:
192,192,17911,128,12,18361:0:0:0:0:
320,192,18361,128,12,18811:0:0:0:0:
64,192,18811,128,8,19111:0:0:0:0:
448,192,19111,128,12,19711:0:0:0:0:
192,192,19711,1,10,0:0:0:0:
320,192,19861,1,10,0:0:0:0:
64,192,20011,1,10,0:0:0:0:
192,192,20161,1,10,0:0:0:0:
320,192,21211,1,2,0:0:0:0:
448,192,21211,1,0,0:0:0:60:Tom1.wav
64,192,21511,1,2,0:0:0:0:
192,192,21511,1,0,0:0:0:20:soft-hitfinish.wav
448,192,21811,1,10,0:0:0:0:
64,192,22111,1,2,0:0:0:0:
448,192,22411,1,10,0:0:0:0:
320,192,22711,1,2,0:0:0:0:
64,192,23011,1,10,0:0:0:0:
320,192,23311,1,2,0:0:0:0:
64,192,23611,1,10,0:0:0:0:
448,192,23911,1,2,0:0:0:0:
192,192,24211,1,10,0:0:0:0:
448,192,24511,1,2,0:0:0:0:
192,192,24811,1,10,0:0:0:0:
64,192,25111,1,2,0:0:0:0:
320,192,25411,1,10,0:0:0:0:
64,192,25711,1,2,0:0:0:0:
320,192,26011,1,10,0:0:0:0:
192,192,26161,1,8,0:0:0:0:
64,192,26311,1,2,0:0:0:0:
448,192,26311,1,4,0:0:0:0:
320,192,26611,1,10,0:0:0:0:
64,192,26911,1,2,0:0:0:0:
320,192,27211,1,10,0:0:0:0:
448,192,27511,1,2,0:0:0:0:
64,192,27811,1,10,0:0:0:0:
448,192,28111,1,2,0:0:0:0:
64,192,28411,1,10,0:0:0:0:
192,192,28711,1,2,0:0:0:0:
448,192,28861,1,8,0:0:0:0:
64,192,29011,1,8,0:0:0:0:
320,192,29311,1,8,0:0:0:0:
192,192,29611,1,8,0:0:0:0:
448,192,29761,1,2,0:0:0:0:
320,192,30061,1,8,0:0:0:0:
64,192,30211,1,8,0:0:0:0:
192,192,30511,1,8,0:0:0:0:
448,192,30661,1,2,0:0:0:0:
320,192,30811,1,2,0:0:0:0:
64,192,31111,128,2,32311:0:0:0:0:
192,192,31111,1,4,0:0:0:0:
448,192,32311,128,0,33511:0:0:0:0:
192,192,33511,128,2,34711:0:0:0:0:
320,192,34711,128,0,35911:0:0:0:0:
448,192,35911,128,2,37111:0:0:0:0:
64,192,37111,128,2,38311:0:0:0:0:
448,192,38311,1,0,0:0:0:40:Tom1.wav
320,192,38461,1,2,0:0:0:0:
192,192,38611,1,8,0:0:0:0:
448,192,38911,1,8,0:0:0:0:
64,192,39211,1,8,0:0:0:0:
192,192,39361,1,2,0:0:0:0:
320,192,39361,1,0,0:0:0:40:Hat open.wav
448,192,40111,1,10,0:0:0:0:
320,192,40261,1,8,0:0:0:0:
64,192,40411,1,8,0:0:0:0:
192,192,40561,1,8,0:0:0:0:
320,192,40711,1,4,0:0:0:0:
448,192,40711,1,2,0:0:0:0:
64,192,41011,1,8,0:0:0:0:
320,192,41311,1,2,0:0:0:0:
192,192,41461,1,2,0:0:0:0:
448,192,41611,1,8,0:0:0:0:
64,192,41911,1,2,0:0:0:0:
192,192,42061,1,2,0:0:0:0:
320,192,42211,1,8,0:0:0:0:
64,192,42361,1,2,0:0:0:0:
448,192,42661,1,2,0:0:0:0:
192,192,42811,1,8,0:0:0:0:
320,192,43111,1,4,0:0:0:0:
448,192,43111,1,2,0:0:0:0:
64,192,43411,1,8,0:0:0:0:
192,192,43711,1,2,0:0:0:0:
320,192,43861,1,2,0:0:0:0:
448,192,44011,1,8,0:0:0:0:
64,192,44311,1,2,0:0:0:0:
320,192,44461,1,2,0:0:0:0:
192,192,44611,1,8,0:0:0:0:
448,192,44761,1,2,0:0:0:0:
64,192,44911,1,8,0:0:0:0:
192,192,45211,1,8,0:0:0:0:
320,192,45361,1,8,0:0:0:0:
448,192,45511,1,0,0:0:0:0:
64,192,45811,1,6,0:0:0:0:
192,192,45811,1,8,0:0:0:0:
320,192,46111,1,2,0:0:0:0:
192,192,46261,1,2,0:0:0:0:
64,192,46411,1,8,0:0:0:0:
448,192,46711,1,2,0:0:0:0:
192,192,46861,1,2,0:0:0:0:
320,192,47011,1,8,0:0:0:0:
64,192,47161,1,2,0:0:0:0:
192,192,47461,1,2,0:0:0:0:
448,192,47611,1,8,0:0:0:0:
320,192,47761,1,8,0:0:0:0:
64,192,47911,1,2,0:0:0:0:
192,192,47911,1,4,0:0:0:0:
448,192,48211,1,8,0:0:0:0:
64,192,48511,1,8,0:0:0:0:
192,192,48811,1,8,0:0:0:0:
320,192,48961,1,2,0:0:0:0:
64,192,49111,1,8,0:0:0:0:
192,192,49261,1,2,0:0:0:0:
448,192,49261,1,4,0:0:0:0:
320,192,49561,128,0,49861:0:0:0:40:Tom1.wav
64,192,49861,1,8,0:0:0:0:
192,192,50011,1,8,0:0:0:0:
320,192,50161,1,8,0:0:0:0:
64,192,50311,1,6,0:0:0:0:
448,192,50461,1,6,0:0:0:0:
320,192,50761,1,2,0:0:0:0:
64,192,50911,1,12,0:0:0:0:
448,192,51211,1,2,0:0:0:0:
192,192,51361,1,2,0:0:0:0:
320,192,51661,1,2,0:0:0:0:
64,192,51811,1,2,0:0:0:0:
448,192,51961,1,2,0:0:0:0:
192,192,52111,128,8,52411:0:0:0:0:
448,192,52411,128,10,52711:0:0:0:0:
64,192,52711,1,2,0:0:0:0:
320,192,52861,1,2,0:0:0:0:
448,192,53161,1,2,0:0:0:0:
64,192,53311,1,8,0:0:0:0:
320,192,53461,1,2,0:0:0:0:
192,192,53761,1,2,0:0:0:0:
448,192,54061,1,2,0:0:0:0:
320,192,54211,1,2,0:0:0:0:
64,192,54361,1,2,0:0:0:0:
192,192,54511,1,8,0:0:0:0:
320,192,54811,1,8,0:0:0:0:
192,192,54961,1,2,0:0:0:0:
64,192,55111,1,8,0:0:0:0:
448,192,55111,128,4,55561:0:0:0:0:
192,192,55561,128,12,56011:0:0:0:0:
64,192,56011,128,8,56461:0:0:0:0:
320,192,56011,1,4,0:0:0:0:
448,192,56461,128,12,56911:0:0:0:0:
64,192,56911,1,8,0:0:0:0:
192,192,57061,1,0,0:0:0:40:Tom1.wav
320,192,57211,1,0,0:0:0:40:Tom2.wav
448,192,57361,1,0,0:0:0:40:Tom3.wav
64,192,58561,1,2,0:0:0:0:
192,192,58561,1,0,0:0:0:40:Hat open.wav
320,192,59761,1,2,0:0:0:0:
448,192,59761,128,4,60061:0:0:0:0:
64,192,60061,1,2,0:0:0:0:
320,192,60211,1,8,0:0:0:0:
192,192,60511,1,2,0:0:0:0:
448,192,60661,1,2,0:0:0:0:
320,192,60811,1,8,0:0:0:0:
64,192,60961,128,2,61261:0:0:0:0:
192,192,61261,1,2,0:0:0:0:
448,192,61411,1,8,0:0:0:0:
320,192,61711,1,2,0:0:0:0:
64,192,61861,1,2,0:0:0:0:
192,192,62011,1,8,0:0:0:0:
320,192,62161,128,2,62461:0:0:0:0:
448,192,62161,1,4,0:0:0:0:
64,192,62461,1,2,0:0:0:0:
448,192,62611,1,8,0:0:0:0:
320,192,62911,1,2,0:0:0:0:
192,192,63061,1,2,0:0:0:0:
448,192,63211,1,8,0:0:0:0:
320,192,63361,1,2,0:0:0:0:
64,192,63511,1,8,0:0:0:0:
192,192,63511,1,4,0:0:0:0:
320,192,63811,1,8,0:0:0:0:
448,192,63811,1,4,0:0:0:0:
64,192,64111,128,8,64411:0:0:0:0:
448,192,64411,1,0,0:0:0:40:Tom2.wav
192,192,64561,1,2,0:0:0:0:
320,192,64561,1,4,0:0:0:0:
64,192,65011,1,8,0:0:0:0:
320,192,65311,1,2,0:0:0:0:
192,192,65461,1,2,0:0:0:0:
448,192,65611,1,8,0:0:0:0:
64,192,65911,1,2,0:0:0:0:
320,192,65911,1,4,0:0:0:0:
448,192,66211,1,8,0:0:0:0:
64,192,66511,1,8,0:0:0:0:
320,192,66811,1,8,0:0:0:0:
64,192,66961,1,2,0:0:0:0:
448,192,66961,128,4,67261:0:0:0:0:
192,192,67261,1,2,0:0:0:0:
320,192,67411,1,8,0:0:0:0:
64,192,67711,1,8,0:0:0:0:
448,192,68011,1,8,0:0:0:0:
192,192,68311,1,8,0:0:0:0:
320,192,68611,128,8,68911:0:0:0:0:
192,192,68911,1,2,0:0:0:0:
448,192,69061,128,0,69361:0:0:0:40:Tom2.wav
64,192,69361,1,2,0:0:0:0:
192,192,69361,1,4,0:0:0:0:
64,192,69811,128,8,70111:0:0:0:0:
320,192,70111,1,2,0:0:0:0:
192,192,70261,128,2,70561:0:0:0:0:
448,192,70561,1,2,0:0:0:0:
320,192,71011,128,8,71311:0:0:0:0:
64,192,71311,1,2,0:0:0:0:
192,192,71461,128,2,71761:0:0:0:0:
320,192,71761,1,2,0:0:0:0:
448,192,71761,128,4,72211:0:0:0:0:
64,192,72211,1,8,0:0:0:0:
320,192,72511,128,2,72811:0:0:0:0:
192,192,72811,1,8,0:0:0:0:
448,192,72961,1,0,0:0:0:0:
64,192,73111,1,2,0:0:0:0:
192,192,73261,1,2,0:0:0:0:
320,192,73411,1,8,0:0:0:0:
64,192,73711,1,8,0:0:0:0:
192,192,73861,1,2,0:0:0:0:
448,192,74011,1,8,0:0:0:0:
64,192,74161,1,2,0:0:0:0:
320,192,74161,1,4,0:0:0:0:
192,192,74461,1,2,0:0:0:0:
448,192,74611,1,8,0:0:0:0:
64,192,74911,1,8,0:0:0:0:
320,192,75211,1,8,0:0:0:0:
192,192,75511,1,8,0:0:0:0:
64,192,75811,1,8,0:0:0:0:
448,192,76111,1,8,0:0:0:0:
192,192,76411,1,8,0:0:0:0:
320,192,76561,1,4,0:0:0:0:
448,192,76561,1,2,0:0:0:0:
64,192,76861,1,0,0:0:0:40:Tom1.wav
192,192,77011,1,0,0:0:0:40:Tom1.wav
448,192,77161,1,2,0:0:0:0:
320,192,77311,1,0,0:0:0:40:Tom2.wav
192,192,77611,128,0,77911:0:0:0:40:Tom3.wav
320,192,77911,1,8,0:0:0:0:
448,192,77911,128,0,78211:0:0:0:0:
64,192,78211,1,2,0:0:0:0:
320,192,78361,128,0,78811:0:0:0:0:
192,192,78811,1,10,0:0:0:0:
64,192,78961,128,8,80311:0:0:0:0:
320,192,80311,1,2,0:0:0:0:
448,192,80311,1,4,0:0:0:0:
64,192,80611,1,10,0:0:0:0:
448,192,80911,1,2,0:0:0:0:
64,192,81211,1,10,0:0:0:0:
192,192,81511,1,2,0:0:0:0:
448,192,81811,1,10,0:0:0:0:
192,192,82111,1,2,0:0:0:0:
448,192,82411,1,10,0:0:0:0:
64,192,82711,1,2,0:0:0:0:
320,192,83011,1,10,0:0:0:0:
64,192,83311,1,2,0:0:0:0:
320,192,83611,1,10,0:0:0:0:
448,192,83911,1,2,0:0:0:0:
192,192,84211,1,10,0:0:0:0:
448,192,84511,1,2,0:0:0:0:
192,192,84811,1,10,0:0:0:0:
320,192,84961,1,8,0:0:0:0:
64,192,85111,1,2,0:0:0:0:
448,192,85111,1,4,0:0:0:0:
192,192,85411,1,10,0:0:0:0:
448,192,85711,1,2,0:0:0:0:
192,192,86011,1,10,0:0:0:0:
64,192,86311,1,2,0:0:0:0:
448,192,86611,1,10,0:0:0:0:
64,192,86911,1,2,0:0:0:0:
448,192,87211,1,10,0:0:0:0:
320,192,87511,1,2,0:0:0:0:
64,192,87661,1,8,0:0:0:0:
448,192,87811,1,8,0:0:0:0:
192,192,88111,128,2,88411:0:0:0:0:
448,192,88411,128,0,88711:0:0:0:40:Tom3.wav
64,192,88711,1,8,0:0:0:0:
192,192,89161,1,8,0:0:0:0:
448,192,89311,1,8,0:0:0:0:
64,192,89611,1,8,0:0:0:0:
192,192,89761,1,8,0:0:0:0:
320,192,89911,1,2,0:0:0:0:
448,192,89911,1,4,0:0:0:0:
320,192,90661,1,2,0:0:0:0:
192,192,91111,1,2,0:0:0:0:
64,192,91861,1,2,0:0:0:0:
448,192,92311,1,2,0:0:0:0:
320,192,93061,1,2,0:0:0:0:
192,192,93511,1,2,0:0:0:0:
64,192,94261,1,2,0:0:0:0:
448,192,94711,1,2,0:0:0:0:
64,192,95461,1,2,0:0:0:0:
320,192,95911,1,2,0:0:0:0:
448,192,96661,1,2,0:0:0:0:
192,192,97111,1,2,0:0:0:0:
320,192,97861,1,2,0:0:0:0:
192,192,98311,128,0,99211:0:0:0:0:
448,192,99211,128,0,99511:0:0:0:0:
64,192,99511,1,2,0:0:0:0:
192,192,99511,1,4,0:0:0:0:
320,192,99811,1,8,0:0:0:0:
64,192,100111,1,2,0:0:0:0:
448,192,100261,1,2,0:0:0:0:
192,192,100411,1,8,0:0:0:0:
320,192,100711,1,2,0:0:0:0:
64,192,100861,1,2,0:0:0:0:
448,192,101011,1,8,0:0:0:0:
192,192,101311,1,2,0:0:0:0:
320,192,101461,1,2,0:0:0:0:
448,192,101611,1,8,0:0:0:0:
64,192,101911,1,2,0:0:0:0:
192,192,101911,1,4,0:0:0:0:
320,192,102211,1,8,0:0:0:0:
192,192,102511,1,2,0:0:0:0:
448,192,102661,1,2,0:0:0:0:
64,192,102811,1,8,0:0:0:0:
320,192,103111,1,2,0:0:0:0:
192,192,103261,1,2,0:0:0:0:
64,192,103411,128,8,103711:0:0:0:0:
448,192,103711,1,8,0:0:0:0:
320,192,103861,1,8,0:0:0:0:
192,192,104011,1,8,0:0:0:0:
64,192,104161,1,8,0:0:0:0:
320,192,104311,1,2,0:0:0:0:
448,192,104311,128,4,104911:0:0:0:0:
64,192,104911,128,8,105511:0:0:0:0:
192,192,104911,1,4,0:0:0:0:
320,192,105511,128,2,106111:0:0:0:0:
448,192,105511,1,4,0:0:0:0:
64,192,106111,1,8,0:0:0:0:
448,192,106411,1,8,0:0:0:0:
320,192,106561,1,8,0:0:0:0:
64,192,106711,1,2,0:0:0:0:
192,192,106711,1,4,0:0:0:0:
64,192,107311,1,8,0:0:0:0:
448,192,107311,1,4,0:0:0:0:
192,192,107611,1,8,0:0:0:0:
448,192,107911,128,2,108511:0:0:0:0:
192,192,108511,128,2,109111:0:0:0:0:
320,192,109111,1,2,0:0:0:0:
448,192,109111,1,4,0:0:0:0:
64,192,110311,1,2,0:0:0:0:
320,192,111511,1,2,0:0:0:0:
192,192,111811,1,2,0:0:0:0:
448,192,112411,1,2,0:0:0:0:
64,192,112561,1,2,0:0:0:0:
320,192,112711,1,2,0:0:0:0:
192,192,112936,1,2,0:0:0:0:
448,192,113161,1,2,0:0:0:0:
320,192,113761,1,2,0:0:0:0:
64,192,113911,128,0,115111:0:0:0:0:
448,192,115111,128,0,116311:0:0:0:0:
192,192,116311,128,2,117511:0:0:0:0:
320,192,117511,128,2,117961:0:0:0:0:
64,192,117961,1,0,0:0:0:0:
192,192,118261,1,2,0:0:0:0:
448,192,118411,1,0,0:0:0:30:Snare.wav
64,192,118711,128,2,119911:0:0:0:0:
320,192,119911,128,0,121111:0:0:0:0:
64,192,121111,1,2,0:0:0:0:
192,192,121111,1,4,0:0:0:0:
320,192,121561,1,2,0:0:0:0:
448,192,121561,1,4,0:0:0:0:
64,192,122011,1,2,0:0:0:0:
192,192,122011,1,4,0:0:0:0:
320,192,122611,1,2,0:0:0:0:
64,192,122911,1,0,0:0:0:30:Snare.wav
448,192,123211,1,0,0:0:0:30:Snare.wav
192,192,123511,128,2,124111:0:0:0:0:
320,192,124711,128,2,125911:0:0:0:0:
64,192,125911,128,2,126511:0:0:0:0:
192,192,127111,128,2,127711:0:0:0:0:
320,192,127111,1,4,0:0:0:0:
448,192,127711,1,0,0:0:0:40:Tom1.wav
320,192,127861,1,0,0:0:0:40:Tom1.wav
64,192,128011,1,0,0:0:0:40:Tom2.wav
192,192,128161,1,0,0:0:0:40:Tom3.wav
320,192,128311,128,2,129511:0:0:0:0:
64,192,129511,128,0,130711:0:0:0:0:
448,192,130711,128,0,131911:0:0:0:0:
192,192,131911,128,0,133111:0:0:0:0:
320,192,133111,128,0,134311:0:0:0:0:
64,192,134311,128,0,135511:0:0:0:0:
192,192,135511,128,0,137011:0:0:0:0:
448,192,137011,128,0,137911:0:0:0:0:
64,192,137911,1,2,0:0:0:0:
192,192,137911,1,4,0:0:0:0:
320,192,138361,1,2,0:0:0:0:
64,192,138511,1,8,0:0:0:0:
448,192,138661,1,2,0:0:0:0:
192,192,139111,1,2,0:0:0:0:
64,192,139561,1,2,0:0:0:0:
448,192,139711,1,8,0:0:0:0:
192,192,139861,1,2,0:0:0:0:
320,192,140311,1,2,0:0:0:0:
448,192,140311,1,4,0:0:0:0:
192,192,140761,1,2,0:0:0:0:
64,192,140911,1,8,0:0:0:0:
448,192,140911,1,4,0:0:0:0:
320,192,141361,1,2,0:0:0:0:
64,192,141511,1,8,0:0:0:0:
192,192,141511,1,0,0:0:0:40:Hat open.wav
448,192,141811,1,8,0:0:0:0:
320,192,142111,1,8,0:0:0:0:
192,192,142411,128,8,142711:0:0:0:0:
320,192,142711,1,8,0:0:0:0:
448,192,142711,128,0,143161:0:0:0:40:Hat open.wav
64,192,143161,128,8,143611:0:0:0:0:
320,192,143611,128,8,143911:0:0:0:0:
192,192,143911,1,8,0:0:0:0:
448,192,144511,128,8,144811:0:0:0:0:
192,192,144811,128,8,145111:0:0:0:0:
320,192,145111,1,2,0:0:0:0:
448,192,145111,1,0,0:0:0:40:Hat open.wav
64,192,145561,1,2,0:0:0:0:
192,192,145561,1,0,0:0:0:40:Hat open.wav
320,192,146011,1,8,0:0:0:0:
64,192,146161,1,8,0:0:0:0:
192,192,146461,1,2,0:0:0:0:
448,192,146611,1,8,0:0:0:0:
320,192,146911,1,0,0:0:0:40:Tom2.wav
64,192,147061,1,2,0:0:0:0:
448,192,147211,1,8,0:0:0:0:
64,192,147361,128,2,147661:0:0:0:0:
192,192,147361,1,4,0:0:0:0:
448,192,147661,1,2,0:0:0:0:
192,192,147811,1,8,0:0:0:0:
320,192,148111,1,2,0:0:0:0:
64,192,148261,1,2,0:0:0:0:
192,192,148411,1,8,0:0:0:0:
448,192,148561,128,2,148861:0:0:0:0:
320,192,148861,1,2,0:0:0:0:
64,192,149011,1,8,0:0:0:0:
192,192,149311,1,2,0:0:0:0:
448,192,149461,1,2,0:0:0:0:
320,192,149611,1,8,0:0:0:0:
64,192,149761,1,2,0:0:0:0:
192,192,149761,128,4,150061:0:0:0:0:
448,192,150061,1,2,0:0:0:0:
64,192,150211,1,8,0:0:0:0:
192,192,150511,1,2,0:0:0:0:
320,192,150661,1,2,0:0:0:0:
64,192,150811,1,8,0:0:0:0:
192,192,150961,1,0,0:0:0:0:
320,192,151111,1,2,0:0:0:0:
448,192,151111,1,4,0:0:0:0:
64,192,151411,1,8,0:0:0:0:
448,192,151711,128,8,152011:0:0:0:0:
64,192,152011,1,8,0:0:0:0:
192,192,152161,1,4,0:0:0:0:
320,192,152161,1,2,0:0:0:0:
448,192,152611,1,8,0:0:0:0:
192,192,152911,1,2,0:0:0:0:
320,192,153061,1,2,0:0:0:0:
64,192,153211,1,8,0:0:0:0:
192,192,153511,1,2,0:0:0:0:
448,192,153511,1,4,0:0:0:0:
64,192,153811,1,8,0:0:0:0:
320,192,154111,1,8,0:0:0:0:
448,192,154111,1,4,0:0:0:0:
192,192,154411,1,8,0:0:0:0:
64,192,154561,128,2,154861:0:0:0:0:
448,192,154561,1,4,0:0:0:0:
320,192,154861,1,2,0:0:0:0:
192,192,155011,1,8,0:0:0:0:
448,192,155311,1,8,0:0:0:0:
64,192,155611,1,8,0:0:0:0:
320,192,155911,1,8,0:0:0:0:
192,192,156211,128,0,156511:0:0:0:40:Tom2.wav
320,192,156511,1,8,0:0:0:0:
64,192,156661,128,8,156961:0:0:0:0:
320,192,156961,1,2,0:0:0:0:
448,192,156961,1,4,0:0:0:0:
448,192,157411,128,8,157711:0:0:0:0:
192,192,157711,1,2,0:0:0:0:
320,192,157861,128,2,158161:0:0:0:0:
64,192,158161,1,2,0:0:0:0:
192,192,158611,128,8,158911:0:0:0:0:
448,192,158911,1,2,0:0:0:0:
320,192,159061,128,2,159361:0:0:0:0:
64,192,159361,128,2,159811:0:0:0:0:
192,192,159361,1,4,0:0:0:0:
448,192,159811,1,8,0:0:0:0:
192,192,160111,128,2,160411:0:0:0:0:
320,192,160411,1,8,0:0:0:0:
64,192,160561,1,0,0:0:0:0:
448,192,160711,1,2,0:0:0:0:
320,192,160861,1,2,0:0:0:0:
192,192,161011,1,8,0:0:0:0:
448,192,161311,1,8,0:0:0:0:
64,192,161461,1,2,0:0:0:0:
320,192,161611,1,8,0:0:0:0:
64,192,161761,1,2,0:0:0:0:
192,192,161761,1,4,0:0:0:0:
320,192,162061,1,2,0:0:0:0:
64,192,162211,1,8,0:0:0:0:
448,192,162511,128,2,163111:0:0:0:0:
192,192,162811,1,8,0:0:0:0:
64,192,163111,128,2,163711:0:0:0:0:
320,192,163411,1,8,0:0:0:0:
448,192,163711,128,8,164011:0:0:0:0:
192,192,164011,1,8,0:0:0:0:
64,192,164161,1,2,0:0:0:0:
320,192,164161,128,4,164461:0:0:0:0:
448,192,164461,1,2,0:0:0:0:
64,192,164611,1,8,0:0:0:0:
192,192,164611,1,4,0:0:0:0:
320,192,164911,1,2,0:0:0:0:
192,192,165061,1,2,0:0:0:0:
448,192,165211,1,8,0:0:0:0:
64,192,165511,1,8,0:0:0:0:
320,192,165811,1,8,0:0:0:0:
192,192,166111,1,8,0:0:0:0:
448,192,166261,1,8,0:0:0:0:
64,192,166411,1,8,0:0:0:0:
320,192,166561,1,8,0:0:0:0:
64,192,166711,128,2,168661:0:0:0:0:
192,192,166711,1,4,0:0:0:0:
320,192,168661,1,2,0:0:0:0:
64,192,169111,1,4,0:0:0:0:
448,192,169111,128,2,169561:0:0:0:0:
320,192,169561,128,6,170011:0:0:0:0:
192,192,170011,128,4,170461:0:0:0:0:
448,192,170011,1,2,0:0:0:0:
64,192,170461,128,6,170911:0:0:0:0:
320,192,170911,128,4,171511:0:0:0:0:
448,192,170911,1,2,0:0:0:0:
64,192,171511,128,6,172711:0:0:0:0:
192,192,171511,1,0,0:0:0:60:AWP.wav
320,192,172711,128,0,173911:0:0:0:0:
448,192,173911,128,2,175111:0:0:0:0:
192,192,175111,128,0,176311:0:0:0:0:
64,192,176311,128,2,177511:0:0:0:0:
320,192,177511,128,0,178711:0:0:0:0:
448,192,178711,128,2,179911:0:0:0:0:
192,192,179911,128,0,181111:0:0:0:0:
320,192,181111,1,4,0:0:0:0:
448,192,181111,1,2,0:0:0:0:
64,192,181411,1,2,0:0:0:0:
192,192,181711,1,2,0:0:0:0:
320,192,182011,1,2,0:0:0:0:
64,192,182311,1,2,0:0:0:0:
448,192,182611,1,2,0:0:0:0:
320,192,182911,1,2,0:0:0:0:
192,192,183211,1,2,0:0:0:0:
448,192,183511,1,2,0:0:0:0:
64,192,183811,1,2,0:0:0:0:
192,192,184111,1,2,0:0:0:0:
320,192,184411,1,10,0:0:0:0:
64,192,184711,1,10,0:0:0:0:
448,192,184861,1,8,0:0:0:0:
192,192,185011,1,8,0:0:0:0:
320,192,185161,1,8,0:0:0:0:
64,192,185311,128,8,185611:0:0:0:0:
448,192,185611,128,0,185911:0:0:0:40:Tom1.wav
64,192,185911,1,8,0:0:0:0:
192,192,185911,1,4,0:0:0:0:
320,192,186361,1,8,0:0:0:0:
448,192,186361,1,4,0:0:0:0:
192,192,186811,128,8,187111:0:0:0:0:
320,192,187111,1,8,0:0:0:0:
448,192,187111,1,0,0:0:0:0:
64,192,187561,1,4,0:0:0:0:
192,192,187561,1,8,0:0:0:0:
320,192,188011,128,12,188311:0:0:0:0:
64,192,188311,1,4,0:0:0:0:
192,192,188311,1,8,0:0:0:0:
448,192,188611,128,2,188911:0:0:0:0:
64,192,188911,1,8,0:0:0:0:
192,192,189061,1,8,0:0:0:0:
320,192,189211,1,8,0:0:0:0:
448,192,189361,1,8,0:0:0:0:
64,192,190711,1,12,0:0:0:0:
448,192,190861,1,12,0:0:0:0:
192,192,191011,128,2,191311:0:0:0:0:
320,192,191311,128,2,191611:0:0:0:0:
64,192,191611,128,0,191911:0:0:0:40:Tom2.wav
448,192,191911,1,0,0:0:0:60:soft-hitwhistle.wav
320,192,192961,1,4,0:0:0:0:
448,192,192961,128,2,194311:0:0:0:0:
64,192,194311,1,6,0:0:0:0:
320,192,194461,1,6,0:0:0:0:
192,192,194611,128,0,194911:0:0:0:40:Tom1.wav
448,192,194911,1,8,0:0:0:0:
64,192,195061,1,2,0:0:0:0:
192,192,195361,1,4,0:0:0:0:
320,192,195361,1,2,0:0:0:0:
64,192,195811,128,2,196111:0:0:0:0:
448,192,196111,128,10,196411:0:0:0:0:
192,192,196411,128,10,196711:0:0:0:0:
320,192,196711,128,10,197011:0:0:0:0:
64,192,197011,128,0,197311:0:0:0:40:Tom1.wav
448,192,197311,1,8,0:0:0:0:
320,192,197461,1,2,0:0:0:0:
64,192,197761,1,4,0:0:0:0:
192,192,197761,1,2,0:0:0:0:
192,192,198511,1,8,0:0:0:0:
320,192,198511,128,4,198811:0:0:0:0:
64,192,198811,128,2,199111:0:0:0:0:
448,192,199111,128,0,199411:0:0:0:40:Hat open.wav
192,192,199411,128,0,199711:0:0:0:40:Hat open.wav
64,192,199711,1,8,0:0:0:0:
320,192,199711,128,4,200161:0:0:0:0:
64,192,200161,128,2,200611:0:0:0:0:
448,192,200161,1,4,0:0:0:0:
320,192,200611,1,8,0:0:0:0:
448,192,200611,1,4,0:0:0:0:
192,192,200911,1,8,0:0:0:0:
320,192,201061,1,8,0:0:0:0:
64,192,201211,1,8,0:0:0:0:
192,192,201361,1,2,0:0:0:0:
320,192,201511,1,8,0:0:0:0:
448,192,201511,1,4,0:0:0:0:
64,192,201811,128,8,202111:0:0:0:0:
320,192,202111,1,10,0:0:0:0:
192,192,202261,128,8,202561:0:0:0:0:
320,192,202561,1,2,0:0:0:0:
448,192,202561,1,4,0:0:0:0:
448,192,203011,128,8,203311:0:0:0:0:
192,192,203311,1,2,0:0:0:0:
320,192,203461,128,2,203761:0:0:0:0:
64,192,203761,1,2,0:0:0:0:
192,192,204211,128,8,204511:0:0:0:0:
320,192,204511,1,2,0:0:0:0:
448,192,204661,128,2,204961:0:0:0:0:
64,192,204961,128,2,205411:0:0:0:0:
192,192,204961,1,4,0:0:0:0:
320,192,205411,128,8,205711:0:0:0:0:
192,192,205711,128,2,206011:0:0:0:0:
320,192,206011,1,8,0:0:0:0:
64,192,206161,1,0,0:0:0:0:
448,192,206311,128,2,206911:0:0:0:0:
192,192,206911,128,10,207511:0:0:0:0:
320,192,207511,1,2,0:0:0:0:
448,192,207511,1,4,0:0:0:0:
64,192,208111,1,0,0:0:0:0:
448,192,208711,1,0,0:0:0:0:
320,192,209311,1,0,0:0:0:40:Hat open.wav
192,192,209761,1,0,0:0:0:0:
320,192,209911,1,4,0:0:0:0:
448,192,209911,1,2,0:0:0:0:
64,192,210211,1,10,0:0:0:0:
192,192,210361,1,8,0:0:0:0:
448,192,210511,1,10,0:0:0:0:
320,192,210661,1,8,0:0:0:0:
192,192,210811,128,10,211111:0:0:0:0:
448,192,211111,128,8,211411:0:0:0:0:
64,192,211411,1,12,0:0:0:0:
320,192,211561,128,2,212011:0:0:0:0:
192,192,212011,1,8,0:0:0:0:
448,192,212161,1,8,0:0:0:0:
64,192,212311,1,4,0:0:0:0:
192,192,212311,1,2,0:0:0:0:
448,192,212611,1,10,0:0:0:0:
64,192,212911,1,2,0:0:0:0:
448,192,213211,1,10,0:0:0:0:
320,192,213511,1,2,0:0:0:0:
192,192,213811,1,10,0:0:0:0:
320,192,214111,1,2,0:0:0:0:
192,192,214411,1,10,0:0:0:0:
448,192,214711,1,2,0:0:0:0:
64,192,215011,1,10,0:0:0:0:
448,192,215311,1,2,0:0:0:0:
64,192,215611,1,10,0:0:0:0:
192,192,215911,1,2,0:0:0:0:
320,192,216211,1,10,0:0:0:0:
192,192,216511,1,2,0:0:0:0:
320,192,216811,1,10,0:0:0:0:
192,192,216961,1,8,0:0:0:0:
64,192,217111,1,4,0:0:0:0:
448,192,217111,1,2,0:0:0:0:
192,192,217411,1,10,0:0:0:0:
448,192,217711,1,2,0:0:0:0:
192,192,218011,1,10,0:0:0:0:
64,192,218311,1,2,0:0:0:0:
320,192,218611,1,10,0:0:0:0:
64,192,218911,1,2,0:0:0:0:
192,192,219061,1,2,0:0:0:0:
320,192,219211,1,8,0:0:0:0:
64,192,219511,1,8,0:0:0:0:
448,192,219511,1,0,0:0:0:0:
192,192,219811,1,4,0:0:0:0:
320,192,219811,1,8,0:0:0:0:
64,192,220111,1,12,0:0:0:0:
448,192,220411,1,12,0:0:0:0:
192,192,220561,1,12,0:0:0:0:
64,192,220861,1,2,0:0:0:0:
320,192,221011,1,12,0:0:0:0:
192,192,221311,128,12,221611:0:0:0:0:
448,192,221611,128,12,221911:0:0:0:0:
64,192,221911,1,4,0:0:0:0:
192,192,221911,1,2,0:0:0:0:
320,192,222211,1,8,0:0:0:0:
192,192,222511,1,8,0:0:0:0:
64,192,222811,1,8,0:0:0:0:
448,192,223111,1,8,0:0:0:0:
192,192,223411,1,8,0:0:0:0:
320,192,223711,1,8,0:0:0:0:
448,192,224011,1,8,0:0:0:0:
64,192,224311,1,4,0:0:0:0:
192,192,224311,1,8,0:0:0:0:
448,192,224611,1,8,0:0:0:0:
320,192,224911,1,8,0:0:0:0:
192,192,225211,1,8,0:0:0:0:
320,192,225511,1,4,0:0:0:0:
448,192,225511,1,8,0:0:0:0:
64,192,225811,1,8,0:0:0:0:
192,192,226111,1,8,0:0:0:0:
320,192,226411,1,8,0:0:0:0:
64,192,226711,1,4,0:0:0:0:
448,192,226711,1,2,0:0:0:0:
192,192,227011,1,8,0:0:0:0:
320,192,227311,1,0,0:0:0:40:Hat open.wav
192,192,227611,1,8,0:0:0:0:
320,192,227911,1,4,0:0:0:0:
448,192,227911,1,2,0:0:0:0:
64,192,228211,1,8,0:0:0:0:
320,192,228511,1,0,0:0:0:40:Hat open.wav
64,192,228811,1,4,0:0:0:0:
192,192,228811,1,8,0:0:0:0:
320,192,229111,1,4,0:0:0:0:
448,192,229111,1,2,0:0:0:0:
64,192,229411,1,8,0:0:0:0:
448,192,229711,1,8,0:0:0:0:
64,192,230011,1,8,0:0:0:0:
320,192,230311,1,2,0:0:0:0:
448,192,230311,1,4,0:0:0:0:
192,192,230611,128,8,230911:0:0:0:0:
320,192,230911,128,0,231211:0:0:0:40:Tom1.wav
64,192,231211,1,4,0:0:0:0:
448,192,231211,1,8,0:0:0:0:
192,192,231511,1,6,0:0:0:0:
64,192,231661,1,4,0:0:0:0:
320,192,231661,1,2,0:0:0:0:
448,192,231961,1,2,0:0:0:0:
64,192,232111,1,12,0:0:0:0:
320,192,232411,1,12,0:0:0:0:
192,192,232561,1,4,0:0:0:0:
448,192,232561,1,2,0:0:0:0:
64,192,232861,1,2,0:0:0:0:
320,192,233011,1,8,0:0:0:0:
448,192,233311,1,8,0:0:0:0:
320,192,233461,1,8,0:0:0:0:
192,192,233611,1,8,0:0:0:0:
64,192,233761,1,8,0:0:0:0:
448,192,233761,1,0,0:0:0:40:Hat open.wav
