osu file format v14

[General]
AudioFilename: audio.mp3
AudioLeadIn: 0
PreviewTime: 58937
Countdown: 0
SampleSet: Soft
StackLeniency: 0.7
Mode: 0
LetterboxInBreaks: 0
WidescreenStoryboard: 1

[Editor]
Bookmarks: 40712,80312,109112,128312,137912,171512,212312
DistanceSpacing: 1.4
BeatDivisor: 4
GridSize: 16
TimelineZoom: 1.8

[Metadata]
Title:GR4VITY G4ME
TitleUnicode:GR4VITY G4ME
Artist:WAGAMAMA RAKIA
ArtistUnicode:我儘ラキア
Creator:Log Off Now
Version:LOG OFF B4NTER'S INS4NE
Source:
Tags:japanese rock jrock j-rock gravity game 岸和田一樹 星熊 南巫 川﨑 怜奈 海羽 凜 Hoshikuma Minami Kaine Rin Kawasaki Layna Kazuki Kishiwada miri onyx banter akitoshi corinn -laura- skyflame mimiliaa Mimilie Suzuhara Lulu Hitsukuya Hojo Karen
BeatmapID:3822120
BeatmapSetID:1855321

[Difficulty]
HPDrainRate:4.5
CircleSize:3.8
OverallDifficulty:8
ApproachRate:9
SliderMultiplier:1.6
SliderTickRate:1

[Events]
//Background and Video events
0,0,"mimiflame bg.jpg",0,0
//Break Periods
2,90112,96512
2,128512,134912
//Storyboard Layer 0 (Background)
//Storyboard Layer 1 (Fail)
//Storyboard Layer 2 (Pass)
//Storyboard Layer 3 (Foreground)
//Storyboard Layer 4 (Overlay)
//Storyboard Sound Samples

[TimingPoints]
1112,300,4,2,2,33,1,0
1112,-370.37037037037,4,2,2,33,0,0
1187,-370.37037037037,4,2,2,10,0,0
2312,-142.857142857143,4,2,2,40,0,0
11912,-117.647058823529,4,2,1,45,0,0
16712,-111.111111111111,4,2,1,50,0,0
19712,-111.111111111111,4,2,1,40,0,0
19862,-111.111111111111,4,2,1,45,0,0
20012,-111.111111111111,4,2,1,50,0,0
20162,-111.111111111111,4,2,1,55,0,0
21212,-111.111111111111,4,2,1,47,0,0
21512,-100,4,2,1,55,0,0
31112,-142.857142857143,4,2,2,42,0,0
38312,-142.857142857143,4,2,1,42,0,0
38612,-117.647058823529,4,2,1,42,0,0
40112,-117.647058823529,4,2,1,45,0,0
40712,-100,4,2,1,50,0,0
50312,-111.111111111111,4,2,1,50,0,0
55112,-100,4,2,1,50,0,0
57512,-100,4,2,1,35,0,0
58562,-100,4,2,1,60,0,0
59012,-100,4,2,1,50,0,0
59762,-86.9565217391304,4,2,1,80,0,0
79112,-86.9565217391304,4,2,1,30,0,0
80012,-86.9565217391304,4,2,1,40,0,0
80312,-100,4,2,1,55,0,0
89912,-100,4,2,3,36,0,0
92612,-100,4,2,3,38,0,0
95012,-100,4,2,3,40,0,0
95912,-100,4,2,3,42,0,0
97112,-100,4,2,3,44,0,0
98312,-100,4,2,1,40,0,0
98912,-100,4,2,1,42,0,0
99062,-100,4,2,1,45,0,0
99212,-100,4,2,1,47,0,0
99512,-100,4,2,1,50,0,0
104312,-111.111111111111,4,2,1,50,0,0
107912,-99.9999999999999,4,2,1,50,0,0
108512,-99.9999999999999,4,2,1,55,0,0
109112,-125,4,2,4,50,0,0
110312,-125,4,2,4,35,0,0
113612,-125,4,2,4,40,0,0
117512,-125,4,2,4,43,0,0
117612,-125,4,2,4,5,0,0
117712,-125,4,2,4,43,0,0
117812,-125,4,2,4,5,0,0
117912,-125,4,2,4,43,0,0
118162,-125,4,2,4,5,0,0
118262,-125,4,2,4,43,0,0
121112,-100,4,2,4,50,0,0
121412,-100,4,2,4,43,0,0
121562,-100,4,2,4,50,0,0
121862,-100,4,2,4,43,0,0
122012,-100,4,2,4,50,0,0
122312,-125,4,2,4,43,0,0
123662,-125,4,2,4,5,0,0
123737,-125,4,2,4,43,0,0
123887,-125,4,2,4,5,0,0
123962,-125,4,2,4,43,0,0
127112,-100,4,2,1,50,0,0
135512,-100,4,2,1,20,0,0
137762,-100,4,2,1,40,0,0
137912,-125,4,2,1,50,0,0
141512,-111.111111111111,4,2,1,50,0,0
142712,-111.111111111111,4,2,1,60,0,0
147362,-86.9565217391304,4,2,1,80,0,0
166712,-142.857142857143,4,2,1,45,0,0
168662,-142.857142857143,4,2,1,50,0,0
169112,-111.111111111111,4,2,1,50,0,0
169562,-111.111111111111,4,2,1,55,0,0
169862,-111.111111111111,4,2,1,50,0,0
170012,-111.111111111111,4,2,1,55,0,0
170312,-111.111111111111,4,2,1,50,0,0
170462,-111.111111111111,4,2,1,55,0,0
170762,-111.111111111111,4,2,1,50,0,0
170912,-111.111111111111,4,2,1,55,0,0
171212,-111.111111111111,4,2,1,40,0,0
171512,-142.857142857143,4,2,2,45,0,0
181112,-117.647058823529,4,2,1,50,0,0
183512,-117.647058823529,4,2,1,45,0,0
184112,-117.647058823529,4,2,1,50,0,0
184712,-117.647058823529,4,2,1,55,0,0
185912,-111.111111111111,4,2,1,60,0,0
188612,-111.111111111111,4,2,1,55,0,0
188912,-111.111111111111,4,2,1,60,0,0
189212,-111.111111111111,4,2,1,65,0,0
189362,-111.111111111111,4,2,1,69,0,0
190712,-111.111111111111,4,2,1,53,0,0
191912,-111.111111111111,4,2,1,48,0,0
192962,-153.846153846154,4,2,1,53,0,0
194612,-117.647058823529,4,2,1,53,0,0
195812,-117.647058823529,4,2,1,45,0,0
196112,-117.647058823529,4,2,1,50,0,0
196412,-117.647058823529,4,2,1,55,0,0
196712,-100,4,2,1,55,0,0
197012,-100,4,2,1,50,0,0
197312,-100,4,2,1,55,0,0
197462,-100,4,2,1,50,0,0
197762,-100,4,2,1,58,0,0
199712,-100,4,2,1,65,0,0
202112,-100,4,2,1,70,0,0
202412,-86.9565217391304,4,2,1,70,0,0
202562,-86.9565217391304,4,2,1,80,0,0
206312,-86.9565217391304,4,2,1,75,0,0
206912,-86.9565217391304,4,2,1,70,0,0
207512,-86.9565217391304,4,2,1,50,0,0
209312,-166.666666666666,4,2,1,55,0,0
209912,-100,4,2,1,55,0,0
211112,-100,4,2,1,60,0,0
212312,-83.3333333333333,4,2,1,60,0,0
212912,-83.3333333333333,4,2,1,50,0,0
215012,-83.3333333333333,4,2,1,55,0,0
217412,-83.3333333333333,4,2,1,60,0,0
219512,-83.3333333333333,4,2,1,65,0,0
221912,-83.3333333333333,4,2,1,70,0,0
226712,-83.3333333333333,4,2,1,60,0,0
227912,-83.3333333333333,4,2,1,65,0,0
231512,-95.2380952380952,4,2,1,65,0,0

[Colours]
Combo1 : 221,196,106
Combo2 : 111,140,176
Combo3 : 94,69,165
Combo4 : 247,111,131

[HitObjects]
72,276,1112,6,0,P|90:189|113:128,1,151.200003691406,2|0,0:0|0:0,0:0:0:0:
1,38,2312,6,0,P|27:117|43:200,1,167.999994873047,6|0,1:2|0:0,0:0:0:0:
98,265,2912,2,0,P|151:271|190:234,1,111.999996582031,10|0,0:0|0:0,0:0:0:0:
238,162,3362,1,10,0:0:0:0:
238,162,3512,2,0,P|183:149|131:127,2,111.999996582031,0|0|8,0:0|1:0|0:0,0:0:0:0:
490,275,4712,6,0,B|374:255|393:336|277:318,1,223.999993164063,2|10,1:2|0:0,0:0:0:0:
216,382,5462,2,0,P|165:363|153:311,1,111.999996582031,2|8,0:0|0:0,0:0:0:0:
169,229,5912,1,2,0:0:0:0:
169,229,6062,2,0,P|195:237|230:265,2,55.9999982910157,2|0|2,0:0|1:2|0:0,0:0:0:0:
87,257,6512,1,8,0:0:0:0:
87,257,6662,2,0,P|72:190|51:139,1,111.999996582031,0|0,1:0|0:0,0:0:0:0:
4,71,7112,6,0,P|66:122|144:101,1,167.999994873047,2|0,1:2|0:0,0:0:0:0:
210,45,7712,2,0,P|275:65|278:124,1,111.999996582031,10|0,0:0|0:0,0:0:0:0:
259,188,8162,1,10,0:0:0:0:
259,188,8312,2,0,P|228:173|191:164,1,55.9999982910157
383,164,8612,2,0,P|414:179|451:188,1,55.9999982910157,2|0,1:2|0:0,0:0:0:0:
318,266,8912,6,0,P|305:194|278:79,1,167.999994873047,8|0,0:0|0:0,0:0:0:0:
349,0,9512,2,0,P|362:72|389:187,1,167.999994873047,2|0,1:2|0:0,0:0:0:0:
473,185,10112,1,10,0:0:0:0:
473,185,10262,2,0,P|509:209|508:276,1,111.999996582031,2|8,0:0|0:0,0:0:0:0:
410,316,10712,5,2,0:0:0:0:
410,316,10862,2,0,P|419:283|430:250,2,55.9999982910157,2|0|2,0:0|1:2|0:0,0:0:0:0:
336,383,11312,1,8,0:0:0:0:
336,383,11462,2,0,P|322:308|303:242,1,139.999995727539,0|0,0:0|3:0,0:0:0:0:
233,195,11912,6,0,P|174:202|138:288,1,136.000002593994,4|0,1:2|1:0,0:0:0:0:
42,284,12362,1,0,0:0:0:0:
42,284,12512,2,0,P|56:324|61:364,1,68.0000012969971,0|0,1:0|0:0,0:0:0:0:
191,383,12812,2,0,P|197:349|209:317,1,68.0000012969971,0|8,1:0|0:0,0:0:0:0:
309,217,13112,6,0,P|375:234|463:250,1,136.000002593994,0|0,1:0|1:0,0:0:0:0:
490,166,13562,1,8,0:3:0:0:
490,166,13637,1,8,0:3:0:0:
490,166,13712,2,0,P|510:133|508:85,1,68.0000012969971,0|4,1:0|0:3,0:0:0:0:
430,76,14012,2,0,P|410:109|412:157,1,68.0000012969971,4|0,0:3|1:0,0:0:0:0:
295,228,14312,6,0,P|237:194|234:128,2,136.000002593994,4|0|0,1:2|1:0|1:0,0:0:0:0:
407,147,15062,1,12,0:0:0:0:
454,240,15212,2,0,L|466:320,1,68.0000012969971,0|0,1:0|0:0,0:0:0:0:
315,384,15512,5,0,1:0:0:0:
372,283,15662,1,8,0:0:0:0:
243,320,15812,2,0,L|163:308,1,68.0000012969971,8|0,0:0|1:0,0:0:0:0:
105,242,16112,1,8,0:0:0:0:
103,233,16187,1,8,0:3:0:0:
101,225,16262,1,4,0:3:0:0:
99,217,16337,1,0,1:0:0:0:
98,208,16412,1,12,0:0:0:0:
410,92,16712,6,0,P|448:107|501:116,2,71.9999978027344,12|0|0,0:0|1:0|1:0,0:0:0:0:
288,214,17162,2,0,P|252:222|219:235,2,71.9999978027344,12|0|0,0:0|1:0|1:0,0:0:0:0:
320,83,17612,1,12,0:0:0:0:
389,210,17762,1,0,1:0:0:0:
236,118,17912,6,0,P|177:69|113:93,1,143.999995605469,12|0,0:0|1:0,0:0:0:0:
127,244,18362,2,0,P|141:203|147:156,1,71.9999978027344,12|0,0:0|1:0,0:0:0:0:
46,152,18662,1,0,1:0:0:0:
46,281,18812,2,0,P|51:300|54:319,3,35.9999989013672,8|8|4|0,0:0|0:3|0:3|1:0,0:0:0:0:
143,338,19112,6,0,B|201:331|201:331|225:343|225:343|301:335,1,143.999995605469,12|0,0:0|1:0,0:0:0:0:
356,270,19562,1,0,0:0:0:0:
238,168,19712,2,0,L|252:251,1,71.9999978027344,8|8,0:0|0:0,0:0:0:0:
385,364,20012,1,8,0:0:0:0:
444,188,20162,1,8,0:0:0:0:
129,260,21212,1,12,0:3:0:0:
203,74,21512,6,0,P|293:85|326:160,1,160,6|10,1:2|0:0,0:0:0:0:
362,288,21962,1,0,0:0:0:0:
426,196,22112,2,0,P|454:172|494:161,1,80,2|2,1:2|0:0,0:0:0:0:
284,221,22412,2,0,P|238:215|191:201,1,80,8|2,0:0|0:0,0:0:0:0:
354,296,22712,6,0,P|274:305|197:325,1,160,2|8,1:2|0:0,0:0:0:0:
94,343,23162,2,0,P|109:301|119:242,1,80,2|0,0:0|1:0,0:0:0:0:
61,163,23462,1,0,0:0:0:0:
227,145,23612,2,0,P|199:169|158:179,1,80,10|2,0:0|0:0,0:0:0:0:
0,63,23912,6,0,L|161:98,1,160,0|10,1:0|0:0,0:0:0:0:
289,49,24362,1,0,0:0:0:0:
378,187,24512,2,0,L|359:103,2,80,2|2|8,1:2|0:0|0:0,0:0:0:0:
323,274,24962,1,2,0:0:0:0:
512,270,25112,6,0,P|444:277|389:357,1,160,2|8,1:2|0:0,0:0:0:0:
311,264,25562,2,0,P|243:257|188:177,1,160,2|2,0:0|0:0,0:0:0:0:
137,63,26012,2,0,L|125:121,1,40,8|8,0:0|0:0,0:0:0:0:
61,158,26162,2,0,L|49:216,1,40,8|8,0:0|0:0,0:0:0:0:
59,311,26312,6,0,P|122:269|226:278,1,160,6|10,1:2|0:0,0:0:0:0:
287,344,26762,1,0,0:0:0:0:
421,276,26912,2,0,P|445:245|444:186,1,80,2|2,1:2|0:0,0:0:0:0:
245,124,27212,2,0,P|259:165|271:219,1,80,8|2,0:0|0:0,0:0:0:0:
368,211,27512,6,0,P|341:135|322:57,1,160,2|8,1:2|0:0,0:0:0:0:
419,0,27962,2,0,P|456:9|488:55,1,80,2|0,0:0|1:0,0:0:0:0:
432,119,28262,1,0,0:0:0:0:
240,43,28412,2,0,P|198:35|154:22,1,80,10|2,0:0|0:0,0:0:0:0:
81,218,28712,5,0,1:0:0:0:
182,127,28862,1,8,0:0:0:0:
242,262,29012,2,0,P|280:251|319:243,1,80,8|0,0:0|1:0,0:0:0:0:
434,313,29312,2,0,L|447:254,3,40,8|8|4|4,0:0|0:3|0:3|0:3,0:0:0:0:
512,216,29612,1,8,0:0:0:0:
512,216,29687,1,8,0:0:0:0:
512,216,29762,2,0,L|493:113,1,80,2|0,1:3|0:0,0:0:0:0:
393,35,30062,5,8,0:0:0:0:
345,149,30212,1,8,0:0:0:0:
345,149,30287,1,8,0:3:0:0:
345,149,30362,2,0,L|393:161,1,40,4|4,3:0|3:0,0:0:0:0:
304,58,30512,2,0,P|243:77|232:93,1,80,12|8,0:0|0:3,0:0:0:0:
212,176,30812,1,4,0:3:0:0:
212,176,30962,1,0,1:0:0:0:
121,240,31112,6,0,P|66:235|35:173,1,111.999996582031,4|0,1:2|0:0,0:0:0:0:
72,109,31562,1,0,1:2:0:0:
381,331,32612,6,0,P|415:339|454:353,1,55.9999982910157,0|0,1:0|0:0,0:0:0:0:
478,272,32912,2,0,P|444:264|405:250,1,55.9999982910157,0|0,1:0|0:0,0:0:0:0:
262,103,33512,6,0,P|207:108|176:170,1,111.999996582031,0|0,1:0|0:0,0:0:0:0:
213,234,33962,1,0,1:0:0:0:
381,53,35012,6,0,P|415:45|454:31,1,55.9999982910157,0|0,1:0|0:0,0:0:0:0:
478,112,35312,2,0,P|444:120|405:134,1,55.9999982910157,2|2,1:2|0:0,0:0:0:0:
279,184,35762,5,2,1:2:0:0:
279,184,35912,2,0,P|339:204|392:231,1,111.999996582031,0|0,1:0|0:0,0:0:0:0:
490,265,36362,1,0,1:0:0:0:
490,265,36512,2,0,P|480:238|473:211,1,55.9999982910157,8|0,0:0|0:0,0:0:0:0:
405,315,36812,2,0,P|414:341|421:368,1,55.9999982910157,10|2,0:0|0:0,0:0:0:0:
312,289,37112,6,0,P|272:253|277:192,1,111.999996582031,0|0,1:0|0:0,0:0:0:0:
336,132,37562,1,0,1:0:0:0:
336,132,37712,2,0,P|362:141|389:148,1,55.9999982910157,8|0,0:0|0:0,0:0:0:0:
187,205,38012,2,0,P|160:195|133:188,1,55.9999982910157,10|2,0:0|0:0,0:0:0:0:
235,118,38312,5,8,0:3:0:0:
235,118,38387,1,8,0:3:0:0:
235,118,38462,1,4,0:3:0:0:
119,26,38612,2,0,L|140:110,1,68.0000012969971,8|0,0:0|1:0,0:0:0:0:
55,255,38912,2,0,L|38:189,1,68.0000012969971,8|2,0:0|1:3,0:0:0:0:
39,81,39212,1,8,0:0:0:0:
160,204,39362,1,4,1:2:0:0:
437,13,40112,5,8,0:0:0:0:
383,102,40262,1,8,0:0:0:0:
383,102,40337,1,8,0:0:0:0:
383,102,40412,2,0,L|393:164,3,34.0000006484985,8|8|8|8,0:0|0:0|0:0|0:0,0:0:0:0:
457,192,40712,6,0,P|448:242|442:290,1,80,4|0,1:2|1:0,0:0:0:0:
378,348,41012,1,10,0:0:0:0:
239,261,41162,2,0,P|277:214|386:246,1,160,2|2,0:0|1:2,0:0:0:0:
257,352,41612,2,0,P|197:337|149:326,1,80,10|0,0:0|0:0,0:0:0:0:
30,288,41912,5,2,1:2:0:0:
111,125,42062,2,0,P|158:163|125:272,1,160,2|2,1:2|1:2,0:0:0:0:
37,178,42512,2,0,P|28:139|18:97,1,80,2|2,0:0|1:2,0:0:0:0:
158,9,42812,1,8,0:0:0:0:
193,141,42962,1,2,0:0:0:0:
307,77,43112,2,0,P|245:65|212:59,1,80,4|0,1:2|1:0,0:0:0:0:
120,190,43412,5,10,0:0:0:0:
243,223,43562,1,2,0:0:0:0:
101,188,43712,1,2,1:2:0:0:
263,229,43862,2,0,B|303:240|341:253|341:253|394:234|407:170,1,160,2|2,1:2|0:0,0:0:0:0:
306,80,44312,6,0,P|317:136|323:174,1,80,2|0,1:2|1:0,0:0:0:0:
430,304,44612,1,10,0:0:0:0:
471,152,44762,1,2,1:2:0:0:
350,256,44912,5,8,0:0:0:0:
346,271,44987,1,8,0:0:0:0:
342,286,45062,2,0,L|350:336,1,40,8|4,0:3|0:3,0:0:0:0:
272,369,45212,2,0,L|265:329,3,40,8|8|8|8,0:0|0:0|0:0|0:0,0:0:0:0:
235,104,45812,6,0,P|207:79|153:78,1,80,12|0,0:0|0:0,0:0:0:0:
22,178,46112,1,2,1:2:0:0:
83,65,46262,1,2,1:2:0:0:
168,160,46412,2,0,P|156:205|146:248,1,80,8|0,0:0|0:0,0:0:0:0:
90,356,46712,2,0,P|80:317|70:278,2,80,2|2|10,1:2|1:2|0:0,0:0:0:0:
249,280,47162,2,0,P|198:263|149:248,1,80,2|0,1:2|0:0,0:0:0:0:
250,379,47462,1,2,1:2:0:0:
334,268,47612,2,0,L|345:216,1,40,8|8,0:0|0:0,0:0:0:0:
259,154,47762,2,0,L|267:193,1,40,8|8,0:0|0:0,0:0:0:0:
411,133,47912,6,0,P|424:81|433:42,2,80,4|0|8,1:2|1:0|0:0,0:0:0:0:
500,202,48362,2,0,P|462:208|410:244,1,80,0|8,1:0|0:0,0:0:0:0:
366,353,48662,1,0,1:0:0:0:
292,277,48812,1,8,0:0:0:0:
289,265,48887,1,8,0:3:0:0:
287,253,48962,1,4,0:3:0:0:
285,241,49037,1,0,1:0:0:0:
283,229,49112,2,0,L|274:166,1,40,8|0,0:0|0:0,0:0:0:0:
209,293,49262,6,0,L|181:103,1,160,4|8,1:2|0:3,0:0:0:0:
183,91,49637,1,8,0:3:0:0:
183,91,49712,2,0,P|197:54|237:32,1,80,4|8,1:2|0:0,0:0:0:0:
353,151,50012,1,8,0:0:0:0:
261,106,50162,1,8,0:0:0:0:
424,59,50312,5,4,1:2:0:0:
424,59,50462,2,0,B|467:118|467:118|446:199,1,143.999995605469,4|0,1:2|1:0,0:0:0:0:
432,232,50837,1,0,1:0:0:0:
432,232,50912,2,0,L|450:316,1,71.9999978027344,8|2,0:0|0:0,0:0:0:0:
474,384,51212,1,2,1:2:0:0:
328,315,51362,1,2,1:2:0:0:
373,142,51662,5,0,1:0:0:0:
373,142,51737,1,0,1:0:0:0:
373,142,51812,2,0,L|287:158,1,71.9999978027344,0|0,1:0|1:0,0:0:0:0:
164,236,52112,1,8,0:0:0:0:
233,102,52262,1,0,1:0:0:0:
109,153,52412,2,0,L|23:137,1,71.9999978027344,8|8,1:2|1:2,0:0:0:0:
251,252,52712,5,2,1:2:0:0:
251,252,52862,2,0,B|299:267|299:267|331:314|331:314|371:326,1,143.999995605469,2|0,1:2|1:0,0:0:0:0:
401,336,53237,1,0,1:0:0:0:
401,336,53312,1,8,0:0:0:0:
352,186,53462,1,2,1:2:0:0:
243,338,53762,6,0,L|101:370,1,143.999995605469,2|0,1:2|1:0,0:0:0:0:
71,356,54137,1,0,1:0:0:0:
71,356,54212,2,0,P|34:311|37:275,1,71.9999978027344,0|0,1:0|1:0,0:0:0:0:
170,192,54512,1,8,0:0:0:0:
110,284,54662,1,0,1:0:0:0:
55,151,54812,2,0,L|44:101,3,35.9999989013672,8|8|0|0,0:0|0:0|1:0|1:0,0:0:0:0:
101,51,55112,6,0,L|187:75,1,80,14|2,0:2|1:2,0:0:0:0:
204,211,55412,1,2,1:2:0:0:
332,140,55562,2,0,L|306:231,1,80,14|2,0:2|1:2,0:0:0:0:
258,359,55862,1,2,1:2:0:0:
415,288,56012,6,0,L|337:312,1,80,14|2,0:2|1:2,0:0:0:0:
219,187,56312,1,2,1:2:0:0:
150,322,56462,2,0,L|72:298,1,80,14|2,0:2|1:2,0:0:0:0:
20,159,56762,1,2,1:2:0:0:
168,95,56912,5,8,0:0:0:0:
168,95,56987,1,8,0:0:0:0:
168,95,57062,2,0,L|154:147,1,40,8|0,0:3|0:3,0:0:0:0:
94,185,57212,2,0,L|107:237,3,40,4|4|0|0,0:3|0:3|1:0|1:0,0:0:0:0:
160,282,57512,1,2,0:0:0:0:
133,367,58562,5,4,1:2:0:0:
496,178,59762,6,0,P|455:118|343:131,1,184.000003509522,4|0,1:0|0:0,0:0:0:0:
386,280,60212,2,0,P|401:228|413:172,1,92.0000017547608,10|0,0:0|0:0,0:0:0:0:
298,51,60512,1,2,1:2:0:0:
262,142,60662,2,0,P|215:156|162:169,1,92.0000017547608,2|8,1:2|0:0,0:0:0:0:
93,85,60962,6,0,P|144:135|112:243,1,184.000003509522,2|0,1:2|1:0,0:0:0:0:
23,354,61412,2,0,P|12:309|0:265,1,92.0000017547608,10|0,0:0|0:0,0:0:0:0:
62,169,61712,1,2,1:2:0:0:
125,268,61862,2,0,P|169:279|213:292,1,92.0000017547608,2|8,1:2|0:0,0:0:0:0:
329,183,62162,6,0,B|289:228|289:228|322:351,1,184.000003509522,6|0,1:2|1:2,0:0:0:0:
474,238,62612,2,0,P|429:249|385:262,1,92.0000017547608,10|0,0:0|0:0,0:0:0:0:
247,144,62912,1,2,1:2:0:0:
355,65,63062,2,0,P|340:125|329:169,1,92.0000017547608,2|8,1:2|0:0,0:0:0:0:
188,261,63362,5,2,1:2:0:0:
188,261,63437,1,0,1:2:0:0:
188,261,63512,2,0,P|173:201|162:157,1,92.0000017547608,12|0,0:0|1:0,0:0:0:0:
266,307,63812,2,0,P|231:347|192:352,1,92.0000017547608,8|0,0:0|1:0,0:0:0:0:
104,288,64112,5,8,0:0:0:0:
73,272,64187,1,8,0:0:0:0:
39,276,64262,1,8,0:3:0:0:
20,296,64337,1,8,0:3:0:0:
16,316,64412,2,0,L|25:362,1,46.0000008773804,4|4,0:3|0:3,0:0:0:0:
107,372,64562,2,0,B|71:180,1,184.000003509522,4|0,1:1|1:0,0:0:0:0:
70,146,64937,1,0,1:0:0:0:
70,146,65012,2,0,P|103:107|152:104,1,92.0000017547608,12|0,0:0|0:0,0:0:0:0:
172,256,65312,6,0,P|184:211|195:167,1,92.0000017547608,2|0,1:2|1:2,0:0:0:0:
302,38,65612,2,0,P|314:82|328:125,1,92.0000017547608,10|2,0:0|0:0,0:0:0:0:
258,245,65912,2,0,P|312:210|362:220,1,92.0000017547608,6|0,1:2|1:0,0:0:0:0:
352,381,66212,2,0,P|338:337|325:293,1,92.0000017547608,10|0,0:0|1:0,0:0:0:0:
459,150,66512,5,14,0:0:0:0:
406,269,66662,1,0,1:0:0:0:
351,116,66812,1,8,0:0:0:0:
501,248,66962,2,0,P|416:227|301:199,1,184.000003509522,6|0,1:2|1:0,0:0:0:0:
251,326,67412,5,8,0:0:0:0:
169,162,67562,1,0,1:0:0:0:
90,281,67712,2,0,P|136:269|198:254,1,92.0000017547608,8|0,0:0|1:0,0:0:0:0:
267,110,68012,2,0,P|256:154|245:199,1,92.0000017547608,8|0,0:0|1:0,0:0:0:0:
264,234,68237,1,0,1:0:0:0:
264,234,68312,1,12,0:0:0:0:
445,145,68462,6,0,L|432:199,1,46.0000008773804,8|8,0:0|0:0,0:0:0:0:
365,253,68612,2,0,L|352:199,1,46.0000008773804,8|8,0:0|0:0,0:0:0:0:
444,274,68762,2,0,L|431:328,1,46.0000008773804,8|8,0:0|0:0,0:0:0:0:
360,356,68912,5,8,0:3:0:0:
345,359,68987,1,8,0:3:0:0:
330,362,69062,1,8,0:3:0:0:
315,366,69137,1,8,0:3:0:0:
300,369,69212,2,0,L|251:381,1,46.0000008773804,4|4,0:3|0:3,0:0:0:0:
180,345,69362,6,0,B|131:301|131:301|171:150,1,184.000003509522,4|0,1:1|1:0,0:0:0:0:
173,147,69737,1,0,1:0:0:0:
173,147,69812,2,0,P|201:105|263:100,1,92.0000017547608,14|0,0:0|0:0,0:0:0:0:
327,156,70112,1,2,1:2:0:0:
224,267,70262,2,0,L|254:154,1,92.0000017547608,2|8,1:2|0:0,0:0:0:0:
205,15,70562,6,0,P|135:-5|57:77,1,184.000003509522,2|0,1:2|1:0,0:0:0:0:
123,168,71012,2,0,P|138:115|150:60,1,92.0000017547608,10|0,0:0|0:0,0:0:0:0:
39,203,71312,1,2,1:2:0:0:
165,262,71462,2,0,P|217:246|273:235,1,92.0000017547608,2|8,1:2|0:0,0:0:0:0:
373,129,71762,6,0,P|353:197|318:325,1,184.000003509522,6|0,1:2|1:0,0:0:0:0:
448,377,72212,2,0,P|499:328|492:275,1,92.0000017547608,10|0,0:0|0:0,0:0:0:0:
394,205,72512,2,0,P|403:239|421:303,1,92.0000017547608,2|0,1:2|1:0,0:0:0:0:
479,156,72812,1,10,0:0:0:0:
415,34,72962,2,0,P|402:78|389:122,1,92.0000017547608,2|0,0:0|1:0,0:0:0:0:
307,219,73262,5,0,1:0:0:0:
250,77,73412,1,8,0:0:0:0:
157,203,73562,1,8,0:3:0:0:
157,203,73637,1,8,0:3:0:0:
157,203,73712,2,0,P|169:255|179:297,2,92.0000017547608,8|0|8,0:0|1:0|0:0,0:0:0:0:
268,48,74162,6,0,B|321:91|321:91|278:227,1,184.000003509522,4|0,1:2|1:0,0:0:0:0:
354,291,74612,2,0,P|303:310|258:326,1,92.0000017547608,8|0,0:0|1:0,0:0:0:0:
180,374,74912,2,0,P|153:326|128:285,1,92.0000017547608,10|0,0:0|1:0,0:0:0:0:
58,155,75212,1,8,0:0:0:0:
221,243,75362,5,0,1:0:0:0:
221,243,75437,1,0,1:0:0:0:
221,243,75512,2,0,P|234:189|247:143,1,92.0000017547608,10|0,0:0|1:0,0:0:0:0:
132,35,75812,2,0,P|145:88|155:132,1,92.0000017547608,8|0,0:0|1:0,0:0:0:0:
330,234,76112,1,10,0:0:0:0:
278,23,76262,2,0,L|263:81,1,46.0000008773804,0|0,1:0|1:0,0:0:0:0:
243,153,76412,1,8,0:0:0:0:
387,77,76562,6,0,P|446:68|477:183,1,184.000003509522,6|8,1:2|0:3,0:0:0:0:
460,196,76937,1,8,0:3:0:0:
460,196,77012,2,0,L|473:251,3,46.0000008773804,8|8|0|0,0:3|0:3|1:0|1:0,0:0:0:0:
397,295,77312,2,0,L|387:251,1,46.0000008773804,4|4,0:3|0:3,0:0:0:0:
298,215,77462,2,0,L|308:259,1,46.0000008773804,4|4,0:3|0:3,0:0:0:0:
247,355,77612,2,0,L|237:311,3,46.0000008773804,0|8|4|0,1:0|0:3|0:3|1:0,0:0:0:0:
218,215,77912,5,8,0:0:0:0:
195,187,77987,1,8,0:0:0:0:
164,171,78062,1,8,0:0:0:0:
129,168,78137,1,8,0:0:0:0:
104,185,78212,2,0,L|125:297,1,92.0000017547608,4|0,1:2|0:0,0:0:0:0:
278,363,78512,5,8,1:2:0:0:
293,183,78662,1,8,1:2:0:0:
147,300,78812,1,8,1:2:0:0:
329,273,78962,1,8,1:2:0:0:
256,192,79112,12,2,80012,0:0:0:0:
104,167,80312,6,0,P|51:107|72:30,1,160,4|10,1:0|0:0,0:0:0:0:
184,102,80762,1,0,0:0:0:0:
160,244,80912,2,0,P|118:252|74:270,1,80,2|2,1:2|0:0,0:0:0:0:
251,164,81212,2,0,P|269:123|270:70,1,80,8|2,0:0|0:0,0:0:0:0:
267,272,81512,6,0,B|328:290|328:290|350:319|350:319|411:338,1,160,2|8,1:2|0:0,0:0:0:0:
491,211,81962,2,0,P|455:228|398:242,1,80,2|0,0:0|1:0,0:0:0:0:
271,178,82262,1,0,0:0:0:0:
394,99,82412,2,0,P|388:138|364:169,1,80,10|2,0:0|0:0,0:0:0:0:
302,57,82712,6,0,P|380:57|442:9,1,160,0|10,1:2|0:0,0:0:0:0:
228,0,83162,1,0,0:0:0:0:
156,66,83312,2,0,P|166:107|172:153,2,80,2|2|8,1:2|0:0|0:0,0:0:0:0:
257,171,83762,1,2,0:0:0:0:
114,225,83912,6,0,P|191:245|266:272,1,160,2|8,1:2|0:0,0:0:0:0:
422,211,84362,2,0,P|344:190|269:163,1,160,2|0,0:0|0:0,0:0:0:0:
167,70,84812,1,8,0:0:0:0:
157,70,84887,1,8,0:0:0:0:
147,72,84962,1,8,0:0:0:0:
138,77,85037,1,8,0:0:0:0:
131,83,85112,6,0,L|156:267,1,160,4|10,1:2|0:0,0:0:0:0:
172,384,85562,1,0,0:0:0:0:
23,286,85712,2,0,P|66:297|107:344,1,80,2|2,1:2|0:0,0:0:0:0:
245,249,86012,2,0,P|275:208|273:148,1,80,8|2,0:0|0:0,0:0:0:0:
273,337,86312,6,0,P|249:282|143:260,1,160,2|8,1:2|0:0,0:0:0:0:
65,197,86762,2,0,P|35:156|37:96,1,80,2|0,0:0|1:0,0:0:0:0:
131,17,87062,1,0,0:0:0:0:
176,170,87212,2,0,P|158:214|151:259,1,80,10|2,0:0|0:0,0:0:0:0:
266,345,87512,5,0,1:0:0:0:
378,205,87662,1,8,0:0:0:0:
428,326,87812,2,0,L|334:302,1,80,8|8,0:0|0:3,0:0:0:0:
336,304,88037,1,8,0:3:0:0:
336,304,88112,2,0,L|320:251,3,40,4|0|8|8,0:3|0:0|0:3|0:3,0:0:0:0:
261,207,88412,2,0,L|276:153,1,40,8|8,0:3|0:3,0:0:0:0:
345,119,88562,2,0,L|329:66,1,40,4|4,0:3|0:3,0:0:0:0:
259,41,88712,5,8,0:0:0:0:
259,41,88787,1,8,0:3:0:0:
259,41,88862,2,0,L|214:31,3,40,4|4|4|0,0:3|0:3|0:3|1:0,0:0:0:0:
113,0,89162,2,0,L|121:39,1,40,8|8,0:0|0:3,0:0:0:0:
203,126,89312,2,0,L|156:112,3,40,8|8|8|4,0:0|0:3|0:3|0:3,0:0:0:0:
82,151,89612,1,8,0:0:0:0:
68,165,89687,1,8,0:0:0:0:
60,184,89762,1,8,0:0:0:0:
59,203,89837,1,8,0:0:0:0:
64,223,89912,5,4,1:0:0:0:
256,192,97112,12,2,99212,3:2:0:0:
111,90,99512,6,0,P|187:115|279:129,1,160,4|10,1:2|0:0,0:0:0:0:
379,203,99962,2,0,P|407:175|403:119,1,80,2|0,0:0|1:0,0:0:0:0:
339,68,100262,1,2,1:2:0:0:
288,218,100412,2,0,P|301:262|307:312,1,80,10|0,0:0|0:0,0:0:0:0:
417,293,100712,5,2,1:2:0:0:
350,380,100862,2,0,P|312:331|207:332,1,160,2|2,1:2|0:0,0:0:0:0:
66,264,101312,2,0,P|143:265|196:208,1,160,2|10,1:2|0:0,0:0:0:0:
120,129,101762,1,2,0:0:0:0:
263,28,101912,5,4,1:2:0:0:
203,127,102062,1,0,1:0:0:0:
203,127,102212,2,0,P|193:81|177:41,1,80,10|2,0:0|0:0,0:0:0:0:
312,113,102512,1,2,1:2:0:0:
312,113,102662,2,0,P|284:188|268:266,1,160,2|2,1:2|0:0,0:0:0:0:
357,360,103112,6,0,P|400:359|438:328,1,80,2|2,1:2|1:2,0:0:0:0:
504,256,103412,1,8,0:0:0:0:
504,256,103487,1,8,0:3:0:0:
504,256,103562,2,0,P|472:244|440:234,1,40,4|0,0:3|1:0,0:0:0:0:
365,263,103712,1,8,0:0:0:0:
452,139,103862,1,8,0:0:0:0:
319,103,104012,2,0,L|342:187,1,80,8|8,0:0|0:0,0:0:0:0:
254,317,104312,6,0,P|233:329|210:335,2,47.9999985351563,4|0|0,1:2|1:0|1:0,0:0:0:0:
331,287,104612,2,0,P|352:298|368:315,2,47.9999985351563,0|0|0,1:0|1:0|1:0,0:0:0:0:
262,237,104912,1,12,0:0:0:0:
262,237,105062,1,0,1:0:0:0:
153,260,105212,2,0,P|132:226|136:177,1,71.9999978027344
81,81,105512,6,0,P|114:99|179:108,1,71.9999978027344,4|0,1:2|0:0,0:0:0:0:
162,120,105737,2,0,P|199:119|260:94,1,71.9999978027344,0|0,1:0|0:0,0:0:0:0:
245,97,105962,1,0,1:0:0:0:
351,52,106112,2,0,L|337:135,1,71.9999978027344,8|0,0:0|1:0,0:0:0:0:
449,217,106412,2,0,L|439:173,3,35.9999989013672,8|8|8|8,0:0|0:0|0:0|0:0,0:0:0:0:
421,152,106712,6,0,L|252:186,1,143.999995605469,4|0,1:2|0:0,0:0:0:0:
183,252,107162,1,0,1:0:0:0:
360,327,107312,2,0,L|371:256,1,71.9999978027344,12|0,0:0|0:0,0:0:0:0:
278,273,107612,1,8,0:0:0:0:
278,273,107687,1,8,0:0:0:0:
278,273,107762,2,0,L|268:320,1,35.9999989013672,8|4,0:3|0:3,0:0:0:0:
172,375,107912,6,0,P|155:348|156:307,1,53.3333333333333,4|0,1:2|0:0,0:0:0:0:
78,299,108112,2,0,P|92:271|128:252,1,53.3333333333333,4|0,1:2|0:0,0:0:0:0:
96,179,108312,2,0,P|126:178|161:199,1,53.3333333333333,4|0,1:2|0:0,0:0:0:0:
195,257,108512,5,4,1:2:0:0:
80,382,108712,1,4,1:2:0:0:
23,225,108912,1,4,1:2:0:0:
98,287,109112,5,4,1:0:0:0:
195,257,110312,5,0,1:0:0:0:
255,345,111212,6,0,P|293:355|345:367,1,64,8|0,0:0|1:0,0:0:0:0:
362,340,111437,1,0,1:0:0:0:
362,340,111512,2,0,P|372:304|354:264,1,64,2|0,1:2|0:0,0:0:0:0:
303,212,111812,2,0,P|319:135|333:62,1,128,2|0,1:2|0:0,0:0:0:0:
382,14,112262,2,0,P|345:45|253:19,1,128,8|8,0:0|1:2,0:0:0:0:
189,82,112712,6,0,B|145:63|145:63|99:73,2,96,8|0|8,1:2|1:0|1:2,0:0:0:0:
231,157,113312,2,0,P|220:196|213:225,1,64,8|8,0:0|1:2,0:0:0:0:
264,297,113612,2,0,L|306:285,3,32,8|8|8|8,0:0|0:0|1:2|0:0,0:0:0:0:
239,336,113912,6,0,P|214:354|169:351,1,64,2|0,0:0|0:0,0:0:0:0:
104,376,114212,2,0,P|92:334|76:267,1,96,2|2,0:0|0:0,0:0:0:0:
104,251,114512,2,0,P|130:219|132:178,1,64,10|2,0:0|0:0,0:0:0:0:
49,128,114812,2,0,P|107:116|194:95,1,128,0|2,1:2|0:0,0:0:0:0:
220,178,115262,1,0,0:0:0:0:
328,124,115412,2,0,L|244:104,1,64,0|2,1:0|0:0,0:0:0:0:
341,212,115712,2,0,L|403:197,1,64,8|0,0:0|0:0,0:0:0:0:
452,84,116012,1,2,1:2:0:0:
201,47,116312,6,0,L|187:4,3,32,0|0|0|0,3:0|3:0|3:0|3:0,0:0:0:0:
229,82,116612,2,0,L|214:144,1,64,2|0,0:3|0:0,0:0:0:0:
147,205,116912,1,2,0:0:0:0:
147,205,116987,1,0,0:0:0:0:
147,205,117062,1,0,0:0:0:0:
203,275,117212,2,0,P|228:288|277:286,1,64,0|0,1:0|0:0,0:0:0:0:
303,217,117512,6,0,P|328:236|342:266,1,42.6666666666667,0|0,1:0|0:0,0:0:0:0:
415,250,117712,2,0,P|409:282|382:310,1,42.6666666666667,0|0,1:0|0:0,0:0:0:0:
442,363,117912,2,0,P|414:374|344:342,1,85.3333333333333,0|0,1:0|0:0,0:0:0:0:
290,313,118262,1,0,1:0:0:0:
195,374,118412,2,0,P|181:310|168:251,1,96,8|8,0:0|0:0,0:0:0:0:
168,240,118712,2,0,P|180:201|188:167,2,64,0|0|8,1:0|0:0|0:0,0:0:0:0:
78,299,119162,5,10,0:0:0:0:
14,174,119312,2,0,P|49:140|117:141,2,96,10|2|2,0:0|0:0|0:0,0:0:0:0:
209,253,119912,2,0,P|151:233|72:212,1,128,2|0,0:0|1:0,0:0:0:0:
230,166,120362,1,2,0:0:0:0:
270,317,120512,2,0,P|294:343|372:348,2,96,10|2|2,0:0|0:0|0:0,0:0:0:0:
356,176,121112,6,0,B|401:153|435:162|435:162|463:193|526:200,1,160,4|2,1:2|0:0,0:0:0:0:
339,272,121562,6,0,P|325:217|292:104,1,160,4|2,1:2|0:0,0:0:0:0:
395,5,122012,6,0,L|370:100,1,80,4|0,1:2|0:0,0:0:0:0:
227,178,122312,6,0,L|244:244,2,64,2|0|2,0:0|0:0|1:2,0:0:0:0:
152,138,122762,1,2,0:0:0:0:
224,47,122912,2,0,P|258:22|323:28,1,96,8|0,0:0|0:0,0:0:0:0:
332,52,123212,2,0,L|316:113,1,64,10|8,0:0|0:0,0:0:0:0:
388,201,123512,6,0,L|499:170,2,96,0|0|0,1:0|1:0|1:0,0:0:0:0:
359,283,124112,2,0,P|340:318|252:335,1,128,2|2,0:0|0:0,0:0:0:0:
260,194,124562,2,0,P|276:239|285:266,1,64,2|0,0:0|1:0,0:0:0:0:
175,361,124862,2,0,B|172:318|188:294|188:294|163:261|126:258,1,128,2|2,0:0|1:2,0:0:0:0:
28,350,125312,2,0,P|74:337|101:331,1,64,10|0,0:0|0:0,0:0:0:0:
132,177,125612,2,0,P|100:184|69:192,1,64,2|0,1:2|0:0,0:0:0:0:
220,294,125912,5,0,1:2:0:0:
220,294,126062,1,2,1:2:0:0:
280,234,126212,2,0,P|289:196|297:160,1,64,2|0,0:0|1:0,0:0:0:0:
248,96,126512,2,0,P|195:110|136:126,2,96,10|2|10,0:0|0:0|0:0,0:0:0:0:
381,37,127112,6,0,L|288:14,1,80,4|2,1:2|0:0,0:0:0:0:
433,145,127412,2,0,L|510:125,1,80,0|2,1:0|0:0,0:0:0:0:
377,252,127712,2,0,L|366:303,2,40,8|8|8,0:3|0:3|0:3,0:0:0:0:
289,146,128012,1,4,0:3:0:0:
214,222,128162,1,4,0:3:0:0:
218,237,128237,1,4,0:3:0:0:
222,252,128312,1,0,1:0:0:0:
256,192,135512,12,0,137762,0:0:0:0:
180,221,137912,6,0,P|135:180|137:115,1,128,4|2,1:2|0:0,0:0:0:0:
216,73,138362,1,2,1:2:0:0:
216,73,138512,1,10,0:0:0:0:
290,132,138662,2,0,P|347:127|390:65,1,128,2|2,1:2|0:0,0:0:0:0:
499,24,139112,2,0,P|484:84|472:156,1,128,2|0,1:2|0:0,0:0:0:0:
379,258,139562,2,0,P|389:224|395:180,1,64,0|8,1:0|0:0,0:0:0:0:
475,251,139862,1,2,1:2:0:0:
437,340,140012,2,0,P|405:345|374:354,1,64,2|0,0:0|0:0,0:0:0:0:
226,317,140312,6,0,P|257:311|288:302,2,64,4|2|2,1:2|1:2|0:0,0:0:0:0:
142,255,140762,1,2,1:2:0:0:
64,313,140912,2,0,L|49:385,2,64,12|0|2,0:0|1:0|0:0,0:0:0:0:
4,232,141362,1,2,1:2:0:0:
98,135,141512,6,0,P|133:142|169:165,1,71.9999978027344,12|0,0:0|1:0,0:0:0:0:
316,279,141812,2,0,P|280:271|250:253,1,71.9999978027344,8|0,0:0|1:0,0:0:0:0:
284,111,142112,1,8,0:0:0:0:
380,223,142262,1,0,1:0:0:0:
442,89,142412,2,0,L|452:44,3,35.9999989013672,8|8|8|4,0:0|0:0|0:3|0:3,0:0:0:0:
380,0,142712,5,12,0:0:0:0:
366,152,142862,2,0,L|382:238,1,71.9999978027344,0|0,1:0|1:0,0:0:0:0:
494,170,143162,1,12,0:0:0:0:
307,57,143312,2,0,L|226:41,1,71.9999978027344,0|0,1:0|1:0,0:0:0:0:
185,230,143612,1,12,0:0:0:0:
278,139,143762,1,0,1:0:0:0:
153,103,143912,5,8,0:0:0:0:
153,103,143987,1,8,0:0:0:0:
153,103,144062,2,0,L|166:155,1,35.9999989013672,8|8,0:3|0:3,0:0:0:0:
95,215,144212,2,0,L|103:249,3,35.9999989013672,4|4|0|0,0:3|0:3|1:0|1:0,0:0:0:0:
169,330,144512,5,8,0:0:0:0:
169,330,144612,2,0,P|202:319|234:289,1,47.9999985351563,8|8,0:0|0:0,0:0:0:0:
273,250,144812,5,8,0:0:0:0:
273,250,144912,2,0,P|306:261|338:291,1,47.9999985351563,8|8,0:0|0:0,0:0:0:0:
363,352,145112,5,4,1:2:0:0:
189,235,145562,1,4,1:2:0:0:
307,152,145862,1,0,1:0:0:0:
307,152,145937,1,0,1:0:0:0:
307,152,146012,1,12,0:0:0:0:
283,253,146162,1,12,0:0:0:0:
124,184,146462,5,0,1:0:0:0:
124,184,146537,1,0,1:0:0:0:
124,184,146612,2,0,L|112:127,3,35.9999989013672,8|8|4|0,0:0|0:3|0:3|1:0,0:0:0:0:
186,96,146912,2,0,L|174:39,3,35.9999989013672,8|4|0|0,0:3|0:3|1:0|1:0,0:0:0:0:
120,0,147212,1,8,0:0:0:0:
264,64,147362,6,0,B|336:78|336:78|356:107|356:107|457:130,1,184.000003509522,4|0,1:0|1:0,0:0:0:0:
298,258,147812,2,0,L|279:156,1,92.0000017547608,10|0,0:0|0:0,0:0:0:0:
413,36,148112,1,2,1:2:0:0:
469,225,148262,2,0,L|367:206,1,92.0000017547608,2|8,1:2|0:0,0:0:0:0:
236,359,148562,6,0,P|255:317|383:304,1,184.000003509522,2|0,1:2|1:0,0:0:0:0:
209,232,149012,2,0,P|156:216|125:172,1,92.0000017547608,10|0,0:0|0:0,0:0:0:0:
281,167,149312,1,2,1:2:0:0:
242,33,149462,2,0,P|210:65|199:109,1,92.0000017547608,2|8,1:2|0:0,0:0:0:0:
298,258,149762,6,0,B|399:244|377:310|480:296,1,184.000003509522,6|0,1:2|1:0,0:0:0:0:
281,167,150212,2,0,P|193:171|149:247,1,184.000003509522,10|2,0:0|1:2,0:0:0:0:
281,349,150662,1,2,1:2:0:0:
377,226,150812,2,0,P|392:180|395:106,1,92.0000017547608,8|2,0:0|0:0,0:0:0:0:
343,32,151112,5,4,1:2:0:0:
483,127,151262,1,0,1:0:0:0:
301,140,151412,2,0,L|186:163,1,92.0000017547608,8|0,0:0|1:0,0:0:0:0:
121,134,151712,1,8,0:0:0:0:
121,134,151787,1,8,0:0:0:0:
121,134,151862,1,8,0:0:0:0:
121,134,151937,1,8,0:0:0:0:
121,134,152012,2,0,L|108:192,1,46.0000008773804,8|8,0:0|0:0,0:0:0:0:
193,271,152162,6,0,P|246:272|300:154,1,184.000003509522,4|0,1:2|1:0,0:0:0:0:
227,48,152612,1,8,0:0:0:0:
227,48,152912,2,0,L|331:30,1,92.0000017547608,2|0,1:2|1:2,0:0:0:0:
412,111,153212,2,0,L|428:8,1,92.0000017547608,10|0,0:0|0:0,0:0:0:0:
305,169,153512,6,0,L|289:272,1,92.0000017547608,6|0,1:2|1:0,0:0:0:0:
326,380,153812,1,10,0:0:0:0:
185,313,153962,1,0,1:0:0:0:
185,313,154037,1,0,1:0:0:0:
185,313,154112,2,0,L|170:222,1,92.0000017547608,14|0,0:0|1:0,0:0:0:0:
221,79,154412,1,12,0:0:0:0:
87,206,154562,6,0,L|281:161,1,184.000003509522,6|0,1:2|1:0,0:0:0:0:
431,235,155012,2,0,P|459:201|452:126,1,92.0000017547608,8|0,0:0|0:0,0:0:0:0:
302,0,155312,1,8,0:0:0:0:
379,167,155462,1,0,1:0:0:0:
491,21,155612,1,8,0:0:0:0:
393,81,155762,1,0,1:0:0:0:
393,81,155837,1,0,1:0:0:0:
393,81,155912,6,0,L|334:70,3,46.0000008773804,8|8|0|0,0:0|0:3|1:0|1:0,0:0:0:0:
302,0,156212,2,0,L|243:11,3,46.0000008773804,4|4|0|0,0:3|0:3|1:0|1:0,0:0:0:0:
194,79,156512,1,8,0:0:0:0:
194,79,156587,1,8,0:0:0:0:
194,79,156662,2,0,L|184:135,1,46.0000008773804,8|8,0:0|0:0,0:0:0:0:
252,188,156812,2,0,L|242:244,1,46.0000008773804,8|8,0:3|0:3,0:0:0:0:
155,302,156962,6,0,P|78:296|40:177,1,184.000003509522,4|0,1:0|1:0,0:0:0:0:
14,195,157337,1,0,1:0:0:0:
14,195,157412,2,0,P|55:175|77:119,1,92.0000017547608,10|0,0:0|0:0,0:0:0:0:
51,19,157712,1,2,1:2:0:0:
185,124,157862,2,0,P|188:78|150:31,1,92.0000017547608,2|8,1:2|0:0,0:0:0:0:
75,134,158162,6,0,P|163:151|204:234,1,184.000003509522,2|0,1:2|1:0,0:0:0:0:
330,248,158612,2,0,P|295:274|282:320,1,92.0000017547608,10|0,0:0|0:0,0:0:0:0:
417,337,158912,1,2,1:2:0:0:
384,156,159062,2,0,P|336:147|274:115,1,92.0000017547608,2|8,1:2|0:0,0:0:0:0:
155,300,159362,6,0,P|239:263|329:247,1,184.000003509522,6|0,1:2|1:0,0:0:0:0:
417,337,159812,2,0,P|428:287|455:222,1,92.0000017547608,10|0,0:0|0:0,0:0:0:0:
409,67,160112,2,0,P|398:117|371:182,1,92.0000017547608,2|0,1:2|1:2,0:0:0:0:
330,247,160412,1,10,0:0:0:0:
213,159,160562,2,0,P|249:127|314:131,1,92.0000017547608,2|0,0:0|1:0,0:0:0:0:
322,345,160862,5,0,1:0:0:0:
238,248,161012,1,8,0:0:0:0:
193,368,161162,1,8,0:3:0:0:
193,368,161237,1,8,0:3:0:0:
193,368,161312,1,8,0:0:0:0:
128,237,161462,2,0,L|118:180,2,46.0000008773804,4|4|8,0:3|0:3|0:0,0:0:0:0:
46,327,161762,6,0,B|117:310|117:310|137:281|137:281|211:266,1,184.000003509522,6|0,1:2|1:0,0:0:0:0:
359,321,162212,1,8,0:0:0:0:
359,321,162512,2,0,P|384:283|383:214,1,92.0000017547608,2|0,1:2|1:2,0:0:0:0:
483,109,162812,2,0,P|430:146|328:143,1,138.000002632141,8|0,0:0|0:0,0:0:0:0:
335,174,163112,6,0,P|289:146|215:159,1,92.0000017547608,2|0,1:2|1:2,0:0:0:0:
102,218,163412,1,8,0:0:0:0:
152,75,163562,1,0,1:0:0:0:
152,75,163637,1,0,0:0:0:0:
152,75,163712,2,0,P|197:70|235:45,1,92.0000017547608,10|0,0:0|1:0,0:0:0:0:
67,23,164012,1,8,0:0:0:0:
166,164,164162,6,0,P|225:178|298:293,1,184.000003509522,6|0,1:2|1:0,0:0:0:0:
441,371,164612,2,0,P|509:315|497:226,1,184.000003509522,14|4,0:0|1:2,0:0:0:0:
344,365,165062,1,0,1:0:0:0:
396,157,165212,2,0,L|414:266,1,92.0000017547608,12|0,0:0|1:2,0:0:0:0:
226,364,165512,6,0,L|211:273,1,92.0000017547608,12|0,0:0|1:2,0:0:0:0:
264,82,165812,1,12,0:0:0:0:
321,210,165962,1,0,1:0:0:0:
321,210,166037,1,0,1:0:0:0:
321,210,166112,2,0,L|224:185,1,92.0000017547608,8|8,0:0|0:0,0:0:0:0:
53,206,166412,1,8,0:0:0:0:
167,96,166562,1,8,0:0:0:0:
107,266,166712,6,0,L|83:87,1,167.999994873047,4|0,1:2|1:0,0:0:0:0:
65,9,167312,2,0,L|127:20,1,55.9999982910157
167,96,167612,2,0,L|229:85,1,55.9999982910157
303,141,167912,1,2,0:0:0:0:
303,141,168062,2,0,L|318:72,2,55.9999982910157,0|2|0,0:0|1:2|0:0,0:0:0:0:
224,182,168512,1,2,0:0:0:0:
224,182,168662,2,0,B|231:222|231:222|225:254|225:254|232:292,1,111.999996582031,2|0,1:2|0:0,0:0:0:0:
335,359,169112,6,0,P|396:363|444:281,1,143.999995605469,4|2,1:2|0:0,0:0:0:0:
512,159,169562,2,0,P|454:177|364:217,1,143.999995605469,4|2,1:2|0:0,0:0:0:0:
261,147,170012,2,0,P|319:129|409:89,1,143.999995605469,4|2,1:2|0:0,0:0:0:0:
213,59,170462,2,0,P|143:58|103:115,1,143.999995605469,4|2,1:2|0:0,0:0:0:0:
159,220,170912,6,0,B|214:233|214:233|234:258|234:258|302:272,1,143.999995605469,4|2,1:2|0:0,0:0:0:0:
399,211,171362,1,2,0:0:0:0:
399,211,171437,1,2,0:0:0:0:
399,211,171512,6,0,P|379:287|357:373,1,167.999994873047,6|0,1:2|0:0,0:0:0:0:
487,185,172112,2,0,P|459:137|390:122,1,111.999996582031,8|0,0:0|0:0,0:0:0:0:
326,158,172562,1,8,0:0:0:0:
257,110,172712,2,0,P|240:55|223:-2,2,111.999996582031,0|0|8,0:0|1:0|0:0,0:0:0:0:
70,261,173912,6,0,P|89:217|204:209,1,167.999994873047,0|0,1:0|0:0,0:0:0:0:
166,330,174512,2,0,P|152:277|147:255,1,55.9999982910157,10|2,0:0|0:0,0:0:0:0:
289,183,174812,2,0,P|275:236|270:258,1,55.9999982910157,2|8,0:0|0:0,0:0:0:0:
236,115,175112,1,2,0:0:0:0:
236,115,175262,2,0,P|229:87|222:61,2,55.9999982910157,2|0|2,0:0|1:2|0:0,0:0:0:0:
305,40,175712,1,8,0:0:0:0:
359,114,175862,2,0,P|420:133|477:150,1,111.999996582031,0|0,1:0|0:0,0:0:0:0:
511,226,176312,6,0,P|490:304|406:310,1,167.999994873047,2|2,1:2|0:0,0:0:0:0:
310,197,176912,2,0,P|325:261|336:325,1,111.999996582031,8|2,0:0|0:0,0:0:0:0:
282,379,177362,1,10,0:0:0:0:
282,379,177512,2,0,P|247:376|214:352,1,55.9999982910157
169,310,177812,2,0,P|128:321|100:330,1,55.9999982910157,2|0,1:2|0:0,0:0:0:0:
18,373,178112,6,0,P|36:291|52:208,1,167.999994873047,8|0,0:0|0:0,0:0:0:0:
22,131,178712,2,0,P|16:79|115:48,1,167.999994873047,2|0,1:2|0:0,0:0:0:0:
144,120,179312,2,0,P|138:155|129:190,1,55.9999982910157,10|2,0:0|0:0,0:0:0:0:
164,250,179612,2,0,P|202:273|225:271,1,55.9999982910157,2|8,0:0|0:0,0:0:0:0:
291,220,179912,5,2,0:0:0:0:
291,220,180062,2,0,P|297:192|301:165,2,55.9999982910157,2|0|2,0:0|1:2|0:0,0:0:0:0:
318,311,180512,1,8,0:0:0:0:
318,311,180662,2,0,P|371:354|452:329,1,139.999995727539,0|0,1:0|0:0,0:0:0:0:
499,273,181112,6,0,P|489:228|482:191,1,68.0000012969971,4|0,1:2|0:0,0:0:0:0:
425,57,181412,2,0,P|419:91|408:139,1,68.0000012969971,0|0,1:0|0:0,0:0:0:0:
331,281,181712,2,0,P|321:236|314:199,1,68.0000012969971,0|0,1:0|0:0,0:0:0:0:
247,157,182012,1,0,1:0:0:0:
247,157,182162,1,0,0:0:0:0:
159,233,182312,6,0,P|113:245|70:259,1,68.0000012969971,2|0,1:2|0:0,0:0:0:0:
5,111,182612,2,0,P|51:123|94:137,1,68.0000012969971,0|0,1:0|0:0,0:0:0:0:
260,11,182912,2,0,P|214:23|171:37,1,68.0000012969971,0|0,1:0|0:0,0:0:0:0:
153,108,183212,1,0,1:0:0:0:
153,108,183362,1,0,0:0:0:0:
215,180,183512,6,0,P|264:197|303:213,3,68.0000012969971,2|0|0|0,1:2|1:0|1:0|1:0,0:0:0:0:
293,295,184112,2,0,P|324:282|357:272,1,68.0000012969971,0|8,1:2|0:0,0:0:0:0:
383,121,184412,2,0,P|370:152|360:185,1,68.0000012969971,8|8,1:2|0:0,0:0:0:0:
430,325,184712,5,8,1:2:0:0:
279,202,184862,1,8,0:0:0:0:
462,148,185012,1,8,1:2:0:0:
356,272,185162,1,8,0:0:0:0:
290,114,185312,2,0,L|281:67,3,34.0000006484985,8|8|0|0,0:0|0:0|1:0|1:0,0:0:0:0:
193,43,185612,1,8,0:3:0:0:
193,43,185687,1,8,0:3:0:0:
193,43,185762,2,0,L|199:76,1,34.0000006484985,4|4,0:3|0:3,0:0:0:0:
110,189,185912,6,0,P|120:142|132:92,2,71.9999978027344,12|0|0,0:0|1:0|1:0,0:0:0:0:
236,276,186362,2,0,P|187:296|159:307,1,71.9999978027344,12|0,0:0|1:0,0:0:0:0:
119,382,186662,1,0,1:0:0:0:
70,265,186812,1,8,0:0:0:0:
70,265,186887,1,8,0:3:0:0:
70,265,186962,1,4,0:3:0:0:
7,342,187112,6,0,L|59:358,1,35.9999989013672,8|0,0:0|0:0,0:0:0:0:
120,333,187262,2,0,L|172:349,3,35.9999989013672,0|0|0|0,1:0|1:0|1:0|1:0,0:0:0:0:
246,367,187562,6,0,L|230:315,1,35.9999989013672,12|0,0:0|0:0,0:0:0:0:
255,254,187712,2,0,L|239:202,3,35.9999989013672,0|0|0|0,1:0|1:0|1:0|1:0,0:0:0:0:
320,313,188012,6,0,P|373:328|409:341,1,71.9999978027344,12|0,0:0|1:0,0:0:0:0:
417,374,188237,1,0,1:0:0:0:
417,374,188312,1,8,0:0:0:0:
474,223,188612,6,0,P|457:161|446:125,1,71.9999978027344,0|8,1:0|1:2,0:0:0:0:
316,33,188912,2,0,P|299:95|288:131,1,71.9999978027344,8|8,1:2|1:2,0:0:0:0:
250,266,189212,1,8,1:2:0:0:
161,102,189362,1,8,1:2:0:0:
161,102,190712,5,12,0:0:0:0:
280,185,190862,1,12,0:0:0:0:
166,274,191012,2,0,L|157:221,3,35.9999989013672,0|0|8|8,1:0|1:0|0:3|0:3,0:0:0:0:
93,319,191312,2,0,L|84:266,3,35.9999989013672,0|0|4|4,1:0|1:0|0:3|0:3,0:0:0:0:
20,364,191612,2,0,L|11:311,3,35.9999989013672,0|0|0|0,1:0|1:0|1:0|1:0,0:0:0:0:
1,244,191912,1,0,1:0:0:0:
164,356,192962,6,0,B|226:370|285:381|285:381|308:364|324:335|324:335|359:338|411:365,1,259.999988098145,4|2,1:2|0:0,0:0:0:0:
473,318,193862,2,0,P|501:272|459:186,1,155.999992858887,2|4,0:0|1:2,0:0:0:0:
412,258,194462,1,0,1:0:0:0:
325,174,194612,2,0,L|333:129,2,34.0000006484985,8|8|4,0:3|0:3|0:3,0:0:0:0:
296,333,194912,1,10,0:0:0:0:
226,259,195062,1,2,1:2:0:0:
81,340,195362,6,0,P|70:284|49:191,1,136.000002593994,4|0,1:2|0:0,0:0:0:0:
87,128,195812,2,0,L|100:80,3,34.0000006484985,8|8|8|8,1:2|0:0|0:0|0:0,0:0:0:0:
148,197,196112,1,8,1:2:0:0:
162,219,196187,1,8,0:0:0:0:
186,232,196262,1,8,0:0:0:0:
213,231,196337,1,8,0:0:0:0:
236,217,196412,2,0,L|223:169,3,34.0000006484985,8|8|8|8,1:2|0:0|0:0|0:0,0:0:0:0:
308,281,196712,6,0,P|295:314|287:361,2,53.3333333333333,8|8|8,1:2|0:0|0:0,0:0:0:0:
375,219,197012,2,0,P|362:186|354:139,2,53.3333333333333,8|4|4,0:3|0:3|0:3,0:0:0:0:
448,284,197312,1,8,0:0:0:0:
448,284,197462,1,0,1:0:0:0:
488,59,197762,6,0,P|433:74|386:91,1,80,4|0,1:2|0:0,0:0:0:0:
353,147,198062,2,0,P|278:127|177:102,1,160,0|0,1:0|1:0,0:0:0:0:
133,52,198437,1,0,1:0:0:0:
133,52,198512,2,0,P|112:99|118:133,1,80,12|0,0:0|0:0,0:0:0:0:
199,197,198812,2,0,P|138:216|89:238,1,80,0|0,1:2|1:2,0:0:0:0:
16,291,199112,6,0,P|77:310|126:332,1,80,0|8,0:0|0:0,0:0:0:0:
203,368,199412,2,0,P|185:322|162:258,1,80,2|0,0:0|1:0,0:0:0:0:
217,217,199637,1,0,1:0:0:0:
217,217,199712,2,0,P|261:187|302:194,1,80,14|0,0:0|0:0,0:0:0:0:
444,271,200012,1,8,0:0:0:0:
334,344,200162,6,0,P|349:287|380:176,1,160,6|0,1:2|1:0,0:0:0:0:
333,111,200537,1,0,1:0:0:0:
333,111,200612,2,0,P|321:62|309:23,1,80,8|0,0:0|1:0,0:0:0:0:
457,152,200912,1,8,0:0:0:0:
321,256,201062,1,8,0:0:0:0:
234,136,201212,2,0,P|188:112|143:115,1,80,8|0,0:0|1:0,0:0:0:0:
97,159,201437,5,0,1:0:0:0:
97,159,201512,2,0,P|109:214|118:250,1,80,12|0,0:0|1:0,0:0:0:0:
278,354,201812,2,0,P|290:299|299:263,1,80,8|0,0:0|1:0,0:0:0:0:
332,118,202112,1,8,0:0:0:0:
348,91,202187,1,8,0:0:0:0:
377,75,202262,1,8,0:0:0:0:
410,77,202337,1,8,0:0:0:0:
437,93,202412,2,0,L|423:154,1,46.0000008773804,8|8,0:0|0:0,0:0:0:0:
409,222,202562,6,0,P|340:203|212:171,1,184.000003509522,4|0,1:1|1:0,0:0:0:0:
156,222,202937,1,0,1:0:0:0:
156,222,203012,2,0,P|142:172|161:125,1,92.0000017547608,10|0,0:0|0:0,0:0:0:0:
310,63,203312,1,2,1:2:0:0:
206,4,203462,2,0,P|219:54|230:97,1,92.0000017547608,2|8,1:2|0:0,0:0:0:0:
244,234,203762,6,0,P|221:284|86:273,1,184.000003509522,2|0,1:2|1:0,0:0:0:0:
32,164,204212,2,0,P|19:214|8:257,1,92.0000017547608,10|0,0:0|0:0,0:0:0:0:
66,384,204512,1,2,1:2:0:0:
156,222,204662,2,0,P|143:172|132:129,1,92.0000017547608,2|8,1:2|0:0,0:0:0:0:
229,318,204962,6,0,P|296:335|425:375,1,184.000003509522,6|0,1:2|1:0,0:0:0:0:
361,223,205412,2,0,P|329:263|331:307,1,92.0000017547608,10|0,0:0|0:0,0:0:0:0:
467,241,205712,2,0,P|452:196|442:152,1,92.0000017547608,2|2,1:2|1:2,0:0:0:0:
278,83,206012,1,8,0:0:0:0:
331,217,206162,1,2,0:0:0:0:
413,65,206312,6,0,P|383:45|332:42,2,61.3333345031739,0|8|8,1:0|0:0|0:0,0:0:0:0:
336,184,206612,2,0,P|346:144|354:111,2,61.3333345031739,8|0|8,0:0|0:3|0:3,0:0:0:0:
257,53,206912,5,8,0:0:0:0:
257,53,207012,2,0,P|219:75|181:84,1,61.3333345031739,4|8,0:3|0:0,0:0:0:0:
139,154,207212,1,8,0:3:0:0:
139,154,207312,2,0,P|101:132|63:123,1,61.3333345031739,4|4,0:3|0:3,0:0:0:0:
39,43,207512,5,4,1:0:0:0:
223,109,208112,5,2,0:0:0:0:
61,220,208712,5,2,0:0:0:0:
170,302,209312,6,0,P|160:239|145:149,1,143.999995605469,2|0,0:3|0:0,0:0:0:0:
120,69,209912,1,4,1:2:0:0:
305,209,210212,6,0,P|364:228|401:239,1,80,8|8,0:0|0:0,0:0:0:0:
460,114,210512,2,0,P|421:125|383:138,1,80,8|8,0:0|0:0,0:0:0:0:
485,288,210812,2,0,P|473:249|460:211,1,80,8|8,0:0|0:0,0:0:0:0:
359,43,211112,5,8,0:0:0:0:
305,209,211262,1,0,1:0:0:0:
178,43,211412,2,0,P|187:82|194:122,1,80,12|0,0:0|1:0,0:0:0:0:
106,274,211712,1,8,0:0:0:0:
61,125,211862,1,8,0:0:0:0:
61,125,211937,1,8,0:0:0:0:
61,125,212012,2,0,L|108:135,3,40,8|8|8|8,0:0|0:0|0:0|0:0,0:0:0:0:
168,203,212312,6,0,P|220:212|312:118,2,191.999994140625,4|8|2,1:2|0:0|1:2,0:0:0:0:
269,42,213062,1,2,0:0:0:0:
406,128,213212,2,0,P|394:171|387:228,1,95.9999970703126,10|2,0:0|0:0,0:0:0:0:
339,373,213512,6,0,P|269:312|284:221,1,191.999994140625,2|8,1:2|0:0,0:0:0:0:
156,100,213962,2,0,P|187:72|261:70,1,95.9999970703126,2|0,0:0|1:0,0:0:0:0:
311,130,214262,1,2,0:0:0:0:
171,230,214412,2,0,P|128:218|71:211,1,95.9999970703126,10|0,0:0|0:0,0:0:0:0:
37,109,214712,6,0,P|129:134|224:146,1,191.999994140625,0|10,1:0|0:0,0:0:0:0:
320,58,215162,1,2,0:0:0:0:
226,16,215312,1,2,1:2:0:0:
328,148,215462,1,2,0:0:0:0:
405,26,215612,2,0,P|466:13|500:-3,1,95.9999970703126,10|2,0:0|0:0,0:0:0:0:
416,154,215912,5,2,1:2:0:0:
320,58,216062,1,0,0:0:0:0:
488,100,216212,1,10,0:0:0:0:
377,243,216362,2,0,P|332:224|285:216,1,95.9999970703126,2|0,0:0|1:0,0:0:0:0:
200,273,216662,1,2,0:0:0:0:
110,229,216812,1,8,0:0:0:0:
108,217,216887,1,8,0:0:0:0:
106,205,216962,1,8,0:0:0:0:
104,193,217037,1,8,0:0:0:0:
102,181,217112,6,0,B|176:168|176:168|201:136|201:136|278:122,1,191.999994140625,4|10,1:2|0:0,0:0:0:0:
213,20,217562,1,2,0:0:0:0:
374,103,217712,2,0,L|355:206,1,95.9999970703126,2|2,1:2|0:0,0:0:0:0:
266,319,218012,2,0,L|248:224,1,95.9999970703126,10|2,0:0|0:0,0:0:0:0:
443,253,218312,6,0,L|230:205,1,191.999994140625,2|10,1:2|0:0,0:0:0:0:
146,149,218762,2,0,P|115:100|128:31,1,95.9999970703126,2|0,0:0|1:0,0:0:0:0:
53,235,219062,2,0,P|22:284|35:353,1,95.9999970703126,2|10,1:2|0:0,0:0:0:0:
184,341,219362,1,0,1:0:0:0:
184,341,219437,1,0,1:0:0:0:
184,341,219512,6,0,L|296:325,1,95.9999970703126,8|0,0:0|1:0,0:0:0:0:
407,350,219812,1,12,0:0:0:0:
310,233,219962,1,0,1:0:0:0:
310,233,220037,1,0,1:0:0:0:
310,233,220112,2,0,L|298:180,3,47.9999985351563,8|0|4|4,0:0|1:0|0:3|0:3,0:0:0:0:
341,109,220412,1,8,0:0:0:0:
469,222,220562,1,8,0:0:0:0:
493,113,220712,6,0,L|421:132,3,47.9999985351563,8|8|4|4,0:3|0:3|0:3|0:3,0:0:0:0:
391,190,221012,1,8,0:0:0:0:
444,39,221162,1,0,1:0:0:0:
307,96,221312,1,8,0:0:0:0:
307,96,221387,1,8,0:0:0:0:
307,96,221462,2,0,L|254:83,1,47.9999985351563,0|0,1:0|1:0,0:0:0:0:
190,23,221612,2,0,P|132:33|101:81,1,95.9999970703126,8|0,0:0|1:0,0:0:0:0:
140,294,221912,6,0,P|153:198|183:88,1,191.999994140625,14|10,0:0|0:0,0:0:0:0:
236,289,222362,1,0,1:2:0:0:
84,143,222512,1,10,0:0:0:0:
259,203,222662,2,0,P|304:186|367:174,1,95.9999970703126,0|10,1:2|0:0,0:0:0:0:
512,127,222962,5,0,1:2:0:0:
396,253,223112,1,10,0:0:0:0:
324,95,223262,2,0,P|299:52|313:-18,1,95.9999970703126,0|10,1:2|0:0,0:0:0:0:
453,189,223562,2,0,P|476:230|476:277,1,95.9999970703126,0|10,1:2|0:0,0:0:0:0:
300,193,223862,1,0,1:0:0:0:
413,92,224012,2,0,L|523:113,1,95.9999970703126,10|0,0:0|1:0,0:0:0:0:
233,130,224312,6,0,B|159:121|159:121|122:139|122:139|44:131,1,191.999994140625,14|10,0:0|0:0,0:0:0:0:
186,215,224762,1,0,1:0:0:0:
100,50,224912,1,10,0:0:0:0:
1,240,225062,2,0,L|99:229,1,95.9999970703126,0|10,1:0|0:0,0:0:0:0:
242,138,225362,5,0,1:0:0:0:
157,299,225512,1,14,0:0:0:0:
175,89,225662,2,0,P|216:59|283:64,1,95.9999970703126,0|14,1:0|0:0,0:0:0:0:
400,219,225962,2,0,P|359:249|292:244,1,95.9999970703126,0|14,1:0|0:0,0:0:0:0:
161,177,226262,1,0,1:0:0:0:
339,122,226412,1,10,0:0:0:0:
336,133,226487,1,8,0:0:0:0:
334,145,226562,1,10,0:0:0:0:
332,157,226637,1,8,0:0:0:0:
329,169,226712,6,0,P|338:263|356:369,1,191.999994140625,4|10,1:2|0:0,0:0:0:0:
217,286,227162,2,0,P|208:192|190:86,1,191.999994140625,6|0,1:2|1:0,0:0:0:0:
112,12,227612,2,0,P|98:44|96:79,1,47.9999985351563,8|8,0:0|0:0,0:0:0:0:
14,74,227762,2,0,P|17:108|33:140,1,47.9999985351563,8|8,0:0|0:0,0:0:0:0:
65,198,227912,6,0,P|110:184|158:177,1,95.9999970703126,4|8,1:2|0:0,0:0:0:0:
276,81,228212,2,0,P|318:95|386:103,1,95.9999970703126,10|0,0:0|1:0,0:0:0:0:
469,145,228512,2,0,P|459:177|456:211,3,47.9999985351563,8|8|4|4,0:3|0:3|0:3|0:3,0:0:0:0:
386,291,228812,2,0,P|376:243|360:198,1,95.9999970703126,12|0,0:0|0:0,0:0:0:0:
263,75,229112,6,0,P|192:83|177:206,1,191.999994140625,4|10,1:2|0:0,0:0:0:0:
249,278,229562,2,0,L|307:263,2,47.9999985351563,0|0|10,1:0|1:0|0:0,0:0:0:0:
158,363,229862,2,0,L|103:347,2,47.9999985351563,0|0|10,1:0|1:0|0:0,0:0:0:0:
174,197,230162,1,4,0:3:0:0:
305,354,230312,6,0,L|426:383,1,95.9999970703126,6|8,1:2|0:0,0:0:0:0:
419,364,230537,1,8,0:0:0:0:
419,364,230612,2,0,L|405:301,3,47.9999985351563,8|8|8|8,0:0|0:0|0:3|0:3,0:0:0:0:
337,264,230912,1,4,0:3:0:0:
339,252,230987,1,4,0:3:0:0:
342,240,231062,1,4,0:3:0:0:
344,228,231137,1,4,0:3:0:0:
347,217,231212,2,0,L|468:188,1,95.9999970703126,12|0,0:0|0:0,0:0:0:0:
326,110,231512,5,6,1:2:0:0:
232,175,231662,2,0,P|165:176|108:85,1,167.999994873047,6|0,1:2|1:0,0:0:0:0:
118,82,232037,1,0,1:0:0:0:
118,82,232112,2,0,P|161:76|203:106,1,83.9999974365235,8|0,0:0|1:0,0:0:0:0:
294,233,232412,1,14,0:0:0:0:
198,105,232562,6,0,P|169:192|152:280,1,167.999994873047,6|0,1:2|1:0,0:0:0:0:
261,384,233012,2,0,P|247:344|238:303,1,83.9999974365235,8|0,0:0|1:0,0:0:0:0:
386,154,233312,1,10,1:2:0:0:
330,314,233462,1,10,1:2:0:0:
280,127,233612,1,10,1:2:0:0:
443,216,233762,1,8,1:2:0:0:
