osu file format v14

[General]
AudioFilename: audio.mp3
AudioLeadIn: 0
PreviewTime: 58937
Countdown: 0
SampleSet: Soft
StackLeniency: 0.4
Mode: 0
LetterboxInBreaks: 0
WidescreenStoryboard: 1

[Editor]
Bookmarks: 128312,137912
DistanceSpacing: 1.3
BeatDivisor: 4
GridSize: 32
TimelineZoom: 2

[Metadata]
Title:GR4VITY G4ME
TitleUnicode:GR4VITY G4ME
Artist:WAGAMAMA RAKIA
ArtistUnicode:我儘ラキア
Creator:Log Off Now
Version:4KITOSHI'S EXTREME
Source:
Tags:japanese rock jrock j-rock gravity game 岸和田一樹 星熊 南巫 川﨑 怜奈 海羽 凜 Hoshikuma Minami Kaine Rin Kawasaki Layna Kazuki Kishiwada miri onyx banter akitoshi corinn -laura- skyflame mimiliaa Mimilie Suzuhara Lulu Hitsukuya Hojo Karen
BeatmapID:3816602
BeatmapSetID:1855321

[Difficulty]
HPDrainRate:5.5
CircleSize:3.8
OverallDifficulty:9.3
ApproachRate:9.3
SliderMultiplier:1.8
SliderTickRate:1

[Events]
//Background and Video events
0,0,"mimiflame bg.jpg",0,0
//Break Periods
2,128512,137358
//Storyboard Layer 0 (Background)
//Storyboard Layer 1 (Fail)
//Storyboard Layer 2 (Pass)
//Storyboard Layer 3 (Foreground)
//Storyboard Layer 4 (Overlay)
//Storyboard Sound Samples

[TimingPoints]
1112,300,4,2,2,33,1,0
1112,-250,4,2,2,33,0,0
2312,-250,4,2,2,40,0,0
3662,-250,4,2,2,33,0,0
3812,-250,4,2,2,40,0,0
4562,-250,4,2,2,33,0,0
4712,-250,4,2,2,40,0,0
6512,-250,4,2,2,33,0,0
6662,-250,4,2,2,40,0,0
6962,-250,4,2,2,33,0,0
7112,-250,4,2,2,40,0,0
9362,-250,4,2,2,33,0,0
9512,-250,4,2,2,40,0,0
11312,-250,4,2,2,33,0,0
11462,-250,4,2,2,40,0,0
11912,-125,4,2,1,45,0,0
16412,-83.3333333333333,4,2,1,45,0,0
16712,-111.111111111111,4,2,1,50,0,0
19261,-111.111111111111,4,2,1,33,0,0
19412,-111.111111111111,4,2,1,50,0,0
19712,-100,4,2,1,40,0,0
19862,-100,4,2,1,45,0,0
20012,-100,4,2,1,50,0,0
20162,-100,4,2,1,55,0,0
21212,-76.9230769230769,4,2,1,47,0,0
21436,-76.9230769230769,4,2,1,33,0,0
21512,-100,4,2,1,55,0,0
29312,-71.4285714285714,4,2,1,55,0,0
29836,-71.4285714285714,4,2,1,33,0,0
29912,-100,4,2,1,33,0,0
30062,-100,4,2,1,55,0,0
31112,-142.857142857143,4,2,2,42,0,0
32312,-142.857142857143,4,2,2,33,0,0
32461,-142.857142857143,4,2,2,42,0,0
34712,-142.857142857143,4,2,2,33,0,0
34861,-142.857142857143,4,2,2,42,0,0
35161,-142.857142857143,4,2,2,33,0,0
35312,-142.857142857143,4,2,2,42,0,0
38312,-111.111111111111,4,2,1,42,0,0
40112,-111.111111111111,4,2,1,45,0,0
40712,-111.111111111111,4,2,1,50,0,0
44912,-76.9230769230769,4,2,1,50,0,0
45212,-111.111111111111,4,2,1,50,0,0
45512,-200,4,2,1,50,0,0
45737,-200,4,2,1,33,0,0
45812,-76.9230769230769,4,2,1,50,0,0
46112,-111.111111111111,4,2,1,50,0,0
50312,-125,4,2,1,50,0,0
51512,-125,4,2,1,33,0,0
51662,-125,4,2,1,50,0,0
53612,-125,4,2,1,33,0,0
53762,-125,4,2,1,50,0,0
53912,-125,4,2,1,33,0,0
54062,-125,4,2,1,50,0,0
54737,-125,4,2,1,33,0,0
54812,-76.9230769230769,4,2,1,50,0,0
55112,-100,4,2,1,50,0,0
57212,-71.4285714285714,4,2,1,50,0,0
57512,-142.857142857143,4,2,1,35,0,0
58562,-100,4,2,1,60,0,0
59762,-83.3333333333333,4,2,1,80,0,1
79112,-100,4,2,1,30,0,0
80312,-100,4,2,1,55,0,0
88187,-100,4,2,1,30,0,0
88262,-100,4,2,1,55,0,0
88712,-71.4285714285714,4,2,1,55,0,0
89912,-142.857142857143,4,2,3,36,0,0
91711,-142.857142857143,4,2,3,30,0,0
91862,-142.857142857143,4,2,3,36,0,0
92911,-142.857142857143,4,2,3,38,0,0
95011,-142.857142857143,4,2,3,40,0,0
95912,-142.857142857143,4,2,3,42,0,0
96511,-142.857142857143,4,2,3,30,0,0
96662,-142.857142857143,4,2,3,42,0,0
96961,-142.857142857143,4,2,3,30,0,0
97112,-142.857142857143,4,2,3,44,0,0
98312,-142.857142857143,4,2,1,40,0,0
98912,-142.857142857143,4,2,1,42,0,0
99062,-111.111111111111,4,2,1,45,0,0
99212,-90.9090909090909,4,2,1,47,0,0
99362,-76.9230769230769,4,2,1,47,0,0
99512,-83.3333333333333,4,2,1,50,0,0
99736,-83.3333333333333,4,2,1,30,0,0
99812,-111.111111111111,4,2,1,50,0,0
104312,-90.9090909090908,4,2,1,50,0,0
104912,-111.111111111111,4,2,1,50,0,0
105512,-90.9090909090909,4,2,1,50,0,0
106037,-90.9090909090909,4,2,1,30,0,0
106112,-111.111111111111,4,2,1,50,0,0
107011,-111.111111111111,4,2,1,30,0,0
107162,-111.111111111111,4,2,1,50,0,0
107461,-111.111111111111,4,2,1,30,0,0
107612,-111.111111111111,4,2,1,50,0,0
107912,-71.4285714285714,4,2,1,50,0,0
109112,-166.666666666667,4,2,4,50,0,0
110011,-166.666666666667,4,2,4,30,0,0
110312,-166.666666666667,4,2,4,35,0,0
111661,-166.666666666667,4,2,4,30,0,0
111812,-166.666666666667,4,2,4,35,0,0
113612,-166.666666666667,4,2,4,40,0,0
114961,-166.666666666667,4,2,4,30,0,0
115112,-166.666666666667,4,2,4,40,0,0
115262,-166.666666666667,4,2,4,30,0,0
115412,-166.666666666667,4,2,4,40,0,0
115936,-166.666666666667,4,2,4,30,0,0
116012,-166.666666666667,4,2,4,40,0,0
116761,-166.666666666667,4,2,4,30,0,0
116912,-166.666666666667,4,2,4,40,0,0
117361,-166.666666666667,4,2,4,30,0,0
117512,-83.3333333333333,4,2,4,43,0,0
117612,-83.3333333333333,4,2,4,5,0,0
117712,-83.3333333333333,4,2,4,43,0,0
117812,-83.3333333333333,4,2,4,5,0,0
117912,-83.3333333333333,4,2,4,43,0,0
118262,-166.666666666667,4,2,4,43,0,0
119237,-166.666666666667,4,2,4,30,0,0
119312,-166.666666666667,4,2,4,43,0,0
119536,-166.666666666667,4,2,4,30,0,0
119612,-166.666666666667,4,2,4,43,0,0
120549,-166.666666666667,4,2,4,30,0,0
120661,-166.666666666667,4,2,4,43,0,0
121112,-100,4,2,4,50,0,0
121412,-100,4,2,4,43,0,0
121562,-100,4,2,4,50,0,0
121862,-100,4,2,4,43,0,0
122012,-100,4,2,4,50,0,0
122312,-166.666666666667,4,2,4,43,0,0
123661,-166.666666666667,4,2,4,5,0,0
123812,-166.666666666667,4,2,4,30,0,0
123962,-166.666666666667,4,2,4,43,0,0
125349,-166.666666666667,4,2,4,30,0,0
125461,-166.666666666667,4,2,4,43,0,0
125761,-166.666666666667,4,2,4,30,0,0
125912,-166.666666666667,4,2,4,43,0,0
126662,-166.666666666667,4,2,4,30,0,0
126961,-166.666666666667,4,2,4,43,0,0
127112,-100,4,2,1,50,0,0
127337,-100,4,2,1,30,0,0
127412,-100,4,2,1,50,0,0
127637,-100,4,2,1,30,0,0
127712,-76.9230769230769,4,2,1,50,0,0
128312,-333.333333333333,4,2,1,50,0,0
137912,-142.857142857143,4,2,1,50,0,0
139411,-142.857142857143,4,2,1,30,0,0
139562,-142.857142857143,4,2,1,50,0,0
141512,-111.111111111111,4,2,1,50,0,0
142712,-100,4,2,1,60,0,0
143912,-76.9230769230769,4,2,1,60,0,0
145112,-100,4,2,1,60,0,0
145412,-100,4,2,1,30,0,0
145562,-100,4,2,1,60,0,0
147362,-83.3333333333333,4,2,1,80,0,1
166712,-125,4,2,1,45,0,0
168662,-125,4,2,1,50,0,0
169112,-71.4285714285714,4,2,1,50,0,0
169562,-71.4285714285714,4,2,1,55,0,0
169861,-71.4285714285714,4,2,1,50,0,0
170012,-71.4285714285714,4,2,1,55,0,0
170311,-71.4285714285714,4,2,1,50,0,0
170462,-71.4285714285714,4,2,1,55,0,0
170761,-71.4285714285714,4,2,1,50,0,0
170912,-71.4285714285714,4,2,1,55,0,0
171212,-71.4285714285714,4,2,1,40,0,0
171512,-166.666666666667,4,2,2,45,0,0
181112,-125,4,2,1,50,0,0
181337,-125,4,2,1,45,0,0
181412,-125,4,2,1,50,0,0
182537,-125,4,2,1,45,0,0
182612,-125,4,2,1,50,0,0
183512,-100,4,2,1,45,0,0
184112,-100,4,2,1,50,0,0
184712,-100,4,2,1,55,0,0
185612,-76.9230769230769,4,2,1,55,0,0
185912,-100,4,2,1,60,0,0
188462,-100,4,2,1,45,0,0
188612,-100,4,2,1,55,0,0
188912,-100,4,2,1,60,0,0
189212,-100,4,2,1,65,0,0
189362,-100,4,2,1,69,0,0
190712,-100,4,2,1,53,0,0
191912,-100,4,2,1,48,0,0
192962,-125,4,2,1,53,0,0
194837,-125,4,2,1,45,0,0
194912,-125,4,2,1,53,0,0
195812,-125,4,2,1,45,0,0
196112,-125,4,2,1,50,0,0
196412,-125,4,2,1,55,0,0
196712,-90.9090909090909,4,2,1,55,0,0
197012,-90.9090909090909,4,2,1,50,0,0
197312,-90.9090909090909,4,2,1,55,0,0
197462,-90.9090909090909,4,2,1,50,0,0
197762,-125,4,2,1,58,0,1
198062,-125,4,2,1,58,0,0
199712,-125,4,2,1,65,0,0
200162,-100,4,2,1,65,0,0
200312,-100,4,2,1,58,0,0
200462,-100,4,2,1,65,0,0
200912,-83.3333333333333,4,2,1,65,0,0
201812,-83.3333333333333,4,2,1,65,0,0
202112,-83.3333333333333,4,2,1,70,0,0
202562,-83.3333333333333,4,2,1,80,0,1
206312,-83.3333333333333,4,2,1,75,0,1
206912,-83.3333333333333,4,2,1,70,0,1
207512,-142.857142857143,4,2,1,50,0,0
209312,-142.857142857143,4,2,1,55,0,0
209912,-100,4,2,1,55,0,0
211112,-83.3333333333333,4,2,1,60,0,0
212312,-90.9090909090909,4,2,1,60,0,0
212912,-90.9090909090909,4,2,1,50,0,0
215012,-90.9090909090909,4,2,1,55,0,0
217337,-90.9090909090909,4,2,1,50,0,0
217412,-90.9090909090909,4,2,1,60,0,0
219512,-90.9090909090909,4,2,1,65,0,0
221912,-83.3333333333333,4,2,1,70,0,1
226712,-83.3333333333333,4,2,1,60,0,1
227312,-83.3333333333333,4,2,1,70,0,1
227461,-83.3333333333333,4,2,1,60,0,1
227912,-83.3333333333333,4,2,1,65,0,1
228812,-71.4285714285714,4,2,1,65,0,0
229112,-83.3333333333333,4,2,1,65,0,0
231212,-71.4285714285714,4,2,1,65,0,0
231436,-71.4285714285714,4,2,1,70,0,0
231512,-83.3333333333333,4,2,1,65,0,0
232711,-83.3333333333333,4,2,1,70,0,0
232862,-83.3333333333333,4,2,1,65,0,0

[Colours]
Combo1 : 221,196,106
Combo2 : 111,140,176
Combo3 : 94,69,165
Combo4 : 247,111,131

[HitObjects]
256,192,1112,5,2,0:0:0:0:
256,192,2312,6,0,B|294:176|294:176|365:189,1,108,6|0,1:2|0:0,0:0:0:0:
415,267,2912,2,0,P|379:273|329:286,1,72,10|0,0:0|0:0,0:0:0:0:
281,355,3362,6,0,P|316:363|351:370,1,72,10|0,0:0|0:0,0:0:0:0:
232,274,3812,1,0,1:0:0:0:
232,274,4112,2,0,P|190:301|134:294,1,108,8|0,0:0|0:0,0:0:0:0:
164,124,4712,6,0,B|188:183|188:183|177:196|171:224,1,108,2|0,1:2|0:0,0:0:0:0:
278,205,5312,2,0,P|315:211|347:198,1,72,10|2,0:0|0:0,0:0:0:0:
334,101,5762,6,0,P|297:95|265:108,1,72,8|2,0:0|0:0,0:0:0:0:
422,141,6212,1,0,1:2:0:0:
422,141,6512,1,8,0:0:0:0:
489,219,6662,2,0,P|483:251|477:299,1,72,0|0,1:0|0:0,0:0:0:0:
370,341,7112,6,0,B|341:336|322:316|322:316|300:334|263:334,1,108,2|0,1:2|0:0,0:0:0:0:
194,253,7712,2,0,P|223:244|269:261,1,72,10|0,0:0|0:0,0:0:0:0:
165,337,8162,6,0,P|131:348|96:339,1,72,10|0,0:0|0:0,0:0:0:0:
5,273,8612,1,2,1:2:0:0:
5,273,8912,2,0,B|47:264|37:267|127:248,1,108,8|0,0:0|0:0,0:0:0:0:
151,142,9512,6,0,B|114:160|114:160|46:141,1,108,2|0,1:2|0:0,0:0:0:0:
108,59,10112,2,0,P|141:49|186:55,1,72,10|2,0:0|0:0,0:0:0:0:
220,135,10562,6,0,P|187:145|142:139,1,72,8|2,0:0|0:0,0:0:0:0:
270,48,11012,1,0,1:2:0:0:
270,48,11312,1,0,0:0:0:0:
317,151,11462,2,0,B|309:192|310:190|301:248,1,90,0|0,0:0|3:0,0:0:0:0:
301,257,11912,6,0,B|336:267|336:267|387:257,1,72,4|0,1:2|0:0,0:0:0:0:
220,191,12212,2,0,P|183:197|148:202,1,72,0|0,1:0|0:0,0:0:0:0:
317,151,12512,2,0,P|354:157|388:162,1,72,0|0,1:0|0:0,0:0:0:0:
274,48,12812,1,0,1:0:0:0:
224,175,12962,1,8,0:0:0:0:
113,94,13112,6,0,P|74:99|30:106,1,72,0|0,1:0|0:0,0:0:0:0:
135,213,13412,1,0,1:0:0:0:
200,91,13562,1,8,0:3:0:0:
200,91,13637,1,8,0:3:0:0:
200,91,13712,1,0,1:0:0:0:
317,151,13862,1,4,0:3:0:0:
269,286,14012,2,0,P|273:315|281:364,1,72,4|0,0:3|1:0,0:0:0:0:
434,306,14312,6,0,B|398:302|398:302|363:314,1,72,4|0,1:2|0:0,0:0:0:0:
322,167,14612,2,0,P|361:173|408:180,1,72,0|0,1:0|0:0,0:0:0:0:
281,74,14912,1,0,1:0:0:0:
230,216,15062,1,12,0:0:0:0:
142,92,15212,2,0,P|103:98|56:105,1,72,0|0,1:0|0:0,0:0:0:0:
221,19,15512,5,0,1:0:0:0:
147,206,15662,1,8,0:0:0:0:
82,14,15812,1,8,0:0:0:0:
225,134,15962,1,0,1:0:0:0:
38,211,16112,5,8,0:0:0:0:
25,241,16187,1,8,0:3:0:0:
24,273,16262,1,4,0:3:0:0:
33,304,16337,1,0,1:0:0:0:
53,329,16412,2,0,B|88:324|117:314|117:314|151:333|151:333|170:325|222:315,1,161.999995056153,12|0,0:0|0:0,0:0:0:0:
294,299,16712,6,0,B|299:264|299:264|295:256|295:256|300:216,1,80.9999975280763,12|0,0:0|1:0,0:0:0:0:
317,58,17012,1,0,1:0:0:0:
426,208,17162,1,12,0:0:0:0:
271,135,17312,1,0,1:0:0:0:
430,101,17462,1,0,1:0:0:0:
300,220,17612,2,0,P|254:225|211:202,1,80.9999975280763,12|0,0:0|1:0,0:0:0:0:
37,152,17912,6,0,B|74:145|74:145|81:146|81:146|120:139,1,80.9999975280763,12|0,0:0|1:0,0:0:0:0:
239,32,18212,1,0,1:0:0:0:
46,62,18362,1,12,0:0:0:0:
219,130,18512,1,0,1:0:0:0:
133,4,18662,1,0,1:0:0:0:
37,152,18812,1,8,0:0:0:0:
42,188,18887,1,8,0:3:0:0:
47,224,18962,1,4,0:3:0:0:
52,260,19037,1,0,1:0:0:0:
57,296,19112,6,0,B|97:307|97:307|144:292,1,80.9999975280763,12|0,0:0|0:0,0:0:0:0:
317,222,19412,2,0,B|277:232|277:232|230:217,1,80.9999975280763,0|0,1:0|0:0,0:0:0:0:
429,115,19712,5,8,0:0:0:0:
345,333,19862,1,8,0:0:0:0:
274,72,20012,1,8,0:0:0:0:
470,257,20162,1,8,0:0:0:0:
470,257,21212,6,0,P|416:225|323:282,1,175.499991966248,12|0,0:3|0:0,0:0:0:0:
276,362,21512,6,0,B|235:352|235:352|232:348|232:348|185:336,1,90,6|0,1:2|0:0,0:0:0:0:
33,214,21812,2,0,P|77:203|127:191,1,90,10|0,0:0|0:0,0:0:0:0:
268,155,22112,1,2,1:2:0:0:
135,78,22262,1,2,0:0:0:0:
123,284,22412,2,0,P|79:294|35:305,1,90,8|2,0:0|0:0,0:0:0:0:
266,181,22712,6,0,P|309:191|353:202,1,90,2|2,1:2|0:0,0:0:0:0:
487,56,23012,1,8,0:0:0:0:
319,88,23162,1,2,0:0:0:0:
463,180,23312,2,0,P|474:230|462:274,1,90,0|0,1:0|0:0,0:0:0:0:
302,379,23612,1,10,0:0:0:0:
353,202,23762,1,2,0:0:0:0:
202,283,23912,6,0,P|157:275|101:264,1,90,0|0,1:0|0:0,0:0:0:0:
6,89,24212,2,0,P|50:80|94:72,1,90,10|0,0:0|0:0,0:0:0:0:
289,141,24512,1,2,1:2:0:0:
111,172,24662,1,2,0:0:0:0:
257,26,24812,2,0,P|306:22|349:38,1,90,8|2,0:0|0:0,0:0:0:0:
428,224,25112,5,2,1:2:0:0:
222,196,25262,1,2,0:0:0:0:
408,105,25412,1,8,0:0:0:0:
325,294,25562,5,2,0:0:0:0:
214,108,25712,1,0,1:0:0:0:
416,206,25862,1,2,0:0:0:0:
210,298,26012,5,8,0:0:0:0:
170,290,26087,1,8,0:0:0:0:
130,283,26162,1,8,0:0:0:0:
90,276,26237,1,8,0:0:0:0:
50,269,26312,6,0,B|35:225|35:225|56:176,1,90,6|0,1:2|0:0,0:0:0:0:
198,19,26612,2,0,P|208:74|217:125,1,90,10|0,0:0|0:0,0:0:0:0:
316,244,26912,1,2,1:2:0:0:
317,64,27062,1,2,0:0:0:0:
138,187,27212,2,0,P|89:196|35:175,1,90,8|2,0:0|0:0,0:0:0:0:
111,20,27512,6,0,P|154:9|197:18,1,90,2|2,1:2|0:0,0:0:0:0:
395,109,27812,1,8,0:0:0:0:
252,180,27962,1,2,0:0:0:0:
343,4,28112,2,0,P|387:12|431:21,1,90,0|0,1:0|0:0,0:0:0:0:
506,205,28412,2,0,P|462:213|418:222,1,90,10|2,0:0|0:0,0:0:0:0:
240,260,28712,5,0,1:0:0:0:
441,336,28862,1,8,0:0:0:0:
323,154,29012,1,8,0:0:0:0:
284,365,29162,1,0,1:0:0:0:
124,196,29312,5,8,0:0:0:0:
124,196,29387,1,8,0:3:0:0:
124,196,29462,2,0,L|51:207,1,62.9999980773926,4|4,0:3|0:3,0:0:0:0:
219,68,29612,1,8,0:0:0:0:
219,68,29687,1,8,0:0:0:0:
219,68,29762,2,0,L|292:79,1,62.9999980773926,2|0,1:3|0:0,0:0:0:0:
383,95,29912,5,0,0:0:0:0:
250,265,30062,1,8,0:0:0:0:
114,96,30212,1,8,0:0:0:0:
116,73,30287,1,8,0:3:0:0:
119,51,30362,1,4,3:0:0:0:
122,29,30437,1,4,3:0:0:0:
125,6,30512,5,12,0:0:0:0:
269,113,30662,1,8,0:3:0:0:
102,180,30812,2,0,P|49:172|9:194,1,90,4|0,0:3|1:0,0:0:0:0:
192,316,31112,6,0,B|229:306|264:297|264:297|289:316|330:321,1,125.999996154785,4|0,1:2|0:0,0:0:0:0:
417,304,31562,2,0,P|452:240|367:153,1,188.999994232178,0|2,1:2|0:0,0:0:0:0:
389,155,32312,6,0,P|382:189|375:226,1,62.9999980773926
281,115,32612,2,0,P|287:149|295:186,1,62.9999980773926,0|0,1:0|0:0,0:0:0:0:
197,75,32912,2,0,P|184:142|170:211,1,125.999996154785,0|2,1:0|0:0,0:0:0:0:
172,198,33362,1,2,0:0:0:0:
125,294,33512,6,0,P|66:311|6:274,1,125.999996154785,0|0,1:0|0:0,0:0:0:0:
76,195,33962,2,0,B|191:212|153:208|270:226,1,188.999994232178,0|2,1:0|0:0,0:0:0:0:
262,224,34712,6,0,P|249:249|249:291,1,62.9999980773926
354,184,35012,2,0,P|352:152|339:124,1,62.9999980773926,0|0,1:0|0:0,0:0:0:0:
238,88,35312,2,0,P|180:103|118:60,1,125.999996154785,2|0,1:2|0:0,0:0:0:0:
285,12,35762,1,2,1:2:0:0:
335,108,35912,6,0,B|395:99|383:99|471:87,1,125.999996154785,0|0,1:0|0:0,0:0:0:0:
489,192,36362,1,0,1:0:0:0:
489,192,36512,2,0,P|450:193|421:204,1,62.9999980773926,8|0,0:0|0:0,0:0:0:0:
383,298,36812,2,0,P|413:306|444:306,1,62.9999980773926,10|2,0:0|0:0,0:0:0:0:
329,215,37112,6,0,B|258:205|275:245|194:235,1,125.999996154785,0|0,1:0|0:0,0:0:0:0:
110,189,37562,1,0,1:0:0:0:
186,113,37712,2,0,P|229:118|257:122,1,62.9999980773926,8|0,0:0|0:0,0:0:0:0:
118,31,38012,2,0,P|86:35|55:38,1,62.9999980773926,10|2,0:0|0:0,0:0:0:0:
5,158,38312,5,8,0:3:0:0:
5,158,38387,1,8,0:3:0:0:
5,158,38462,1,4,0:3:0:0:
186,113,38612,1,8,0:0:0:0:
85,270,38762,1,0,1:0:0:0:
266,225,38912,1,8,0:0:0:0:
94,133,39062,1,2,1:3:0:0:
206,311,39212,1,8,0:0:0:0:
317,104,39362,5,4,1:2:0:0:
317,104,40112,1,8,0:0:0:0:
151,142,40262,1,8,0:0:0:0:
131,172,40337,1,8,0:0:0:0:
120,207,40412,1,8,0:0:0:0:
119,244,40487,1,8,0:0:0:0:
129,278,40562,1,8,0:0:0:0:
147,309,40637,1,8,0:0:0:0:
174,334,40712,6,0,B|211:325|211:325|216:326|216:326|257:316,1,80.9999975280763,4|0,1:2|1:0,0:0:0:0:
407,227,41012,2,0,P|350:216|321:210,1,80.9999975280763,10|2,0:0|0:0,0:0:0:0:
503,177,41312,1,0,1:0:0:0:
427,320,41462,1,2,1:2:0:0:
361,128,41612,2,0,P|306:125|271:142,1,80.9999975280763,10|0,0:0|0:0,0:0:0:0:
136,204,41912,5,2,1:2:0:0:
190,51,42062,2,0,P|239:41|274:35,1,80.9999975280763,2|8,1:2|0:0,0:0:0:0:
221,215,42362,1,2,1:2:0:0:
104,127,42512,2,0,P|53:129|19:144,1,80.9999975280763,2|2,0:0|1:2,0:0:0:0:
138,288,42812,1,8,0:0:0:0:
190,130,42962,1,2,0:0:0:0:
314,279,43112,6,0,B|305:312|305:312|309:326|309:326|301:363,1,80.9999975280763,4|0,1:2|1:0,0:0:0:0:
470,258,43412,2,0,P|462:211|452:158,1,80.9999975280763,10|2,0:0|0:0,0:0:0:0:
372,37,43712,1,2,1:2:0:0:
338,195,43862,1,2,1:2:0:0:
474,68,44012,1,8,0:0:0:0:
291,102,44162,1,2,0:0:0:0:
455,178,44312,6,0,P|451:218|446:260,1,80.9999975280763,2|0,1:2|1:0,0:0:0:0:
288,373,44612,1,10,0:0:0:0:
316,193,44762,1,2,1:2:0:0:
155,306,44912,5,8,0:0:0:0:
155,306,44987,1,8,0:0:0:0:
155,306,45062,2,0,L|88:293,1,58.4999973220826,8|4,0:3|0:3,0:0:0:0:
31,202,45212,1,8,0:0:0:0:
15,170,45287,1,8,0:0:0:0:
13,133,45362,1,8,0:0:0:0:
24,99,45437,1,8,0:0:0:0:
46,71,45512,6,0,P|102:82|131:87,1,67.5,2|0,0:0|0:0,0:0:0:0:
145,94,45812,6,0,B|137:132|123:151|123:151|141:169|150:207,1,116.999994644165,12|0,0:0|0:0,0:0:0:0:
296,339,46112,1,2,1:2:0:0:
248,142,46262,1,2,1:2:0:0:
155,340,46412,2,0,P|108:348|68:331,1,80.9999975280763,8|0,0:0|0:0,0:0:0:0:
290,239,46712,6,0,P|353:246|387:250,1,80.9999975280763,2|2,1:2|1:2,0:0:0:0:
499,137,47012,1,10,0:0:0:0:
353,86,47162,2,0,P|333:127|345:179,1,80.9999975280763,2|0,1:2|0:0,0:0:0:0:
389,331,47462,1,2,1:2:0:0:
214,293,47612,1,8,0:0:0:0:
178,298,47687,1,8,0:0:0:0:
142,304,47762,1,8,0:0:0:0:
106,310,47837,1,8,0:0:0:0:
70,316,47912,6,0,B|56:278|56:278|70:234,1,80.9999975280763,4|0,1:2|1:0,0:0:0:0:
146,44,48212,1,8,0:0:0:0:
212,200,48362,1,0,1:0:0:0:
43,73,48512,1,8,0:0:0:0:
235,102,48662,1,0,1:0:0:0:
63,203,48812,1,8,0:0:0:0:
68,239,48887,1,8,0:3:0:0:
73,275,48962,1,4,0:3:0:0:
79,311,49037,1,0,1:0:0:0:
84,347,49112,5,8,0:0:0:0:
244,371,49262,2,0,B|290:346|336:349|336:349|363:374|421:371,1,161.999995056153,4|8,1:2|0:3,0:0:0:0:
429,372,49637,1,8,0:3:0:0:
429,372,49712,5,4,1:2:0:0:
346,187,49862,1,8,0:0:0:0:
232,354,50012,1,8,0:0:0:0:
451,269,50162,1,8,0:0:0:0:
227,180,50312,5,4,1:2:0:0:
312,102,50462,2,0,B|387:79|383:131|463:104,1,144,4|0,1:2|1:0,0:0:0:0:
479,93,50837,1,0,1:0:0:0:
479,93,50912,2,0,P|482:47|470:19,1,72,8|2,0:0|0:0,0:0:0:0:
329,4,51212,1,2,1:2:0:0:
380,138,51362,6,0,P|373:190|370:222,1,72,2|0,1:2|0:0,0:0:0:0:
273,280,51662,1,0,1:0:0:0:
273,280,51737,1,0,1:0:0:0:
273,280,51812,2,0,P|269:244|264:208,1,72,0|0,1:0|1:0,0:0:0:0:
130,121,52112,1,8,0:0:0:0:
184,269,52262,1,0,1:0:0:0:
251,125,52412,1,8,1:2:0:0:
101,211,52562,1,8,1:2:0:0:
273,280,52712,5,2,1:2:0:0:
182,362,52862,2,0,P|133:351|32:342,1,144,2|0,1:2|1:0,0:0:0:0:
25,368,53237,1,0,1:0:0:0:
25,368,53312,1,8,0:0:0:0:
125,245,53462,2,0,P|118:210|117:166,1,72,2|0,1:2|0:0,0:0:0:0:
281,186,53762,6,0,P|241:198|193:204,1,72,2|0,1:2|0:0,0:0:0:0:
346,103,54062,1,0,1:0:0:0:
346,103,54137,1,0,1:0:0:0:
346,103,54212,2,0,P|381:109|415:119,1,72,0|0,1:0|1:0,0:0:0:0:
489,267,54512,1,8,0:0:0:0:
346,259,54662,1,0,1:0:0:0:
346,259,54737,1,0,0:0:0:0:
346,259,54812,2,0,P|311:265|281:270,1,58.4999973220826,8|8,0:0|0:0,0:0:0:0:
223,176,54962,2,0,P|258:182|288:187,1,58.4999973220826,0|0,1:0|1:0,0:0:0:0:
234,73,55112,5,14,0:2:0:0:
177,262,55262,1,2,1:2:0:0:
107,115,55412,1,2,1:2:0:0:
332,115,55562,5,14,0:2:0:0:
121,193,55712,1,2,1:2:0:0:
288,268,55862,1,2,1:2:0:0:
312,26,56012,5,14,0:2:0:0:
419,244,56162,1,2,1:2:0:0:
223,176,56312,1,2,1:2:0:0:
446,80,56462,5,14,0:2:0:0:
288,268,56612,1,2,1:2:0:0:
508,215,56762,1,2,1:2:0:0:
255,96,56912,5,8,0:0:0:0:
214,102,56987,1,8,0:0:0:0:
174,108,57062,1,8,0:3:0:0:
134,114,57137,1,0,0:3:0:0:
94,121,57212,2,0,L|21:106,1,62.9999980773926,4|4,0:3|0:3,0:0:0:0:
102,249,57362,2,0,L|163:236,1,62.9999980773926,0|0,1:0|1:0,0:0:0:0:
257,221,57512,6,0,P|281:260|366:255,1,125.999996154785,2|0,0:0|0:0,0:0:0:0:
394,175,57962,2,0,P|370:136|285:141,1,125.999996154785,2|0,0:0|0:0,0:0:0:0:
447,253,58412,1,2,0:0:0:0:
397,27,58562,1,4,1:2:0:0:
397,27,59762,6,0,B|330:8|276:55|276:55|243:19|191:17,1,215.999993408203,4|0,1:0|0:0,0:0:0:0:
78,195,60212,2,0,P|128:216|194:202,1,107.999996704102,10|0,0:0|0:0,0:0:0:0:
359,139,60512,1,2,1:2:0:0:
142,106,60662,1,2,1:2:0:0:
296,257,60812,1,8,0:0:0:0:
461,117,60962,6,0,B|468:66|466:78|476:1,1,107.999996704102,2|0,1:2|0:0,0:0:0:0:
257,150,61262,1,0,1:0:0:0:
408,272,61412,2,0,P|473:280|516:261,1,107.999996704102,10|0,0:0|0:0,0:0:0:0:
363,120,61712,1,2,1:2:0:0:
336,334,61862,1,2,1:2:0:0:
483,134,62012,1,8,0:0:0:0:
248,173,62162,6,0,B|179:154|121:138|121:138|70:164|84:206,1,215.999993408203,6|0,1:2|1:2,0:0:0:0:
195,19,62612,2,0,P|141:28|75:39,1,107.999996704102,10|0,0:0|0:0,0:0:0:0:
247,197,62912,1,2,1:2:0:0:
305,0,63062,1,2,1:2:0:0:
138,143,63212,1,8,0:0:0:0:
381,125,63362,1,2,1:2:0:0:
381,125,63437,1,0,1:2:0:0:
381,125,63512,5,12,0:0:0:0:
240,288,63662,1,0,1:0:0:0:
200,42,63812,1,8,0:0:0:0:
381,226,63962,1,0,1:0:0:0:
381,226,64037,1,0,1:0:0:0:
381,226,64112,2,0,L|372:292,1,53.9999983520508,8|8,0:0|0:0,0:0:0:0:
284,368,64262,1,8,0:3:0:0:
258,376,64337,1,8,0:3:0:0:
231,377,64412,1,4,0:3:0:0:
205,371,64487,1,4,0:3:0:0:
182,357,64562,6,0,B|125:362|42:382|42:382|92:320,1,215.999993408203,4|0,1:1|1:0,0:0:0:0:
155,248,64937,1,0,1:0:0:0:
155,248,65012,2,0,B|149:203|149:203|142:189|142:189|135:130,1,107.999996704102,12|0,0:0|0:0,0:0:0:0:
250,288,65312,1,2,1:2:0:0:
52,233,65462,1,0,1:2:0:0:
244,134,65612,2,0,P|298:144|354:124,1,107.999996704102,10|2,0:0|0:0,0:0:0:0:
171,33,65912,5,6,1:2:0:0:
155,248,66062,1,0,1:0:0:0:
291,42,66212,2,0,P|343:25|397:38,1,107.999996704102,10|0,0:0|1:0,0:0:0:0:
507,232,66512,1,14,0:0:0:0:
296,144,66662,1,0,1:0:0:0:
510,70,66812,1,8,0:0:0:0:
410,320,66962,6,0,B|363:319|329:305|329:305|282:338|282:338|251:326|189:321,1,215.999993408203,6|0,1:2|1:0,0:0:0:0:
60,109,67412,1,8,0:0:0:0:
280,168,67562,1,0,1:0:0:0:
28,231,67712,1,8,0:0:0:0:
158,32,67862,1,0,1:0:0:0:
207,302,68012,1,8,0:0:0:0:
352,64,68162,1,0,1:0:0:0:
352,64,68237,1,0,1:0:0:0:
352,64,68312,6,0,L|410:72,1,53.9999983520508,12|0,0:0|0:0,0:0:0:0:
483,190,68462,1,8,0:0:0:0:
492,232,68537,1,8,0:0:0:0:
485,274,68612,1,8,0:0:0:0:
464,312,68687,1,8,0:0:0:0:
432,340,68762,1,8,0:0:0:0:
392,356,68837,1,8,0:0:0:0:
349,356,68912,5,8,0:3:0:0:
344,329,68987,1,8,0:3:0:0:
340,302,69062,1,8,0:3:0:0:
336,275,69137,1,8,0:3:0:0:
332,249,69212,1,4,0:3:0:0:
328,222,69287,1,4,0:3:0:0:
323,195,69362,6,0,B|254:213|200:232|200:232|156:207|152:150,1,215.999993408203,4|0,1:1|1:0,0:0:0:0:
201,72,69737,1,0,1:0:0:0:
201,72,69812,2,0,P|260:63|315:90,1,107.999996704102,14|0,0:0|0:0,0:0:0:0:
422,262,70112,1,2,1:2:0:0:
220,225,70262,1,2,1:2:0:0:
425,129,70412,1,8,0:0:0:0:
322,331,70562,6,0,P|263:340|208:313,1,107.999996704102,2|0,1:2|0:0,0:0:0:0:
73,176,70862,1,0,1:0:0:0:
313,174,71012,2,0,P|372:162|421:153,1,107.999996704102,10|0,0:0|0:0,0:0:0:0:
224,56,71312,1,2,1:2:0:0:
274,253,71462,1,2,1:2:0:0:
368,58,71612,1,8,0:0:0:0:
168,140,71762,6,0,B|24:107|24:107|57:179,1,215.999993408203,6|0,1:2|1:0,0:0:0:0:
276,276,72212,2,0,B|319:266|308:269|388:253,1,107.999996704102,10|0,0:0|0:0,0:0:0:0:
250,54,72512,1,2,1:2:0:0:
170,255,72662,1,0,1:0:0:0:
387,159,72812,2,0,B|430:168|419:166|499:182,1,107.999996704102,10|2,0:0|0:0,0:0:0:0:
357,351,73112,5,0,1:0:0:0:
267,142,73262,1,0,1:0:0:0:
170,382,73412,1,8,0:0:0:0:
400,258,73562,1,8,0:3:0:0:
400,258,73637,1,8,0:3:0:0:
400,258,73712,1,8,0:0:0:0:
174,235,73862,1,0,1:0:0:0:
369,81,74012,1,8,0:0:0:0:
261,304,74162,6,0,B|219:314|193:316|193:316|164:333|143:357|143:357|105:337|41:321,1,215.999993408203,4|0,1:2|1:0,0:0:0:0:
15,72,74612,1,8,0:0:0:0:
242,140,74762,1,0,1:0:0:0:
0,244,74912,5,10,0:0:0:0:
150,60,75062,1,0,1:0:0:0:
258,283,75212,1,8,0:0:0:0:
71,153,75362,1,0,1:0:0:0:
71,153,75437,1,0,1:0:0:0:
71,153,75512,5,10,0:0:0:0:
323,93,75662,1,0,1:0:0:0:
132,268,75812,1,8,0:0:0:0:
209,4,75962,1,0,1:0:0:0:
327,282,76112,5,10,0:0:0:0:
420,22,76262,1,0,1:0:0:0:
420,22,76337,1,0,1:0:0:0:
420,22,76412,1,8,0:0:0:0:
178,165,76562,6,0,B|103:148|52:136|52:136|4:162|20:218,1,215.999993408203,6|8,1:2|0:3,0:0:0:0:
63,305,76937,1,8,0:3:0:0:
63,305,77012,2,0,L|124:292,3,53.9999983520508,8|8|0|0,0:3|0:3|1:0|1:0,0:0:0:0:
219,286,77312,5,4,0:3:0:0:
250,291,77387,1,4,0:3:0:0:
282,296,77462,1,4,0:3:0:0:
314,302,77537,1,4,0:3:0:0:
346,307,77612,1,0,1:0:0:0:
378,313,77687,1,8,0:3:0:0:
410,318,77762,1,4,0:3:0:0:
442,324,77837,1,0,1:0:0:0:
474,329,77912,5,8,0:0:0:0:
502,290,77987,1,8,0:0:0:0:
512,243,78062,1,8,0:0:0:0:
502,195,78137,1,8,0:0:0:0:
474,156,78212,2,0,P|410:176|368:163,1,107.999996704102,4|0,1:2|0:0,0:0:0:0:
115,23,78512,5,8,1:2:0:0:
216,296,78662,1,8,1:2:0:0:
290,6,78812,1,8,1:2:0:0:
36,207,78962,1,8,1:2:0:0:
256,192,79112,12,0,80162,0:0:0:0:
256,192,80312,6,0,B|249:231|249:231|252:242|252:242|245:286,1,90,4|0,1:0|0:0,0:0:0:0:
413,175,80612,2,0,P|406:130|399:80,1,90,10|0,0:0|0:0,0:0:0:0:
256,28,80912,1,2,1:2:0:0:
280,179,81062,1,2,0:0:0:0:
117,101,81212,2,0,P|57:101|18:119,1,90,8|2,0:0|0:0,0:0:0:0:
29,291,81512,6,0,P|71:304|116:301,1,90,2|2,1:2|0:0,0:0:0:0:
288,200,81812,1,8,0:0:0:0:
135,193,81962,1,2,0:0:0:0:
236,307,82112,2,0,P|281:300|333:293,1,90,0|0,1:0|0:0,0:0:0:0:
502,262,82412,1,10,0:0:0:0:
397,373,82562,1,2,0:0:0:0:
346,200,82712,6,0,P|303:186|234:193,1,90,0|2,1:2|0:0,0:0:0:0:
85,134,83012,2,0,P|129:134|172:120,1,90,10|0,0:0|0:0,0:0:0:0:
309,50,83312,1,2,1:2:0:0:
157,27,83462,1,2,0:0:0:0:
259,187,83612,2,0,P|249:244|244:278,1,90,8|2,0:0|0:0,0:0:0:0:
417,375,83912,5,2,1:2:0:0:
361,203,84062,1,2,0:0:0:0:
268,377,84212,1,8,0:0:0:0:
169,205,84362,5,2,0:0:0:0:
335,293,84512,1,0,1:2:0:0:
158,359,84662,1,0,0:0:0:0:
275,188,84812,5,8,0:0:0:0:
270,147,84887,1,8,0:0:0:0:
265,107,84962,1,8,0:0:0:0:
260,67,85037,1,8,0:0:0:0:
255,27,85112,6,0,B|214:41|214:41|169:28,1,90,4|0,1:2|0:0,0:0:0:0:
72,180,85412,2,0,P|115:169|160:161,1,90,10|0,0:0|0:0,0:0:0:0:
334,257,85712,1,2,1:2:0:0:
181,266,85862,1,2,0:0:0:0:
276,114,86012,2,0,P|267:70|254:22,1,90,8|2,0:0|0:0,0:0:0:0:
450,118,86312,6,0,P|438:161|429:205,1,90,2|2,1:2|0:0,0:0:0:0:
320,372,86612,1,8,0:0:0:0:
258,202,86762,1,2,0:0:0:0:
402,309,86912,2,0,P|444:317|496:308,1,90,0|0,1:0|0:0,0:0:0:0:
345,162,87212,1,10,0:0:0:0:
260,300,87362,1,2,0:0:0:0:
197,102,87512,5,0,1:0:0:0:
197,102,87587,1,0,1:0:0:0:
197,102,87662,1,8,0:0:0:0:
344,246,87812,1,8,0:0:0:0:
154,236,87962,1,8,0:3:0:0:
154,236,88037,1,8,0:3:0:0:
154,236,88112,6,0,L|91:249,3,45,4|0|8|8,0:3|0:0|0:3|0:3,0:0:0:0:
33,205,88412,1,8,0:3:0:0:
23,184,88487,1,8,0:3:0:0:
19,162,88562,1,4,0:3:0:0:
22,140,88637,1,4,0:3:0:0:
31,119,88712,6,0,B|62:126|62:126|95:118,1,62.9999980773926,8|8,0:0|0:3,0:0:0:0:
208,85,88862,1,4,0:3:0:0:
229,98,88937,1,4,0:3:0:0:
254,103,89012,1,4,0:3:0:0:
279,101,89087,1,0,1:0:0:0:
302,91,89162,6,0,P|296:126|293:157,1,62.9999980773926,8|8,0:0|0:3,0:0:0:0:
424,214,89312,2,0,P|420:182|415:151,1,62.9999980773926,8|8,0:0|0:3,0:0:0:0:
330,237,89462,2,0,P|324:268|321:299,1,62.9999980773926,8|4,0:3|0:3,0:0:0:0:
199,345,89612,5,8,0:0:0:0:
158,362,89687,1,8,0:0:0:0:
114,363,89762,1,8,0:0:0:0:
74,347,89837,1,8,0:0:0:0:
42,318,89912,6,0,B|54:218|47:262|72:66,1,251.999992309571,4|0,1:0|0:0,0:0:0:0:
151,6,90662,2,0,P|185:64|157:117,1,125.999996154785,0|0,1:2|0:0,0:0:0:0:
147,212,91112,6,0,B|285:179|251:294|397:253,1,251.999992309571,0|0,1:0|0:0,0:0:0:0:
415,159,91862,2,0,P|368:125|287:153,1,125.999996154785,0|0,1:2|0:0,0:0:0:0:
256,224,92312,6,0,B|312:144|241:60|241:60|173:107,1,251.999992309571,0|0,1:0|0:0,0:0:0:0:
96,156,93062,2,0,B|110:226|107:212|121:288,1,125.999996154785,0|0,1:0|0:0,0:0:0:0:
197,343,93512,6,0,B|265:289|345:320|345:320|376:365|425:367,1,251.999992309571,2|2,1:2|0:0,0:0:0:0:
431,266,94262,2,0,B|424:206|427:229|416:138,1,125.999996154785,0|0,1:0|0:0,0:0:0:0:
328,90,94712,6,0,B|263:77|269:121|203:105,2,125.999996154785,0|10|0,1:0|0:0|0:0,0:0:0:0:
328,191,95462,2,0,P|282:218|212:184,1,125.999996154785,2|2,1:2|0:0,0:0:0:0:
125,151,95912,6,0,P|76:158|52:162,1,62.9999980773926,0|0,1:2|0:0,0:0:0:0:
13,248,96212,2,0,B|78:235|72:279|138:263,1,125.999996154785,8|0,0:0|0:0,0:0:0:0:
222,314,96662,1,0,1:0:0:0:
309,264,96812,2,0,P|313:232|318:201,1,62.9999980773926,10|0,0:0|0:0,0:0:0:0:
259,120,97112,6,0,P|219:137|139:96,2,125.999996154785,2|8|2,1:2|0:0|0:0,0:0:0:0:
323,41,97862,1,0,1:0:0:0:
409,92,98012,2,0,P|414:128|417:157,1,62.9999980773926,10|0,0:0|0:0,0:0:0:0:
489,224,98312,6,0,L|483:266,3,31.4999990386963,0|0|0|0,3:0|3:0|3:0|3:0,0:0:0:0:
463,273,98612,2,0,L|469:315,3,31.4999990386963,0|0|0|0,3:0|3:0|3:0|3:0,0:0:0:0:
450,326,98912,6,0,P|432:332|416:331,1,31.4999990386963,2|0,3:2|3:0,0:0:0:0:
397,341,99062,6,0,P|379:320|373:295,1,40.4999987640381,2|0,3:2|3:0,0:0:0:0:
286,297,99212,6,0,P|295:270|316:251,1,49.5000015106202,2|2,3:2|3:2,0:0:0:0:
275,179,99362,6,0,P|302:173|339:179,1,58.4999973220826,2|2,3:2|3:2,0:0:0:0:
428,186,99512,6,0,B|475:150|475:150|432:39,1,161.999995056153,4|0,1:2|0:0,0:0:0:0:
362,36,99812,2,0,P|325:51|282:49,1,80.9999975280763,10|2,0:0|0:0,0:0:0:0:
134,28,100112,1,0,1:0:0:0:
198,148,100262,1,2,1:2:0:0:
43,124,100412,2,0,P|37:163|33:212,1,80.9999975280763,10|0,0:0|0:0,0:0:0:0:
115,356,100712,5,2,1:2:0:0:
236,258,100862,2,0,P|280:254|330:275,1,80.9999975280763,2|8,1:2|0:0,0:0:0:0:
426,346,101162,1,2,0:0:0:0:
372,201,101312,1,2,1:2:0:0:
334,366,101462,1,2,1:2:0:0:
484,270,101612,2,0,P|484:228|460:181,1,80.9999975280763,10|2,0:0|0:0,0:0:0:0:
295,120,101912,5,4,1:2:0:0:
314,265,102062,1,0,1:0:0:0:
418,110,102212,2,0,P|459:104|511:98,1,80.9999975280763,10|2,0:0|0:0,0:0:0:0:
334,10,102512,1,2,1:2:0:0:
285,139,102662,2,0,P|243:133|192:127,1,80.9999975280763,2|8,1:2|0:0,0:0:0:0:
67,113,102962,1,2,0:0:0:0:
220,38,103112,5,2,1:2:0:0:
50,22,103262,1,2,1:2:0:0:
128,191,103412,1,8,0:0:0:0:
123,227,103487,1,8,0:3:0:0:
118,263,103562,1,4,0:3:0:0:
113,299,103637,1,0,1:0:0:0:
109,335,103712,5,8,0:0:0:0:
226,244,103862,1,8,0:0:0:0:
19,286,104012,1,8,0:0:0:0:
213,367,104162,1,8,0:0:0:0:
290,155,104312,5,4,1:2:0:0:
290,155,104412,2,0,P|327:159|367:184,1,66.0000020141602,0|0,1:0|1:0,0:0:0:0:
415,57,104612,1,0,1:0:0:0:
415,57,104712,2,0,P|430:91|428:138,1,66.0000020141602,0|0,1:0|1:0,0:0:0:0:
368,270,104912,5,12,0:0:0:0:
242,235,105062,2,0,B|153:253|178:248|75:268,1,161.999995056153,0|0,1:0|0:0,0:0:0:0:
22,98,105512,6,0,B|70:109|70:109|120:91,1,99.0000030212403,4|0,1:2|0:0,0:0:0:0:
163,16,105737,2,0,B|211:5|211:5|261:23,1,99.0000030212403,0|0,1:0|0:0,0:0:0:0:
345,68,105962,1,0,1:0:0:0:
345,68,106037,1,0,0:0:0:0:
345,68,106112,5,8,0:0:0:0:
213,147,106262,1,0,1:0:0:0:
359,233,106412,1,8,0:0:0:0:
395,228,106487,1,8,0:0:0:0:
431,222,106562,1,8,0:0:0:0:
467,217,106637,1,8,0:0:0:0:
503,211,106712,6,0,B|482:293|482:293|510:325|509:367,1,161.999995056153,4|0,1:2|0:0,0:0:0:0:
388,376,107162,1,0,1:0:0:0:
388,376,107237,1,0,1:0:0:0:
388,376,107312,2,0,P|343:366|296:358,1,80.9999975280763,12|0,0:0|0:0,0:0:0:0:
175,266,107612,1,8,0:0:0:0:
156,235,107687,1,8,0:0:0:0:
149,200,107762,1,8,0:3:0:0:
157,164,107837,1,4,0:3:0:0:
177,134,107912,6,0,B|215:142|215:142|226:151|226:151|281:162,1,83.9999974365235,4|0,1:2|0:0,0:0:0:0:
354,217,108112,2,0,B|316:225|316:225|305:233|305:233|254:243,1,83.9999974365235,4|0,1:2|0:0,0:0:0:0:
179,294,108312,2,0,P|192:337|185:378,1,83.9999974365235,4|0,1:2|0:0,0:0:0:0:
81,340,108512,6,0,B|41:354|41:354|0:341,1,83.9999974365235,4|0,1:2|0:0,0:0:0:0:
0,256,108712,2,0,B|39:241|39:241|81:254,1,83.9999974365235,4|0,1:2|0:0,0:0:0:0:
180,192,108912,2,0,B|174:153|175:162|164:100,1,83.9999974365235,4|0,1:2|0:0,0:0:0:0:
258,44,109112,6,0,B|298:43|329:30|329:30|372:55|372:55|414:32|414:32|447:44|504:52|504:52|465:60|444:79,1,323.999990112305,4|0,1:0|0:0,0:0:0:0:
448,75,110312,6,0,B|473:127|473:127|455:179|455:179|431:186|431:186|403:258|403:258|433:309|433:309|453:256,1,323.999990112305,0|8,1:0|0:0,0:0:0:0:
322,206,111362,1,0,1:0:0:0:
322,206,111437,1,0,1:0:0:0:
322,206,111512,6,0,L|253:220,1,53.9999983520508,2|0,1:2|0:0,0:0:0:0:
168,237,111812,2,0,P|140:263|29:214,1,161.999995056153,2|8,1:2|0:0,0:0:0:0:
23,127,112412,1,0,1:0:0:0:
104,191,112562,1,8,1:2:0:0:
176,117,112712,6,0,P|209:113|234:109,1,53.9999983520508,8|8,1:2|0:0,0:0:0:0:
294,59,112937,1,0,1:0:0:0:
294,59,113012,2,0,L|318:62,4,13.4999995880127,8|8|8|8|8,0:0|0:0|0:0|0:0|1:2,0:0:0:0:
203,10,113312,2,0,L|179:13,4,13.4999995880127,8|8|8|8|8,0:0|0:0|0:0|0:0|1:2,0:0:0:0:
229,109,113612,5,8,0:0:0:0:
226,130,113687,1,8,0:0:0:0:
224,151,113762,1,8,1:2:0:0:
221,173,113837,1,8,0:0:0:0:
219,194,113912,6,0,P|139:169|62:213,1,161.999995056153,2|0,0:0|0:0,0:0:0:0:
37,297,114512,2,0,P|48:335|51:355,1,53.9999983520508,10|2,0:0|0:0,0:0:0:0:
151,370,114812,2,0,P|156:343|164:317,1,53.9999983520508,0|0,1:2|0:0,0:0:0:0:
259,273,115112,5,2,0:0:0:0:
259,273,115262,1,0,0:0:0:0:
330,346,115412,2,0,P|356:340|382:332,1,53.9999983520508,0|2,1:0|0:0,0:0:0:0:
456,262,115712,2,0,P|440:227|453:180,1,80.9999975280763,8|0,0:0|0:0,0:0:0:0:
457,173,116012,2,0,P|449:131|446:117,1,53.9999983520508,2|0,1:2|0:0,0:0:0:0:
358,66,116312,6,0,L|323:74,3,26.9999991760254,0|0|0|0,3:0|3:0|3:0|3:0,0:0:0:0:
319,82,116612,2,0,P|286:77|256:72,1,53.9999983520508,2|0,0:3|0:0,0:0:0:0:
174,122,116912,1,2,0:0:0:0:
174,122,117062,1,0,0:0:0:0:
225,210,117212,2,0,P|218:252|214:278,1,53.9999983520508,0|0,1:0|0:0,0:0:0:0:
56,252,117512,6,0,P|90:240|131:246,1,71.9999978027344,0|0,1:0|0:0,0:0:0:0:
138,327,117712,2,0,P|104:339|61:336,1,71.9999978027344,0|0,1:0|0:0,0:0:0:0:
35,256,117912,2,0,B|16:171|62:193|37:85,1,143.999995605469
16,5,118262,1,0,1:0:0:0:
124,56,118412,2,0,L|127:75,6,13.4999995880127,8|8|8|8|8|8|8,0:0|0:0|0:0|0:0|0:0|0:0|0:0,0:0:0:0:
130,87,118712,6,0,P|183:62|249:74,1,107.999996704102,0|8,1:0|0:0,0:0:0:0:
319,118,119162,1,10,0:0:0:0:
319,118,119237,1,10,0:0:0:0:
319,118,119312,2,0,P|312:161|305:203,1,80.9999975280763,10|2,0:0|0:0,0:0:0:0:
288,210,119612,2,0,P|293:241|298:273,1,53.9999983520508,0|2,1:0|0:0,0:0:0:0:
316,364,119912,5,2,0:0:0:0:
316,364,120212,2,0,P|342:368|369:372,1,53.9999983520508,0|2,1:0|0:0,0:0:0:0:
432,291,120512,2,0,P|443:289|454:287,4,13.4999995880127,10|0|0|0|0,0:0|0:0|0:0|0:0|0:0,0:0:0:0:
432,291,121112,6,0,B|481:240|435:169|435:169|388:200,1,180,4|2,1:2|0:0,0:0:0:0:
201,242,121562,6,0,B|97:215|97:215|53:231|63:278,1,180,4|2,1:2|0:0,0:0:0:0:
290,356,122012,6,0,B|310:299|310:299|291:245|291:245|313:178,1,180,4|2,1:2|0:0,0:0:0:0:
243,113,122462,5,0,0:0:0:0:
243,113,122612,2,2,P|193:121|186:122,1,53.9999983520508,2|2,1:2|0:0,0:0:0:0:
284,31,122912,2,0,P|310:35|337:39,1,53.9999983520508,8|0,0:0|1:0,0:0:0:0:
426,89,123212,2,0,L|449:85,4,13.4999995880127,10|8|8|8|8,0:0|0:0|0:0|0:0|0:0,0:0:0:0:
379,181,123512,6,0,P|389:213|386:238,1,53.9999983520508,0|0,1:0|0:0,0:0:0:0:
333,322,123812,1,2,0:0:0:0:
333,322,123887,1,2,0:0:0:0:
333,322,123962,1,0,1:0:0:0:
272,238,124112,1,2,0:0:0:0:
272,238,124712,6,0,L|201:250,1,53.9999983520508,0|2,1:0|0:0,0:0:0:0:
116,259,125012,1,0,0:0:0:0:
59,344,125162,1,2,1:2:0:0:
7,255,125312,2,0,L|10:236,4,13.4999995880127,10|0|0|0|0,0:0|0:0|0:0|0:0|0:0,0:0:0:0:
116,259,125612,2,0,P|111:228|107:194,1,53.9999983520508,2|0,1:2|0:0,0:0:0:0:
94,103,125912,5,0,1:2:0:0:
192,133,126062,2,0,P|235:107|295:112,1,107.999996704102,2|0,1:2|1:0,0:0:0:0:
385,152,126512,1,10,0:0:0:0:
310,222,126662,2,0,B|321:287|319:273|332:344,1,107.999996704102,0|10,1:0|0:0,0:0:0:0:
465,224,127112,6,0,B|486:140|486:140|468:128|437:97,1,135,4|0,1:2|0:0,0:0:0:0:
370,74,127412,2,0,B|327:105|271:97|271:97|234:59,1,135,0|0,1:0|0:0,0:0:0:0:
181,30,127712,5,8,0:3:0:0:
181,30,127787,1,8,0:3:0:0:
181,30,127862,2,0,L|108:38,1,58.4999973220826,8|0,0:3|0:0,0:0:0:0:
33,114,128012,1,4,0:3:0:0:
20,145,128087,1,4,0:3:0:0:
18,181,128162,1,4,0:3:0:0:
27,214,128237,1,4,0:3:0:0:
48,242,128312,5,0,1:0:0:0:
158,180,137912,6,0,B|216:170|216:170|231:177|231:177|292:166,1,125.999996154785,4|2,1:2|0:0,0:0:0:0:
373,150,138362,1,2,1:2:0:0:
350,276,138512,1,10,0:0:0:0:
350,276,138662,2,0,B|282:267|301:309|225:297,1,125.999996154785,2|2,1:2|0:0,0:0:0:0:
151,201,139112,6,0,B|155:125|155:160|161:68,1,125.999996154785,2|0,1:2|0:0,0:0:0:0:
236,18,139562,1,0,1:0:0:0:
325,113,139712,1,8,0:0:0:0:
325,113,139862,2,0,P|365:78|443:89,1,125.999996154785,2|0,1:2|0:0,0:0:0:0:
501,210,140312,5,4,1:2:0:0:
501,210,140462,2,0,B|460:203|419:196|419:196|395:204|377:232,1,125.999996154785,2|2,1:2|1:2,0:0:0:0:
325,333,140912,1,12,0:0:0:0:
248,276,141062,2,0,P|204:293|129:260,1,125.999996154785,0|2,1:0|1:2,0:0:0:0:
33,138,141512,5,12,0:0:0:0:
164,177,141662,1,0,1:0:0:0:
3,233,141812,1,8,0:0:0:0:
115,94,141962,1,0,1:0:0:0:
247,257,142112,5,8,0:0:0:0:
307,97,142262,1,0,1:0:0:0:
458,218,142412,1,8,0:0:0:0:
451,254,142487,1,8,0:0:0:0:
444,290,142562,1,8,0:3:0:0:
437,326,142637,1,4,0:3:0:0:
431,362,142712,6,0,B|388:355|388:355|383:346|383:346|339:338,1,90,12|0,0:0|1:0,0:0:0:0:
160,310,143012,1,0,1:0:0:0:
318,207,143162,1,12,0:0:0:0:
251,369,143312,1,0,1:0:0:0:
194,179,143462,1,0,1:0:0:0:
415,253,143612,2,0,B|450:246|450:246|455:237|455:237|498:230,1,90,12|0,0:0|1:0,0:0:0:0:
319,79,143912,5,8,0:0:0:0:
279,72,143987,1,8,0:0:0:0:
239,66,144062,1,8,0:3:0:0:
199,59,144137,1,8,0:3:0:0:
159,53,144212,2,0,P|150:85|150:117,1,58.4999973220826,4|4,0:3|0:3,0:0:0:0:
244,213,144362,2,0,P|253:181|253:149,1,58.4999973220826,0|0,1:0|1:0,0:0:0:0:
408,96,144512,5,8,0:0:0:0:
408,96,144612,2,0,P|443:113|492:110,1,77.9999964294435,8|8,0:0|0:0,0:0:0:0:
504,255,144812,1,8,0:0:0:0:
504,255,144912,2,0,P|465:255|430:272,1,77.9999964294435,8|8,0:0|0:0,0:0:0:0:
216,351,145112,6,0,B|161:339|92:337|92:337|145:302,1,180,4|0,1:2|0:0,0:0:0:0:
294,158,145562,2,0,B|339:204|337:275|337:275|317:291|302:321,1,180,4|0,1:2|1:0,0:0:0:0:
310,342,145937,1,0,1:0:0:0:
310,342,146012,1,12,0:0:0:0:
179,188,146162,1,12,0:0:0:0:
186,195,146462,5,0,1:0:0:0:
186,195,146537,1,0,1:0:0:0:
186,195,146612,2,0,L|122:184,1,45,8|8,0:0|0:3,0:0:0:0:
60,173,146762,1,4,0:3:0:0:
47,154,146837,1,0,1:0:0:0:
39,133,146912,1,8,0:3:0:0:
38,111,146987,1,4,0:3:0:0:
43,89,147062,1,0,1:0:0:0:
54,69,147137,1,0,1:0:0:0:
72,52,147212,2,0,P|97:49|124:47,1,45,8|0,0:0|0:0,0:0:0:0:
248,135,147362,6,0,B|217:205|217:205|246:265|246:265|212:344,1,215.999993408203,4|0,1:0|1:0,0:0:0:0:
418,203,147812,2,0,P|362:189|309:211,1,107.999996704102,10|0,0:0|0:0,0:0:0:0:
494,287,148112,1,2,1:2:0:0:
392,96,148262,1,2,1:2:0:0:
320,311,148412,1,8,0:0:0:0:
143,168,148562,6,0,P|89:175|36:184,1,107.999996704102,2|0,1:2|0:0,0:0:0:0:
236,244,148862,1,0,1:0:0:0:
123,59,149012,2,0,P|59:56|15:79,1,107.999996704102,10|0,0:0|0:0,0:0:0:0:
139,269,149312,1,2,1:2:0:0:
225,87,149462,1,2,1:2:0:0:
37,185,149612,1,8,0:0:0:0:
256,260,149762,6,0,B|382:232|382:232|413:271|464:285,1,215.999993408203,6|0,1:2|1:0,0:0:0:0:
506,72,150212,2,0,P|452:63|388:53,1,107.999996704102,10|0,0:0|0:0,0:0:0:0:
210,100,150512,1,2,1:2:0:0:
376,147,150662,1,2,1:2:0:0:
241,7,150812,2,0,P|165:12|130:39,1,107.999996704102,8|2,0:0|0:0,0:0:0:0:
12,256,151112,5,4,1:2:0:0:
231,197,151262,1,0,1:0:0:0:
7,89,151412,1,8,0:0:0:0:
141,271,151562,1,0,1:0:0:0:
297,106,151712,5,8,0:0:0:0:
336,88,151787,1,8,0:0:0:0:
379,85,151862,1,8,0:0:0:0:
420,98,151937,1,8,0:0:0:0:
454,124,152012,1,8,0:0:0:0:
477,161,152087,1,8,0:0:0:0:
485,203,152162,6,0,B|339:178|339:178|368:198|391:229,1,215.999993408203,4|0,1:2|1:0,0:0:0:0:
253,379,152612,2,0,P|232:325|245:261,1,107.999996704102,8|0,0:0|0:0,0:0:0:0:
295,66,152912,1,2,1:2:0:0:
387,224,153062,1,0,1:2:0:0:
167,166,153212,2,0,P|113:174|60:183,1,107.999996704102,10|0,0:0|0:0,0:0:0:0:
235,4,153512,5,6,1:2:0:0:
296,211,153662,1,0,1:0:0:0:
115,55,153812,1,10,0:0:0:0:
390,97,153962,1,0,1:0:0:0:
390,97,154037,1,0,1:0:0:0:
390,97,154112,5,14,0:0:0:0:
169,186,154262,1,0,1:0:0:0:
433,241,154412,1,12,0:0:0:0:
232,29,154562,6,0,B|181:37|149:51|149:51|111:32|111:32|74:45|14:57,1,215.999993408203,6|0,1:2|1:0,0:0:0:0:
2,270,155012,2,0,P|53:291|114:277,1,107.999996704102,8|0,0:0|0:0,0:0:0:0:
309,140,155312,1,8,0:0:0:0:
105,166,155462,1,0,1:0:0:0:
300,281,155612,1,8,0:0:0:0:
387,53,155762,1,0,1:0:0:0:
387,53,155837,1,0,1:0:0:0:
387,53,155912,6,0,L|375:-8,1,53.9999983520508,8|8,0:0|0:3,0:0:0:0:
500,65,156062,2,0,L|489:117,1,53.9999983520508,0|0,1:0|1:0,0:0:0:0:
411,166,156212,1,4,0:3:0:0:
416,192,156287,1,4,0:3:0:0:
421,218,156362,1,0,1:0:0:0:
426,245,156437,1,0,1:0:0:0:
431,271,156512,5,8,0:0:0:0:
398,299,156587,1,8,0:0:0:0:
358,313,156662,1,8,0:0:0:0:
315,314,156737,1,8,0:0:0:0:
274,300,156812,1,8,0:3:0:0:
240,274,156887,1,8,0:3:0:0:
217,237,156962,6,0,B|150:251|98:273|98:273|47:260|29:192,1,215.999993408203,4|0,1:0|1:0,0:0:0:0:
52,108,157337,1,0,1:0:0:0:
52,108,157412,2,0,P|110:93|165:115,1,107.999996704102,10|0,0:0|0:0,0:0:0:0:
329,234,157712,1,2,1:2:0:0:
137,258,157862,1,2,1:2:0:0:
284,100,158012,1,8,0:0:0:0:
430,258,158162,6,0,P|416:322|405:371,1,107.999996704102,2|0,1:2|0:0,0:0:0:0:
232,233,158462,1,0,1:0:0:0:
403,111,158612,2,0,P|456:110|507:135,1,107.999996704102,10|0,0:0|0:0,0:0:0:0:
329,261,158912,1,2,1:2:0:0:
325,45,159062,1,2,1:2:0:0:
450,246,159212,1,8,0:0:0:0:
212,141,159362,6,0,B|133:154|133:154|92:131|92:131|2:146,1,215.999993408203,6|0,1:2|1:0,0:0:0:0:
142,313,159812,2,0,P|195:321|257:296,1,107.999996704102,10|0,0:0|0:0,0:0:0:0:
412,167,160112,1,2,1:2:0:0:
212,141,160262,1,0,1:2:0:0:
381,275,160412,2,0,P|374:325|364:383,1,107.999996704102,10|2,0:0|0:0,0:0:0:0:
188,232,160712,5,0,1:0:0:0:
394,166,160862,1,0,1:0:0:0:
257,359,161012,1,8,0:0:0:0:
206,123,161162,1,8,0:3:0:0:
206,123,161237,1,8,0:3:0:0:
206,123,161312,6,0,P|210:93|218:59,1,53.9999983520508,8|0,0:0|0:0,0:0:0:0:
73,154,161462,1,4,0:3:0:0:
73,154,161537,1,4,0:3:0:0:
73,154,161612,2,0,P|78:180|82:207,1,53.9999983520508,8|0,0:0|0:0,0:0:0:0:
248,345,161762,6,0,B|308:305|368:322|368:322|400:358|453:359,1,215.999993408203,6|0,1:2|1:0,0:0:0:0:
466,152,162212,2,0,P|456:205|446:259,1,107.999996704102,8|0,0:0|0:0,0:0:0:0:
291,109,162512,1,2,1:2:0:0:
479,62,162662,1,0,1:2:0:0:
327,216,162812,2,0,P|249:231|211:217,1,107.999996704102,8|0,0:0|0:0,0:0:0:0:
84,58,163112,5,2,1:2:0:0:
298,87,163262,1,0,1:2:0:0:
98,234,163412,1,8,0:0:0:0:
198,34,163562,1,0,1:0:0:0:
198,34,163637,1,0,1:0:0:0:
198,34,163712,5,10,0:0:0:0:
333,242,163862,1,0,1:0:0:0:
399,2,164012,1,8,0:0:0:0:
160,128,164162,6,0,B|11:95|11:95|36:124|46:149,1,215.999993408203,6|0,1:2|1:0,0:0:0:0:
163,330,164612,2,0,P|213:321|275:314,1,107.999996704102,14|0,0:0|0:0,0:0:0:0:
405,144,164912,1,4,1:2:0:0:
221,206,165062,1,0,1:0:0:0:
426,272,165212,2,0,P|411:331|404:381,1,107.999996704102,12|0,0:0|1:2,0:0:0:0:
298,152,165512,5,12,0:0:0:0:
512,215,165662,1,0,1:2:0:0:
276,293,165812,1,12,0:0:0:0:
381,60,165962,1,0,1:0:0:0:
381,60,166037,1,0,1:0:0:0:
381,60,166112,5,8,0:0:0:0:
109,130,166262,1,8,0:0:0:0:
416,187,166412,1,8,0:0:0:0:
144,257,166562,1,8,0:0:0:0:
309,93,166712,6,0,P|368:80|451:117,1,144,4|0,1:2|0:0,0:0:0:0:
502,201,167162,2,0,B|480:293|483:273|469:345,1,144,0|0,1:0|0:0,0:0:0:0:
368,371,167612,1,0,0:0:0:0:
368,371,167762,6,0,P|335:334|243:348,1,144
140,359,168212,2,0,P|94:349|63:344,1,72,2|0,1:2|0:0,0:0:0:0:
17,250,168512,1,2,0:0:0:0:
106,189,168662,2,0,P|139:226|231:212,1,144,2|0,1:2|0:0,0:0:0:0:
406,159,169112,6,0,B|250:130|250:130|305:151|314:200,1,251.999992309571,4|2,1:2|0:0,0:0:0:0:
89,290,169562,6,0,B|58:229|58:229|138:161|226:216,1,251.999992309571,4|2,1:2|0:0,0:0:0:0:
357,350,170012,6,0,B|221:380|221:380|182:372|163:324|190:284,1,251.999992309571,4|2,1:2|0:0,0:0:0:0:
270,47,170462,6,0,B|307:56|327:55|327:55|353:77|353:77|383:45|411:24|411:24|454:33|498:35,1,251.999992309571,4|2,1:2|0:0,0:0:0:0:
512,244,170912,6,0,B|470:251|432:230|432:230|427:218|427:218|369:197|316:223,1,188.999994232178,4|0,1:2|0:0,0:0:0:0:
300,297,171212,2,0,P|307:330|315:375,1,62.9999980773926,2|0,0:0|0:0,0:0:0:0:
186,289,171362,1,2,0:0:0:0:
186,289,171437,1,2,0:0:0:0:
186,289,171512,6,0,B|198:193|192:244|208:124,1,161.999995056153,6|0,1:2|0:0,0:0:0:0:
165,39,172112,2,0,P|122:23|59:40,1,107.999996704102,8|0,0:0|0:0,0:0:0:0:
11,119,172562,6,0,B|21:197|17:163|25:226,1,107.999996704102,8|0,0:0|0:0,0:0:0:0:
95,292,173012,2,0,B|89:331|91:314|87:345,1,53.9999983520508,0|0,1:0|0:0,0:0:0:0:
179,380,173312,2,0,P|225:346|329:363,1,161.999995056153,8|0,0:0|0:0,0:0:0:0:
421,368,173912,6,0,B|443:274|388:306|421:192,1,161.999995056153,0|0,1:0|0:0,0:0:0:0:
473,130,174512,2,0,P|418:110|364:123,1,107.999996704102,10|2,0:0|0:0,0:0:0:0:
308,43,174962,6,0,P|253:63|199:50,1,107.999996704102,8|2,0:0|0:0,0:0:0:0:
128,113,175412,2,0,P|135:149|139:176,1,53.9999983520508,0|2,1:2|0:0,0:0:0:0:
220,216,175712,1,0,0:0:0:0:
141,273,175862,2,0,P|77:264|29:295,1,107.999996704102,0|0,1:0|0:0,0:0:0:0:
100,359,176312,6,0,B|221:345|146:354|269:341,1,161.999995056153,2|2,1:2|0:0,0:0:0:0:
358,330,176912,2,0,P|370:288|341:226,1,107.999996704102,8|2,0:0|0:0,0:0:0:0:
256,191,177362,6,0,B|270:119|269:126|281:64,1,107.999996704102,10|0,0:0|0:0,0:0:0:0:
357,29,177812,2,0,B|360:49|360:45|367:81,1,53.9999983520508,2|0,1:2|0:0,0:0:0:0:
455,122,178112,2,0,P|496:192|458:266,1,161.999995056153,8|0,0:0|0:0,0:0:0:0:
370,284,178712,6,0,B|281:272|299:328|203:315,1,161.999995056153,2|0,1:2|0:0,0:0:0:0:
120,290,179312,2,0,B|110:226|112:233|104:172,1,107.999996704102,10|2,0:0|0:0,0:0:0:0:
18,139,179762,6,0,B|28:75|26:82|34:21,1,107.999996704102,8|2,0:0|0:0,0:0:0:0:
128,15,180212,2,0,P|141:43|146:68,1,53.9999983520508,0|2,1:2|0:0,0:0:0:0:
212,135,180512,1,8,0:0:0:0:
276,62,180662,2,0,P|332:68|388:88,1,107.999996704102,0|0,1:0|0:0,0:0:0:0:
444,197,181112,6,0,B|437:238|437:238|446:260|446:260|438:302,1,108,4|0,1:2|0:0,0:0:0:0:
435,319,181412,2,0,P|394:311|354:319,1,72,0|0,1:0|0:0,0:0:0:0:
342,186,181712,2,0,P|314:217|301:256,1,72,0|0,1:0|0:0,0:0:0:0:
185,192,182012,2,0,P|198:231|225:262,1,72,0|0,1:0|0:0,0:0:0:0:
299,102,182312,6,0,B|265:82|265:82|178:108,1,108,2|0,1:2|0:0,0:0:0:0:
182,108,182612,2,0,P|142:101|110:95,1,72,0|0,1:0|0:0,0:0:0:0:
23,200,182912,2,0,P|63:193|95:187,1,72,0|0,1:0|0:0,0:0:0:0:
191,283,183212,2,0,P|151:276|119:270,1,72,0|0,1:0|0:0,0:0:0:0:
261,154,183512,6,0,B|278:202|278:202|270:230|270:230|289:285,1,135,2|0,1:2|0:0,0:0:0:0:
287,281,183812,1,0,1:0:0:0:
353,162,183962,1,0,1:0:0:0:
185,198,184112,5,0,1:2:0:0:
330,64,184262,1,8,0:0:0:0:
137,109,184412,1,8,1:2:0:0:
357,188,184562,1,8,0:0:0:0:
120,270,184712,5,8,1:2:0:0:
227,42,184862,1,8,0:0:0:0:
309,280,185012,1,8,1:2:0:0:
112,122,185162,1,8,0:0:0:0:
353,51,185312,5,8,0:0:0:0:
393,46,185387,1,8,0:0:0:0:
432,56,185462,1,0,1:0:0:0:
465,80,185537,1,0,1:0:0:0:
487,114,185612,2,0,P|480:146|475:186,1,58.4999973220826,8|8,0:3|0:3,0:0:0:0:
395,273,185762,2,0,P|390:244|384:215,1,58.4999973220826,4|4,0:3|0:3,0:0:0:0:
284,107,185912,5,12,0:0:0:0:
203,297,186062,1,0,1:0:0:0:
128,103,186212,1,0,1:0:0:0:
381,195,186362,5,12,0:0:0:0:
273,17,186512,1,0,1:0:0:0:
227,218,186662,1,0,1:0:0:0:
442,106,186812,1,8,0:0:0:0:
442,106,186887,1,8,0:3:0:0:
442,106,186962,2,0,L|501:116,1,45,4|0,0:3|1:0,0:0:0:0:
379,288,187112,5,8,0:0:0:0:
284,107,187262,1,0,1:0:0:0:
284,107,187337,1,0,1:0:0:0:
284,107,187412,2,0,L|239:114,1,45,0|0,1:0|1:0,0:0:0:0:
42,146,187562,5,12,0:0:0:0:
225,247,187712,1,0,1:0:0:0:
225,247,187787,1,0,1:0:0:0:
225,247,187862,2,0,L|217:291,1,45,0|0,1:0|1:0,0:0:0:0:
134,70,188012,5,12,0:0:0:0:
345,192,188162,1,0,1:0:0:0:
345,192,188237,1,0,1:0:0:0:
345,192,188312,6,0,P|399:202|447:184,1,90,8|0,0:0|0:0,0:0:0:0:
274,17,188612,1,0,1:0:0:0:
225,247,188762,1,8,1:2:0:0:
412,53,188912,5,8,1:2:0:0:
366,319,189062,1,8,1:2:0:0:
152,87,189212,1,8,1:2:0:0:
451,183,189362,1,8,1:2:0:0:
451,183,190712,5,12,0:0:0:0:
230,225,190862,1,12,0:0:0:0:
353,43,191012,1,0,1:0:0:0:
353,43,191087,1,0,1:0:0:0:
353,43,191162,1,8,0:3:0:0:
353,43,191237,1,8,0:3:0:0:
353,43,191312,6,0,L|408:53,3,45,0|0|4|4,1:0|1:0|0:3|0:3,0:0:0:0:
309,123,191612,2,0,L|254:133,3,45,0|0|0|0,1:0|1:0|1:0|1:0,0:0:0:0:
126,152,191912,5,0,1:0:0:0:
126,152,192962,6,0,B|137:229|137:229|87:241|16:210|4:144|31:70|108:29|185:84|185:84|234:57|234:57|276:83|328:82,1,576,4|0,1:2|0:0,0:0:0:0:
462,62,194312,5,4,1:2:0:0:
351,0,194462,1,0,1:0:0:0:
399,135,194612,1,8,0:3:0:0:
396,152,194687,1,8,0:3:0:0:
393,170,194762,1,4,0:3:0:0:
390,188,194837,1,0,0:0:0:0:
387,206,194912,1,10,0:0:0:0:
274,182,195062,2,0,P|229:181|200:192,1,72,2|0,1:2|0:0,0:0:0:0:
63,320,195362,6,0,B|124:310|124:310|138:289|138:289|208:278,1,144,4|0,1:2|0:0,0:0:0:0:
337,260,195812,1,8,1:2:0:0:
366,280,195887,1,8,0:0:0:0:
400,289,195962,1,8,0:0:0:0:
436,284,196037,1,8,0:0:0:0:
467,267,196112,5,8,1:2:0:0:
461,224,196187,1,8,0:0:0:0:
442,185,196262,1,8,0:0:0:0:
414,153,196337,1,8,0:0:0:0:
377,130,196412,1,8,1:2:0:0:
336,119,196487,1,8,0:0:0:0:
293,120,196562,1,8,0:0:0:0:
252,133,196637,1,8,0:0:0:0:
216,157,196712,6,0,P|230:193|234:227,2,66.0000020141602,8|8|8,1:2|0:0|0:0,0:0:0:0:
126,100,197012,1,8,0:3:0:0:
126,100,197112,2,0,P|112:135|108:169,1,66.0000020141602,4|4,0:3|0:3,0:0:0:0:
133,272,197312,5,8,0:0:0:0:
336,119,197462,1,0,1:0:0:0:
336,119,197762,6,0,B|374:129|374:129|405:120,1,72,4|0,1:2|0:0,0:0:0:0:
186,48,198062,2,0,B|93:62|124:57|34:72,1,144,0|0,1:0|1:0,0:0:0:0:
31,98,198437,1,0,1:0:0:0:
31,98,198512,2,0,P|50:139|52:172,1,72,12|0,0:0|0:0,0:0:0:0:
26,285,198812,1,0,1:2:0:0:
134,227,198962,2,0,P|186:234|211:237,1,72,0|0,1:2|0:0,0:0:0:0:
370,132,199262,6,0,P|304:104|229:148,1,144,8|0,0:0|1:0,0:0:0:0:
221,151,199637,1,0,1:0:0:0:
221,151,199712,2,0,P|185:146|149:141,1,72,14|0,0:0|0:0,0:0:0:0:
272,10,200012,1,8,0:0:0:0:
342,217,200162,6,0,B|335:251|335:251|340:273|340:273|330:312,1,90,6|0,1:2|0:0,0:0:0:0:
163,243,200462,1,0,1:0:0:0:
163,243,200537,1,0,1:0:0:0:
163,243,200612,1,8,0:0:0:0:
309,123,200762,1,0,1:0:0:0:
232,347,200912,5,8,0:0:0:0:
176,104,201062,1,8,0:0:0:0:
365,264,201212,1,8,0:0:0:0:
410,41,201362,1,0,1:0:0:0:
410,41,201437,1,0,1:0:0:0:
410,41,201512,5,12,0:0:0:0:
232,182,201662,1,0,1:0:0:0:
485,234,201812,2,0,P|503:286|485:353,1,107.999996704102,8|0,0:0|1:0,0:0:0:0:
247,370,202112,5,8,0:0:0:0:
231,329,202187,1,8,0:0:0:0:
203,297,202262,1,8,0:0:0:0:
166,276,202337,1,8,0:0:0:0:
123,269,202412,1,8,0:0:0:0:
81,278,202487,1,8,0:0:0:0:
44,300,202562,6,0,B|11:153|11:153|34:172|80:188,1,215.999993408203,4|0,1:1|1:0,0:0:0:0:
174,186,202937,1,0,1:0:0:0:
174,186,203012,2,0,P|215:163|281:166,1,107.999996704102,10|0,0:0|0:0,0:0:0:0:
470,255,203312,1,2,1:2:0:0:
301,294,203462,1,2,1:2:0:0:
401,102,203612,1,8,0:0:0:0:
174,186,203762,6,0,P|122:177|57:168,1,107.999996704102,2|0,1:2|0:0,0:0:0:0:
246,66,204062,1,0,1:0:0:0:
156,286,204212,2,0,P|97:292|56:267,1,107.999996704102,10|0,0:0|0:0,0:0:0:0:
155,75,204512,1,2,1:2:0:0:
260,225,204662,1,2,1:2:0:0:
45,166,204812,1,8,0:0:0:0:
288,77,204962,6,0,B|334:84|363:92|363:92|413:66|413:66|454:78|500:83,1,215.999993408203,6|0,1:2|1:0,0:0:0:0:
423,286,205412,2,0,P|365:298|305:278,1,107.999996704102,10|0,0:0|0:0,0:0:0:0:
128,183,205712,1,2,1:2:0:0:
333,175,205862,1,2,1:2:0:0:
143,277,206012,2,0,P|152:330|158:383,1,107.999996704102,8|2,0:0|0:0,0:0:0:0:
27,153,206312,5,0,1:0:0:0:
27,153,206412,2,0,P|25:117|41:77,1,71.9999978027344,8|8,0:0|0:0,0:0:0:0:
156,187,206612,1,8,0:0:0:0:
156,187,206712,2,0,P|186:167|228:161,1,71.9999978027344,0|8,0:3|0:3,0:0:0:0:
371,179,206912,5,8,0:0:0:0:
364,222,207012,1,4,0:3:0:0:
357,264,207112,1,8,0:0:0:0:
349,307,207212,2,0,P|358:346|369:384,2,71.9999978027344,8|4|4,0:3|0:3|0:3,0:0:0:0:
231,174,207512,5,4,1:0:0:0:
231,174,208712,5,2,0:0:0:0:
231,174,209312,2,0,P|159:213|71:144,1,188.999994232178,2|0,0:3|0:0,0:0:0:0:
251,85,209912,6,0,B|296:97|296:97|343:85,1,90,4|0,1:2|0:0,0:0:0:0:
167,11,210212,1,8,0:0:0:0:
231,174,210362,1,8,0:0:0:0:
320,5,210512,5,8,0:0:0:0:
384,168,210662,1,8,0:0:0:0:
157,121,210812,1,8,0:0:0:0:
420,62,210962,1,8,0:0:0:0:
240,278,211112,5,8,0:0:0:0:
300,14,211262,1,0,1:0:0:0:
103,213,211412,2,0,P|49:213|0:192,1,107.999996704102,12|0,0:0|1:0,0:0:0:0:
167,11,211712,1,8,0:0:0:0:
309,214,211862,5,8,0:0:0:0:
346,234,211937,1,8,0:0:0:0:
389,241,212012,1,8,0:0:0:0:
431,232,212087,1,8,0:0:0:0:
468,211,212162,1,8,0:0:0:0:
496,178,212237,1,8,0:0:0:0:
511,137,212312,6,0,B|460:144|460:144|451:140|451:140|403:146,1,99.0000030212403,4|0,1:2|0:0,0:0:0:0:
211,197,212612,2,0,P|281:209|311:214,1,99.0000030212403,8|0,0:0|0:0,0:0:0:0:
135,259,212912,1,2,1:2:0:0:
204,95,213062,1,2,0:0:0:0:
36,154,213212,2,0,P|17:216|30:255,1,99.0000030212403,10|2,0:0|0:0,0:0:0:0:
178,340,213512,6,0,B|288:316|268:381|378:352,1,198.000006042481,2|8,1:2|0:0,0:0:0:0:
413,179,213962,2,0,P|358:174|312:197,1,99.0000030212403,2|0,0:0|1:0,0:0:0:0:
469,287,214262,1,2,0:0:0:0:
496,100,214412,2,0,P|420:41|355:45,1,148.50000453186,10|0,0:0|0:0,0:0:0:0:
319,102,214712,6,0,P|265:94|217:89,1,99.0000030212403,0|0,1:0|0:0,0:0:0:0:
46,59,215012,1,10,0:0:0:0:
170,187,215162,1,2,0:0:0:0:
144,11,215312,1,2,1:2:0:0:
61,167,215462,1,2,0:0:0:0:
220,89,215612,2,0,P|269:95|319:102,1,99.0000030212403,10|2,0:0|0:0,0:0:0:0:
437,234,215912,5,2,1:2:0:0:
265,186,216062,1,0,0:0:0:0:
439,116,216212,1,10,0:0:0:0:
331,258,216362,2,0,P|339:310|349:360,1,99.0000030212403,2|0,0:0|1:0,0:0:0:0:
434,209,216662,1,2,0:0:0:0:
234,318,216812,1,8,0:0:0:0:
190,310,216887,1,8,0:0:0:0:
146,303,216962,1,8,0:0:0:0:
102,295,217037,1,8,0:0:0:0:
58,288,217112,6,0,B|32:241|32:241|72:141,1,148.50000453186,4|0,1:2|0:0,0:0:0:0:
134,111,217412,2,0,P|183:133|234:126,1,99.0000030212403,10|2,0:0|0:0,0:0:0:0:
393,61,217712,1,2,1:2:0:0:
222,9,217862,1,2,0:0:0:0:
333,148,218012,2,0,P|326:201|319:252,1,99.0000030212403,10|2,0:0|0:0,0:0:0:0:
485,372,218312,6,0,B|472:271|476:299|457:169,1,198.000006042481,2|10,1:2|0:0,0:0:0:0:
317,20,218762,2,0,P|268:13|212:27,1,99.0000030212403,2|0,0:0|1:0,0:0:0:0:
47,98,219062,1,2,1:2:0:0:
247,182,219212,1,10,0:0:0:0:
112,12,219362,1,0,1:0:0:0:
112,12,219437,1,0,1:0:0:0:
112,12,219512,5,8,0:0:0:0:
61,203,219662,1,0,1:0:0:0:
262,97,219812,2,0,B|305:105|305:105|319:115|319:115|356:121,1,99.0000030212403,12|0,0:0|1:0,0:0:0:0:
443,138,220037,1,0,1:0:0:0:
443,138,220112,2,0,P|450:168|445:199,1,49.5000015106202,8|0,0:0|1:0,0:0:0:0:
406,263,220262,1,4,0:3:0:0:
406,263,220337,1,4,0:3:0:0:
406,263,220412,1,8,0:0:0:0:
262,97,220562,1,8,0:0:0:0:
199,263,220712,6,0,P|202:290|207:322,1,49.5000015106202,8|8,0:3|0:3,0:0:0:0:
63,189,220862,1,4,0:3:0:0:
63,189,220937,1,4,0:3:0:0:
63,189,221012,2,0,P|66:164|79:85,1,99.0000030212403,8|0,0:0|1:0,0:0:0:0:
338,13,221312,5,8,0:0:0:0:
338,13,221387,1,8,0:0:0:0:
338,13,221462,2,0,P|341:40|346:72,1,49.5000015106202,0|0,1:0|1:0,0:0:0:0:
359,196,221612,1,8,0:0:0:0:
234,98,221762,1,0,1:0:0:0:
443,46,221912,6,0,B|450:90|450:90|443:111|443:111|455:160,1,107.999996704102,14|0,0:0|0:0,0:0:0:0:
190,281,222212,1,10,0:0:0:0:
336,82,222362,1,0,1:2:0:0:
314,372,222512,5,10,0:0:0:0:
170,156,222662,1,0,1:2:0:0:
429,289,222812,1,10,0:0:0:0:
183,372,222962,1,0,1:2:0:0:
238,74,223112,5,10,0:0:0:0:
58,261,223262,1,0,1:2:0:0:
347,174,223412,1,10,0:0:0:0:
94,77,223562,1,0,1:2:0:0:
275,305,223712,5,10,0:0:0:0:
361,60,223862,1,0,1:0:0:0:
502,264,224012,2,0,P|488:330|478:383,1,107.999996704102,10|0,0:0|1:0,0:0:0:0:
165,294,224312,6,0,B|207:285|207:285|232:291|232:291|277:281,1,107.999996704102,14|0,0:0|0:0,0:0:0:0:
389,4,224612,1,10,0:0:0:0:
162,150,224762,1,0,1:0:0:0:
464,161,224912,5,10,0:0:0:0:
235,17,225062,1,0,1:0:0:0:
387,277,225212,1,10,0:0:0:0:
483,24,225362,1,0,1:0:0:0:
181,143,225512,5,14,0:0:0:0:
143,137,225587,1,0,1:0:0:0:
106,132,225662,1,0,1:0:0:0:
68,126,225737,1,0,1:0:0:0:
31,121,225812,2,0,P|22:146|21:184,1,53.9999983520508,14|0,0:0|1:0,0:0:0:0:
165,284,225962,2,0,P|174:259|175:221,1,53.9999983520508,0|0,1:0|1:0,0:0:0:0:
171,32,226112,5,14,0:0:0:0:
182,33,226187,1,0,1:0:0:0:
193,35,226262,1,0,1:0:0:0:
204,36,226337,1,0,1:0:0:0:
214,38,226412,5,10,0:0:0:0:
238,79,226487,1,8,0:0:0:0:
280,104,226562,1,10,0:0:0:0:
328,107,226637,1,8,0:0:0:0:
372,88,226712,5,4,1:2:0:0:
490,242,226862,1,0,1:0:0:0:
300,199,227012,1,10,0:0:0:0:
479,123,227162,1,6,1:2:0:0:
387,318,227312,2,0,P|323:330|274:314,1,107.999996704102,2|0,0:0|1:0,0:0:0:0:
97,208,227612,1,8,0:0:0:0:
103,165,227687,1,8,0:0:0:0:
110,122,227762,1,8,0:0:0:0:
116,80,227837,1,8,0:0:0:0:
123,37,227912,5,4,1:2:0:0:
192,218,228062,1,8,0:0:0:0:
8,154,228212,1,10,0:0:0:0:
217,102,228362,1,0,1:0:0:0:
217,102,228437,1,0,1:0:0:0:
217,102,228512,2,0,L|286:114,1,53.9999983520508,8|8,0:3|0:3,0:0:0:0:
387,35,228662,2,0,L|318:47,1,53.9999983520508,4|4,0:3|0:3,0:0:0:0:
195,199,228812,2,0,B|232:207|267:212|267:212|295:247|295:247|330:249|378:263,1,188.999994232178,12|0,0:0|0:0,0:0:0:0:
455,270,229112,6,0,P|471:330|457:375,1,107.999996704102,4|0,1:2|1:0,0:0:0:0:
229,307,229412,1,10,0:0:0:0:
409,185,229562,1,0,1:0:0:0:
409,185,229637,1,0,1:0:0:0:
409,185,229712,1,10,0:0:0:0:
341,367,229862,1,0,1:0:0:0:
195,199,230012,2,0,P|141:206|82:213,1,107.999996704102,10|4,0:0|0:3,0:0:0:0:
250,29,230312,5,6,1:2:0:0:
324,231,230462,1,8,0:0:0:0:
324,231,230537,1,8,0:0:0:0:
324,231,230612,2,0,L|311:297,1,53.9999983520508,8|8,0:0|0:0,0:0:0:0:
399,97,230762,2,0,L|388:44,1,53.9999983520508,8|8,0:3|0:3,0:0:0:0:
231,10,230912,5,4,0:3:0:0:
207,23,230987,1,4,0:3:0:0:
181,30,231062,1,4,0:3:0:0:
154,30,231137,1,4,0:3:0:0:
128,24,231212,2,0,B|94:65|106:126|106:126|132:155|132:155|116:208,1,188.999994232178,12|0,0:0|0:0,0:0:0:0:
94,277,231512,5,6,1:2:0:0:
279,219,231662,2,0,P|339:251|443:160,1,215.999993408203,6|0,1:2|1:0,0:0:0:0:
442,145,232037,1,0,1:0:0:0:
442,145,232112,1,8,0:0:0:0:
339,334,232262,1,0,1:0:0:0:
292,123,232412,1,14,0:0:0:0:
117,284,232562,6,0,B|63:304|63:304|7:285,1,107.999996704102,6|0,1:2|0:0,0:0:0:0:
201,104,232862,1,0,1:0:0:0:
201,104,232937,1,0,1:0:0:0:
201,104,233012,1,8,0:0:0:0:
251,347,233162,1,0,1:0:0:0:
388,41,233312,5,10,1:2:0:0:
83,181,233462,1,10,1:2:0:0:
427,231,233612,1,10,1:2:0:0:
154,2,233762,1,8,1:2:0:0:
