osu file format v14

[General]
AudioFilename: audio.mp3
AudioLeadIn: 0
PreviewTime: 40373
Countdown: 0
SampleSet: Soft
StackLeniency: 0.3
Mode: 0
LetterboxInBreaks: 0
WidescreenStoryboard: 1

[Editor]
Bookmarks: 13918,26191,28646,41191,42282,42464,42555,42737,42827,48191,54282,58646,63009,67373,76100,85918,103373,112100,127373,134374,147465,151829,160556,169284
DistanceSpacing: 0.9
BeatDivisor: 3
GridSize: 8
TimelineZoom: 3.699998

[Metadata]
Title:TRASH and TRASH!
TitleUnicode:トラッシュ・アンド・トラッシュ!
Artist:WADATAKEAKI (KurageP)
ArtistUnicode:和田たけあき (くらげP)
Creator:StrengeMistake
Version:Refuse
Source:
Tags:くらげP electripper KurageP わたしの未成年観測 鏡音リン Kagamine Rin Vocaloid Japanese Rock Beren
BeatmapID:3107392
BeatmapSetID:1334881

[Difficulty]
HPDrainRate:5
CircleSize:4
OverallDifficulty:8.5
ApproachRate:9.3
SliderMultiplier:1.8
SliderTickRate:1

[Events]
//Background and Video events
0,0,"61209043_p0 (2).png",0,0
//Break Periods
2,103567,111540
//Storyboard Layer 0 (Background)
//Storyboard Layer 1 (Fail)
//Storyboard Layer 2 (Pass)
//Storyboard Layer 3 (Foreground)
//Storyboard Layer 4 (Overlay)
//Storyboard Sound Samples

[TimingPoints]
-269,272.727272727273,4,2,2,50,1,0
1094,-166.666666666667,4,2,2,30,0,0
4094,-83.3333333333333,4,2,2,70,0,0
4912,-166.666666666667,4,2,2,70,0,0
5185,-125,4,2,2,60,0,0
6731,-166.666666666667,4,2,2,60,0,0
7367,-100,4,2,2,60,0,0
8458,-125,4,2,2,60,0,0
11094,-200,4,2,2,60,0,0
11731,-100,4,2,2,60,0,0
12821,-142.857142857143,4,2,2,60,0,0
13912,-200,4,2,2,40,0,0
21276,-200,4,2,2,60,0,0
21549,-111.111111111111,4,2,2,60,0,0
22640,-125,4,2,2,60,0,0
29185,-142.857142857143,4,2,2,60,0,0
31367,-142.857142857143,4,2,2,50,0,0
35731,-142.857142857143,4,2,2,60,0,0
36003,-100,4,2,2,60,0,0
36276,-142.857142857143,4,2,2,60,0,0
36549,-100,4,2,2,60,0,0
36821,-142.857142857143,4,2,2,60,0,0
37094,-100,4,2,2,60,0,0
37367,-142.857142857143,4,2,2,60,0,0
37640,-100,4,2,2,60,0,0
39003,-90.9090909090909,4,2,2,60,0,0
41185,-83.3333333333333,4,2,2,80,0,0
48276,-66.6666666666667,4,2,2,80,0,0
48821,-83.3333333333333,4,2,2,80,0,0
54276,-111.111111111111,4,2,2,40,0,0
56458,-111.111111111111,4,2,2,60,0,0
58640,-125,4,2,2,70,0,0
60185,-200,4,2,2,70,0,0
60821,-100,4,2,2,70,0,0
61912,-125,4,2,2,70,0,0
64549,-200,4,2,2,70,0,0
65185,-100,4,2,2,70,0,0
66276,-142.857142857143,4,2,2,70,0,0
67367,-142.857142857143,4,2,2,60,0,0
76094,-142.857142857143,4,2,2,50,0,0
80458,-142.857142857143,4,2,2,60,0,0
80731,-100,4,2,2,60,0,0
81003,-142.857142857143,4,2,2,60,0,0
81276,-100,4,2,2,60,0,0
81549,-142.857142857143,4,2,2,60,0,0
81821,-100,4,2,2,60,0,0
82094,-142.857142857143,4,2,2,60,0,0
82367,-100,4,2,2,60,0,0
83731,-90.9090909090909,4,2,2,60,0,0
85912,-83.3333333333333,4,2,2,80,0,0
93003,-66.6666666666667,4,2,2,80,0,0
94640,-83.3333333333333,4,2,2,80,0,0
99003,-111.111111111111,4,2,2,40,0,0
101185,-111.111111111111,4,2,2,60,0,0
103367,-125,4,2,2,60,0,0
129549,294.117647058824,4,2,2,60,1,0
129549,-66.6666666666667,4,2,2,60,0,0
130137,-83.3333333333333,4,2,2,60,0,0
130725,319.148936170213,4,2,2,60,1,0
130725,-111.111111111111,4,2,2,60,0,0
131363,-166.666666666667,4,2,2,60,0,0
132001,-1000,4,2,2,60,0,0
133278,272.727272727273,4,2,2,60,1,0
134368,-125,4,2,2,45,0,0
149641,-111.111111111111,4,2,2,60,0,0
151823,-76.9230769230769,4,2,2,80,0,0
158914,-61.5384615384615,4,2,2,80,0,0
160550,-76.9230769230769,4,2,2,80,0,0
164914,-100,4,2,2,40,0,0
167096,-100,4,2,2,60,0,0
169278,-111.111111111111,4,2,2,70,0,0
170823,-166.666666666667,4,2,2,70,0,0
171459,-90.9090909090909,4,2,2,70,0,0
172550,-111.111111111111,4,2,2,70,0,0
175187,-166.666666666667,4,2,2,70,0,0
175823,-90.9090909090909,4,2,2,70,0,0
177187,-133.333333333333,4,2,2,70,0,0
178550,-133.333333333333,4,2,2,5,0,0

[Colours]
Combo1 : 255,153,0
Combo2 : 227,0,0
Combo3 : 198,227,0
Combo4 : 0,227,222

[HitObjects]
110,240,276,5,2,0:0:0:0:
116,209,367,1,2,0:0:0:0:
145,214,458,1,2,0:0:0:0:
141,244,549,1,2,0:0:0:0:
52,82,821,2,0,L|25:286,1,180,6|0,1:2|1:0,0:0:0:0:
28,260,1549,5,2,0:3:0:0:
28,260,1640,1,0,1:0:0:0:
236,319,1912,2,0,P|181:313|136:340,1,107.999996704102,2|2,0:3|1:3,0:0:0:0:
137,338,2640,5,2,0:3:0:0:
137,338,2731,1,0,1:0:0:0:
338,260,3003,2,0,L|319:401,1,107.999996704102,2|2,0:3|1:3,0:0:0:0:
323,367,3731,1,2,0:3:0:0:
323,367,3821,1,0,1:0:0:0:
481,169,4094,6,0,B|466:151|466:151|291:136|291:136|277:147,2,215.999993408203,10|10|10,0:0|0:0|0:0,0:0:0:0:
206,81,4821,5,0,3:0:0:0:
206,80,4912,2,0,P|206:28|177:-4,1,71.9999978027344,0|0,1:0|3:0,0:0:0:0:
108,83,5185,5,2,1:2:0:0:
105,121,5276,1,2,0:0:0:0:
102,159,5367,1,2,1:2:0:0:
99,197,5458,2,0,P|50:199|6:240,1,96,10|0,0:0|0:0,0:0:0:0:
85,292,5731,5,2,1:2:0:0:
390,237,5912,1,0,3:0:0:0:
390,237,6003,1,10,0:0:0:0:
508,361,6185,5,2,3:2:0:0:
336,301,6458,1,2,3:2:0:0:
154,335,6731,2,0,B|181:330|181:330|268:367|268:367|289:361,1,143.999995605469,2|10,3:2|0:0,0:0:0:0:
131,194,7275,5,0,3:0:0:0:
131,194,7367,2,0,P|72:193|24:226,1,120,2|0,1:2|0:0,0:0:0:0:
215,153,7640,2,0,P|175:110|117:99,1,120,10|0,0:0|0:0,0:0:0:0:
303,183,7912,2,0,P|304:123|271:75,1,120,2|0,1:2|0:0,0:0:0:0:
344,267,8185,2,0,P|387:226|398:168,1,120,10|0,0:0|0:0,0:0:0:0:
219,280,8458,6,0,L|213:355,1,48,2|0,1:2|0:0,0:0:0:0:
336,362,8640,1,2,0:0:0:0:
336,362,8731,2,0,L|343:266,1,96,10|0,0:0|0:0,0:0:0:0:
463,300,9003,2,0,L|460:348,1,48,2|0,1:2|0:0,0:0:0:0:
336,362,9185,1,0,3:0:0:0:
336,362,9276,1,8,0:0:0:0:
95,222,9549,5,2,1:2:0:0:
127,202,9639,1,2,0:0:0:0:
165,202,9730,1,2,1:2:0:0:
199,220,9821,2,0,P|244:246|293:233,1,96,10|0,0:0|0:0,0:0:0:0:
355,174,10094,5,2,1:2:0:0:
60,297,10276,1,0,3:0:0:0:
60,297,10367,1,10,0:0:0:0:
0,231,10549,5,2,3:2:0:0:
148,282,10821,1,2,3:2:0:0:
290,227,11094,2,0,B|265:242|265:242|261:309|261:309|277:326,1,120,2|10,3:2|0:0,0:0:0:0:
312,121,11640,5,0,3:0:0:0:
312,121,11731,2,0,P|254:109|200:134,1,120,2|0,1:2|0:0,0:0:0:0:
401,191,12003,2,0,P|458:202|512:177,1,120,10|0,0:0|0:0,0:0:0:0:
335,313,12276,6,0,P|310:259|322:202,1,120,2|0,1:2|0:0,0:0:0:0:
378,1,12549,2,0,P|403:55|392:113,1,120,10|0,0:0|0:0,0:0:0:0:
512,176,12821,5,2,1:2:0:0:
512,176,12912,1,2,0:0:0:0:
512,176,13003,1,2,0:0:0:0:
512,176,13094,2,0,B|484:185|484:185|476:257,1,83.9999974365235,10|0,0:0|0:0,0:0:0:0:
419,335,13367,2,0,B|431:338|431:338|475:330,1,41.9999987182618,2|0,1:2|0:0,0:0:0:0:
335,313,13549,1,0,3:0:0:0:
335,313,13640,2,0,B|311:307|311:307|252:317,1,83.9999974365235,8|0,0:0|3:0,0:0:0:0:
94,371,13912,6,0,B|120:378|120:378|182:367,1,90,6|0,1:2|3:0,0:0:0:0:
86,257,14367,1,0,0:0:0:0:
86,257,14458,2,0,P|40:256|3:281,1,90,2|0,1:2|3:0,0:0:0:0:
159,294,14912,1,2,0:0:0:0:
159,294,15003,2,0,L|167:182,1,90,2|0,1:2|3:0,0:0:0:0:
331,295,15549,2,0,L|323:407,1,90,2|0,1:2|3:0,0:0:0:0:
458,345,16003,5,0,3:0:0:0:
458,345,16094,1,2,1:2:0:0:
476,157,16367,1,0,3:0:0:0:
288,139,16640,1,2,1:2:0:0:
270,327,16912,1,2,3:2:0:0:
375,241,17185,5,2,1:2:0:0:
375,241,17458,1,0,3:0:0:0:
187,223,17731,5,2,1:2:0:0:
65,146,17912,1,2,0:0:0:0:
65,146,18003,2,0,B|54:157|54:157|50:209,1,60,2|2,3:2|3:2,0:0:0:0:
99,257,18276,2,0,P|56:244|18:265,1,90,2|0,1:2|3:0,0:0:0:0:
161,384,18821,5,2,1:2:0:0:
273,290,19003,1,2,0:0:0:0:
273,289,19094,2,0,P|301:280|326:294,1,60,2|0,3:2|0:0,0:0:0:0:
376,353,19367,2,0,B|392:336|392:336|470:330,1,90,2|2,1:2|3:2,0:0:0:0:
273,289,19912,2,0,B|256:305|256:305|178:311,1,90,2|2,1:2|3:2,0:0:0:0:
39,282,20367,1,2,3:2:0:0:
39,282,20458,2,0,B|55:265|55:265|133:259,2,90,2|2|2,1:2|3:2|1:2,0:0:0:0:
213,166,21276,5,2,3:1:0:0:
210,207,21367,1,2,0:0:0:0:
207,248,21458,1,2,0:0:0:0:
205,290,21549,2,0,P|183:317|180:357,1,53.9999983520508,6|0,1:2|0:0,0:0:0:0:
286,371,21731,1,0,3:0:0:0:
286,371,21821,1,0,1:0:0:0:
505,323,22003,6,0,B|475:329|446:299|446:299|430:330|430:330|409:313|366:329,1,161.999995056153,2|8,0:1|0:0,0:0:0:0:
286,371,22367,1,8,0:0:0:0:
385,216,22549,5,2,3:2:0:0:
389,220,22640,1,2,1:2:0:0:
138,159,22912,2,0,P|114:157|92:167,1,48,8|0,0:0|0:0,0:0:0:0:
208,119,23094,1,2,0:0:0:0:
208,119,23185,1,2,1:2:0:0:
459,180,23458,2,0,P|482:178|504:188,1,48,8|0,0:0|0:0,0:0:0:0:
385,216,23640,5,2,0:0:0:0:
385,216,23731,2,0,B|361:238|361:238|356:327,1,96,2|0,1:2|0:0,0:0:0:0:
236,261,24003,2,0,B|260:276|260:276|265:372,1,96,10|2,0:0|3:2,0:0:0:0:
353,384,24276,1,2,1:2:0:0:
482,104,24549,5,10,0:0:0:0:
482,104,24640,1,2,0:0:0:0:
482,104,24731,1,2,0:0:0:0:
482,104,24821,2,0,P|427:100|390:128,1,96,2|0,1:2|0:0,0:0:0:0:
270,181,25094,2,0,P|325:177|362:205,1,96,10|0,0:0|0:0,0:0:0:0:
321,99,25367,2,0,L|328:-3,1,96,2|0,1:2|0:0,0:0:0:0:
435,196,25640,2,0,L|428:298,1,96,10|0,0:0|0:0,0:0:0:0:
423,384,25912,1,2,1:2:0:0:
208,101,26185,5,10,0:0:0:0:
208,101,26276,1,2,0:0:0:0:
208,101,26367,1,2,3:2:0:0:
208,102,26458,2,0,P|162:108|121:84,1,96,2|0,1:2|0:0,0:0:0:0:
0,163,26731,2,0,P|24:164|46:152,1,48,10|0,0:0|0:0,0:0:0:0:
129,198,26912,1,2,0:0:0:0:
129,198,27003,2,0,L|122:300,1,96,2|0,1:2|0:0,0:0:0:0:
120,379,27276,1,8,0:0:0:0:
390,163,27549,6,0,P|427:192|442:237,1,96,2|2,1:2|0:0,0:0:0:0:
300,205,27821,2,0,P|281:219|273:241,1,48,10|0,0:0|0:0,0:0:0:0:
314,110,28003,1,2,0:0:0:0:
314,110,28094,6,0,L|319:-2,1,96,2|0,1:2|0:0,0:0:0:0:
156,129,28367,2,0,P|196:152|243:148,1,96,10|2,0:0|3:2,0:0:0:0:
349,270,28640,2,0,L|344:382,1,96,2|0,1:2|0:0,0:0:0:0:
506,250,28912,2,0,P|466:227|419:230,1,96,10|0,0:0|0:0,0:0:0:0:
296,215,29185,6,0,P|254:211|219:232,1,83.9999974365235,2|0,1:2|0:0,0:0:0:0:
305,208,29458,2,0,P|278:176|238:166,1,83.9999974365235,10|0,0:0|0:0,0:0:0:0:
316,209,29731,2,0,P|319:167|298:132,1,83.9999974365235,2|0,1:2|0:0,0:0:0:0:
323,218,30003,2,0,P|354:191|364:151,1,83.9999974365235,10|0,0:0|0:0,0:0:0:0:
469,285,30276,6,0,P|421:324|405:384,2,125.999996154785,2|12|12,1:2|0:0|0:0,0:0:0:0:
512,384,31003,1,0,3:0:0:0:
512,384,31094,1,8,0:0:0:0:
288,322,31276,5,0,3:0:0:0:
288,322,31367,2,0,B|185:372|188:266|90:313,1,209.999993591309,6|2,1:2|3:2,0:0:0:0:
134,384,31912,2,0,L|145:248,1,125.999996154785,10|2,0:0|0:3,0:0:0:0:
285,145,32367,5,0,3:0:0:0:
285,145,32458,2,0,B|388:95|385:201|483:154,1,209.999993591309,2|0,1:2|3:0,0:0:0:0:
438,82,33003,2,0,L|427:218,1,125.999996154785,8|8,0:0|0:3,0:0:0:0:
237,279,33458,5,0,3:0:0:0:
236,278,33549,2,0,P|321:267|284:344,1,209.999993591309,2|2,1:2|3:2,0:0:0:0:
370,384,34094,2,0,P|363:332|409:354,1,125.999996154785,10|2,0:0|0:3,0:0:0:0:
491,197,34549,5,0,3:0:0:0:
491,197,34640,2,0,P|422:205|452:143,1,167.999994873047,2|0,1:2|0:0,0:0:0:0:
463,63,35094,5,0,3:0:0:0:
463,63,35185,2,0,L|455:129,1,41.9999987182618,8|0,0:0|0:0,0:0:0:0:
370,42,35367,1,0,3:0:0:0:
370,42,35458,2,0,L|378:-24,1,41.9999987182618,8|0,0:0|0:0,0:0:0:0:
285,68,35640,5,0,3:0:0:0:
285,68,35731,2,0,P|239:69|205:96,1,83.9999974365235,6|0,1:2|3:0,0:0:0:0:
271,148,36003,2,0,L|346:139,1,60,10|0,0:0|0:0,0:0:0:0:
474,229,36185,5,0,3:0:0:0:
474,229,36276,2,0,P|473:275|446:309,1,83.9999974365235,2|0,1:2|3:0,0:0:0:0:
394,243,36549,2,0,L|403:168,1,60,10|0,0:0|0:0,0:0:0:0:
290,299,36731,5,0,3:0:0:0:
290,299,36821,2,0,P|331:298|365:321,1,83.9999974365235,2|0,1:2|3:0,0:0:0:0:
232,242,37094,2,0,L|239:182,1,60,10|0,0:0|0:0,0:0:0:0:
103,268,37276,5,0,3:0:0:0:
103,268,37367,2,0,P|61:268|27:245,1,83.9999974365235,2|0,1:2|3:0,0:0:0:0:
161,325,37640,2,0,L|153:384,1,60,10|0,0:0|0:0,0:0:0:0:
159,183,37821,5,0,3:0:0:0:
159,183,37912,2,0,B|140:176|140:176|58:186,1,60,6|0,1:2|0:0,0:0:0:0:
269,119,38094,1,0,3:0:0:0:
269,119,38185,2,0,B|288:126|288:126|370:116,1,60,8|0,0:0|0:0,0:0:0:0:
180,96,38367,5,0,3:0:0:0:
180,96,38458,2,0,B|187:77|187:77|182:37,1,60,8|0,0:0|0:0,0:0:0:0:
244,206,38640,1,0,3:0:0:0:
244,206,38731,2,0,B|237:225|237:225|241:264,1,60,8|0,0:0|0:0,0:0:0:0:
352,112,38912,5,0,3:0:0:0:
352,112,39003,2,0,B|331:104|331:104|287:109,1,66.0000020141602,2|0,1:2|0:0,0:0:0:0:
76,190,39185,1,0,3:0:0:0:
76,190,39276,2,0,B|96:197|96:197|140:192,1,66.0000020141602,0|0,1:0|0:0,0:0:0:0:
173,13,39458,5,0,3:0:0:0:
173,13,39549,2,0,B|165:33|165:33|170:77,1,66.0000020141602,0|0,1:0|0:0,0:0:0:0:
251,289,39731,1,0,3:0:0:0:
251,289,39822,2,0,B|258:268|258:268|253:224,1,66.0000020141602,0|0,1:0|0:0,0:0:0:0:
214,149,40003,5,0,3:0:0:0:
428,251,40367,5,2,0:3:0:0:
428,251,40640,1,2,0:3:0:0:
428,251,40912,1,2,0:3:0:0:
53,280,41185,6,0,P|120:298|159:357,1,143.999995605469,6|2,1:2|0:0,0:0:0:0:
302,301,41458,1,8,0:0:0:0:
53,280,41640,5,2,3:2:0:0:
36,271,41731,2,0,P|106:271|158:318,1,143.999995605469,2|2,1:2|3:2,0:0:0:0:
318,293,42004,1,8,0:0:0:0:
36,271,42185,5,2,0:0:0:0:
19,267,42276,2,0,P|51:251|86:251,1,71.9999978027344,2|0,1:2|0:0,0:0:0:0:
158,318,42458,1,2,3:2:0:0:
158,319,42549,2,0,P|193:318|225:303,1,71.9999978027344,10|0,0:0|0:0,0:0:0:0:
297,371,42731,1,2,3:2:0:0:
297,371,42822,2,0,B|313:357|313:357|324:224,1,143.999995605469,2|0,1:2|3:0,0:0:0:0:
405,383,43094,2,0,B|391:366|391:366|400:244,1,143.999995605469,8|0,0:0|3:0,0:0:0:0:
509,121,43367,6,0,P|476:105|441:104,1,71.9999978027344,2|0,1:2|0:0,0:0:0:0:
360,160,43548,1,2,0:0:0:0:
360,160,43640,2,0,P|324:160|292:144,1,71.9999978027344,10|0,0:0|0:0,0:0:0:0:
227,70,43822,1,2,3:2:0:0:
227,70,43913,2,0,B|211:84|211:84|200:217,1,143.999995605469,2|0,1:2|3:0,0:0:0:0:
119,59,44185,2,0,B|132:75|132:75|123:197,1,143.999995605469,10|2,0:0|3:2,0:0:0:0:
0,266,44458,6,0,P|35:263|65:282,1,71.9999978027344,2|0,1:2|0:0,0:0:0:0:
200,349,44640,1,0,3:0:0:0:
200,349,44731,2,0,P|130:338|74:379,1,143.999995605469,10|0,0:0|3:0,0:0:0:0:
267,384,45004,6,0,P|302:386|332:367,1,71.9999978027344,2|0,1:2|0:0,0:0:0:0:
495,326,45185,1,0,3:0:0:0:
495,326,45276,2,0,P|425:336|369:295,1,143.999995605469,8|0,0:0|3:0,0:0:0:0:
278,165,45549,6,0,P|211:183|172:242,1,143.999995605469,6|2,1:2|0:0,0:0:0:0:
29,186,45822,1,8,0:0:0:0:
278,165,46004,5,2,3:2:0:0:
295,156,46095,2,0,P|225:156|173:203,1,143.999995605469,2|2,1:2|3:2,0:0:0:0:
13,178,46368,1,8,0:0:0:0:
295,156,46549,5,2,3:2:0:0:
312,152,46640,2,0,P|280:136|245:136,1,71.9999978027344,2|0,1:2|0:0,0:0:0:0:
408,176,46822,1,2,3:2:0:0:
391,172,46913,2,0,P|423:156|458:156,1,71.9999978027344,10|0,0:0|0:0,0:0:0:0:
334,250,47094,1,2,3:2:0:0:
334,250,47185,2,0,B|314:260|314:260|306:360|306:360|288:372,1,143.999995605469,2|0,1:2|3:0,0:0:0:0:
392,309,47458,2,0,L|386:380,1,71.9999978027344,8|0,0:0|0:0,0:0:0:0:
227,316,47640,5,2,3:2:0:0:
227,316,47731,2,0,B|234:225|234:225|118:86|118:86|126:0,1,359.999989013672,2|0,1:2|3:0,0:0:0:0:
253,9,48276,6,0,B|245:96|245:96|106:213|106:213|98:303,1,360.000013732911,2|0,1:2|0:0,0:0:0:0:
20,338,48731,5,2,3:2:0:0:
2,350,48822,1,2,1:2:0:0:
32,90,49004,1,0,3:0:0:0:
44,107,49095,1,10,0:0:0:0:
248,362,49277,5,2,3:2:0:0:
260,379,49368,1,6,1:2:0:0:
291,121,49550,1,0,3:0:0:0:
274,133,49640,1,12,0:0:0:0:
2,350,49822,5,0,3:0:0:0:
20,338,49913,2,0,B|52:326|52:326|124:353|124:353|156:345,1,143.999995605469,6|2,1:2|0:0,0:0:0:0:
223,284,50185,1,8,0:0:0:0:
0,336,50367,5,2,3:2:0:0:
18,324,50458,2,0,B|50:312|50:312|162:354,1,143.999995605469,2|0,1:2|3:0,0:0:0:0:
255,377,50731,2,0,B|286:384|286:384|358:357|358:357|391:369,1,143.999995605469,10|2,0:0|3:2,0:0:0:0:
472,328,51004,1,2,1:2:0:0:
340,56,51185,5,2,3:2:0:0:
340,56,51276,2,0,B|318:65|318:65|313:127,1,71.9999978027344,10|0,0:0|0:0,0:0:0:0:
171,105,51458,1,2,3:2:0:0:
171,105,51549,2,0,B|215:123|215:123|222:219,1,143.999995605469,2|0,1:2|3:0,0:0:0:0:
355,184,51822,2,0,B|311:202|311:202|303:298,1,143.999995605469,8|0,0:0|3:0,0:0:0:0:
143,340,52094,5,2,1:2:0:0:
184,324,52185,1,2,0:0:0:0:
229,332,52276,1,2,0:0:0:0:
262,363,52367,2,0,P|295:376|330:370,1,71.9999978027344,10|0,0:0|0:0,0:0:0:0:
455,302,52549,1,0,3:0:0:0:
455,302,52640,2,0,P|421:288|386:294,1,71.9999978027344,2|0,1:2|0:0,0:0:0:0:
273,229,52822,5,2,3:2:0:0:
273,229,52913,2,0,B|317:211|317:211|325:115,1,143.999995605469,10|2,0:0|3:2,0:0:0:0:
241,55,53185,1,2,1:2:0:0:
483,0,53367,5,2,3:2:0:0:
483,0,53458,2,0,L|474:93,1,71.9999978027344,10|0,0:0|0:0,0:0:0:0:
512,179,53640,5,2,3:2:0:0:
512,179,53731,1,2,1:2:0:0:
471,160,53822,1,8,0:3:0:0:
426,166,53913,1,8,0:3:0:0:
391,195,54004,1,8,0:0:0:0:
103,254,54185,5,2,0:0:0:0:
74,258,54276,1,2,1:2:0:0:
276,318,54731,5,2,0:0:0:0:
280,347,54822,1,2,0:0:0:0:
340,145,55276,5,2,0:0:0:0:
369,141,55367,1,2,0:0:0:0:
167,81,55822,5,2,0:0:0:0:
163,53,55913,1,2,0:0:0:0:
276,318,56367,5,2,0:0:0:0:
275,317,56458,2,0,P|215:298|168:315,1,107.999996704102,2|0,1:2|0:0,0:0:0:0:
340,145,56731,2,0,P|320:205|337:252,1,107.999996704102,8|0,0:0|0:0,0:0:0:0:
167,81,57004,2,0,P|227:100|274:83,1,107.999996704102,8|0,0:0|0:0,0:0:0:0:
103,254,57276,2,0,P|122:193|105:146,1,107.999996704102,8|0,0:0|0:0,0:0:0:0:
222,199,57549,5,2,0:3:0:0:
222,199,57822,1,2,0:3:0:0:
233,55,58094,5,2,0:0:0:0:
222,199,58276,1,2,0:0:0:0:
222,199,58367,1,2,0:0:0:0:
211,343,58549,1,2,0:0:0:0:
211,343,58640,6,0,P|157:339|120:379,1,96,6|0,1:2|0:0,0:0:0:0:
291,321,58912,2,0,L|299:217,1,96,10|0,0:0|0:0,0:0:0:0:
307,126,59185,5,2,1:2:0:0:
500,384,59367,1,0,3:0:0:0:
500,384,59458,1,10,0:0:0:0:
512,229,59640,5,2,3:2:0:0:
372,297,59912,1,2,3:2:0:0:
384,142,60185,2,0,B|407:162|407:162|402:224|402:224|379:209,1,120,2|10,3:2|3:2,3:2:0:0:
194,113,60731,5,0,3:0:0:0:
194,113,60821,2,0,P|172:57|180:0,1,120,2|0,1:2|0:0,0:0:0:0:
288,169,61094,2,0,P|309:113|301:55,1,120,10|0,0:0|0:0,0:0:0:0:
189,211,61367,2,0,P|130:217|75:194,1,120,2|0,1:2|0:0,0:0:0:0:
277,280,61640,2,0,P|335:286|390:263,1,120,10|0,0:0|0:0,0:0:0:0:
181,325,61912,6,0,B|175:379,1,48,2|0,1:2|0:0,0:0:0:0:
29,320,62094,1,2,0:0:0:0:
29,320,62185,2,0,P|75:293|137:307,1,96,10|0,0:0|0:0,0:0:0:0:
0,242,62458,2,0,B|6:188,1,48,2|0,1:2|0:0,0:0:0:0:
18,102,62640,1,0,3:0:0:0:
18,102,62731,1,8,0:0:0:0:
303,206,63003,5,2,1:2:0:0:
340,197,63094,1,2,0:0:0:0:
377,188,63185,1,2,1:2:0:0:
414,179,63276,2,0,P|462:180|500:208,1,96,10|0,0:0|0:0,0:0:0:0:
432,269,63549,5,2,1:2:0:0:
127,214,63731,1,0,3:0:0:0:
127,214,63821,1,10,0:0:0:0:
11,346,64003,5,2,3:2:0:0:
181,279,64276,1,2,3:2:0:0:
361,314,64549,2,0,B|339:326|339:326|275:314|275:314|247:324,1,120,2|10,3:2|0:0,0:0:0:0:
405,199,65094,5,0,3:0:0:0:
405,199,65185,2,0,P|463:199|510:234,1,120,2|0,1:2|0:0,0:0:0:0:
311,224,65458,2,0,P|311:165|346:118,1,120,10|0,0:0|0:0,0:0:0:0:
180,217,65731,6,0,P|215:263|216:322,1,120,2|0,1:2|0:0,0:0:0:0:
16,333,66004,2,0,P|62:297|121:296,1,120,10|0,0:0|0:0,0:0:0:0:
294,384,66276,5,2,1:2:0:0:
294,384,66367,1,2,0:0:0:0:
294,384,66458,1,2,0:0:0:0:
294,384,66549,2,0,L|300:300,1,83.9999974365235,10|0,0:0|0:0,0:0:0:0:
417,277,66821,2,0,P|400:264|379:264,1,41.9999987182618,2|0,1:2|0:0,0:0:0:0:
498,249,67003,1,0,3:0:0:0:
498,249,67094,2,0,L|504:165,1,83.9999974365235,8|0,0:0|3:0,0:0:0:0:
441,109,67367,6,0,B|377:136|384:70|322:96,1,125.999996154785,6|8,1:2|0:0,0:0:0:0:
179,174,67821,1,2,0:0:0:0:
179,174,67912,1,2,1:2:0:0:
45,86,68094,1,0,0:0:0:0:
45,86,68185,1,8,0:0:0:0:
34,264,68367,1,2,3:2:0:0:
34,264,68458,2,0,B|44:275|44:275|97:280|97:280|108:271,1,83.9999974365235,2|0,1:2|0:0,0:0:0:0:
278,324,68731,2,0,B|262:306|262:306|182:299|182:299|166:313,2,125.999996154785,10|2|10,0:0|1:2|0:0,0:0:0:0:
445,307,69458,5,0,3:0:0:0:
445,307,69549,2,0,P|424:342|427:390,1,83.9999974365235,2|0,1:2|0:0,0:0:0:0:
441,286,69821,2,0,P|401:295|369:331,1,83.9999974365235,10|0,0:0|0:0,0:0:0:0:
453,268,70094,2,0,P|417:246|370:250,1,83.9999974365235,2|0,1:2|0:0,0:0:0:0:
474,264,70367,2,0,P|464:224|428:192,1,83.9999974365235,10|0,0:0|0:0,0:0:0:0:
492,276,70640,1,2,1:2:0:0:
512,82,70821,5,0,0:0:0:0:
512,82,70912,2,0,B|450:106|467:36|394:65,1,125.999996154785,8|2,0:0|1:2,0:0:0:0:
240,41,71367,5,2,0:0:0:0:
240,41,71458,2,0,L|245:-14,1,41.9999987182618,10|0,0:0|0:0,0:0:0:0:
317,88,71640,1,2,3:2:0:0:
317,88,71731,2,0,L|312:143,1,41.9999987182618,2|0,1:2|0:0,0:0:0:0:
234,175,71912,1,0,0:0:0:0:
234,175,72003,5,8,0:0:0:0:
209,163,72093,1,2,0:0:0:0:
181,164,72184,1,2,0:0:0:0:
158,178,72276,2,0,B|146:189|146:189|140:273,1,83.9999974365235,2|0,1:2|0:0,0:0:0:0:
6,314,72549,2,0,P|45:303|84:316,1,83.9999974365235,10|0,0:0|0:0,0:0:0:0:
255,377,72821,2,0,P|195:359|137:379,2,125.999996154785,2|10|2,1:2|0:0|1:2,0:0:0:0:
417,301,73549,1,0,0:0:0:0:
417,301,73640,2,0,L|411:394,1,83.9999974365235,10|0,0:0|3:0,0:0:0:0:
342,270,73912,6,0,P|366:236|404:220,1,83.9999974365235,2|0,1:2|0:0,0:0:0:0:
344,198,74185,2,0,P|385:191|423:207,1,83.9999974365235,10|0,0:0|0:0,0:0:0:0:
395,147,74458,2,0,P|428:171|444:209,1,83.9999974365235,2|0,1:2|0:0,0:0:0:0:
467,148,74731,2,0,P|473:189|457:227,1,83.9999974365235,10|0,0:0|0:0,0:0:0:0:
512,336,75003,5,2,1:2:0:0:
512,336,75276,1,10,0:0:0:0:
512,336,75549,5,2,1:2:0:0:
474,317,75639,1,0,3:0:0:0:
433,322,75730,1,0,3:0:0:0:
402,349,75821,1,12,0:0:0:0:
299,215,76003,5,0,3:0:0:0:
299,215,76094,2,0,B|337:172|343:96|343:96|376:140|366:191,1,209.999993591309,6|2,1:2|3:2,0:0:0:0:
440,117,76640,2,0,P|418:58|373:15,1,125.999996154785,10|2,0:0|0:3,0:0:0:0:
213,215,77094,5,0,3:0:0:0:
213,215,77185,2,0,B|174:172|168:96|168:96|136:140|146:191,1,209.999993591309,2|0,1:2|3:0,0:0:0:0:
72,117,77731,2,0,P|93:58|138:15,1,125.999996154785,8|8,0:0|0:3,0:0:0:0:
305,177,78185,5,0,3:0:0:0:
305,177,78276,2,0,L|275:384,1,209.999993591309,2|2,1:2|3:2,0:0:0:0:
198,338,78821,2,0,B|225:329|225:329|296:340|296:340|321:334,1,125.999996154785,10|2,0:0|0:3,0:0:0:0:
213,165,79276,5,0,3:0:0:0:
213,165,79367,2,0,L|237:0,1,167.999994873047,2|0,1:2|0:0,0:0:0:0:
314,46,79821,5,0,3:0:0:0:
314,46,79912,2,0,L|272:40,1,41.9999987182618,8|0,0:0|0:0,0:0:0:0:
144,51,80094,1,0,3:0:0:0:
144,51,80185,2,0,L|185:57,1,41.9999987182618,8|0,0:0|0:0,0:0:0:0:
51,84,80367,5,0,3:0:0:0:
51,84,80458,2,0,P|71:121|66:172,1,83.9999974365235,6|0,1:2|3:0,0:0:0:0:
55,251,80731,2,0,L|43:332,1,60,10|0,0:0|0:0,0:0:0:0:
175,384,80912,5,0,3:0:0:0:
175,384,81003,2,0,P|154:346|159:295,1,83.9999974365235,2|0,1:2|3:0,0:0:0:0:
171,217,81276,2,0,L|183:136,1,60,10|0,0:0|0:0,0:0:0:0:
315,265,81458,5,0,3:0:0:0:
315,265,81549,2,0,P|272:259|231:286,1,83.9999974365235,2|0,1:2|3:0,0:0:0:0:
377,315,81821,2,0,L|365:396,1,60,10|0,0:0|0:0,0:0:0:0:
435,225,82003,5,0,3:0:0:0:
435,225,82094,2,0,P|478:231|519:204,1,83.9999974365235,2|0,1:2|3:0,0:0:0:0:
373,175,82367,2,0,L|385:94,1,60,10|0,0:0|0:0,0:0:0:0:
281,13,82549,5,0,3:0:0:0:
281,12,82640,2,0,P|268:40|266:69,1,60,6|0,1:2|0:0,0:0:0:0:
136,92,82821,1,0,3:0:0:0:
136,92,82912,2,0,P|153:116|178:132,1,60,8|0,0:0|0:0,0:0:0:0:
131,257,83094,1,0,3:0:0:0:
131,257,83185,2,0,P|160:254|187:241,1,60,8|0,0:0|0:0,0:0:0:0:
271,343,83367,1,0,3:0:0:0:
271,343,83458,2,0,P|283:315|285:286,1,60,8|0,0:0|0:0,0:0:0:0:
264,129,83640,5,0,3:0:0:0:
264,129,83731,2,0,P|250:158|248:191,1,66.0000020141602,2|0,1:2|0:0,0:0:0:0:
395,129,83912,1,0,3:0:0:0:
395,129,84003,2,0,P|408:158|410:191,1,66.0000020141602,0|0,1:0|0:0,0:0:0:0:
248,40,84185,1,0,3:0:0:0:
248,40,84276,2,0,P|215:42|186:57,1,66.0000020141602,0|0,1:0|0:0,0:0:0:0:
411,40,84457,1,0,3:0:0:0:
411,40,84549,2,0,P|443:42|472:57,1,66.0000020141602,0|0,1:0|0:0,0:0:0:0:
330,74,84731,5,0,3:0:0:0:
111,165,85094,5,2,0:3:0:0:
111,165,85367,1,2,0:3:0:0:
111,165,85640,1,2,0:3:0:0:
433,259,85912,6,0,B|363:290|374:218|298:247,1,143.999995605469,6|2,1:2|0:0,0:0:0:0:
218,276,86185,1,8,0:0:0:0:
512,248,86367,5,2,3:2:0:0:
432,268,86458,2,0,B|362:299|373:227|297:256,1,143.999995605469,2|2,1:2|3:2,0:0:0:0:
217,285,86731,1,8,0:0:0:0:
511,257,86912,5,2,0:0:0:0:
431,277,87003,2,0,P|397:293|355:287,1,71.9999978027344,2|0,1:2|0:0,0:0:0:0:
280,233,87185,1,2,3:2:0:0:
280,233,87276,2,0,P|245:231|213:247,1,71.9999978027344,10|0,0:0|0:0,0:0:0:0:
128,188,87458,1,2,3:2:0:0:
128,188,87549,2,0,P|156:121|147:51,1,143.999995605469,2|0,1:2|3:0,0:0:0:0:
27,172,87821,2,0,P|18:100|46:35,1,143.999995605469,8|0,0:0|3:0,0:0:0:0:
69,273,88094,6,0,P|37:271|-5:293,1,71.9999978027344,2|0,1:2|0:0,0:0:0:0:
144,317,88276,1,2,0:0:0:0:
144,317,88367,2,0,P|176:319|218:297,1,71.9999978027344,10|0,0:0|0:0,0:0:0:0:
353,331,88548,1,2,3:2:0:0:
353,331,88639,2,0,P|324:264|333:194,1,143.999995605469,2|0,1:2|3:0,0:0:0:0:
453,314,88912,2,0,P|461:243|433:178,1,143.999995605469,10|2,0:0|3:2,0:0:0:0:
442,38,89185,6,0,B|459:33|459:33|512:40,1,71.9999978027344,2|0,1:2|0:0,0:0:0:0:
361,75,89367,1,0,3:0:0:0:
361,75,89458,2,0,B|326:85|326:85|220:70,1,143.999995605469,10|0,0:0|3:0,0:0:0:0:
224,212,89730,6,0,P|259:215|291:200,1,71.9999978027344,2|0,1:2|0:0,0:0:0:0:
143,176,89912,1,0,3:0:0:0:
143,175,90003,2,0,P|72:167|8:197,1,143.999995605469,8|0,0:0|3:0,0:0:0:0:
99,322,90276,6,0,B|176:282|171:359|233:333,1,143.999995605469,6|2,1:2|0:0,0:0:0:0:
308,298,90548,1,8,0:0:0:0:
24,358,90730,5,2,3:2:0:0:
99,313,90821,2,0,B|176:273|171:350|233:324,1,143.999995605469,2|2,1:2|3:2,0:0:0:0:
308,289,91093,1,8,0:0:0:0:
24,349,91275,5,2,3:2:0:0:
99,303,91367,2,0,P|131:290|166:296,1,71.9999978027344,2|0,1:2|0:0,0:0:0:0:
256,348,91548,1,2,3:2:0:0:
256,348,91640,2,0,P|290:354|323:340,1,71.9999978027344,10|0,0:0|0:0,0:0:0:0:
403,281,91821,1,2,3:2:0:0:
403,281,91912,2,0,P|384:211|403:143,1,143.999995605469,2|0,1:2|3:0,0:0:0:0:
331,7,92185,2,0,P|333:42|317:74,1,71.9999978027344,8|0,0:0|0:0,0:0:0:0:
159,133,92367,5,2,3:2:0:0:
159,133,92458,2,0,B|246:133|246:133|375:261|375:261|465:261,1,360.000013732911,2|0,1:2|3:0,0:0:0:0:
467,132,93003,6,0,B|375:132|375:132|247:260|247:260|159:260,1,359.999989013672,2|0,1:2|0:0,0:0:0:0:
74,198,93458,5,2,3:2:0:0:
58,191,93548,1,2,1:2:0:0:
341,277,93731,1,0,3:0:0:0:
355,283,93821,1,10,0:0:0:0:
247,100,94004,5,2,3:2:0:0:
250,85,94094,1,6,1:2:0:0:
166,371,94277,1,0,3:0:0:0:
162,384,94367,1,12,0:0:0:0:
74,198,94548,5,0,3:0:0:0:
160,168,94640,2,0,B|230:138|226:208|297:175,1,143.999995605469,6|2,1:2|0:0,0:0:0:0:
382,145,94912,1,8,0:0:0:0:
90,205,95094,5,2,3:2:0:0:
176,175,95185,2,0,P|239:199|255:266,1,143.999995605469,2|0,1:2|3:0,0:0:0:0:
335,373,95458,2,0,P|349:305|414:280,1,143.999995605469,10|2,0:0|3:2,0:0:0:0:
500,310,95730,1,2,1:2:0:0:
440,86,95912,5,2,3:2:0:0:
440,86,96003,2,0,P|475:91|507:76,1,71.9999978027344,10|0,0:0|0:0,0:0:0:0:
392,3,96185,1,2,3:2:0:0:
392,3,96276,2,0,B|352:25|352:25|342:141,1,143.999995605469,2|0,1:2|3:0,0:0:0:0:
263,229,96549,2,0,B|254:131|254:131|214:109,1,143.999995605469,8|0,0:0|3:0,0:0:0:0:
99,182,96821,6,0,P|131:197|166:191,1,71.9999978027344,2|0,1:2|0:0,0:0:0:0:
125,279,97003,1,0,0:0:0:0:
125,279,97094,2,0,P|95:299|82:332,1,71.9999978027344,10|0,0:0|0:0,0:0:0:0:
27,253,97276,1,0,3:0:0:0:
27,253,97367,2,0,P|24:217|2:189,1,71.9999978027344,2|0,1:2|0:0,0:0:0:0:
125,279,97548,5,2,3:2:0:0:
125,279,97639,2,0,P|130:208|173:151,1,143.999995605469,10|2,0:0|3:2,0:0:0:0:
273,176,97912,1,2,1:2:0:0:
76,42,98094,5,2,3:2:0:0:
76,42,98185,2,0,L|70:113,1,71.9999978027344,10|0,0:0|0:0,0:0:0:0:
173,151,98367,5,2,3:2:0:0:
173,151,98458,1,2,1:2:0:0:
176,107,98548,1,8,0:3:0:0:
179,64,98639,1,8,0:3:0:0:
182,21,98730,1,8,0:0:0:0:
34,230,98912,5,2,0:0:0:0:
6,236,99003,1,2,1:2:0:0:
302,186,99458,5,2,0:0:0:0:
329,182,99549,1,2,0:0:0:0:
189,342,100003,5,2,0:0:0:0:
193,371,100094,1,2,0:0:0:0:
146,73,100548,5,2,0:0:0:0:
141,46,100639,1,2,0:0:0:0:
175,264,101094,5,2,0:0:0:0:
175,264,101185,2,0,L|193:371,1,107.999996704102,2|0,1:2|0:0,0:0:0:0:
158,152,101458,2,0,L|141:46,1,107.999996704102,8|0,0:0|0:0,0:0:0:0:
110,216,101730,2,0,L|4:234,1,107.999996704102,8|0,0:0|0:0,0:0:0:0:
222,199,102003,2,0,L|329:182,1,107.999996704102,8|0,0:0|0:0,0:0:0:0:
440,165,102276,5,2,0:3:0:0:
440,165,102548,1,2,0:3:0:0:
127,326,102821,5,2,0:0:0:0:
271,337,103003,1,2,0:0:0:0:
271,337,103094,1,2,0:0:0:0:
415,348,103276,1,2,0:0:0:0:
415,348,103367,1,6,1:2:0:0:
353,306,112094,6,0,P|375:213|291:258,1,240,6|2,1:2|3:2,0:0:0:0:
430,253,112639,2,0,B|466:236|471:197|471:197|451:374,1,240,10|2,0:0|0:0,0:0:0:0:
341,384,113185,6,0,B|326:366|326:366|332:315|332:315|352:305,1,96,2|0,1:2|3:0,0:0:0:0:
298,168,113458,2,0,B|312:185|312:185|306:236|306:236|286:246,1,96,2|2,1:2|3:2,0:0:0:0:
194,277,113730,1,2,1:2:0:0:
194,277,113821,1,2,0:0:0:0:
194,277,113912,1,2,3:2:0:0:
194,277,114003,2,0,P|137:269|104:306,1,96,2|2,1:2|3:2,0:0:0:0:
0,204,114276,6,0,B|60:144|48:60|48:60|61:145|95:167,1,240,2|0,1:2|0:0,0:0:0:0:
147,179,114821,1,10,0:0:0:0:
147,179,115094,1,2,1:2:0:0:
217,137,115367,6,0,B|236:125|236:125|245:72|245:72|228:82,1,96,2|0,1:2|0:0,0:0:0:0:
224,225,115639,2,0,B|205:237|205:237|196:290|196:290|212:279,1,96,10|0,0:0|0:0,0:0:0:0:
303,178,115912,2,0,B|322:166|322:166|336:85,1,96,2|0,1:2|0:0,0:0:0:0:
314,273,116185,2,0,B|295:285|295:285|281:366,1,96,10|0,0:0|0:0,0:0:0:0:
396,253,116458,6,0,P|488:226|439:307,1,240,6|2,1:2|3:2,0:0:0:0:
282,357,117003,2,0,B|397:307|387:423|510:370,1,240,10|2,0:0|0:0,0:0:0:0:
447,257,117548,5,2,1:2:0:0:
295,195,117730,1,0,3:0:0:0:
295,195,117821,2,0,P|245:190|184:240,1,96,2|2,1:2|3:2,0:0:0:0:
357,272,118094,1,2,1:2:0:0:
357,272,118185,1,2,0:0:0:0:
357,272,118276,1,2,3:2:0:0:
357,272,118367,2,0,P|407:277|468:227,1,96,2|2,1:2|3:2,0:0:0:0:
441,76,118640,6,0,B|436:82|407:69|415:21|448:13|477:32|477:32|458:167,1,240,2|0,1:2|0:0,0:0:0:0:
446,256,119185,1,10,0:0:0:0:
446,256,119458,1,2,1:2:0:0:
436,349,119731,6,0,P|469:361|431:370,1,96,2|0,1:2|0:0,0:0:0:0:
365,299,120003,2,0,P|328:306|361:323,1,96,10|0,0:0|0:0,0:0:0:0:
261,366,120276,2,0,B|211:375|221:334|168:347,1,96,2|0,1:2|0:0,0:0:0:0:
12,360,120549,2,0,B|62:347|52:388|102:379,1,96,10|0,0:0|0:0,0:0:0:0:
64,226,120821,6,0,P|99:138|12:174,1,240,6|2,1:2|3:2,0:0:0:0:
133,283,121367,2,0,B|183:239|183:239|196:66,1,240,10|2,0:0|0:0,0:0:0:0:
105,144,121912,2,0,B|87:150|87:150|25:144|25:144|11:149,1,96,2|0,1:2|3:0,0:0:0:0:
154,221,122185,2,0,B|172:215|172:215|234:221|234:221|248:216,1,96,2|2,1:2|3:2,0:0:0:0:
359,155,122458,1,2,1:2:0:0:
359,155,122549,1,2,0:0:0:0:
359,155,122640,1,2,3:2:0:0:
359,155,122731,2,0,B|351:249,1,96,2|2,1:2|3:2,0:0:0:0:
494,359,123003,6,0,B|434:299|446:215|446:215|433:300|399:322,1,240,2|0,1:2|0:0,0:0:0:0:
347,334,123548,1,10,0:0:0:0:
347,334,123821,1,2,1:2:0:0:
261,315,124094,2,0,B|242:318|242:318|235:378|235:378|251:384,1,96,2|0,1:2|0:0,0:0:0:0:
366,248,124367,2,0,B|384:244|384:244|391:184|391:184|375:178,1,96,10|0,0:0|0:0,0:0:0:0:
347,334,124640,2,0,L|445:345,1,96,2|0,1:2|0:0,0:0:0:0:
280,229,124912,2,0,L|182:218,1,96,10|0,0:0|0:0,0:0:0:0:
283,109,125185,6,0,P|370:73|335:160,1,240,6|2,1:2|3:2,0:0:0:0:
422,19,125731,2,0,B|466:60|466:60|446:238,1,240,10|2,0:0|0:0,0:0:0:0:
424,355,126276,6,0,P|470:363|512:342,1,96,2|0,1:2|3:0,0:0:0:0:
352,289,126549,2,0,P|305:280|263:301,1,96,2|2,1:2|3:2,0:0:0:0:
345,196,126821,5,2,1:2:0:0:
369,195,126912,1,2,0:0:0:0:
392,203,127003,1,2,3:2:0:0:
410,218,127094,1,2,1:2:0:0:
431,230,127185,1,2,0:0:0:0:
455,232,127276,1,2,3:2:0:0:
478,228,127366,1,2,1:2:0:0:
51,65,129549,6,0,P|33:153|33:243,1,180,10|4,0:0|0:3,0:0:0:0:
134,95,129941,1,2,0:0:0:0:
119,238,130137,6,0,P|119:166|133:95,1,144,10|4,0:0|0:3,0:0:0:0:
205,235,130529,1,2,0:0:0:0:
215,129,130725,6,0,P|204:181|204:235,1,107.999996704102,10|4,0:0|0:3,0:0:0:0:
296,161,131150,1,2,0:0:0:0:
289,232,131363,6,0,P|289:196|296:160,1,72,10|4,0:0|0:3,0:0:0:0:
384,205,131788,1,2,0:0:0:0:
471,160,132001,6,0,P|477:195|478:231,1,72,6|6,0:0|0:0,0:0:0:0:
5,82,134368,5,0,1:0:0:0:
220,123,134550,1,0,1:0:0:0:
220,123,134641,2,0,P|173:114|133:137,1,96,8|0,0:0|3:0,0:0:0:0:
132,137,134914,1,0,1:0:0:0:
316,26,135096,1,0,1:0:0:0:
316,26,135187,2,0,L|303:145,1,96,8|0,0:0|3:0,0:0:0:0:
305,121,135459,1,0,1:0:0:0:
489,232,135641,5,0,1:0:0:0:
488,231,135732,2,0,P|454:198|408:204,1,96,8|0,0:0|3:0,0:0:0:0:
386,280,136005,2,0,P|419:312|465:306,1,96,0|0,1:0|1:0,0:0:0:0:
489,232,136278,1,8,0:0:0:0:
215,244,136459,1,0,3:0:0:0:
215,244,136550,2,0,P|261:238|294:270,1,96,0|0,1:0|1:0,0:0:0:0:
272,346,136823,2,0,P|225:351|192:319,1,96,8|0,0:0|3:0,0:0:0:0:
215,244,137096,1,0,1:0:0:0:
399,355,137278,5,0,1:0:0:0:
399,355,137368,1,8,0:0:0:0:
423,145,137550,1,0,3:0:0:0:
423,145,137641,2,0,P|376:139|343:171,1,96,0|0,1:0|1:0,0:0:0:0:
490,188,137914,2,0,P|518:151|506:106,1,96,8|0,0:0|3:0,0:0:0:0:
418,225,138187,2,0,P|435:267|480:280,1,96,0|0,1:0|1:0,0:0:0:0:
423,145,138459,1,8,0:0:0:0:
239,256,138641,5,0,3:0:0:0:
239,256,138732,1,0,1:0:0:0:
55,145,138914,1,0,1:0:0:0:
55,145,139005,2,0,L|42:264,1,96,8|0,0:0|3:0,0:0:0:0:
44,240,139278,1,0,1:0:0:0:
228,351,139459,1,0,1:0:0:0:
228,351,139550,2,0,P|181:342|141:365,1,96,8|0,0:0|3:0,0:0:0:0:
140,365,139823,1,0,1:0:0:0:
355,324,140005,5,0,1:0:0:0:
355,324,140096,2,0,L|365:228,1,96,8|0,0:0|3:0,0:0:0:0:
290,188,140368,2,0,L|279:283,1,96,0|0,1:0|1:0,0:0:0:0:
355,324,140641,1,8,0:0:0:0:
379,114,140823,5,0,3:0:0:0:
379,114,140914,2,0,P|334:97|290:114,1,96,0|0,1:0|1:0,0:0:0:0:
220,196,141187,2,0,P|175:212|132:195,1,96,8|0,0:0|3:0,0:0:0:0:
127,121,141459,2,0,P|171:104|215:120,1,96,0|0,1:0|1:0,0:0:0:0:
295,188,141732,2,0,P|338:205|382:188,1,96,8|0,0:0|3:0,0:0:0:0:
379,114,142005,1,0,1:0:0:0:
195,3,142187,5,0,1:0:0:0:
195,3,142278,2,0,B|206:26|206:26|198:95,1,96,8|0,0:0|3:0,0:0:0:0:
127,121,142550,2,0,B|115:97|115:97|123:28,1,96,0|0,1:0|1:0,0:0:0:0:
195,3,142823,1,8,0:0:0:0:
171,213,143005,5,0,3:0:0:0:
171,213,143096,1,0,1:0:0:0:
355,324,143278,1,0,1:0:0:0:
355,324,143368,2,0,P|310:339|286:379,1,96,8|0,0:0|3:0,0:0:0:0:
334,244,143641,2,0,P|343:197|319:156,1,96,0|0,1:0|1:0,0:0:0:0:
412,266,143914,2,0,P|447:296|494:297,1,96,8|0,0:0|3:0,0:0:0:0:
355,324,144187,1,0,1:0:0:0:
379,114,144368,5,0,1:0:0:0:
379,114,144459,2,0,L|390:19,1,96,8|0,0:0|3:0,0:0:0:0:
390,18,144732,1,0,1:0:0:0:
202,125,144914,1,0,1:0:0:0:
206,129,145005,2,0,P|247:105|294:115,1,96,8|0,0:0|3:0,0:0:0:0:
292,114,145278,1,0,1:0:0:0:
77,73,145459,5,0,1:0:0:0:
77,73,145550,2,0,L|66:168,1,96,8|0,0:0|3:0,0:0:0:0:
65,168,145823,1,0,1:0:0:0:
249,275,146005,1,0,1:0:0:0:
249,275,146096,1,8,0:0:0:0:
435,168,146278,5,0,3:0:0:0:
435,168,146368,2,0,P|388:159|348:182,1,96,0|0,1:0|1:0,0:0:0:0:
456,59,146641,2,0,P|471:103|512:126,1,96,8|0,0:0|3:0,0:0:0:0:
352,96,146914,2,0,P|382:60|382:13,1,96,0|0,1:0|1:0,0:0:0:0:
435,168,147187,1,8,0:0:0:0:
209,256,147368,5,0,3:0:0:0:
183,262,147459,1,2,1:2:0:0:
303,170,147914,5,0,3:0:0:0:
329,164,148005,1,2,1:2:0:0:
303,256,148459,5,0,3:0:0:0:
329,262,148550,1,2,1:2:0:0:
209,170,149005,5,0,3:0:0:0:
183,164,149096,1,2,1:2:0:0:
183,164,149550,5,0,3:0:0:0:
183,164,149641,2,0,P|130:165|91:202,1,107.999996704102,6|0,1:2|0:0,0:0:0:0:
329,227,149914,2,0,P|381:225|420:188,1,107.999996704102,10|0,0:0|0:0,0:0:0:0:
191,242,150187,6,0,P|166:288|178:339,1,107.999996704102,10|0,0:0|0:0,0:0:0:0:
321,148,150459,2,0,P|345:101|333:50,1,107.999996704102,10|0,0:0|0:0,0:0:0:0:
266,274,150732,6,0,P|293:318|344:333,1,107.999996704102,10|0,0:0|0:0,0:0:0:0:
248,117,151005,2,0,P|220:72|169:57,1,107.999996704102,10|0,0:0|0:0,0:0:0:0:
256,194,151278,5,2,0:3:0:0:
256,194,151550,1,2,0:3:0:0:
56,12,151823,6,0,L|40:178,1,155.999992858887,6|2,1:2|0:0,0:0:0:0:
99,227,152096,1,8,0:0:0:0:
6,66,152278,5,2,3:2:0:0:
64,6,152369,2,0,L|48:172,1,155.999992858887,2|2,1:2|3:2,0:0:0:0:
107,221,152642,1,8,0:0:0:0:
14,60,152823,5,2,0:0:0:0:
72,0,152914,2,0,L|64:83,1,77.9999964294435,2|0,1:2|0:0,0:0:0:0:
173,155,153096,1,2,3:2:0:0:
115,215,153187,2,0,L|107:298,1,77.9999964294435,10|0,0:0|0:0,0:0:0:0:
276,341,153368,5,2,3:2:0:0:
275,340,153459,2,0,P|200:326|136:368,1,155.999992858887,2|0,1:2|3:0,0:0:0:0:
358,370,153732,2,0,P|432:383|496:341,1,155.999992858887,8|0,0:0|3:0,0:0:0:0:
424,224,154005,6,0,L|417:302,1,77.9999964294435,2|0,1:2|0:0,0:0:0:0:
342,201,154187,1,2,0:0:0:0:
400,141,154278,2,0,L|408:58,1,77.9999964294435,10|0,0:0|0:0,0:0:0:0:
221,27,154459,5,2,3:2:0:0:
221,27,154550,2,0,P|298:37|364:-1,1,155.999992858887,2|0,1:2|3:0,0:0:0:0:
142,10,154823,2,0,P|65:0|-1:38,1,155.999992858887,10|2,0:0|3:2,0:0:0:0:
86,94,155096,6,0,L|78:171,1,77.9999964294435,2|0,1:2|0:0,0:0:0:0:
199,252,155278,1,2,3:2:0:0:
141,312,155369,2,0,L|149:229,1,77.9999964294435,10|0,0:0|0:0,0:0:0:0:
19,356,155550,5,2,3:2:0:0:
19,356,155641,2,0,B|90:329|88:409|163:384,1,155.999992858887,2|0,1:2|3:0,0:0:0:0:
369,362,155914,2,0,B|297:388|299:308|224:333,1,155.999992858887,8|0,0:0|3:0,0:0:0:0:
363,131,156187,6,0,L|347:297,1,155.999992858887,6|2,1:2|0:0,0:0:0:0:
286,340,156460,1,8,0:0:0:0:
306,58,156641,5,2,3:2:0:0:
357,124,156732,2,0,L|341:290,1,155.999992858887,2|2,1:2|3:2,0:0:0:0:
280,333,157005,1,8,0:0:0:0:
300,51,157187,5,2,3:2:0:0:
351,117,157278,2,0,L|343:200,1,77.9999964294435,2|0,1:2|0:0,0:0:0:0:
223,260,157459,1,2,3:2:0:0:
274,326,157550,2,0,L|281:242,1,77.9999964294435,10|0,0:0|0:0,0:0:0:0:
142,127,157732,5,2,3:2:0:0:
142,127,157823,2,0,P|65:117|-1:155,1,155.999992858887,2|0,1:2|3:0,0:0:0:0:
216,169,158096,2,0,L|222:91,1,77.9999964294435,8|0,0:0|0:0,0:0:0:0:
100,249,158278,5,2,3:2:0:0:
100,249,158368,2,0,B|208:205|267:306|267:306|325:406|430:364,1,389.999982147218,2|0,1:2|3:0,0:0:0:0:
440,272,158914,6,0,B|339:213|267:305|267:305|196:396|96:340,1,389.999982147218,2|0,1:2|0:0,0:0:0:0:
29,295,159368,5,2,3:2:0:0:
29,295,159459,1,2,1:2:0:0:
274,191,159641,1,0,3:0:0:0:
274,191,159732,1,10,0:0:0:0:
505,326,159914,5,2,3:2:0:0:
505,326,160005,1,6,1:2:0:0:
274,191,160187,1,0,3:0:0:0:
274,191,160278,1,12,0:0:0:0:
495,30,160459,5,0,3:0:0:0:
495,30,160550,2,0,L|489:108,1,77.9999964294435,6|0,1:2|0:0,0:0:0:0:
368,154,160732,1,2,0:0:0:0:
368,154,160823,2,0,B|440:128|438:208|513:183,1,155.999992858887,8|2,0:0|3:2,0:0:0:0:
391,229,161096,2,0,L|385:307,1,77.9999964294435,2|0,1:2|0:0,0:0:0:0:
485,340,161278,1,2,3:2:0:0:
485,340,161368,1,10,0:0:0:0:
237,383,161550,5,2,3:2:0:0:
237,383,161641,2,0,P|275:387|307:367,1,77.9999964294435,2|0,1:2|0:0,0:0:0:0:
195,318,161823,1,2,3:2:0:0:
195,318,161914,2,0,L|201:240,1,77.9999964294435,10|0,0:0|0:0,0:0:0:0:
141,193,162096,1,2,3:2:0:0:
141,193,162187,2,0,P|64:184|0:224,1,155.999992858887,2|0,1:2|3:0,0:0:0:0:
210,157,162459,2,0,L|222:1,1,155.999992858887,8|0,0:0|3:0,0:0:0:0:
134,30,162732,5,2,1:2:0:0:
373,115,162913,1,2,0:0:0:0:
373,115,163005,2,0,P|332:116|300:140,1,77.9999964294435,10|0,0:0|0:0,0:0:0:0:
441,171,163187,1,0,3:0:0:0:
441,171,163278,2,0,P|481:169|513:145,1,77.9999964294435,2|0,1:2|0:0,0:0:0:0:
365,197,163459,1,0,3:0:0:0:
365,197,163550,2,0,L|353:353,1,155.999992858887,10|2,0:0|3:2,0:0:0:0:
437,384,163823,1,2,1:2:0:0:
193,294,164005,5,2,3:2:0:0:
193,294,164096,2,0,L|187:372,1,77.9999964294435,10|0,0:0|0:0,0:0:0:0:
139,236,164278,5,2,3:2:0:0:
139,236,164368,1,2,1:2:0:0:
89,225,164459,1,8,0:3:0:0:
40,236,164550,1,8,0:3:0:0:
0,268,164640,1,8,0:0:0:0:
264,321,164823,5,2,0:0:0:0:
261,350,164914,1,2,1:2:0:0:
364,171,165368,5,2,0:0:0:0:
392,175,165459,1,2,0:0:0:0:
215,73,165914,5,2,0:0:0:0:
218,44,166005,1,2,0:0:0:0:
113,221,166459,5,2,0:0:0:0:
85,218,166550,1,2,0:0:0:0:
85,218,167005,5,2,0:0:0:0:
85,218,167096,2,0,B|169:225|169:225|190:256,1,120,2|0,1:2|0:0,0:0:0:0:
218,44,167368,2,0,B|211:128|211:128|181:148,1,120,8|0,0:0|0:0,0:0:0:0:
392,175,167641,2,0,B|308:168|308:168|287:137,1,120,8|0,0:0|0:0,0:0:0:0:
261,350,167914,2,0,B|268:266|268:266|297:245,1,120,8|0,0:0|0:0,0:0:0:0:
239,198,168187,5,2,0:3:0:0:
239,198,168459,1,2,0:3:0:0:
69,338,168732,5,2,0:0:0:0:
85,194,168914,1,2,0:0:0:0:
85,194,169005,1,2,0:0:0:0:
101,51,169187,1,2,0:0:0:0:
101,51,169278,6,0,P|48:42|0:63,1,107.999996704102,6|0,1:2|0:0,0:0:0:0:
171,79,169550,2,0,L|162:186,1,107.999996704102,10|0,0:0|0:0,0:0:0:0:
85,194,169823,5,2,1:2:0:0:
408,142,170005,1,0,3:0:0:0:
408,142,170096,1,10,0:0:0:0:
498,308,170278,5,2,3:2:0:0:
349,207,170550,1,2,3:2:0:0:
166,238,170823,6,0,B|204:232|204:232|264:268|264:268|299:261,1,143.999995605469,2|10,3:2|0:0,0:0:0:0:
82,168,171368,5,0,3:0:0:0:
82,168,171459,2,0,P|58:228|70:292,1,132.00000402832,2|0,1:2|0:0,0:0:0:0:
238,135,171732,2,0,P|186:175|165:237,1,132.00000402832,10|0,0:0|0:0,0:0:0:0:
389,184,172005,2,0,P|324:193|275:236,1,132.00000402832,2|0,1:2|0:0,0:0:0:0:
495,302,172278,2,0,P|434:278|370:290,1,132.00000402832,10|0,0:0|0:0,0:0:0:0:
503,171,172550,6,0,L|507:117,1,53.9999983520508,2|0,1:2|0:0,0:0:0:0:
398,76,172732,1,2,0:0:0:0:
398,76,172823,2,0,L|389:183,1,107.999996704102,10|0,0:0|0:0,0:0:0:0:
278,141,173096,2,0,L|283:88,1,53.9999983520508,2|0,1:2|0:0,0:0:0:0:
398,76,173278,1,0,3:0:0:0:
398,76,173368,1,8,0:0:0:0:
124,12,173641,5,2,1:2:0:0:
121,50,173732,1,2,0:0:0:0:
118,88,173823,1,2,1:2:0:0:
115,126,173914,2,0,P|61:129|20:162,1,107.999996704102,10|0,0:0|0:0,0:0:0:0:
97,215,174187,5,2,1:2:0:0:
420,155,174368,1,0,3:0:0:0:
420,155,174459,1,10,0:0:0:0:
276,58,174641,5,2,3:2:0:0:
264,232,174914,1,2,3:2:0:0:
408,329,175187,6,0,B|436:310|436:310|442:234|442:234|413:253,1,143.999995605469,2|10,3:2|0:0,0:0:0:0:
195,179,175732,5,0,3:0:0:0:
195,179,175823,2,0,P|131:169|73:198,1,132.00000402832,2|0,1:2|0:0,0:0:0:0:
275,142,176096,2,0,L|286:10,1,132.00000402832,10|0,0:0|0:0,0:0:0:0:
386,210,176368,6,0,P|450:220|508:191,1,132.00000402832,2|0,1:2|0:0,0:0:0:0:
307,249,176641,2,0,L|295:380,1,132.00000402832,10|0,0:0|0:0,0:0:0:0:
190,344,176914,5,2,1:2:0:0:
190,344,177005,1,2,0:0:0:0:
190,344,177096,1,2,0:0:0:0:
190,344,177187,2,0,P|146:336|106:356,1,90.0000034332277,10|0,0:0|0:0,0:0:0:0:
0,324,177459,2,0,L|3:279,1,45.0000017166138,2|0,1:2|0:0,0:0:0:0:
95,220,177641,1,0,3:0:0:0:
95,220,177732,2,0,P|138:227|178:207,1,90.0000034332277,8|0,0:0|3:0,0:0:0:0:
258,260,178005,6,0,B|388:205|373:346|510:288,1,270.000010299683,6|0,1:2|0:0,0:0:0:0:
