osu file format v14

[General]
AudioFilename: audio.mp3
AudioLeadIn: 0
PreviewTime: 40373
Countdown: 0
SampleSet: Soft
StackLeniency: 0.3
Mode: 0
LetterboxInBreaks: 0
WidescreenStoryboard: 1

[Editor]
Bookmarks: 13918,26191,28646,41191,42282,42464,42555,42737,42827,48191,54282,58646,63009,67373,76100,85918,103373,112100,127373,134374,147465,151829,160556,169284
DistanceSpacing: 1.1
BeatDivisor: 3
GridSize: 8
TimelineZoom: 2.499999

[Metadata]
Title:TRASH and TRASH!
TitleUnicode:トラッシュ・アンド・トラッシュ!
Artist:WADATAKEAKI (KurageP)
ArtistUnicode:和田たけあき (くらげP)
Creator:StrengeMistake
Version:Normal
Source:
Tags:くらげP electripper KurageP わたしの未成年観測 鏡音リン Kagamine Rin Vocaloid Japanese Rock Beren
BeatmapID:2820745
BeatmapSetID:1334881

[Difficulty]
HPDrainRate:3
CircleSize:2.5
OverallDifficulty:4
ApproachRate:6
SliderMultiplier:0.999999999999999
SliderTickRate:1

[Events]
//Background and Video events
0,0,"61209043_p0 (2).png",0,0
//Break Periods
2,58839,66317
2,103566,111044
//Storyboard Layer 0 (Background)
//Storyboard Layer 1 (Fail)
//Storyboard Layer 2 (Pass)
//Storyboard Layer 3 (Foreground)
//Storyboard Layer 4 (Overlay)
//Storyboard Sound Samples

[TimingPoints]
-269,272.727272727273,4,2,2,50,1,0
1094,-100,4,2,2,30,0,0
4094,-100,4,2,2,70,0,0
5185,-100,4,2,2,60,0,0
13912,-100,4,2,2,40,0,0
21276,-100,4,2,2,60,0,0
31367,-100,4,2,2,50,0,0
35731,-100,4,2,2,60,0,0
41185,-100,4,2,2,80,0,0
54276,-100,4,2,2,40,0,0
56458,-100,4,2,2,60,0,0
76094,-100,4,2,2,50,0,0
80458,-100,4,2,2,60,0,0
85912,-100,4,2,2,80,0,0
99003,-100,4,2,2,40,0,0
101185,-100,4,2,2,60,0,0
129549,294.117647058824,4,2,2,60,1,0
130725,319.148936170213,4,2,2,60,1,0
133278,272.727272727273,4,2,2,60,1,0
134368,-100,4,2,2,45,0,0
149641,-100,4,2,2,60,0,0
151823,-100,4,2,2,80,0,0
164914,-100,4,2,2,40,0,0
167096,-100,4,2,2,60,0,0
169278,-100,4,2,2,70,0,0
178550,-100,4,2,2,5,0,0

[Colours]
Combo1 : 255,153,0
Combo2 : 227,0,0
Combo3 : 198,227,0
Combo4 : 0,227,222

[HitObjects]
143,71,276,6,0,P|192:66|236:88,1,99.9999999999999,2|2,0:0|0:0,0:0:0:0:
344,67,821,2,0,L|339:185,1,99.9999999999999,6|0,1:2|1:0,0:0:0:0:
512,303,1640,5,0,1:0:0:0:
404,280,1912,2,0,P|349:276|306:303,1,99.9999999999999,2|2,0:3|1:3,0:0:0:0:
100,232,2731,5,0,1:0:0:0:
203,194,3003,2,0,L|198:293,1,99.9999999999999,2|2,0:3|1:3,0:0:0:0:
400,208,3821,5,0,1:0:0:0:
409,98,4094,1,10,0:0:0:0:
311,45,4367,1,10,0:0:0:0:
208,84,4640,1,10,0:0:0:0:
203,194,4912,1,0,1:0:0:0:
109,135,5185,6,0,P|59:128|10:146,1,99.9999999999999,2|10,1:2|0:0,0:0:0:0:
73,236,5731,2,0,L|69:336,1,99.9999999999999,2|10,1:2|0:0,0:0:0:0:
169,380,6276,1,0,1:0:0:0:
269,333,6549,1,8,0:0:0:0:
372,370,6821,2,0,L|376:270,1,99.9999999999999,0|10,1:0|0:0,0:0:0:0:
468,210,7367,5,2,1:2:0:0:
379,144,7640,1,10,0:0:0:0:
277,188,7912,1,2,1:2:0:0:
265,299,8185,1,10,0:0:0:0:
163,343,8458,2,0,P|117:324|67:329,1,99.9999999999999,2|10,1:2|0:0,0:0:0:0:
0,241,9003,2,0,L|4:141,1,99.9999999999999,2|8,1:2|0:0,0:0:0:0:
101,89,9549,6,0,P|150:84|196:103,1,99.9999999999999,2|10,1:2|0:0,0:0:0:0:
290,159,10094,2,0,P|339:163|385:144,1,99.9999999999999,2|10,1:2|0:0,0:0:0:0:
479,201,10640,1,0,1:0:0:0:
470,310,10912,1,8,0:0:0:0:
370,357,11185,2,0,P|320:352|274:371,1,99.9999999999999,0|10,1:0|0:0,0:0:0:0:
171,329,11731,5,2,1:2:0:0:
180,220,12003,1,10,0:0:0:0:
283,183,12276,1,2,1:2:0:0:
292,74,12548,1,10,0:0:0:0:
195,20,12821,2,0,P|145:15|99:34,1,99.9999999999999,2|10,1:2|0:0,0:0:0:0:
19,109,13367,2,0,L|15:209,1,99.9999999999999,2|8,1:2|0:0,0:0:0:0:
11,318,13912,5,6,1:2:0:0:
221,381,14458,1,2,1:2:0:0:
381,230,15003,2,0,P|363:276|368:325,1,99.9999999999999,2|0,1:2|3:0,0:0:0:0:
477,343,15549,2,0,P|494:296|489:247,1,99.9999999999999,2|0,1:2|3:0,0:0:0:0:
452,143,16094,5,2,1:2:0:0:
236,100,16640,2,0,L|239:0,2,99.9999999999999,2|2|2,1:2|3:2|1:2,0:0:0:0:
106,277,17731,2,0,P|56:272|10:291,2,99.9999999999999,2|2|2,1:2|3:2|1:2,0:0:0:0:
310,358,18821,2,0,P|360:363|406:344,2,99.9999999999999,2|2|2,1:2|3:2|1:2,0:0:0:0:
346,256,19640,1,2,3:2:0:0:
346,256,19912,1,2,1:2:0:0:
229,69,20458,6,0,P|179:63|133:81,1,99.9999999999999,2|2,1:2|3:2,0:0:0:0:
150,190,21004,2,0,P|199:194|245:177,1,99.9999999999999,2|2,1:2|3:1,0:0:0:0:
334,112,21549,2,0,P|383:106|429:124,2,99.9999999999999,6|0|0,1:2|1:0|0:0,0:0:0:0:
372,220,22367,1,8,0:0:0:0:
372,220,22640,6,0,L|369:320,1,99.9999999999999,2|8,1:2|0:0,0:0:0:0:
264,354,23185,2,0,L|267:254,1,99.9999999999999,2|8,1:2|0:0,0:0:0:0:
168,204,23731,2,0,P|118:199|72:218,2,99.9999999999999,2|10|2,1:2|0:0|1:2,0:0:0:0:
255,136,24549,1,10,0:0:0:0:
341,67,24821,6,0,B|359:79|359:79|355:162,1,99.9999999999999,2|10,1:2|0:0,0:0:0:0:
271,229,25367,2,0,B|252:239|252:239|248:322,1,99.9999999999999,2|10,1:2|0:0,0:0:0:0:
342,384,25912,1,2,1:2:0:0:
342,384,26185,1,10,0:0:0:0:
413,300,26458,6,0,P|463:305|509:286,2,99.9999999999999,2|10|2,1:2|0:0|1:2,0:0:0:0:
349,210,27276,1,8,0:0:0:0:
282,122,27549,2,0,P|232:117|186:136,1,99.9999999999999,2|10,1:2|0:0,0:0:0:0:
178,245,28094,2,0,L|175:345,1,99.9999999999999,2|10,1:2|0:0,0:0:0:0:
74,384,28640,1,2,1:2:0:0:
74,384,28912,1,10,0:0:0:0:
14,291,29185,6,0,B|-4:279|-4:279|0:196,1,99.9999999999999,2|10,1:2|0:0,0:0:0:0:
99,153,29731,2,0,B|118:143|118:143|122:60,1,99.9999999999999,2|10,1:2|0:0,0:0:0:0:
218,12,30276,1,2,1:2:0:0:
314,65,30549,1,12,0:0:0:0:
306,174,30821,1,12,0:0:0:0:
474,31,31367,6,0,B|429:116|531:122|490:220,1,200,6|10,1:2|0:0,0:0:0:0:
306,341,32458,2,0,P|209:321|122:366,1,200,2|8,1:2|0:0,0:0:0:0:
11,175,33549,6,0,B|107:130|108:240|197:197,1,200,2|10,1:2|0:0,0:0:0:0:
264,110,34367,1,2,1:2:0:0:
369,140,34640,2,0,L|363:340,1,200,2|8,1:2|0:0,0:0:0:0:
145,372,35731,6,0,P|160:324|154:275,1,99.9999999999999,6|10,1:2|0:0,0:0:0:0:
48,245,36276,2,0,P|38:196|49:147,1,99.9999999999999,2|10,1:2|0:0,0:0:0:0:
110,56,36821,2,0,B|161:43|161:43|206:55,1,99.9999999999999,2|10,1:2|0:0,0:0:0:0:
254,154,37367,2,0,B|299:166|299:166|350:153,1,99.9999999999999,2|10,1:2|0:0,0:0:0:0:
402,57,37912,5,6,1:2:0:0:
402,57,38185,1,8,0:0:0:0:
510,96,38458,1,8,0:0:0:0:
510,96,38731,1,8,0:0:0:0:
502,205,39003,2,0,L|494:325,1,99.9999999999999,2|0,1:2|1:0,0:0:0:0:
389,335,39549,2,0,L|397:215,1,99.9999999999999,0|0,1:0|1:0,0:0:0:0:
301,178,40094,1,0,0:0:0:0:
176,339,41185,6,0,P|130:356|82:342,1,99.9999999999999,6|8,1:2|0:0,0:0:0:0:
77,233,41731,2,0,P|122:215|170:229,1,99.9999999999999,2|8,1:2|0:0,0:0:0:0:
264,286,42276,2,0,B|290:306|290:306|287:400,2,99.9999999999999,2|10|2,1:2|0:0|1:2,0:0:0:0:
342,208,43094,1,8,0:0:0:0:
420,130,43367,6,0,B|394:110|394:110|397:16,2,99.9999999999999,2|10|2,1:2|0:0|1:2,0:0:0:0:
512,189,44185,1,10,0:0:0:0:
493,297,44458,2,0,P|442:289|396:305,1,99.9999999999999,2|10,1:2|0:0,0:0:0:0:
305,365,45003,1,2,1:2:0:0:
206,315,45276,1,8,0:0:0:0:
110,369,45549,6,0,P|61:377|14:361,1,99.9999999999999,2|10,1:2|0:0,0:0:0:0:
19,251,46094,2,0,L|27:139,1,99.9999999999999,2|8,1:2|0:0,0:0:0:0:
133,124,46640,1,2,1:2:0:0:
219,191,46912,1,10,0:0:0:0:
208,300,47185,1,2,1:2:0:0:
299,360,47458,1,8,0:0:0:0:
401,318,47731,6,0,P|390:269|396:219,1,99.9999999999999,2|8,1:2|0:0,0:0:0:0:
501,188,48276,2,0,P|506:138|496:89,1,99.9999999999999,2|8,1:2|0:0,0:0:0:0:
399,36,48821,1,2,1:2:0:0:
292,64,49094,1,10,0:0:0:0:
197,7,49367,1,6,1:2:0:0:
90,35,49640,1,12,0:0:0:0:
51,137,49912,6,0,B|39:145|39:145|34:237,1,99.9999999999999,6|8,1:2|0:0,0:0:0:0:
129,286,50458,2,0,B|141:278|141:278|146:186,1,99.9999999999999,2|10,1:2|0:0,0:0:0:0:
248,154,51003,1,2,1:2:0:0:
346,202,51276,1,10,0:0:0:0:
448,161,51549,2,0,B|458:174|458:174|451:257,1,99.9999999999999,2|8,1:2|0:0,0:0:0:0:
400,355,52094,6,0,P|448:344|493:363,2,99.9999999999999,2|10|2,1:2|0:0|1:2,0:0:0:0:
309,291,52912,1,10,0:0:0:0:
210,339,53185,1,2,1:2:0:0:
118,277,53458,1,10,0:0:0:0:
125,167,53731,1,2,1:2:0:0:
224,119,54003,1,8,0:0:0:0:
316,181,54276,5,2,1:2:0:0:
498,59,54821,1,2,0:0:0:0:
507,279,55367,1,2,0:0:0:0:
313,382,55912,1,2,0:0:0:0:
129,259,56458,6,0,P|80:256|34:273,1,99.9999999999999,2|8,1:2|0:0,0:0:0:0:
97,363,57003,2,0,P|146:366|192:349,1,99.9999999999999,8|8,0:0|0:0,0:0:0:0:
453,145,58094,6,0,L|459:45,2,99.9999999999999,2|2|6,0:0|0:0|1:2,0:0:0:0:
97,236,67367,6,0,P|145:226|191:244,1,99.9999999999999,6|8,1:2|0:0,0:0:0:0:
292,288,67912,2,0,P|337:269|386:279,1,99.9999999999999,2|8,1:2|0:0,0:0:0:0:
483,227,68458,1,2,1:2:0:0:
457,119,68731,2,0,L|465:7,2,99.9999999999999,10|2|10,0:0|1:2|0:0,0:0:0:0:
354,158,69549,6,0,P|305:148|260:167,1,99.9999999999999,2|10,1:2|0:0,0:0:0:0:
158,126,70094,2,0,P|112:106|64:116,1,99.9999999999999,2|10,1:2|0:0,0:0:0:0:
103,220,70640,2,0,L|96:320,1,99.9999999999999,2|8,1:2|0:0,0:0:0:0:
195,379,71185,1,2,1:2:0:0:
195,379,71458,1,10,0:0:0:0:
292,327,71731,6,0,P|340:317|385:336,1,99.9999999999999,2|8,1:2|0:0,0:0:0:0:
489,300,72276,2,0,L|496:200,1,99.9999999999999,2|10,1:2|0:0,0:0:0:0:
410,131,72821,2,0,L|417:31,2,99.9999999999999,2|10|2,1:2|0:0|1:2,0:0:0:0:
312,182,73640,1,10,0:0:0:0:
218,124,73912,6,0,P|172:143|124:133,1,99.9999999999999,2|10,1:2|0:0,0:0:0:0:
24,174,74458,1,2,1:2:0:0:
24,174,74731,1,10,0:0:0:0:
81,267,75003,2,0,L|74:367,2,99.9999999999999,2|10|2,1:2|0:0|1:2,0:0:0:0:
301,282,76094,6,0,P|364:288|294:340,1,200,6|10,1:2|0:0,0:0:0:0:
116,226,77185,2,0,L|128:12,1,200,2|8,1:2|0:0,0:0:0:0:
328,116,78276,6,0,B|323:190|323:190|341:222|341:222|336:312,1,200,2|10,1:2|0:0,0:0:0:0:
237,360,79094,1,2,1:2:0:0:
136,315,79367,2,0,P|90:249|169:259,1,200,2|8,1:2|0:0,0:0:0:0:
363,363,80458,6,0,P|378:315|372:266,1,99.9999999999999,6|10,1:2|0:0,0:0:0:0:
263,247,81003,2,0,L|163:235,1,99.9999999999999,2|10,1:2|0:0,0:0:0:0:
57,205,81549,2,0,P|50:155|66:108,1,99.9999999999999,2|10,1:2|0:0,0:0:0:0:
170,75,82094,2,0,L|269:63,1,99.9999999999999,2|10,1:2|0:0,0:0:0:0:
375,24,82640,5,6,1:2:0:0:
375,24,82912,1,8,0:0:0:0:
436,122,83185,1,8,0:0:0:0:
436,122,83458,1,8,0:0:0:0:
355,198,83731,2,0,L|349:302,1,99.9999999999999,2|0,1:2|1:0,0:0:0:0:
267,371,84276,2,0,P|217:364|170:380,1,99.9999999999999,0|0,1:0|1:0,0:0:0:0:
70,333,84821,1,0,0:0:0:0:
140,115,85912,6,0,P|93:112|46:133,1,99.9999999999999,6|8,1:2|0:0,0:0:0:0:
114,220,86458,2,0,P|161:223|208:202,1,99.9999999999999,2|8,1:2|0:0,0:0:0:0:
248,99,87003,2,0,L|257:-23,2,99.9999999999999,2|10|2,1:2|0:0|1:2,0:0:0:0:
312,188,87821,1,8,0:0:0:0:
376,277,88094,6,0,L|367:399,2,99.9999999999999,2|10|2,1:2|0:0|1:2,0:0:0:0:
485,263,88912,1,10,0:0:0:0:
501,154,89185,2,0,P|456:131|407:131,1,99.9999999999999,2|10,1:2|0:0,0:0:0:0:
312,188,89731,2,0,L|206:179,1,99.9999999999999,2|8,1:2|0:0,0:0:0:0:
124,246,90276,6,0,P|126:297|105:339,1,99.9999999999999,6|8,1:2|0:0,0:0:0:0:
18,271,90821,2,0,P|16:220|37:178,1,99.9999999999999,2|8,1:2|0:0,0:0:0:0:
47,67,91367,1,2,1:2:0:0:
146,19,91640,1,10,0:0:0:0:
236,81,91912,1,2,1:2:0:0:
335,33,92185,1,8,0:0:0:0:
426,94,92458,6,0,P|436:142|417:188,1,99.9999999999999,2|8,1:2|0:0,0:0:0:0:
511,243,93003,2,0,L|502:365,1,99.9999999999999,2|8,1:2|0:0,0:0:0:0:
399,306,93549,1,2,1:2:0:0:
305,363,93821,1,10,0:0:0:0:
211,304,94094,1,6,1:2:0:0:
117,361,94366,1,12,0:0:0:0:
15,317,94640,6,0,P|23:268|11:219,1,99.9999999999999,6|8,1:2|0:0,0:0:0:0:
96,150,95185,2,0,P|86:101|100:53,1,99.9999999999999,2|10,1:2|0:0,0:0:0:0:
203,16,95731,1,2,1:2:0:0:
304,56,96003,1,10,0:0:0:0:
406,15,96276,2,0,P|415:63|401:111,1,99.9999999999999,2|8,1:2|0:0,0:0:0:0:
415,220,96821,6,0,B|432:214|432:214|519:233,2,99.9999999999999,2|10|2,1:2|0:0|1:2,0:0:0:0:
311,259,97640,1,10,0:0:0:0:
219,198,97912,1,2,1:2:0:0:
121,248,98185,1,10,0:0:0:0:
29,187,98457,1,2,1:2:0:0:
40,77,98731,1,10,0:0:0:0:
142,36,99003,5,2,1:2:0:0:
358,86,99549,1,2,0:0:0:0:
308,302,100094,1,2,0:0:0:0:
92,252,100640,1,2,0:0:0:0:
142,36,101185,6,0,P|123:81|130:135,1,99.9999999999999,2|8,1:2|0:0,0:0:0:0:
237,151,101731,2,0,P|254:104|248:51,1,99.9999999999999,8|8,0:0|0:0,0:0:0:0:
471,299,102821,6,0,P|405:297|360:320,2,99.9999999999999,2|2|6,0:0|0:0|1:2,0:0:0:0:
465,304,112094,6,0,P|370:287|288:341,1,200,6|10,1:2|0:0,0:0:0:0:
74,284,113185,2,0,L|66:399,2,99.9999999999999,2|2|2,1:2|1:2|1:2,0:0:0:0:
17,71,114276,6,0,B|119:32|115:128|215:82,1,200,2|10,1:2|0:0,0:0:0:0:
308,40,115094,1,2,1:2:0:0:
404,93,115367,2,0,L|398:201,1,99.9999999999999,2|10,1:2|0:0,0:0:0:0:
298,238,115912,2,0,L|292:346,1,99.9999999999999,2|10,1:2|0:0,0:0:0:0:
398,369,116458,6,0,P|473:338|403:296,1,200,6|10,1:2|0:0,0:0:0:0:
195,369,117549,2,0,P|142:357|98:373,2,99.9999999999999,2|2|2,1:2|1:2|1:2,0:0:0:0:
373,240,118640,6,0,B|290:246|290:246|258:228|258:228|178:232,1,200,2|10,1:2|0:0,0:0:0:0:
74,270,119458,1,2,1:2:0:0:
3,183,119731,2,0,P|-5:135|6:87,1,99.9999999999999,2|10,1:2|0:0,0:0:0:0:
94,20,120276,2,0,B|213:13,1,99.9999999999999,2|10,1:2|0:0,0:0:0:0:
295,56,120821,6,0,B|290:135|290:135|308:167|308:167|302:250,1,200,6|10,1:2|0:0,0:0:0:0:
87,299,121912,2,0,L|93:191,2,99.9999999999999,2|2|2,1:2|1:2|1:2,0:0:0:0:
291,380,123003,6,0,P|382:342|479:357,1,200,2|10,1:2|0:0,0:0:0:0:
512,252,123821,1,2,1:2:0:0:
483,145,124094,2,0,P|435:132|387:144,1,99.9999999999999,2|10,1:2|0:0,0:0:0:0:
278,159,124640,2,0,P|230:172|182:159,1,99.9999999999999,2|10,1:2|0:0,0:0:0:0:
77,125,125185,6,0,L|65:339,1,200,6|10,1:2|0:0,0:0:0:0:
281,370,126276,2,0,P|271:331|289:267,2,99.9999999999999,2|2|2,1:2|1:2|1:2,0:0:0:0:
496,325,127367,1,2,1:2:0:0:
161,136,129549,6,0,P|111:133|65:151,1,99.9999999999999,10|0,0:0|0:0,0:0:0:0:
129,240,130137,2,0,P|178:242|224:224,1,99.9999999999999,10|0,0:0|0:0,0:0:0:0:
302,159,130725,6,0,L|307:52,1,99.9999999999999,10|0,0:0|0:0,0:0:0:0:
408,100,131363,2,0,L|403:207,1,99.9999999999999,10|0,0:0|0:0,0:0:0:0:
396,309,132001,1,6,0:0:0:0:
256,192,132107,12,6,133278,0:0:0:0:
402,12,134368,6,0,L|412:132,1,99.9999999999999,0|8,1:0|0:0,0:0:0:0:
311,158,134914,2,0,L|301:278,1,99.9999999999999,0|8,1:0|0:0,0:0:0:0:
399,313,135459,2,0,P|448:306|494:323,2,99.9999999999999,0|8|0,1:0|0:0|1:0,0:0:0:0:
303,367,136278,1,8,0:0:0:0:
208,313,136550,6,0,P|161:295|112:302,2,99.9999999999999,0|8|0,1:0|0:0|1:0,0:0:0:0:
303,258,137368,1,8,0:0:0:0:
398,203,137641,2,0,L|408:83,1,99.9999999999999,0|8,1:0|0:0,0:0:0:0:
319,45,138187,1,0,1:0:0:0:
319,45,138459,1,8,0:0:0:0:
214,80,138732,6,0,P|165:71|117:83,1,99.9999999999999,0|8,1:0|0:0,0:0:0:0:
15,127,139278,2,0,L|6:236,1,99.9999999999999,0|8,1:0|0:0,0:0:0:0:
99,285,139823,2,0,L|90:394,2,99.9999999999999,0|8|0,1:0|0:0|1:0,0:0:0:0:
200,242,140641,1,8,0:0:0:0:
292,302,140914,6,0,P|340:310|388:298,1,99.9999999999999,0|8,1:0|0:0,0:0:0:0:
491,255,141459,2,0,L|500:146,1,99.9999999999999,0|8,1:0|0:0,0:0:0:0:
415,92,142005,1,0,1:0:0:0:
415,92,142278,1,8,0:0:0:0:
315,130,142550,1,0,1:0:0:0:
315,130,142823,1,8,0:0:0:0:
222,70,143096,6,0,P|173:61|125:73,1,99.9999999999999,0|8,1:0|0:0,0:0:0:0:
175,171,143641,2,0,L|166:280,1,99.9999999999999,0|8,1:0|0:0,0:0:0:0:
215,368,144187,2,0,P|167:380|119:371,1,99.9999999999999,0|8,1:0|0:0,0:0:0:0:
33,311,144732,1,0,1:0:0:0:
33,311,145005,1,8,0:0:0:0:
75,209,145278,6,0,L|84:100,2,99.9999999999999,0|8|0,1:0|0:0|1:0,0:0:0:0:
178,247,146096,1,8,0:0:0:0:
281,285,146368,2,0,L|272:394,2,99.9999999999999,0|8|0,1:0|0:0|1:0,0:0:0:0:
384,323,147187,1,8,0:0:0:0:
482,273,147459,5,4,1:2:0:0:
492,51,148005,1,4,1:2:0:0:
295,154,148550,1,4,1:2:0:0:
285,376,149096,1,4,1:2:0:0:
482,272,149641,6,0,P|437:250|387:253,1,99.9999999999999,6|10,1:2|0:0,0:0:0:0:
329,158,150187,2,0,P|288:185|265:230,1,99.9999999999999,10|10,0:0|0:0,0:0:0:0:
153,233,150732,2,0,P|156:282|183:323,1,99.9999999999999,10|10,0:0|0:0,0:0:0:0:
285,366,151278,1,2,0:3:0:0:
478,261,151823,6,0,P|500:215|497:166,1,99.9999999999999,6|8,1:2|0:0,0:0:0:0:
412,97,152369,2,0,P|389:140|391:190,1,99.9999999999999,2|8,1:2|0:0,0:0:0:0:
301,253,152914,2,0,L|295:352,2,99.9999999999999,2|10|2,1:2|0:0|1:2,0:0:0:0:
206,196,153732,1,8,0:0:0:0:
111,139,154005,6,0,L|117:38,2,99.9999999999999,2|10|2,1:2|0:0|1:2,0:0:0:0:
12,188,154823,1,10,0:0:0:0:
6,300,155096,1,2,1:2:0:0:
98,359,155368,1,10,0:0:0:0:
194,306,155641,1,2,1:2:0:0:
283,370,155914,1,8,0:0:0:0:
381,321,156187,6,0,B|401:343|401:343|476:352,1,99.9999999999999,6|8,1:2|0:0,0:0:0:0:
494,243,156732,2,0,P|509:195|503:146,1,99.9999999999999,2|8,1:2|0:0,0:0:0:0:
398,181,157278,1,2,1:2:0:0:
297,137,157550,1,10,0:0:0:0:
193,175,157823,2,0,P|186:125|201:78,1,99.9999999999999,2|8,1:2|0:0,0:0:0:0:
292,17,158368,6,0,B|316:10|316:10|389:25,1,99.9999999999999,2|8,1:2|0:0,0:0:0:0:
492,65,158914,2,0,P|506:112|499:161,1,99.9999999999999,2|8,1:2|0:0,0:0:0:0:
405,219,159459,1,2,1:2:0:0:
301,182,159732,1,10,0:0:0:0:
203,232,160005,1,6,1:2:0:0:
98,195,160278,1,12,0:0:0:0:
6,253,160550,6,0,P|-1:302|13:349,1,99.9999999999999,6|8,1:2|0:0,0:0:0:0:
121,371,161096,2,0,B|194:356|194:356|218:363,1,99.9999999999999,2|10,1:2|0:0,0:0:0:0:
319,320,161641,1,2,1:2:0:0:
424,350,161914,1,10,0:0:0:0:
507,277,162187,2,0,P|514:227|499:180,1,99.9999999999999,2|8,1:2|0:0,0:0:0:0:
424,100,162732,6,0,L|431:-5,2,99.9999999999999,2|10|2,1:2|0:0|1:2,0:0:0:0:
324,147,163550,1,10,0:0:0:0:
233,83,163823,1,2,1:2:0:0:
132,129,164096,1,10,0:0:0:0:
124,240,164368,1,2,1:2:0:0:
215,304,164641,1,10,0:0:0:0:
316,258,164914,5,2,1:2:0:0:
334,38,165459,1,2,0:0:0:0:
114,20,166005,1,2,0:0:0:0:
96,240,166550,1,2,0:0:0:0:
316,258,167095,6,0,P|323:209|304:164,1,99.9999999999999,2|8,1:2|0:0,0:0:0:0:
213,225,167641,2,0,P|207:275|225:321,1,99.9999999999999,8|8,0:0|0:0,0:0:0:0:
458,87,168732,5,2,0:0:0:0:
448,196,169005,1,2,0:0:0:0:
438,305,169278,6,0,P|388:298|340:311,1,99.9999999999999,6|10,1:2|0:0,0:0:0:0:
246,367,169823,2,0,P|196:372|148:359,1,99.9999999999999,2|10,1:2|0:0,0:0:0:0:
52,304,170368,1,0,1:0:0:0:
59,194,170641,1,8,0:0:0:0:
159,147,170914,2,0,L|165:34,1,99.9999999999999,0|10,1:0|0:0,0:0:0:0:
266,6,171459,5,2,1:2:0:0:
357,65,171732,1,10,0:0:0:0:
350,175,172005,1,2,1:2:0:0:
252,223,172278,1,10,0:0:0:0:
244,332,172550,2,0,P|290:352|340:350,1,99.9999999999999,2|10,1:2|0:0,0:0:0:0:
442,311,173096,2,0,L|448:198,1,99.9999999999999,2|8,1:2|0:0,0:0:0:0:
363,140,173641,6,0,L|369:27,1,99.9999999999999,2|10,1:2|0:0,0:0:0:0:
262,7,174187,2,0,P|212:5|166:25,1,99.9999999999999,2|10,1:2|0:0,0:0:0:0:
66,69,174732,1,0,1:0:0:0:
57,178,175005,1,8,0:0:0:0:
153,230,175278,2,0,L|147:343,1,99.9999999999999,0|10,1:0|0:0,0:0:0:0:
246,378,175823,5,2,1:2:0:0:
255,269,176096,1,10,0:0:0:0:
354,223,176368,1,2,1:2:0:0:
363,114,176641,1,10,0:0:0:0:
272,55,176914,2,0,P|226:36|176:41,1,99.9999999999999,2|10,1:2|0:0,0:0:0:0:
79,93,177459,2,0,L|73:206,1,99.9999999999999,2|8,1:2|0:0,0:0:0:0:
155,267,178005,6,0,B|256:235|250:326|354:297,1,200,6|0,1:2|0:0,0:0:0:0:
