osu file format v14

[General]
AudioFilename: audio.mp3
AudioLeadIn: 0
PreviewTime: 50058
Countdown: 0
SampleSet: Soft
StackLeniency: 0.7
Mode: 3
LetterboxInBreaks: 0
SpecialStyle: 0
WidescreenStoryboard: 1

[Editor]
DistanceSpacing: 0.8
BeatDivisor: 4
GridSize: 8
TimelineZoom: 1

[Metadata]
Title:William Tell Overture
TitleUnicode:William Tell Overture
Artist:W.T. Orchestra
ArtistUnicode:W.T. Orchestra
Creator:- Ly0572 -
Version:Yeet
Source:
Tags:
BeatmapID:1760134
BeatmapSetID:794835

[Difficulty]
HPDrainRate:8
CircleSize:5
OverallDifficulty:8
ApproachRate:5
SliderMultiplier:1.4
SliderTickRate:1

[Events]
//Background and Video events
0,0,"HDbg.jpg",0,0
//Break Periods
//Storyboard Layer 0 (Background)
//Storyboard Layer 1 (Fail)
//Storyboard Layer 2 (Pass)
//Storyboard Layer 3 (Foreground)
//Storyboard Sound Samples

[TimingPoints]
386,500,4,2,1,60,1,0
386,-63.157895,4,2,1,60,0,0
14143,480,4,2,1,60,1,0
14143,-65.789474,4,2,1,60,0,0
14383,480,4,2,1,60,1,0
14383,-65.789474,4,2,1,60,0,0
17983,476.190476190476,4,2,1,60,1,0
17983,-66.315789,4,2,1,60,0,0
18221,476.190476190476,4,2,1,60,1,0
18221,-66.315789,4,2,1,60,0,0
21799,472.44094488189,4,2,1,60,1,0
21799,-66.842105,4,2,1,60,0,0
22035,472.44094488189,4,2,1,60,1,0
22035,-66.842105,4,2,1,60,0,0
25578,468.75,4,2,1,60,1,0
25578,-67.368421,4,2,1,60,0,0
25812,468.75,4,2,1,60,1,0
25812,-67.368421,4,2,1,60,0,0
29328,458.015267175573,4,2,1,60,1,0
29328,-68.947368,4,2,1,60,0,0
29557,458.015267175573,4,2,1,60,1,0
29557,-68.947368,4,2,1,60,0,0
32992,449.438202247191,4,2,1,60,1,0
32992,-70.263158,4,2,1,60,0,0
33216,449.438202247191,4,2,1,60,1,0
33216,-70.263158,4,2,1,60,0,0
36587,444.444444444444,4,2,1,60,1,0
36587,-71.052632,4,2,1,60,0,0
36809,444.444444444444,4,2,1,60,1,0
36809,-71.052632,4,2,1,60,0,0
40142,434.782608695652,4,2,1,60,1,0
40142,-72.631579,4,2,1,60,0,0
40359,434.782608695652,4,2,1,60,1,0
40359,-72.631579,4,2,1,60,0,0
43620,421.052631578947,4,2,1,60,1,0
43620,-75,4,2,1,60,0,0
43830,421.052631578947,4,2,1,60,1,0
43830,-75,4,2,1,60,0,0
46988,409.556313993174,4,2,1,60,1,0
46988,-77.105263,4,2,1,60,0,0
47192,409.556313993174,4,2,1,60,1,0
47192,-77.105263,4,2,1,60,0,0
50263,400,4,2,1,60,1,0
50263,-78.947368,4,2,1,60,0,0
50463,400,4,2,1,60,1,0
50463,-78.947368,4,2,1,60,0,0
53463,388.349514563107,4,2,1,60,1,0
53463,-81.315789,4,2,1,60,0,0
53657,388.349514563107,4,2,1,60,1,0
53657,-81.315789,4,2,1,60,0,0
56569,378.548895899054,4,2,1,60,1,0
56569,-83.421053,4,2,1,60,0,0
56758,378.548895899054,4,2,1,60,1,0
56758,-83.421053,4,2,1,60,0,0
59597,372.670807453416,4,2,1,60,1,0
59597,-84.736842,4,2,1,60,0,0
59783,372.670807453416,4,2,1,60,1,0
59783,-84.736842,4,2,1,60,0,0
62016,363.636363636364,4,2,1,60,1,0
62016,-86.842105,4,2,1,60,0,0
63473,361.44578313253,4,2,1,60,1,0
63473,-87.368421,4,2,1,60,0,0
64918,355.029585798817,4,2,1,60,1,0
64918,-88.947368,4,2,1,60,0,0
66338,352.941176470588,4,2,1,60,1,0
66338,-89.473684,4,2,1,60,0,0
67749,344.827586206897,4,2,1,60,1,0
67749,-91.578947,4,2,1,60,0,0
70507,340.909090909091,4,2,1,10,1,0
70507,-92.631579,4,2,1,10,0,0
71870,337.078651685393,4,2,1,10,1,0
71870,-93.684211,4,2,1,10,0,0
73218,331.491712707182,4,2,1,10,1,0
73218,-95.263158,4,2,1,10,0,0
74543,329.67032967033,4,2,1,10,1,0
74543,-95.789474,4,2,1,10,0,0
75861,326.086956521739,4,2,1,60,1,0
75861,-96.842105,4,2,1,60,0,0
77165,322.58064516129,4,2,1,60,1,0
77165,-97.894737,4,2,1,60,0,0
78455,317.460317460317,4,2,1,60,1,0
78455,-99.473684,4,2,1,60,0,0
79724,315.789473684211,4,2,1,60,1,0
79724,-100,4,2,1,60,0,0

[HitObjects]
256,192,14136,5,0,0:0:0:0:
358,192,14263,1,0,0:0:0:0:
460,192,14383,1,0,0:0:0:0:
153,192,14383,1,0,0:0:0:0:
51,192,14383,1,0,0:0:0:0:
256,192,14623,1,0,0:0:0:0:
358,192,14743,1,0,0:0:0:0:
460,192,14863,1,0,0:0:0:0:
153,192,14863,1,0,0:0:0:0:
256,192,15103,1,0,0:0:0:0:
358,192,15223,1,0,0:0:0:0:
460,192,15343,1,0,0:0:0:0:
153,192,15343,1,0,0:0:0:0:
358,192,15583,1,0,0:0:0:0:
256,192,15583,1,0,0:0:0:0:
153,192,15823,1,0,0:0:0:0:
460,192,15823,1,0,0:0:0:0:
256,192,16063,5,0,0:0:0:0:
358,192,16183,1,0,0:0:0:0:
153,192,16303,1,0,0:0:0:0:
460,192,16303,1,0,0:0:0:0:
256,192,16543,1,0,0:0:0:0:
358,192,16663,1,0,0:0:0:0:
153,192,16783,1,0,0:0:0:0:
460,192,16783,1,0,0:0:0:0:
256,192,17023,1,0,0:0:0:0:
358,192,17143,1,0,0:0:0:0:
460,192,17263,1,0,0:0:0:0:
153,192,17263,1,0,0:0:0:0:
256,192,17503,1,0,0:0:0:0:
358,192,17503,1,0,0:0:0:0:
460,192,17743,1,0,0:0:0:0:
153,192,17743,1,0,0:0:0:0:
256,192,17983,5,0,0:0:0:0:
358,192,18102,1,0,0:0:0:0:
460,192,18221,1,0,0:0:0:0:
153,192,18221,1,0,0:0:0:0:
51,192,18221,1,0,0:0:0:0:
256,192,18459,1,0,0:0:0:0:
358,192,18578,1,0,0:0:0:0:
460,192,18697,1,0,0:0:0:0:
153,192,18697,1,0,0:0:0:0:
256,192,18935,1,0,0:0:0:0:
358,192,19054,1,0,0:0:0:0:
460,192,19173,1,0,0:0:0:0:
153,192,19173,1,0,0:0:0:0:
358,192,19411,1,0,0:0:0:0:
256,192,19411,1,0,0:0:0:0:
153,192,19649,1,0,0:0:0:0:
460,192,19649,1,0,0:0:0:0:
256,192,19887,1,0,0:0:0:0:
358,192,20006,1,0,0:0:0:0:
51,192,20125,1,0,0:0:0:0:
460,192,20125,1,0,0:0:0:0:
358,192,20185,1,0,0:0:0:0:
256,192,20244,1,0,0:0:0:0:
153,192,20304,1,0,0:0:0:0:
51,192,20363,1,0,0:0:0:0:
460,192,20363,1,0,0:0:0:0:
358,192,20423,1,0,0:0:0:0:
256,192,20482,1,0,0:0:0:0:
153,192,20542,1,0,0:0:0:0:
460,192,20601,1,0,0:0:0:0:
51,192,20601,1,0,0:0:0:0:
358,192,20721,128,0,20840:0:0:0:0:
153,192,20840,128,0,20959:0:0:0:0:
256,192,20959,128,0,21078:0:0:0:0:
358,192,21078,1,0,0:0:0:0:
460,192,21078,1,0,0:0:0:0:
51,192,21078,1,0,0:0:0:0:
256,192,21316,1,0,0:0:0:0:
153,192,21316,1,0,0:0:0:0:
358,192,21554,1,0,0:0:0:0:
460,192,21554,1,0,0:0:0:0:
51,192,21554,1,0,0:0:0:0:
256,192,21799,5,0,0:0:0:0:
153,192,21917,1,0,0:0:0:0:
358,192,22035,1,0,0:0:0:0:
51,192,22035,1,0,0:0:0:0:
256,192,22271,1,0,0:0:0:0:
153,192,22389,1,0,0:0:0:0:
358,192,22507,1,0,0:0:0:0:
51,192,22507,1,0,0:0:0:0:
256,192,22743,1,0,0:0:0:0:
153,192,22861,1,0,0:0:0:0:
358,192,22979,1,0,0:0:0:0:
51,192,22979,1,0,0:0:0:0:
256,192,23216,1,0,0:0:0:0:
153,192,23216,1,0,0:0:0:0:
51,192,23452,1,0,0:0:0:0:
358,192,23452,1,0,0:0:0:0:
256,192,23688,5,0,0:0:0:0:
153,192,23806,1,0,0:0:0:0:
51,192,23924,1,0,0:0:0:0:
358,192,23924,1,0,0:0:0:0:
256,192,24160,1,0,0:0:0:0:
153,192,24279,1,0,0:0:0:0:
51,192,24397,1,0,0:0:0:0:
358,192,24397,1,0,0:0:0:0:
256,192,24633,1,0,0:0:0:0:
153,192,24751,1,0,0:0:0:0:
51,192,24869,1,0,0:0:0:0:
358,192,24869,1,0,0:0:0:0:
153,192,25105,1,0,0:0:0:0:
256,192,25105,1,0,0:0:0:0:
358,192,25342,1,0,0:0:0:0:
51,192,25342,1,0,0:0:0:0:
256,192,25578,5,0,0:0:0:0:
153,192,25695,1,0,0:0:0:0:
358,192,25812,1,0,0:0:0:0:
51,192,25812,1,0,0:0:0:0:
460,192,25812,1,0,0:0:0:0:
256,192,26046,1,0,0:0:0:0:
153,192,26163,1,0,0:0:0:0:
358,192,26280,1,0,0:0:0:0:
51,192,26280,1,0,0:0:0:0:
256,192,26515,1,0,0:0:0:0:
153,192,26632,1,0,0:0:0:0:
358,192,26749,1,0,0:0:0:0:
51,192,26749,1,0,0:0:0:0:
256,192,26983,1,0,0:0:0:0:
153,192,26983,1,0,0:0:0:0:
51,192,27218,1,0,0:0:0:0:
358,192,27218,1,0,0:0:0:0:
256,192,27452,1,0,0:0:0:0:
153,192,27569,1,0,0:0:0:0:
460,192,27687,1,0,0:0:0:0:
51,192,27687,1,0,0:0:0:0:
153,192,27745,1,0,0:0:0:0:
256,192,27804,1,0,0:0:0:0:
358,192,27862,1,0,0:0:0:0:
460,192,27921,1,0,0:0:0:0:
51,192,27979,1,0,0:0:0:0:
153,192,28038,1,0,0:0:0:0:
256,192,28097,1,0,0:0:0:0:
358,192,28155,1,0,0:0:0:0:
460,192,28155,1,0,0:0:0:0:
153,192,28272,128,0,28390:0:0:0:0:
358,192,28390,128,0,28507:0:0:0:0:
256,192,28507,128,0,28624:0:0:0:0:
153,192,28624,1,0,0:0:0:0:
51,192,28624,1,0,0:0:0:0:
460,192,28624,1,0,0:0:0:0:
256,192,28858,1,0,0:0:0:0:
358,192,28858,1,0,0:0:0:0:
153,192,29093,1,0,0:0:0:0:
51,192,29093,1,0,0:0:0:0:
460,192,29093,1,0,0:0:0:0:
51,192,29327,1,0,0:0:0:0:
153,192,29442,1,0,0:0:0:0:
256,192,29557,1,0,0:0:0:0:
358,192,29557,1,0,0:0:0:0:
460,192,29557,1,0,0:0:0:0:
51,192,29786,1,0,0:0:0:0:
153,192,29900,1,0,0:0:0:0:
256,192,30015,1,0,0:0:0:0:
358,192,30015,1,0,0:0:0:0:
460,192,30015,1,0,0:0:0:0:
51,192,30244,1,0,0:0:0:0:
153,192,30358,1,0,0:0:0:0:
256,192,30473,1,0,0:0:0:0:
358,192,30473,1,0,0:0:0:0:
460,192,30473,1,0,0:0:0:0:
460,192,30702,1,0,0:0:0:0:
153,192,30702,1,0,0:0:0:0:
51,192,30702,1,0,0:0:0:0:
256,192,30931,1,0,0:0:0:0:
358,192,30931,1,0,0:0:0:0:
153,192,31160,1,0,0:0:0:0:
460,192,31160,1,0,0:0:0:0:
51,192,31160,1,0,0:0:0:0:
358,192,31389,1,0,0:0:0:0:
256,192,31389,1,0,0:0:0:0:
153,192,31618,1,0,0:0:0:0:
460,192,31618,1,0,0:0:0:0:
51,192,31618,1,0,0:0:0:0:
256,192,31847,1,0,0:0:0:0:
358,192,31847,1,0,0:0:0:0:
153,192,32076,1,0,0:0:0:0:
460,192,32076,1,0,0:0:0:0:
51,192,32076,1,0,0:0:0:0:
256,192,32305,1,0,0:0:0:0:
358,192,32305,1,0,0:0:0:0:
256,192,32534,1,0,0:0:0:0:
358,192,32534,1,0,0:0:0:0:
153,192,32763,1,0,0:0:0:0:
460,192,32763,1,0,0:0:0:0:
51,192,32763,1,0,0:0:0:0:
460,192,32992,1,0,0:0:0:0:
358,192,33104,1,0,0:0:0:0:
256,192,33216,1,0,0:0:0:0:
153,192,33216,1,0,0:0:0:0:
51,192,33216,1,0,0:0:0:0:
460,192,33440,1,0,0:0:0:0:
358,192,33553,1,0,0:0:0:0:
256,192,33665,1,0,0:0:0:0:
153,192,33665,1,0,0:0:0:0:
51,192,33665,1,0,0:0:0:0:
460,192,33890,1,0,0:0:0:0:
358,192,34002,1,0,0:0:0:0:
256,192,34114,1,0,0:0:0:0:
153,192,34114,1,0,0:0:0:0:
51,192,34114,1,0,0:0:0:0:
358,192,34339,1,0,0:0:0:0:
51,192,34339,1,0,0:0:0:0:
460,192,34339,1,0,0:0:0:0:
153,192,34564,1,0,0:0:0:0:
256,192,34564,1,0,0:0:0:0:
358,192,34789,1,0,0:0:0:0:
51,192,34789,1,0,0:0:0:0:
460,192,34789,1,0,0:0:0:0:
153,192,35013,1,0,0:0:0:0:
256,192,35013,1,0,0:0:0:0:
358,192,35238,1,0,0:0:0:0:
51,192,35238,1,0,0:0:0:0:
460,192,35238,1,0,0:0:0:0:
256,192,35463,1,0,0:0:0:0:
153,192,35463,1,0,0:0:0:0:
256,192,35687,1,0,0:0:0:0:
153,192,35687,1,0,0:0:0:0:
358,192,35912,1,0,0:0:0:0:
51,192,35912,1,0,0:0:0:0:
460,192,35912,1,0,0:0:0:0:
256,192,36137,1,0,0:0:0:0:
153,192,36137,1,0,0:0:0:0:
460,192,36137,1,0,0:0:0:0:
51,192,36362,1,0,0:0:0:0:
358,192,36362,1,0,0:0:0:0:
460,192,36362,1,0,0:0:0:0:
153,192,36587,1,0,0:0:0:0:
256,192,36698,1,0,0:0:0:0:
460,192,36809,1,0,0:0:0:0:
358,192,36809,1,0,0:0:0:0:
51,192,36809,1,0,0:0:0:0:
153,192,37031,1,0,0:0:0:0:
256,192,37142,1,0,0:0:0:0:
358,192,37253,1,0,0:0:0:0:
460,192,37253,1,0,0:0:0:0:
51,192,37253,1,0,0:0:0:0:
153,192,37475,1,0,0:0:0:0:
256,192,37586,1,0,0:0:0:0:
358,192,37697,1,0,0:0:0:0:
460,192,37697,1,0,0:0:0:0:
51,192,37697,1,0,0:0:0:0:
51,192,37920,1,0,0:0:0:0:
153,192,37920,1,0,0:0:0:0:
460,192,38142,1,0,0:0:0:0:
358,192,38142,1,0,0:0:0:0:
256,192,38142,1,0,0:0:0:0:
51,192,38364,1,0,0:0:0:0:
153,192,38364,1,0,0:0:0:0:
358,192,38586,1,0,0:0:0:0:
460,192,38586,1,0,0:0:0:0:
256,192,38586,1,0,0:0:0:0:
51,192,38809,1,0,0:0:0:0:
153,192,38809,1,0,0:0:0:0:
358,192,39031,1,0,0:0:0:0:
460,192,39031,1,0,0:0:0:0:
256,192,39031,1,0,0:0:0:0:
153,192,39253,1,0,0:0:0:0:
51,192,39253,1,0,0:0:0:0:
256,192,39475,1,0,0:0:0:0:
460,192,39475,1,0,0:0:0:0:
256,192,39697,1,0,0:0:0:0:
460,192,39697,1,0,0:0:0:0:
256,192,39920,1,0,0:0:0:0:
460,192,39920,1,0,0:0:0:0:
51,192,39920,1,0,0:0:0:0:
358,192,40142,1,0,0:0:0:0:
256,192,40250,1,0,0:0:0:0:
153,192,40359,1,0,0:0:0:0:
51,192,40359,1,0,0:0:0:0:
460,192,40359,1,0,0:0:0:0:
358,192,40576,1,0,0:0:0:0:
256,192,40685,1,0,0:0:0:0:
153,192,40793,1,0,0:0:0:0:
51,192,40793,1,0,0:0:0:0:
460,192,40793,1,0,0:0:0:0:
358,192,41011,1,0,0:0:0:0:
256,192,41119,1,0,0:0:0:0:
153,192,41228,1,0,0:0:0:0:
51,192,41228,1,0,0:0:0:0:
460,192,41228,1,0,0:0:0:0:
358,192,41445,1,0,0:0:0:0:
460,192,41445,1,0,0:0:0:0:
153,192,41663,1,0,0:0:0:0:
51,192,41663,1,0,0:0:0:0:
256,192,41663,1,0,0:0:0:0:
358,192,41880,5,0,0:0:0:0:
460,192,41880,1,0,0:0:0:0:
153,192,42098,1,0,0:0:0:0:
51,192,42098,1,0,0:0:0:0:
256,192,42098,1,0,0:0:0:0:
358,192,42315,1,0,0:0:0:0:
460,192,42315,1,0,0:0:0:0:
153,192,42532,1,0,0:0:0:0:
51,192,42532,1,0,0:0:0:0:
256,192,42532,1,0,0:0:0:0:
51,192,42750,1,0,0:0:0:0:
153,192,42750,1,0,0:0:0:0:
460,192,42967,5,0,0:0:0:0:
358,192,42967,1,0,0:0:0:0:
51,192,42967,1,0,0:0:0:0:
256,192,43076,1,0,0:0:0:0:
153,192,43185,1,0,0:0:0:0:
358,192,43293,1,0,0:0:0:0:
153,192,43402,1,0,0:0:0:0:
51,192,43402,1,0,0:0:0:0:
256,192,43511,1,0,0:0:0:0:
358,192,43619,1,0,0:0:0:0:
460,192,43620,1,0,0:0:0:0:
153,192,43725,1,0,0:0:0:0:
51,192,43725,1,0,0:0:0:0:
460,192,43830,1,0,0:0:0:0:
358,192,43830,1,0,0:0:0:0:
256,192,43935,1,0,0:0:0:0:
153,192,44040,1,0,0:0:0:0:
51,192,44040,1,0,0:0:0:0:
358,192,44145,1,0,0:0:0:0:
460,192,44145,1,0,0:0:0:0:
153,192,44251,1,0,0:0:0:0:
51,192,44251,1,0,0:0:0:0:
256,192,44356,1,0,0:0:0:0:
358,192,44461,1,0,0:0:0:0:
460,192,44461,1,0,0:0:0:0:
153,192,44566,1,0,0:0:0:0:
358,192,44672,1,0,0:0:0:0:
460,192,44672,1,0,0:0:0:0:
51,192,44777,1,0,0:0:0:0:
256,192,44882,1,0,0:0:0:0:
460,192,44882,128,0,45093:0:0:0:0:
153,192,44987,1,0,0:0:0:0:
358,192,45093,128,0,45303:0:0:0:0:
51,192,45093,1,0,0:0:0:0:
256,192,45198,1,0,0:0:0:0:
153,192,45303,1,0,0:0:0:0:
51,192,45303,128,0,45514:0:0:0:0:
256,192,45408,1,0,0:0:0:0:
358,192,45514,1,0,0:0:0:0:
153,192,45514,128,0,45724:0:0:0:0:
256,192,45619,1,0,0:0:0:0:
460,192,45724,128,0,45935:0:0:0:0:
358,192,45724,1,0,0:0:0:0:
51,192,45830,1,0,0:0:0:0:
358,192,45935,128,0,46145:0:0:0:0:
153,192,45935,1,0,0:0:0:0:
256,192,46040,1,0,0:0:0:0:
51,192,46145,128,0,46356:0:0:0:0:
153,192,46145,1,0,0:0:0:0:
256,192,46251,1,0,0:0:0:0:
153,192,46356,128,0,46566:0:0:0:0:
358,192,46356,1,0,0:0:0:0:
256,192,46461,1,0,0:0:0:0:
460,192,46566,128,0,46777:0:0:0:0:
51,192,46566,1,0,0:0:0:0:
256,192,46672,1,0,0:0:0:0:
358,192,46777,128,0,46987:0:0:0:0:
153,192,46777,1,0,0:0:0:0:
51,192,46987,1,0,0:0:0:0:
256,192,46988,1,0,0:0:0:0:
153,192,47090,1,0,0:0:0:0:
460,192,47192,1,0,0:0:0:0:
256,192,47192,1,0,0:0:0:0:
358,192,47294,1,0,0:0:0:0:
256,192,47396,1,0,0:0:0:0:
153,192,47396,1,0,0:0:0:0:
51,192,47499,1,0,0:0:0:0:
460,192,47601,1,0,0:0:0:0:
358,192,47601,1,0,0:0:0:0:
153,192,47703,1,0,0:0:0:0:
256,192,47806,1,0,0:0:0:0:
358,192,47806,1,0,0:0:0:0:
460,192,47908,1,0,0:0:0:0:
153,192,48011,1,0,0:0:0:0:
51,192,48011,1,0,0:0:0:0:
153,192,48215,128,0,48420:0:0:0:0:
256,192,48215,1,0,0:0:0:0:
358,192,48318,1,0,0:0:0:0:
51,192,48420,128,0,48625:0:0:0:0:
460,192,48420,1,0,0:0:0:0:
256,192,48523,1,0,0:0:0:0:
358,192,48625,128,0,48830:0:0:0:0:
153,192,48727,1,0,0:0:0:0:
460,192,48830,128,0,49035:0:0:0:0:
51,192,48830,1,0,0:0:0:0:
256,192,48932,1,0,0:0:0:0:
153,192,49035,128,0,49239:0:0:0:0:
256,192,49137,1,0,0:0:0:0:
51,192,49239,128,0,49444:0:0:0:0:
358,192,49239,1,0,0:0:0:0:
460,192,49342,1,0,0:0:0:0:
256,192,49444,128,0,49649:0:0:0:0:
153,192,49546,1,0,0:0:0:0:
460,192,49649,1,0,0:0:0:0:
51,192,49649,1,0,0:0:0:0:
358,192,49649,1,0,0:0:0:0:
153,192,50263,1,0,0:0:0:0:
256,192,50363,1,0,0:0:0:0:
460,192,50463,1,0,0:0:0:0:
358,192,50463,1,0,0:0:0:0:
51,192,50463,1,0,0:0:0:0:
51,192,50663,1,0,0:0:0:0:
153,192,50763,1,0,0:0:0:0:
256,192,50863,1,0,0:0:0:0:
358,192,50863,1,0,0:0:0:0:
460,192,50863,1,0,0:0:0:0:
460,192,51063,1,0,0:0:0:0:
358,192,51163,1,0,0:0:0:0:
256,192,51263,1,0,0:0:0:0:
153,192,51263,1,0,0:0:0:0:
51,192,51263,1,0,0:0:0:0:
153,192,51463,1,0,0:0:0:0:
51,192,51463,1,0,0:0:0:0:
256,192,51463,1,0,0:0:0:0:
460,192,51663,1,0,0:0:0:0:
256,192,51663,1,0,0:0:0:0:
51,192,51663,1,0,0:0:0:0:
358,192,51863,1,0,0:0:0:0:
256,192,51963,1,0,0:0:0:0:
153,192,52063,1,0,0:0:0:0:
51,192,52063,1,0,0:0:0:0:
460,192,52063,1,0,0:0:0:0:
460,192,52263,1,0,0:0:0:0:
358,192,52363,1,0,0:0:0:0:
256,192,52463,1,0,0:0:0:0:
153,192,52463,1,0,0:0:0:0:
51,192,52463,1,0,0:0:0:0:
51,192,52663,1,0,0:0:0:0:
153,192,52763,1,0,0:0:0:0:
358,192,52863,1,0,0:0:0:0:
256,192,52863,1,0,0:0:0:0:
460,192,52863,1,0,0:0:0:0:
460,192,53063,1,0,0:0:0:0:
358,192,53063,1,0,0:0:0:0:
256,192,53063,1,0,0:0:0:0:
51,192,53263,1,0,0:0:0:0:
256,192,53263,1,0,0:0:0:0:
460,192,53263,1,0,0:0:0:0:
153,192,53463,1,0,0:0:0:0:
256,192,53560,1,0,0:0:0:0:
358,192,53657,1,0,0:0:0:0:
460,192,53657,1,0,0:0:0:0:
51,192,53657,1,0,0:0:0:0:
51,192,53851,1,0,0:0:0:0:
153,192,53948,1,0,0:0:0:0:
256,192,54045,1,0,0:0:0:0:
358,192,54045,1,0,0:0:0:0:
460,192,54045,1,0,0:0:0:0:
460,192,54239,1,0,0:0:0:0:
358,192,54336,1,0,0:0:0:0:
256,192,54433,1,0,0:0:0:0:
51,192,54433,1,0,0:0:0:0:
153,192,54433,1,0,0:0:0:0:
153,192,54627,1,0,0:0:0:0:
358,192,54627,1,0,0:0:0:0:
51,192,54627,1,0,0:0:0:0:
256,192,54822,1,0,0:0:0:0:
460,192,54822,1,0,0:0:0:0:
51,192,54822,1,0,0:0:0:0:
358,192,55016,1,0,0:0:0:0:
256,192,55113,1,0,0:0:0:0:
460,192,55210,1,0,0:0:0:0:
51,192,55210,1,0,0:0:0:0:
153,192,55258,1,0,0:0:0:0:
256,192,55307,1,0,0:0:0:0:
358,192,55356,1,0,0:0:0:0:
460,192,55404,1,0,0:0:0:0:
51,192,55453,1,0,0:0:0:0:
153,192,55501,1,0,0:0:0:0:
256,192,55550,1,0,0:0:0:0:
358,192,55598,1,0,0:0:0:0:
460,192,55598,1,0,0:0:0:0:
51,192,55695,128,0,55792:0:0:0:0:
256,192,55792,128,0,55890:0:0:0:0:
153,192,55890,128,0,55987:0:0:0:0:
358,192,55987,1,0,0:0:0:0:
460,192,55987,1,0,0:0:0:0:
51,192,55987,1,0,0:0:0:0:
153,192,56181,1,0,0:0:0:0:
256,192,56181,1,0,0:0:0:0:
358,192,56375,1,0,0:0:0:0:
51,192,56375,1,0,0:0:0:0:
460,192,56375,1,0,0:0:0:0:
153,192,56569,1,0,0:0:0:0:
256,192,56663,1,0,0:0:0:0:
358,192,56758,1,0,0:0:0:0:
460,192,56758,1,0,0:0:0:0:
51,192,56758,1,0,0:0:0:0:
51,192,56947,1,0,0:0:0:0:
153,192,57041,1,0,0:0:0:0:
256,192,57136,1,0,0:0:0:0:
358,192,57136,1,0,0:0:0:0:
460,192,57136,1,0,0:0:0:0:
460,192,57325,1,0,0:0:0:0:
358,192,57420,1,0,0:0:0:0:
153,192,57515,1,0,0:0:0:0:
256,192,57515,1,0,0:0:0:0:
51,192,57515,1,0,0:0:0:0:
153,192,57704,1,0,0:0:0:0:
51,192,57704,1,0,0:0:0:0:
256,192,57704,1,0,0:0:0:0:
256,192,57893,1,0,0:0:0:0:
460,192,57893,1,0,0:0:0:0:
51,192,57893,1,0,0:0:0:0:
358,192,58082,1,0,0:0:0:0:
256,192,58177,1,0,0:0:0:0:
153,192,58272,1,0,0:0:0:0:
51,192,58272,1,0,0:0:0:0:
460,192,58272,1,0,0:0:0:0:
460,192,58461,1,0,0:0:0:0:
358,192,58556,1,0,0:0:0:0:
256,192,58650,1,0,0:0:0:0:
153,192,58650,1,0,0:0:0:0:
51,192,58650,1,0,0:0:0:0:
51,192,58840,1,0,0:0:0:0:
153,192,58934,1,0,0:0:0:0:
256,192,59029,1,0,0:0:0:0:
358,192,59029,1,0,0:0:0:0:
460,192,59029,1,0,0:0:0:0:
358,192,59218,1,0,0:0:0:0:
153,192,59218,1,0,0:0:0:0:
51,192,59407,1,0,0:0:0:0:
256,192,59407,1,0,0:0:0:0:
460,192,59407,1,0,0:0:0:0:
358,192,59597,1,0,0:0:0:0:
256,192,59690,1,0,0:0:0:0:
153,192,59783,1,0,0:0:0:0:
51,192,59783,1,0,0:0:0:0:
460,192,59783,1,0,0:0:0:0:
460,192,59969,1,0,0:0:0:0:
358,192,60062,1,0,0:0:0:0:
256,192,60155,1,0,0:0:0:0:
153,192,60155,1,0,0:0:0:0:
51,192,60155,1,0,0:0:0:0:
51,192,60342,1,0,0:0:0:0:
153,192,60435,1,0,0:0:0:0:
256,192,60528,1,0,0:0:0:0:
460,192,60528,1,0,0:0:0:0:
358,192,60528,1,0,0:0:0:0:
358,192,60714,1,0,0:0:0:0:
153,192,60714,1,0,0:0:0:0:
256,192,60901,1,0,0:0:0:0:
51,192,60901,1,0,0:0:0:0:
460,192,60901,1,0,0:0:0:0:
153,192,61087,1,0,0:0:0:0:
256,192,61180,1,0,0:0:0:0:
460,192,61273,1,0,0:0:0:0:
51,192,61273,1,0,0:0:0:0:
358,192,61320,1,0,0:0:0:0:
256,192,61366,1,0,0:0:0:0:
153,192,61413,1,0,0:0:0:0:
51,192,61460,1,0,0:0:0:0:
460,192,61506,1,0,0:0:0:0:
358,192,61553,1,0,0:0:0:0:
256,192,61599,1,0,0:0:0:0:
153,192,61646,1,0,0:0:0:0:
51,192,61646,1,0,0:0:0:0:
256,192,61832,1,0,0:0:0:0:
358,192,61925,1,0,0:0:0:0:
153,192,62016,1,0,0:0:0:0:
460,192,62016,128,0,63473:0:0:0:0:
51,192,62016,1,0,0:0:0:0:
256,192,62197,128,0,62379:0:0:0:0:
51,192,62379,1,0,0:0:0:0:
358,192,62379,128,0,62561:0:0:0:0:
153,192,62561,128,0,62743:0:0:0:0:
358,192,62743,1,0,0:0:0:0:
256,192,62743,128,0,62925:0:0:0:0:
51,192,62925,128,0,63106:0:0:0:0:
358,192,63106,1,0,0:0:0:0:
153,192,63106,128,0,63288:0:0:0:0:
256,192,63288,128,0,63470:0:0:0:0:
51,192,63470,1,0,0:0:0:0:
153,192,63473,1,0,0:0:0:0:
358,192,63653,128,0,63834:0:0:0:0:
256,192,63653,1,0,0:0:0:0:
460,192,63834,128,0,64015:0:0:0:0:
153,192,63834,1,0,0:0:0:0:
51,192,63834,1,0,0:0:0:0:
256,192,64015,128,0,64195:0:0:0:0:
358,192,64015,1,0,0:0:0:0:
358,192,64195,128,0,64376:0:0:0:0:
51,192,64195,1,0,0:0:0:0:
153,192,64195,1,0,0:0:0:0:
153,192,64376,128,0,64557:0:0:0:0:
460,192,64376,1,0,0:0:0:0:
256,192,64557,128,0,64738:0:0:0:0:
51,192,64557,1,0,0:0:0:0:
358,192,64557,1,0,0:0:0:0:
460,192,64738,128,0,64918:0:0:0:0:
358,192,64918,1,0,0:0:0:0:
51,192,64918,128,0,66338:0:0:0:0:
153,192,64918,1,0,0:0:0:0:
256,192,65095,128,0,65273:0:0:0:0:
460,192,65273,1,0,0:0:0:0:
153,192,65273,128,0,65450:0:0:0:0:
358,192,65450,128,0,65628:0:0:0:0:
153,192,65628,1,0,0:0:0:0:
256,192,65628,128,0,65805:0:0:0:0:
460,192,65805,128,0,65983:0:0:0:0:
153,192,65983,1,0,0:0:0:0:
358,192,65983,128,0,66160:0:0:0:0:
256,192,66160,128,0,66338:0:0:0:0:
358,192,66338,1,0,0:0:0:0:
460,192,66338,1,0,0:0:0:0:
153,192,66514,128,0,66690:0:0:0:0:
256,192,66514,1,0,0:0:0:0:
51,192,66690,128,0,66867:0:0:0:0:
358,192,66690,1,0,0:0:0:0:
460,192,66690,1,0,0:0:0:0:
256,192,66867,128,0,67043:0:0:0:0:
153,192,66867,1,0,0:0:0:0:
153,192,67043,128,0,67220:0:0:0:0:
460,192,67043,1,0,0:0:0:0:
358,192,67043,1,0,0:0:0:0:
358,192,67220,128,0,67396:0:0:0:0:
51,192,67220,1,0,0:0:0:0:
460,192,67396,1,0,0:0:0:0:
256,192,67396,128,0,67573:0:0:0:0:
153,192,67396,1,0,0:0:0:0:
51,192,67573,128,0,67749:0:0:0:0:
358,192,67573,1,0,0:0:0:0:
153,192,67749,1,0,0:0:0:0:
256,192,67749,1,0,0:0:0:0:
460,192,67749,1,0,0:0:0:0:
358,192,67921,1,0,0:0:0:0:
51,192,68093,1,0,0:0:0:0:
256,192,68093,1,0,0:0:0:0:
153,192,68093,1,0,0:0:0:0:
51,192,68266,1,0,0:0:0:0:
256,192,68438,1,0,0:0:0:0:
460,192,68438,1,0,0:0:0:0:
358,192,68438,1,0,0:0:0:0:
460,192,68611,1,0,0:0:0:0:
153,192,68783,1,0,0:0:0:0:
358,192,68783,1,0,0:0:0:0:
256,192,68783,1,0,0:0:0:0:
153,192,68955,1,0,0:0:0:0:
51,192,69128,1,0,0:0:0:0:
460,192,69128,1,0,0:0:0:0:
256,192,69128,1,0,0:0:0:0:
460,192,69300,1,0,0:0:0:0:
256,192,69473,1,0,0:0:0:0:
153,192,69473,1,0,0:0:0:0:
358,192,69473,1,0,0:0:0:0:
358,192,69645,1,0,0:0:0:0:
460,192,69817,1,0,0:0:0:0:
256,192,69817,1,0,0:0:0:0:
51,192,69817,1,0,0:0:0:0:
51,192,69990,1,0,0:0:0:0:
153,192,70162,1,0,0:0:0:0:
358,192,70162,1,0,0:0:0:0:
256,192,70162,1,0,0:0:0:0:
256,192,70335,1,0,0:0:0:0:
460,192,70507,128,0,71188:0:0:0:0:
51,192,70507,1,0,0:0:0:0:
358,192,70507,128,0,71188:0:0:0:0:
153,192,70677,1,0,0:0:0:0:
256,192,70847,1,0,0:0:0:0:
51,192,70847,1,0,0:0:0:0:
153,192,71018,1,0,0:0:0:0:
51,192,71188,1,0,0:0:0:0:
256,192,71188,128,0,71359:0:0:0:0:
358,192,71359,128,0,71529:0:0:0:0:
51,192,71529,1,0,0:0:0:0:
153,192,71529,128,0,71700:0:0:0:0:
256,192,71700,128,0,71870:0:0:0:0:
51,192,71870,128,0,72544:0:0:0:0:
153,192,71870,128,0,72544:0:0:0:0:
460,192,71870,1,0,0:0:0:0:
358,192,72038,1,0,0:0:0:0:
460,192,72207,1,0,0:0:0:0:
256,192,72207,1,0,0:0:0:0:
358,192,72375,1,0,0:0:0:0:
460,192,72544,1,0,0:0:0:0:
256,192,72544,128,0,72712:0:0:0:0:
358,192,72712,128,0,72881:0:0:0:0:
460,192,72881,1,0,0:0:0:0:
153,192,72881,128,0,73049:0:0:0:0:
51,192,73049,128,0,73218:0:0:0:0:
358,192,73218,128,0,73880:0:0:0:0:
256,192,73218,128,0,73880:0:0:0:0:
460,192,73218,1,0,0:0:0:0:
153,192,73383,1,0,0:0:0:0:
51,192,73549,1,0,0:0:0:0:
460,192,73549,1,0,0:0:0:0:
153,192,73715,1,0,0:0:0:0:
460,192,73880,1,0,0:0:0:0:
51,192,73880,128,0,74046:0:0:0:0:
153,192,74046,128,0,74212:0:0:0:0:
358,192,74212,128,0,74378:0:0:0:0:
256,192,74212,1,0,0:0:0:0:
460,192,74378,128,0,74543:0:0:0:0:
153,192,74543,128,0,75202:0:0:0:0:
256,192,74543,128,0,75202:0:0:0:0:
51,192,74543,1,0,0:0:0:0:
358,192,74707,1,0,0:0:0:0:
460,192,74872,1,0,0:0:0:0:
51,192,74872,1,0,0:0:0:0:
358,192,75037,1,0,0:0:0:0:
51,192,75202,1,0,0:0:0:0:
460,192,75202,128,0,75367:0:0:0:0:
358,192,75367,128,0,75532:0:0:0:0:
153,192,75532,128,0,75696:0:0:0:0:
256,192,75532,1,0,0:0:0:0:
51,192,75696,128,0,75861:0:0:0:0:
256,192,75861,128,0,78455:0:0:0:0:
358,192,75861,1,0,0:0:0:0:
153,192,75861,1,0,0:0:0:0:
460,192,75861,128,0,76024:0:0:0:0:
358,192,76024,128,0,76187:0:0:0:0:
153,192,76187,128,0,76350:0:0:0:0:
51,192,76187,1,0,0:0:0:0:
51,192,76350,128,0,76513:0:0:0:0:
358,192,76513,128,0,76676:0:0:0:0:
460,192,76513,1,0,0:0:0:0:
460,192,76676,128,0,76839:0:0:0:0:
153,192,76839,128,0,77002:0:0:0:0:
51,192,76839,1,0,0:0:0:0:
358,192,77002,128,0,77165:0:0:0:0:
51,192,77165,128,0,77326:0:0:0:0:
460,192,77165,1,0,0:0:0:0:
153,192,77326,128,0,77487:0:0:0:0:
460,192,77487,128,0,77648:0:0:0:0:
51,192,77487,1,0,0:0:0:0:
358,192,77648,128,0,77810:0:0:0:0:
51,192,77810,128,0,77971:0:0:0:0:
460,192,77810,1,0,0:0:0:0:
153,192,77971,128,0,78132:0:0:0:0:
358,192,78132,128,0,78294:0:0:0:0:
51,192,78132,1,0,0:0:0:0:
460,192,78294,128,0,78455:0:0:0:0:
51,192,78455,128,0,79724:0:0:0:0:
153,192,78455,128,0,79724:0:0:0:0:
358,192,78455,128,0,78613:0:0:0:0:
256,192,78613,128,0,78772:0:0:0:0:
460,192,78772,128,0,78931:0:0:0:0:
358,192,78772,1,0,0:0:0:0:
358,192,78931,128,0,79089:0:0:0:0:
256,192,79089,128,0,79248:0:0:0:0:
460,192,79089,1,0,0:0:0:0:
460,192,79248,128,0,79407:0:0:0:0:
256,192,79407,128,0,79566:0:0:0:0:
358,192,79407,1,0,0:0:0:0:
358,192,79566,128,0,79724:0:0:0:0:
460,192,79724,1,0,0:0:0:0:
256,192,79724,1,0,0:0:0:0:
460,192,79881,128,0,80039:0:0:0:0:
358,192,80039,1,0,0:0:0:0:
153,192,80039,1,0,0:0:0:0:
51,192,80197,128,0,80355:0:0:0:0:
358,192,80355,1,0,0:0:0:0:
153,192,80355,1,0,0:0:0:0:
256,192,80513,128,0,80671:0:0:0:0:
460,192,80671,1,0,0:0:0:0:
51,192,80671,1,0,0:0:0:0:
256,192,80829,128,0,80987:0:0:0:0:
153,192,80987,1,0,0:0:0:0:
358,192,80987,1,0,0:0:0:0:
460,192,81145,128,0,81302:0:0:0:0:
358,192,81302,1,0,0:0:0:0:
51,192,81302,1,0,0:0:0:0:
51,192,81460,128,0,81618:0:0:0:0:
153,192,81618,1,0,0:0:0:0:
460,192,81618,1,0,0:0:0:0:
256,192,81776,128,0,81934:0:0:0:0:
460,192,81934,1,0,0:0:0:0:
51,192,81934,1,0,0:0:0:0:
153,192,82092,128,0,82250:0:0:0:0:
358,192,82250,1,0,0:0:0:0:
460,192,82250,1,0,0:0:0:0:
256,192,82408,1,0,0:0:0:0:
153,192,82408,1,0,0:0:0:0:
358,192,82487,1,0,0:0:0:0:
460,192,82566,1,0,0:0:0:0:
51,192,82566,1,0,0:0:0:0:
153,192,82566,1,0,0:0:0:0:
256,192,82724,1,0,0:0:0:0:
358,192,82724,1,0,0:0:0:0:
460,192,82881,1,0,0:0:0:0:
51,192,82881,1,0,0:0:0:0:
153,192,82881,1,0,0:0:0:0:
358,192,83039,1,0,0:0:0:0:
256,192,83039,1,0,0:0:0:0:
153,192,83118,1,0,0:0:0:0:
460,192,83197,1,0,0:0:0:0:
51,192,83197,1,0,0:0:0:0:
358,192,83197,1,0,0:0:0:0:
153,192,83355,1,0,0:0:0:0:
256,192,83355,1,0,0:0:0:0:
358,192,83513,1,0,0:0:0:0:
51,192,83513,1,0,0:0:0:0:
460,192,83513,1,0,0:0:0:0:
153,192,83671,1,0,0:0:0:0:
256,192,83671,1,0,0:0:0:0:
358,192,83750,1,0,0:0:0:0:
153,192,83829,1,0,0:0:0:0:
51,192,83829,1,0,0:0:0:0:
460,192,83829,1,0,0:0:0:0:
358,192,83987,1,0,0:0:0:0:
256,192,83987,1,0,0:0:0:0:
153,192,84145,1,0,0:0:0:0:
460,192,84145,1,0,0:0:0:0:
51,192,84145,1,0,0:0:0:0:
256,192,84302,1,0,0:0:0:0:
358,192,84302,1,0,0:0:0:0:
153,192,84381,1,0,0:0:0:0:
358,192,84460,1,0,0:0:0:0:
460,192,84460,1,0,0:0:0:0:
51,192,84460,1,0,0:0:0:0:
153,192,84618,1,0,0:0:0:0:
256,192,84618,1,0,0:0:0:0:
358,192,84776,1,0,0:0:0:0:
460,192,84776,1,0,0:0:0:0:
51,192,84776,1,0,0:0:0:0:
256,192,84934,1,0,0:0:0:0:
153,192,84934,1,0,0:0:0:0:
358,192,85013,1,0,0:0:0:0:
51,192,85092,1,0,0:0:0:0:
460,192,85092,1,0,0:0:0:0:
153,192,85092,1,0,0:0:0:0:
358,192,85250,1,0,0:0:0:0:
256,192,85250,1,0,0:0:0:0:
51,192,85408,1,0,0:0:0:0:
153,192,85408,1,0,0:0:0:0:
460,192,85408,1,0,0:0:0:0:
358,192,85566,1,0,0:0:0:0:
256,192,85645,1,0,0:0:0:0:
460,192,85724,1,0,0:0:0:0:
51,192,85724,1,0,0:0:0:0:
153,192,85724,1,0,0:0:0:0:
256,192,85881,1,0,0:0:0:0:
153,192,85881,1,0,0:0:0:0:
51,192,86039,1,0,0:0:0:0:
460,192,86039,1,0,0:0:0:0:
358,192,86039,1,0,0:0:0:0:
153,192,86197,1,0,0:0:0:0:
256,192,86276,1,0,0:0:0:0:
358,192,86355,1,0,0:0:0:0:
460,192,86355,1,0,0:0:0:0:
51,192,86355,1,0,0:0:0:0:
358,192,86513,1,0,0:0:0:0:
256,192,86513,1,0,0:0:0:0:
51,192,86671,1,0,0:0:0:0:
153,192,86671,1,0,0:0:0:0:
460,192,86671,1,0,0:0:0:0:
358,192,86829,1,0,0:0:0:0:
256,192,86829,1,0,0:0:0:0:
153,192,86908,1,0,0:0:0:0:
51,192,86987,1,0,0:0:0:0:
460,192,86987,1,0,0:0:0:0:
256,192,86987,1,0,0:0:0:0:
153,192,87145,1,0,0:0:0:0:
358,192,87145,1,0,0:0:0:0:
256,192,87302,1,0,0:0:0:0:
51,192,87302,1,0,0:0:0:0:
460,192,87302,1,0,0:0:0:0:
358,192,87460,128,0,87618:0:0:0:0:
460,192,87618,1,0,0:0:0:0:
153,192,87618,128,0,87776:0:0:0:0:
256,192,87776,128,0,87934:0:0:0:0:
358,192,87934,1,0,0:0:0:0:
51,192,87934,128,0,88092:0:0:0:0:
153,192,88092,128,0,88250:0:0:0:0:
256,192,88250,1,0,0:0:0:0:
460,192,88250,128,0,88408:0:0:0:0:
51,192,88408,128,0,88566:0:0:0:0:
256,192,88566,1,0,0:0:0:0:
358,192,88566,1,0,0:0:0:0:
153,192,88724,1,0,0:0:0:0:
460,192,88724,1,0,0:0:0:0:
358,192,88881,1,0,0:0:0:0:
256,192,88881,1,0,0:0:0:0:
51,192,88881,1,0,0:0:0:0:
153,192,89039,1,0,0:0:0:0:
460,192,89039,1,0,0:0:0:0:
256,192,89197,1,0,0:0:0:0:
51,192,89197,1,0,0:0:0:0:
460,192,89355,1,0,0:0:0:0:
358,192,89355,1,0,0:0:0:0:
153,192,89355,1,0,0:0:0:0:
256,192,89513,1,0,0:0:0:0:
358,192,89513,1,0,0:0:0:0:
460,192,89671,1,0,0:0:0:0:
153,192,89671,1,0,0:0:0:0:
51,192,89671,1,0,0:0:0:0:
256,192,89829,1,0,0:0:0:0:
460,192,89829,1,0,0:0:0:0:
51,192,89829,1,0,0:0:0:0:
358,192,90302,1,0,0:0:0:0:
460,192,90302,1,0,0:0:0:0:
256,192,90381,1,0,0:0:0:0:
51,192,90460,1,0,0:0:0:0:
153,192,90460,1,0,0:0:0:0:
460,192,90460,1,0,0:0:0:0:
358,192,90618,1,0,0:0:0:0:
460,192,90618,1,0,0:0:0:0:
153,192,90776,1,0,0:0:0:0:
51,192,90776,1,0,0:0:0:0:
256,192,90776,1,0,0:0:0:0:
460,192,90934,1,0,0:0:0:0:
358,192,90934,1,0,0:0:0:0:
153,192,91092,1,0,0:0:0:0:
51,192,91092,1,0,0:0:0:0:
256,192,91092,1,0,0:0:0:0:
153,192,91645,1,0,0:0:0:0:
51,192,91645,1,0,0:0:0:0:
460,192,91724,1,0,0:0:0:0:
358,192,91724,1,0,0:0:0:0:
256,192,91724,1,0,0:0:0:0:
460,192,92276,1,0,0:0:0:0:
358,192,92276,1,0,0:0:0:0:
51,192,92355,128,0,94250:0:0:0:0:
153,192,92355,128,0,94250:0:0:0:0:
256,192,92355,128,0,94250:0:0:0:0:
