osu file format v14

[General]
AudioFilename: audio.mp3
AudioLeadIn: 0
PreviewTime: -1
Countdown: 0
SampleSet: None
StackLeniency: 0.2
Mode: 0
LetterboxInBreaks: 0
WidescreenStoryboard: 1

[Editor]
Bookmarks: 1582,7816,14050,20283,26517,31193,32751,38985,45219,51452,57686,63920,70154,76387,82621,85738,88855,93530,95089,101322,107556,118465,120024,132491,146517,154309,197946
DistanceSpacing: 0.5
BeatDivisor: 8
GridSize: 16
TimelineZoom: 1

[Metadata]
Title:One Dimensional
TitleUnicode:One Dimensional
Artist:Vypes
ArtistUnicode:Vypes
Creator:HairyWhodini
Version:Diagonal
Source:
Tags:
BeatmapID:1330897
BeatmapSetID:630447

[Difficulty]
HPDrainRate:5
CircleSize:5.3
OverallDifficulty:5
ApproachRate:10
SliderMultiplier:2.41
SliderTickRate:1

[Events]
//Background and Video events
0,0,"Bilinear_gradient.jpg",0,0
//Break Periods
2,119834,132041
2,154120,197009
//Storyboard Layer 0 (Background)
//Storyboard Layer 1 (Fail)
//Storyboard Layer 2 (Pass)
//Storyboard Layer 3 (Foreground)
//Storyboard Sound Samples

[TimingPoints]
10933.2868471425,389.61038961039,4,1,0,100,1,0
32751,-100,4,3,0,100,0,1
57686,-100,4,1,0,100,0,0
95089,-100,4,3,0,100,0,1
120024,-100,4,1,0,100,0,0
132491,-100,4,2,0,53,0,0
173011,-100,4,1,0,100,0,1
194829,-100,4,1,0,100,0,0

[HitObjects]
256,192,1582,5,0,0:0:0:0:
256,192,1777,1,0,0:0:0:0:
256,192,1971,1,0,0:0:0:0:
256,192,2069,1,0,0:0:0:0:
256,192,2361,1,0,0:0:0:0:
256,192,2653,1,0,0:0:0:0:
256,192,2751,1,0,0:0:0:0:
256,192,2945,1,0,0:0:0:0:
256,192,3141,5,0,0:0:0:0:
256,192,3336,1,0,0:0:0:0:
256,192,3530,1,0,0:0:0:0:
256,192,3628,1,0,0:0:0:0:
256,192,3920,1,0,0:0:0:0:
256,192,4212,1,0,0:0:0:0:
256,192,4310,1,0,0:0:0:0:
256,192,4504,1,0,0:0:0:0:
256,192,4699,5,0,0:0:0:0:
256,192,4894,1,0,0:0:0:0:
256,192,5088,1,0,0:0:0:0:
256,192,5186,1,0,0:0:0:0:
256,192,5478,1,0,0:0:0:0:
256,192,5770,1,0,0:0:0:0:
256,192,5868,1,0,0:0:0:0:
256,192,6062,1,0,0:0:0:0:
256,192,6257,5,0,0:0:0:0:
256,192,6452,1,0,0:0:0:0:
256,192,6646,1,0,0:0:0:0:
256,192,6744,1,0,0:0:0:0:
256,192,7036,1,0,0:0:0:0:
256,192,7328,1,0,0:0:0:0:
256,192,7426,1,0,0:0:0:0:
256,192,7524,1,0,0:0:0:0:
256,192,7620,1,0,0:0:0:0:
256,192,7719,1,0,0:0:0:0:
256,192,7816,5,0,0:0:0:0:
256,192,8011,1,0,0:0:0:0:
256,192,8205,1,0,0:0:0:0:
256,192,8303,1,0,0:0:0:0:
256,192,8595,1,0,0:0:0:0:
256,192,8887,1,0,0:0:0:0:
256,192,8985,1,0,0:0:0:0:
256,192,9179,1,0,0:0:0:0:
256,192,9375,5,0,0:0:0:0:
256,192,9570,1,0,0:0:0:0:
256,192,9764,1,0,0:0:0:0:
256,192,9862,1,0,0:0:0:0:
256,192,10154,1,0,0:0:0:0:
256,192,10446,1,0,0:0:0:0:
256,192,10544,1,0,0:0:0:0:
256,192,10738,1,0,0:0:0:0:
256,192,10933,5,0,0:0:0:0:
256,192,11128,1,0,0:0:0:0:
256,192,11322,1,0,0:0:0:0:
256,192,11420,1,0,0:0:0:0:
256,192,11712,1,0,0:0:0:0:
256,192,12004,1,0,0:0:0:0:
256,192,12102,1,0,0:0:0:0:
256,192,12296,1,0,0:0:0:0:
256,192,12491,5,0,0:0:0:0:
256,192,12686,1,0,0:0:0:0:
256,192,12880,1,0,0:0:0:0:
256,192,12978,1,0,0:0:0:0:
256,192,13270,1,0,0:0:0:0:
256,192,13562,1,0,0:0:0:0:
256,192,13660,1,0,0:0:0:0:
256,192,13758,1,0,0:0:0:0:
256,192,13854,1,0,0:0:0:0:
256,192,13953,1,0,0:0:0:0:
256,192,14050,6,0,L|168:104,1,120.5
319,255,14439,2,0,L|375:311,1,60.25
88,24,14829,2,0,L|220:156,1,180.75
256,192,15219,1,0,0:0:0:0:
295,231,15413,1,0,0:0:0:0:
335,271,15608,6,0,L|427:363,1,120.5
80,16,15998,2,0,L|136:72,1,60.25
208,144,16387,1,0,0:0:0:0:
307,243,16680,2,0,L|355:291,1,60.25
423,359,16972,1,0,0:0:0:0:
176,112,17167,6,0,L|84:20,1,120.5
431,367,17557,2,0,L|375:311,1,60.25
287,223,17946,1,0,0:0:0:0:
204,140,18239,2,0,L|156:92,1,60.25
88,24,18531,1,0,0:0:0:0:
256,192,18725,6,0,L|343:279,1,120.5
192,128,19114,2,0,L|136:72,1,60.25
423,359,19504,2,0,L|291:227,1,180.75
256,192,19894,1,0,0:0:0:0:
216,152,20088,1,0,0:0:0:0:
80,16,20283,6,0,L|172:108,1,120.5
399,335,20673,2,0,L|339:275,1,60.25
283,219,21063,1,0,0:0:0:0:
88,24,21355,2,0,L|136:72,1,60.25
172,108,21647,1,0,0:0:0:0:
256,192,21842,5,0,0:0:0:0:
403,339,22037,1,0,0:0:0:0:
112,48,22231,1,0,0:0:0:0:
112,48,22329,1,0,0:0:0:0:
256,192,22621,2,0,L|387:323,1,180.75
403,339,23011,1,0,0:0:0:0:
168,104,23206,1,0,0:0:0:0:
88,24,23400,5,0,0:0:0:0:
323,259,23595,1,0,0:0:0:0:
192,128,23790,2,0,L|248:184,1,60.25
323,259,24180,1,0,0:0:0:0:
391,327,24374,2,0,L|439:375,2,60.25
271,207,24764,1,0,0:0:0:0:
180,116,24959,5,0,0:0:0:0:
391,327,25154,1,0,0:0:0:0:
315,251,25348,2,0,L|267:203,1,60.25
204,140,25738,1,0,0:0:0:0:
160,96,25933,1,0,0:0:0:0:
156,92,26030,1,0,0:0:0:0:
148,84,26128,1,0,0:0:0:0:
140,76,26225,1,0,0:0:0:0:
132,68,26322,1,0,0:0:0:0:
124,60,26420,1,0,0:0:0:0:
116,52,26517,5,0,0:0:0:0:
415,351,31193,5,0,0:0:0:0:
96,32,31582,5,0,0:0:0:0:
319,255,31972,5,0,0:0:0:0:
192,128,32361,5,0,0:0:0:0:
256,192,32556,5,0,0:0:0:0:
88,24,32751,5,0,0:0:0:0:
160,96,32946,1,0,0:0:0:0:
315,251,33141,2,0,L|232:168,1,85
411,347,33530,1,0,0:0:0:0:
100,36,33725,1,0,0:0:0:0:
391,327,33920,1,0,0:0:0:0:
287,223,34115,1,0,0:0:0:0:
196,132,34309,6,0,L|112:48,1,85
306,242,34699,2,0,L|390:326,1,85
88,24,35089,1,0,0:0:0:0:
256,192,35283,1,0,0:0:0:0:
419,355,35478,1,0,0:0:0:0:
256,192,35673,1,0,0:0:0:0:
88,24,35868,6,0,L|176:112,1,85
173,109,36257,2,0,L|259:195,1,85
256,192,36647,2,0,L|343:279,1,85
343,279,37037,2,0,L|431:367,1,85
256,192,37426,5,0,0:0:0:0:
256,192,37816,1,0,0:0:0:0:
256,192,38206,1,0,0:0:0:0:
96,32,38400,1,0,0:0:0:0:
96,32,38595,1,0,0:0:0:0:
423,359,38985,5,0,0:0:0:0:
351,287,39180,1,0,0:0:0:0:
196,132,39375,2,0,L|279:215,1,85
100,36,39764,1,0,0:0:0:0:
411,347,39959,1,0,0:0:0:0:
120,56,40154,1,0,0:0:0:0:
375,311,40349,1,0,0:0:0:0:
315,251,40543,6,0,L|399:335,1,85
205,141,40933,2,0,L|121:57,1,85
423,359,41323,1,0,0:0:0:0:
256,192,41517,1,0,0:0:0:0:
92,28,41712,1,0,0:0:0:0:
256,192,41907,1,0,0:0:0:0:
423,359,42102,6,0,L|335:271,1,85
338,274,42491,2,0,L|252:188,1,85
256,192,42881,2,0,L|168:104,1,85
168,104,43271,2,0,L|80:16,1,85
256,192,43660,5,0,0:0:0:0:
256,192,44050,1,0,0:0:0:0:
256,192,44440,1,0,0:0:0:0:
415,351,44634,1,0,0:0:0:0:
415,351,44829,1,0,0:0:0:0:
76,12,45219,6,0,L|160:96,1,85
423,359,45608,2,0,L|335:271,1,85
208,144,45998,2,0,L|120:56,1,120.5
291,227,46387,2,0,L|384:320,1,120.5
256,192,46777,5,0,0:0:0:0:
84,20,47361,1,0,0:0:0:0:
84,20,47556,1,0,0:0:0:0:
407,343,48141,1,0,0:0:0:0:
407,343,48335,5,0,0:0:0:0:
359,295,48530,2,0,L|96:32,2,361.5
423,359,49894,5,0,0:0:0:0:
92,28,50478,1,0,0:0:0:0:
92,28,50673,1,0,0:0:0:0:
192,128,51257,1,0,0:0:0:0:
279,215,51452,6,0,L|236:172,15,42.5
184,120,53011,6,0,L|140:76,15,42.5
327,263,54569,6,0,L|371:307,15,42.5
272,208,56128,6,0,L|235:167,32,30.125
256,192,62167,5,0,0:0:0:0:
256,192,62264,1,0,0:0:0:0:
256,192,62361,1,0,0:0:0:0:
116,52,62556,1,0,0:0:0:0:
395,331,62848,1,0,0:0:0:0:
116,52,63141,1,0,0:0:0:0:
395,331,63433,1,0,0:0:0:0:
395,331,63530,1,0,0:0:0:0:
395,331,63627,1,0,0:0:0:0:
395,331,63725,1,0,0:0:0:0:
395,331,63822,1,0,0:0:0:0:
395,331,63920,5,0,0:0:0:0:
256,192,64309,1,0,0:0:0:0:
256,192,64699,1,0,0:0:0:0:
256,192,65089,1,0,0:0:0:0:
88,24,65283,1,0,0:0:0:0:
423,359,65478,5,0,0:0:0:0:
256,192,65868,1,0,0:0:0:0:
256,192,66257,1,0,0:0:0:0:
256,192,66647,1,0,0:0:0:0:
256,192,67037,5,0,0:0:0:0:
256,192,67426,1,0,0:0:0:0:
256,192,67816,1,0,0:0:0:0:
256,192,68206,1,0,0:0:0:0:
423,359,68400,1,0,0:0:0:0:
88,24,68595,5,0,0:0:0:0:
256,192,68985,1,0,0:0:0:0:
256,192,69374,1,0,0:0:0:0:
359,295,69764,1,0,0:0:0:0:
359,295,69861,1,0,0:0:0:0:
359,295,69959,1,0,0:0:0:0:
256,192,70154,5,0,0:0:0:0:
256,192,70543,1,0,0:0:0:0:
256,192,70933,1,0,0:0:0:0:
256,192,71323,1,0,0:0:0:0:
423,359,71517,1,0,0:0:0:0:
88,24,71712,5,0,0:0:0:0:
256,192,72102,1,0,0:0:0:0:
256,192,72491,1,0,0:0:0:0:
256,192,72881,1,0,0:0:0:0:
256,192,73271,5,0,0:0:0:0:
256,192,73660,1,0,0:0:0:0:
256,192,74050,1,0,0:0:0:0:
256,192,74440,1,0,0:0:0:0:
88,24,74634,1,0,0:0:0:0:
423,359,74829,5,0,0:0:0:0:
256,192,75219,1,0,0:0:0:0:
256,192,75608,1,0,0:0:0:0:
152,88,75998,1,0,0:0:0:0:
152,88,76095,1,0,0:0:0:0:
152,88,76193,1,0,0:0:0:0:
407,343,76387,5,0,0:0:0:0:
323,259,76777,1,0,0:0:0:0:
240,176,77167,1,0,0:0:0:0:
156,92,77556,1,0,0:0:0:0:
112,48,77751,1,0,0:0:0:0:
68,4,77946,5,0,0:0:0:0:
152,88,78335,1,0,0:0:0:0:
236,172,78725,1,0,0:0:0:0:
319,255,79115,1,0,0:0:0:0:
407,343,79504,5,0,0:0:0:0:
323,259,79894,1,0,0:0:0:0:
240,176,80284,1,0,0:0:0:0:
156,92,80673,1,0,0:0:0:0:
112,48,80868,1,0,0:0:0:0:
68,4,81063,5,0,0:0:0:0:
152,88,81452,1,0,0:0:0:0:
236,172,81842,1,0,0:0:0:0:
319,255,82232,1,0,0:0:0:0:
319,255,82329,1,0,0:0:0:0:
319,255,82426,1,0,0:0:0:0:
423,359,82621,6,0,L|339:275,1,85
339,275,83011,2,0,L|256:192,1,85
255,191,83400,2,0,L|171:107,1,85
171,107,83790,2,0,L|87:23,1,85
423,359,84180,6,0,L|339:275,1,85
339,275,84570,2,0,L|256:192,1,85
216,152,84959,1,0,0:0:0:0:
184,120,85154,1,0,0:0:0:0:
148,84,85348,1,0,0:0:0:0:
112,48,85543,1,0,0:0:0:0:
104,40,85641,1,0,0:0:0:0:
96,32,85738,1,0,0:0:0:0:
395,331,85933,5,0,0:0:0:0:
116,52,86225,1,0,0:0:0:0:
395,331,86518,1,0,0:0:0:0:
116,52,86809,1,0,0:0:0:0:
256,192,87102,1,0,0:0:0:0:
256,192,87199,1,0,0:0:0:0:
256,192,87296,1,0,0:0:0:0:
116,52,87491,5,0,0:0:0:0:
395,331,87783,1,0,0:0:0:0:
116,52,88076,1,0,0:0:0:0:
395,331,88368,1,0,0:0:0:0:
395,331,88465,1,0,0:0:0:0:
395,331,88563,1,0,0:0:0:0:
395,331,88660,1,0,0:0:0:0:
395,331,88757,1,0,0:0:0:0:
96,32,93530,5,0,0:0:0:0:
415,351,93919,5,0,0:0:0:0:
192,128,94309,5,0,0:0:0:0:
319,255,94698,5,0,0:0:0:0:
256,192,94893,5,0,0:0:0:0:
88,24,95089,5,0,0:0:0:0:
391,327,95283,1,0,0:0:0:0:
208,144,95478,1,0,0:0:0:0:
148,84,95673,1,0,0:0:0:0:
431,367,95868,1,0,0:0:0:0:
339,275,96063,1,0,0:0:0:0:
92,28,96257,1,0,0:0:0:0:
256,192,96452,1,0,0:0:0:0:
256,192,96550,1,0,0:0:0:0:
256,192,96647,5,0,0:0:0:0:
140,76,96842,1,0,0:0:0:0:
371,307,97037,1,0,0:0:0:0:
311,247,97231,1,0,0:0:0:0:
92,28,97426,1,0,0:0:0:0:
256,192,97621,1,0,0:0:0:0:
256,192,97719,1,0,0:0:0:0:
256,192,97816,1,0,0:0:0:0:
152,88,98011,2,0,L|176:112,4,30.125
72,8,98400,5,0,0:0:0:0:
303,239,98595,1,0,0:0:0:0:
363,299,98790,1,0,0:0:0:0:
80,16,98985,1,0,0:0:0:0:
172,108,99180,1,0,0:0:0:0:
419,355,99374,1,0,0:0:0:0:
256,192,99569,1,0,0:0:0:0:
256,192,99667,1,0,0:0:0:0:
256,192,99764,5,0,0:0:0:0:
371,307,99959,1,0,0:0:0:0:
140,76,100154,1,0,0:0:0:0:
200,136,100348,1,0,0:0:0:0:
315,251,100543,1,0,0:0:0:0:
80,16,100738,1,0,0:0:0:0:
419,355,100933,1,0,0:0:0:0:
256,192,101322,5,0,0:0:0:0:
295,231,101517,1,0,0:0:0:0:
216,152,101712,1,0,0:0:0:0:
335,271,101907,1,0,0:0:0:0:
176,112,102102,1,0,0:0:0:0:
375,311,102296,1,0,0:0:0:0:
136,72,102491,1,0,0:0:0:0:
415,351,102686,1,0,0:0:0:0:
96,32,102881,5,0,0:0:0:0:
375,311,103270,2,0,L|287:223,1,85
136,72,103660,2,0,L|224:160,1,85
232,168,103952,1,0,0:0:0:0:
240,176,104050,1,0,0:0:0:0:
256,192,104439,5,0,0:0:0:0:
371,307,104634,1,0,0:0:0:0:
140,76,104829,1,0,0:0:0:0:
200,136,105023,1,0,0:0:0:0:
419,355,105218,1,0,0:0:0:0:
256,192,105413,1,0,0:0:0:0:
256,192,105511,1,0,0:0:0:0:
256,192,105608,1,0,0:0:0:0:
116,52,105803,1,0,0:0:0:0:
339,275,105998,5,0,0:0:0:0:
339,275,106193,1,0,0:0:0:0:
339,275,106387,1,0,0:0:0:0:
180,116,106582,2,0,L|204:140,4,30.125
100,36,106972,1,0,0:0:0:0:
415,351,107167,1,0,0:0:0:0:
303,239,107556,6,0,L|208:144,1,120.5
72,8,107946,2,0,L|160:96,1,120.5
407,343,108335,1,0,0:0:0:0:
335,271,108530,1,0,0:0:0:0:
263,199,108725,1,0,0:0:0:0:
192,128,108920,1,0,0:0:0:0:
168,104,109017,1,0,0:0:0:0:
140,76,109115,5,0,0:0:0:0:
411,347,109309,1,0,0:0:0:0:
168,104,109504,1,0,0:0:0:0:
343,279,109699,1,0,0:0:0:0:
232,168,109894,1,0,0:0:0:0:
287,223,110089,1,0,0:0:0:0:
287,223,110186,1,0,0:0:0:0:
287,223,110283,1,0,0:0:0:0:
104,40,110673,5,0,0:0:0:0:
355,291,110868,1,0,0:0:0:0:
204,140,111063,1,0,0:0:0:0:
271,207,111257,1,0,0:0:0:0:
432,368,111452,2,0,L|343:279,1,120.5
100,36,111842,1,0,0:0:0:0:
256,192,112037,1,0,0:0:0:0:
256,192,112134,1,0,0:0:0:0:
256,192,112231,5,0,0:0:0:0:
144,80,112426,1,0,0:0:0:0:
391,327,112621,1,0,0:0:0:0:
331,267,112816,2,0,L|307:243,4,30.125
80,16,113206,1,0,0:0:0:0:
423,359,113400,1,0,0:0:0:0:
432,368,113790,6,0,L|335:271,1,120.5
128,64,114180,1,0,0:0:0:0:
256,192,114374,1,0,0:0:0:0:
335,271,114569,2,0,L|432:368,1,120.5
192,128,114959,1,0,0:0:0:0:
96,32,115154,1,0,0:0:0:0:
96,32,115251,1,0,0:0:0:0:
96,32,115348,5,0,0:0:0:0:
176,112,115543,1,0,0:0:0:0:
256,192,115738,2,0,L|352:288,2,120.5
112,48,116322,1,0,0:0:0:0:
112,48,116420,1,0,0:0:0:0:
112,48,116517,1,0,0:0:0:0:
240,176,116712,1,0,0:0:0:0:
384,320,116907,6,0,L|287:223,1,120.5
96,32,117296,1,0,0:0:0:0:
256,192,117491,1,0,0:0:0:0:
160,96,117686,1,0,0:0:0:0:
320,256,117881,2,0,L|416:352,1,120.5
240,176,118270,1,0,0:0:0:0:
240,176,118368,1,0,0:0:0:0:
240,176,118465,5,0,0:0:0:0:
128,64,118660,1,0,0:0:0:0:
287,223,118855,1,0,0:0:0:0:
351,287,119050,1,0,0:0:0:0:
224,160,119244,2,0,L|192:128,4,30.125
447,383,119634,1,0,0:0:0:0:
256,192,132491,6,0,L|160:96,2,120.5
351,287,133076,1,0,0:0:0:0:
351,287,133173,1,0,0:0:0:0:
351,287,133270,1,0,0:0:0:0:
431,367,133465,1,0,0:0:0:0:
351,287,133855,1,0,0:0:0:0:
431,367,134050,6,0,L|256:192,1,241
160,96,134635,1,0,0:0:0:0:
160,96,134732,1,0,0:0:0:0:
160,96,134829,1,0,0:0:0:0:
80,16,135024,1,0,0:0:0:0:
256,192,135608,6,0,L|160:96,2,120.5
383,319,136193,1,0,0:0:0:0:
383,319,136290,1,0,0:0:0:0:
383,319,136387,1,0,0:0:0:0:
128,64,136582,1,0,0:0:0:0:
383,319,136777,1,0,0:0:0:0:
319,255,136972,1,0,0:0:0:0:
256,192,137167,6,0,L|160:96,2,120.5
383,319,137752,1,0,0:0:0:0:
383,319,137849,1,0,0:0:0:0:
383,319,137946,1,0,0:0:0:0:
128,64,138141,1,0,0:0:0:0:
319,255,138335,1,0,0:0:0:0:
383,319,138530,1,0,0:0:0:0:
224,160,138725,6,0,L|319:255,2,120.5
160,96,139310,1,0,0:0:0:0:
160,96,139407,1,0,0:0:0:0:
160,96,139504,1,0,0:0:0:0:
80,16,139699,1,0,0:0:0:0:
160,96,140089,1,0,0:0:0:0:
256,192,140284,6,0,L|80:16,1,241
351,287,140869,1,0,0:0:0:0:
351,287,140966,1,0,0:0:0:0:
351,287,141063,1,0,0:0:0:0:
431,367,141257,1,0,0:0:0:0:
351,287,141452,1,0,0:0:0:0:
271,207,141647,1,0,0:0:0:0:
176,112,141842,5,0,0:0:0:0:
64,0,146517,5,0,0:0:0:0:
447,383,146907,5,0,0:0:0:0:
160,96,147296,5,0,0:0:0:0:
351,287,147686,5,0,0:0:0:0:
303,239,147881,1,0,0:0:0:0:
256,192,148076,6,0,L|160:96,1,120.5
96,32,148465,1,0,0:0:0:0:
256,192,148660,2,0,L|351:287,1,120.5
128,64,149050,1,0,0:0:0:0:
240,176,149244,1,0,0:0:0:0:
160,96,149439,1,0,0:0:0:0:
160,96,149537,1,0,0:0:0:0:
160,96,149634,6,0,L|64:0,1,120.5
256,192,150024,2,0,L|351:287,1,120.5
112,48,150413,1,0,0:0:0:0:
319,255,150608,1,0,0:0:0:0:
319,255,150706,1,0,0:0:0:0:
319,255,150803,1,0,0:0:0:0:
64,0,151193,5,0,0:0:0:0:
192,128,151387,1,0,0:0:0:0:
128,64,151582,1,0,0:0:0:0:
256,192,151777,1,0,0:0:0:0:
192,128,151972,1,0,0:0:0:0:
319,255,152167,1,0,0:0:0:0:
256,192,152361,1,0,0:0:0:0:
383,319,152556,1,0,0:0:0:0:
383,319,152654,1,0,0:0:0:0:
383,319,152751,6,0,L|287:223,1,120.5
287,223,153141,2,0,L|192:128,1,120.5
192,128,153530,2,0,L|96:32,1,120.5
431,367,153920,1,0,0:0:0:0:
256,192,197459,6,0,B|232:184|232:184|232:152|232:152|200:152|200:152|200:120|200:120|168:120|168:120|168:88|168:88|136:88|136:88|120:56|120:56,1,212.5
