osu file format v14

[General]
AudioFilename: audio.mp3
AudioLeadIn: 0
PreviewTime: 140
Countdown: 1
SampleSet: Normal
StackLeniency: 0.7
Mode: 1
LetterboxInBreaks: 0
WidescreenStoryboard: 0

[Editor]
DistanceSpacing: 1.5
BeatDivisor: 3
GridSize: 32
TimelineZoom: 1

[Metadata]
Title:joj this - park
TitleUnicode:joj this - park
Artist:Vvvvvavvvvvr
ArtistUnicode:Vvvvvavvvvvr
Creator:Zetera
Version:AM IF
Source:
Tags:
BeatmapID:1783480
BeatmapSetID:853326

[Difficulty]
HPDrainRate:9
CircleSize:2
OverallDifficulty:4
ApproachRate:10
SliderMultiplier:1.6
SliderTickRate:1

[Events]
//Background and Video events
0,0,"BG_JOJ.jpg",0,0
//Break Periods
//Storyboard Layer 0 (Background)
//Storyboard Layer 1 (Fail)
//Storyboard Layer 2 (Pass)
//Storyboard Layer 3 (Foreground)
//Storyboard Sound Samples

[TimingPoints]
2942.65573770492,323.362974939369,4,1,0,60,1,0
12535,-99.009900990099,4,1,0,60,0,0
12643,-98.0392156862745,4,1,0,60,0,0
12751,-97.0873786407767,4,1,0,60,0,0
12859,-96.1538461538461,4,1,0,60,0,0
12966,-95.2380952380952,4,1,0,60,0,0
13182,-93.4579439252336,4,1,0,60,0,0
13290,-92.5925925925926,4,1,0,60,0,1
18356,-91.743119266055,4,1,0,60,0,1
18464,-90.9090909090909,4,1,0,60,0,0
22560,-92.5925925925926,4,1,0,60,0,0
22667,-94.3396226415094,4,1,0,60,0,0
22883,-96.1538461538461,4,1,0,60,0,0
22991,-98.0392156862745,4,1,0,60,0,0
23206,-102.040816326531,4,1,0,60,0,0
23314,-104.166666666667,4,1,0,60,0,0
23637,-100,4,1,0,60,0,0
30967,-98.0392156862745,4,1,0,60,0,0
31075,-96.1538461538461,4,1,0,60,0,0
31183,-94.3396226415094,4,1,0,60,0,0
31290,-92.5925925925926,4,1,0,60,0,0
31398,-90.9090909090909,4,1,0,60,0,1
36141,-92.5925925925926,4,1,0,60,0,1
36249,-94.3396226415094,4,1,0,60,0,1
36356,-96.1538461538461,4,1,0,60,0,1
36464,-98.0392156862745,4,1,0,60,0,1
36572,-100,4,1,0,60,0,0
39051,-90.9090909090909,4,1,0,60,0,0
39159,-90.9090909090909,4,1,0,60,0,1
43686,-90.9090909090909,4,1,0,60,0,0
44333,-100,4,1,0,60,0,0

[HitObjects]
256,192,2834,5,8,0:0:0:0:
256,192,2942,1,0,0:0:0:0:
256,192,3158,1,8,0:0:0:0:
256,192,3266,1,8,0:0:0:0:
256,192,3481,1,8,0:0:0:0:
256,192,3589,1,0,0:0:0:0:
256,192,3804,1,8,0:0:0:0:
256,192,3912,1,8,0:0:0:0:
256,192,4020,1,0,0:0:0:0:
256,192,4128,1,8,0:0:0:0:
256,192,4236,1,8,0:0:0:0:
256,192,4451,1,8,0:0:0:0:
256,192,4559,1,0,0:0:0:0:
256,192,4775,1,8,0:0:0:0:
256,192,4882,1,8,0:0:0:0:
256,192,5098,1,0,0:0:0:0:
256,192,5206,1,8,0:0:0:0:
256,192,5313,1,0,0:0:0:0:
256,192,5421,1,0,0:0:0:0:
256,192,5529,1,12,0:0:0:0:
256,192,5745,1,0,0:0:0:0:
256,192,5852,1,0,0:0:0:0:
256,192,6068,1,0,0:0:0:0:
256,192,6176,1,12,0:0:0:0:
256,192,6391,1,0,0:0:0:0:
256,192,6499,1,0,0:0:0:0:
256,192,6715,1,8,0:0:0:0:
256,192,6823,1,12,0:0:0:0:
256,192,7038,1,8,0:0:0:0:
256,192,7146,1,0,0:0:0:0:
256,192,7361,1,8,0:0:0:0:
256,192,7469,1,8,0:0:0:0:
256,192,7577,1,0,0:0:0:0:
256,192,7685,1,8,0:0:0:0:
256,192,7793,1,0,0:0:0:0:
256,192,8008,1,8,0:0:0:0:
256,192,8116,1,0,0:0:0:0:
256,192,8224,1,0,0:0:0:0:
256,192,8332,1,8,0:0:0:0:
256,192,8439,1,0,0:0:0:0:
256,192,8655,1,8,0:0:0:0:
256,192,8763,1,0,0:0:0:0:
256,192,8978,1,0,0:0:0:0:
256,192,9032,1,0,0:0:0:0:
256,192,9086,1,8,0:0:0:0:
256,192,9302,1,8,0:0:0:0:
256,192,9409,1,0,0:0:0:0:
256,192,9625,1,8,0:0:0:0:
256,192,9733,1,8,0:0:0:0:
256,192,9948,1,8,0:0:0:0:
256,192,10056,1,0,0:0:0:0:
256,192,10164,1,0,0:0:0:0:
256,192,10272,1,8,0:0:0:0:
256,192,10380,1,0,0:0:0:0:
256,192,10595,1,8,0:0:0:0:
256,192,10703,1,8,0:0:0:0:
256,192,10918,1,8,0:0:0:0:
256,192,11026,1,8,0:0:0:0:
256,192,11242,1,12,0:0:0:0:
256,192,11350,1,0,0:0:0:0:
256,192,11565,1,8,0:0:0:0:
256,192,11673,1,8,0:0:0:0:
256,192,11781,1,0,0:0:0:0:
256,192,11889,1,8,0:0:0:0:
256,192,11996,1,0,0:0:0:0:
256,192,12212,1,0,0:0:0:0:
256,192,12320,1,8,0:0:0:0:
256,192,12535,1,8,0:0:0:0:
256,192,12643,1,0,0:0:0:0:
256,192,12751,1,0,0:0:0:0:
256,192,12859,1,8,0:0:0:0:
256,192,12966,1,0,0:0:0:0:
256,192,13182,1,8,0:0:0:0:
256,192,13290,1,8,0:0:0:0:
256,192,13505,1,8,0:0:0:0:
256,192,13613,1,0,0:0:0:0:
256,192,13829,1,8,0:0:0:0:
256,192,14152,1,8,0:0:0:0:
256,192,14260,1,0,0:0:0:0:
256,192,14475,1,0,0:0:0:0:
256,192,14583,1,8,0:0:0:0:
256,192,14799,1,8,0:0:0:0:
256,192,14907,1,0,0:0:0:0:
256,192,15122,1,0,0:0:0:0:
256,192,15230,1,8,0:0:0:0:
256,192,15446,1,0,0:0:0:0:
256,192,15553,1,0,0:0:0:0:
256,192,15769,1,0,0:0:0:0:
256,192,15877,1,8,0:0:0:0:
256,192,16092,1,8,0:0:0:0:
256,192,16416,1,0,0:0:0:0:
256,192,16523,1,0,0:0:0:0:
256,192,16739,1,8,0:0:0:0:
256,192,16847,1,0,0:0:0:0:
256,192,17062,1,0,0:0:0:0:
256,192,17170,1,8,0:0:0:0:
256,192,17386,1,8,0:0:0:0:
256,192,17493,1,0,0:0:0:0:
256,192,17709,1,0,0:0:0:0:
256,192,17817,1,8,0:0:0:0:
256,192,18032,1,0,0:0:0:0:
256,192,18140,1,0,0:0:0:0:
256,192,18356,1,8,0:0:0:0:
256,192,18464,1,4,0:0:0:0:
256,192,18679,1,0,0:0:0:0:
256,192,18787,1,8,0:0:0:0:
256,192,18895,1,0,0:0:0:0:
256,192,19003,1,0,0:0:0:0:
256,192,19110,1,8,0:0:0:0:
256,192,19326,1,0,0:0:0:0:
256,192,19434,1,8,0:0:0:0:
256,192,19541,1,0,0:0:0:0:
256,192,19649,1,0,0:0:0:0:
256,192,19757,1,8,0:0:0:0:
256,192,19973,1,0,0:0:0:0:
256,192,20080,1,12,0:0:0:0:
256,192,20296,1,0,0:0:0:0:
256,192,20404,1,4,0:0:0:0:
256,192,20619,1,8,0:0:0:0:
256,192,20727,1,0,0:0:0:0:
256,192,20943,1,0,0:0:0:0:
256,192,21050,1,8,0:0:0:0:
256,192,21104,1,8,0:0:0:0:
256,192,21158,1,0,0:0:0:0:
256,192,21374,1,0,0:0:0:0:
256,192,21589,1,0,0:0:0:0:
256,192,21697,1,8,0:0:0:0:
256,192,21913,1,0,0:0:0:0:
256,192,22021,1,8,0:0:0:0:
256,192,22128,1,0,0:0:0:0:
256,192,22236,1,0,0:0:0:0:
256,192,22344,1,12,0:0:0:0:
256,192,22560,1,0,0:0:0:0:
256,192,22667,1,12,0:0:0:0:
256,192,22883,1,0,0:0:0:0:
256,192,22991,1,0,0:0:0:0:
256,192,23206,1,8,0:0:0:0:
256,192,23314,1,8,0:0:0:0:
256,192,23637,1,4,0:0:0:0:
256,192,23853,1,0,0:0:0:0:
256,192,23961,1,0,0:0:0:0:
256,192,24176,1,0,0:0:0:0:
256,192,24284,1,12,0:0:0:0:
256,192,24500,1,0,0:0:0:0:
256,192,24607,1,0,0:0:0:0:
256,192,24823,1,0,0:0:0:0:
256,192,24931,1,4,0:0:0:0:
256,192,25146,1,0,0:0:0:0:
256,192,25254,1,0,0:0:0:0:
256,192,25470,1,0,0:0:0:0:
256,192,25578,1,12,0:0:0:0:
256,192,25793,1,0,0:0:0:0:
256,192,26117,1,8,0:0:0:0:
256,192,26224,1,0,0:0:0:0:
256,192,26440,1,0,0:0:0:0:
256,192,26548,1,8,0:0:0:0:
256,192,26655,1,8,0:0:0:0:
256,192,26763,1,8,0:0:0:0:
256,192,26871,1,0,0:0:0:0:
256,192,27087,1,0,0:0:0:0:
256,192,27194,1,8,0:0:0:0:
256,192,27410,1,8,0:0:0:0:
256,192,27518,1,0,0:0:0:0:
256,192,27733,1,0,0:0:0:0:
256,192,27841,1,8,0:0:0:0:
256,192,27949,1,8,0:0:0:0:
256,192,28057,1,8,0:0:0:0:
256,192,28164,1,0,0:0:0:0:
256,192,28272,1,8,0:0:0:0:
256,192,28380,1,8,0:0:0:0:
256,192,28488,1,4,0:0:0:0:
256,192,28703,1,8,0:0:0:0:
256,192,28811,1,4,0:0:0:0:
256,192,29027,1,8,0:0:0:0:
256,192,29135,1,8,0:0:0:0:
256,192,29350,1,8,0:0:0:0:
256,192,29458,1,0,0:0:0:0:
256,192,29673,1,8,0:0:0:0:
256,192,29781,1,0,0:0:0:0:
256,192,29835,1,0,0:0:0:0:
256,192,29889,1,8,0:0:0:0:
256,192,29997,1,8,0:0:0:0:
256,192,30105,1,0,0:0:0:0:
256,192,30159,1,0,0:0:0:0:
256,192,30212,1,8,0:0:0:0:
256,192,30320,1,8,0:0:0:0:
256,192,30428,1,0,0:0:0:0:
256,192,30644,1,8,0:0:0:0:
256,192,30751,1,8,0:0:0:0:
256,192,30967,1,8,0:0:0:0:
256,192,31075,1,0,0:0:0:0:
256,192,31183,1,0,0:0:0:0:
256,192,31290,1,8,0:0:0:0:
256,192,31398,1,4,0:0:0:0:
256,192,31614,1,8,0:0:0:0:
256,192,31721,1,0,0:0:0:0:
256,192,31937,1,8,0:0:0:0:
256,192,32260,1,0,0:0:0:0:
256,192,32368,1,8,0:0:0:0:
256,192,32584,1,8,0:0:0:0:
256,192,32692,1,0,0:0:0:0:
256,192,32907,1,0,0:0:0:0:
256,192,33015,1,8,0:0:0:0:
256,192,33230,1,0,0:0:0:0:
256,192,33338,1,8,0:0:0:0:
256,192,33554,1,8,0:0:0:0:
256,192,33662,1,0,0:0:0:0:
256,192,33769,1,0,0:0:0:0:
256,192,33877,1,8,0:0:0:0:
256,192,33985,1,0,0:0:0:0:
256,192,34201,1,8,0:0:0:0:
256,192,34524,1,8,0:0:0:0:
256,192,34632,1,8,0:0:0:0:
256,192,34847,1,8,0:0:0:0:
256,192,34955,1,0,0:0:0:0:
256,192,35171,1,0,0:0:0:0:
256,192,35278,1,8,0:0:0:0:
256,192,35494,1,8,0:0:0:0:
256,192,35602,1,0,0:0:0:0:
256,192,35817,1,0,0:0:0:0:
256,192,35925,1,8,0:0:0:0:
256,192,36141,1,0,0:0:0:0:
256,192,36249,1,8,0:0:0:0:
256,192,36356,1,0,0:0:0:0:
256,192,36464,1,8,0:0:0:0:
256,192,36572,1,12,0:0:0:0:
256,192,36787,1,0,0:0:0:0:
256,192,36895,1,8,0:0:0:0:
256,192,37111,1,8,0:0:0:0:
256,192,37219,1,0,0:0:0:0:
256,192,37434,1,8,0:0:0:0:
256,192,37758,1,8,0:0:0:0:
256,192,37865,1,0,0:0:0:0:
256,192,38081,1,0,0:0:0:0:
256,192,38189,1,8,0:0:0:0:
256,192,38404,1,8,0:0:0:0:
256,192,38512,1,0,0:0:0:0:
256,192,38728,1,8,0:0:0:0:
256,192,39051,1,8,0:0:0:0:
256,192,39159,1,4,0:0:0:0:
256,192,39374,1,8,0:0:0:0:
256,192,39482,1,0,0:0:0:0:
256,192,39698,1,8,0:0:0:0:
256,192,40021,1,0,0:0:0:0:
256,192,40129,1,8,0:0:0:0:
256,192,40344,1,8,0:0:0:0:
256,192,40452,1,8,0:0:0:0:
256,192,40668,1,8,0:0:0:0:
256,192,40776,1,0,0:0:0:0:
256,192,40991,1,0,0:0:0:0:
256,192,41099,1,8,0:0:0:0:
256,192,41315,1,8,0:0:0:0:
256,192,41422,1,0,0:0:0:0:
256,192,41530,1,0,0:0:0:0:
256,192,41638,1,8,0:0:0:0:
256,192,41746,1,0,0:0:0:0:
256,192,41961,1,8,0:0:0:0:
256,192,42285,1,8,0:0:0:0:
256,192,42392,1,0,0:0:0:0:
256,192,42608,1,0,0:0:0:0:
256,192,42716,1,8,0:0:0:0:
256,192,42931,1,8,0:0:0:0:
256,192,43039,1,8,0:0:0:0:
256,192,43255,1,0,0:0:0:0:
256,192,43363,1,8,0:0:0:0:
256,192,43578,1,0,0:0:0:0:
256,192,43686,1,8,0:0:0:0:
256,192,44333,1,4,0:0:0:0:
256,192,44548,1,8,0:0:0:0:
256,192,44872,1,8,0:0:0:0:
256,192,44979,1,0,0:0:0:0:
256,192,45195,1,8,0:0:0:0:
256,192,45518,1,8,0:0:0:0:
256,192,45626,1,0,0:0:0:0:
256,192,45842,1,0,0:0:0:0:
256,192,45949,1,8,0:0:0:0:
256,192,46165,1,8,0:0:0:0:
256,192,46273,1,0,0:0:0:0:
256,192,46488,1,8,0:0:0:0:
256,192,46812,1,8,0:0:0:0:
256,192,46920,1,0,0:0:0:0:
256,192,47135,1,0,0:0:0:0:
256,192,47243,1,8,0:0:0:0:
256,192,47458,1,0,0:0:0:0:
256,192,47566,1,8,0:0:0:0:
256,192,47782,1,0,0:0:0:0:
256,192,48105,1,0,0:0:0:0:
256,192,48321,1,8,0:0:0:0:
256,192,48536,1,0,0:0:0:0:
256,192,48860,1,12,0:0:0:0:
256,192,49075,1,8,0:0:0:0:
256,192,49506,12,0,53387,0:0:0:0:
