osu file format v14

[General]
AudioFilename: audio.mp3
AudioLeadIn: 0
PreviewTime: 92
Countdown: 0
SampleSet: Soft
StackLeniency: 0.4
Mode: 0
LetterboxInBreaks: 0
WidescreenStoryboard: 1

[Editor]
DistanceSpacing: 0.4
BeatDivisor: 4
GridSize: 8
TimelineZoom: 1.5

[Metadata]
Title:Alien Blues
TitleUnicode:Alien Blues
Artist:Vundabar
ArtistUnicode:Vundabar
Creator:Astrolis
Version:Ugly Duckling
Source:
Tags:english rock indie riffy bakari -bakari- daycore mirai le lemirai cacturne sirmirai animestyle een persoon enneya le_mirai gawk
BeatmapID:3432265
BeatmapSetID:1680061

[Difficulty]
HPDrainRate:6
CircleSize:4
OverallDifficulty:8
ApproachRate:9
SliderMultiplier:1.6
SliderTickRate:1

[Events]
//Background and Video events
0,0,"nananananana.jpg",0,0
Video,-1420,"vid.mp4"
//Break Periods
//Storyboard Layer 0 (Background)
//Storyboard Layer 1 (Fail)
//Storyboard Layer 2 (Pass)
//Storyboard Layer 3 (Foreground)
//Storyboard Layer 4 (Overlay)
//Storyboard Sound Samples

[TimingPoints]
264,341.880341880342,4,2,1,60,1,0
264,-142.857142857143,4,2,1,60,0,0
1631,333.333333333333,4,2,1,60,1,0
1631,-142.857142857143,4,2,1,60,0,0
2630,353.982300884956,4,2,1,60,1,0
2983,340.425531914894,4,2,1,60,1,0
2983,-142.857142857143,4,2,1,60,0,0
4344,335.195530726257,4,2,1,60,1,0
4344,-142.857142857143,4,2,1,60,0,0
5349,371.517027863777,4,2,1,60,1,0
5720,329.67032967033,4,2,1,60,1,0
5720,-142.857142857143,4,2,1,60,0,0
7038,339.462517680339,4,2,1,60,1,0
7038,-142.857142857143,4,2,1,60,0,0
8056,346.820809248555,4,2,1,60,1,0
8402,338.983050847458,4,2,1,60,1,0
10605,341.880341880342,4,2,1,60,1,0
10946,375,4,2,1,60,1,0
11133,348.837209302326,4,2,2,70,1,0
11133,-100,4,2,2,70,0,0
11220,-100,4,2,1,70,0,0
11656,-100,4,2,2,70,0,0
11743,-100,4,2,1,70,0,0
11830,346.820809248555,4,2,1,70,1,0
12523,346.820809248555,4,2,1,70,1,0
12523,-100,4,2,2,70,0,0
12609,-100,4,2,1,70,0,0
13043,-100,4,2,2,70,0,0
13129,-100,4,2,1,70,0,0
13910,-100,4,2,2,70,0,0
13996,-100,4,2,1,70,0,0
14430,387.096774193548,4,2,1,70,1,0
14430,-100,4,2,2,70,0,0
14535,-100,4,2,1,70,0,0
14623,350.877192982456,4,2,1,70,1,0
15324,346.820809248555,4,2,1,70,1,0
15324,-100,4,2,2,70,0,0
15410,-100,4,2,1,70,0,0
15844,-100,4,2,2,70,0,0
15930,-100,4,2,1,70,0,0
16711,-100,4,2,2,70,0,0
16797,-100,4,2,1,70,0,0
17231,379.746835443038,4,2,1,70,1,0
17231,-100,4,2,2,70,0,0
17331,-100,4,2,1,70,0,0
17420,354.505169867061,4,2,1,70,1,0
18129,344.827586206897,4,2,1,70,1,0
18129,-100,4,2,2,70,0,0
18215,-100,4,2,1,70,0,0
18646,370.37037037037,4,2,1,70,1,0
18646,-100,4,2,2,70,0,0
18744,-100,4,2,1,70,0,0
18831,345.821325648415,4,2,1,70,1,0
19522,348.837209302326,4,2,1,70,1,0
19522,-100,4,2,2,70,0,0
19609,-100,4,2,1,70,0,0
20045,397.350993377483,4,2,1,70,1,0
20045,-100,4,2,2,70,0,0
20144,-100,4,2,1,70,0,0
20243,357.142857142857,4,2,1,70,1,0
20957,359.281437125748,4,2,1,70,1,0
20957,-125,4,2,2,70,0,0
21046,-125,4,2,1,70,0,0
21316,-125,4,2,2,70,0,0
21406,-125,4,2,1,70,0,0
21675,370.37037037037,4,2,1,60,1,0
21675,-200,4,2,1,60,0,0
22045,-200,4,2,2,60,0,0
22137,-200,4,2,1,60,0,0
22415,394.736842105263,4,2,1,60,1,0
22415,-333.333333333333,4,2,1,60,0,0
22809,413.793103448276,4,2,1,60,1,0
23222,387.096774193548,4,2,1,60,1,0
23609,408.163265306122,4,2,1,60,1,0
24017,408.163265306122,4,2,1,60,1,0
24425,378.548895899054,4,2,1,60,1,0
24803,394.736842105263,4,2,1,60,1,0
25592,397.350993377483,4,2,1,60,1,0
25989,403.361344537815,4,2,1,60,1,0
26795,393.44262295082,4,2,1,60,1,0
27188,400,4,2,1,60,1,0
27188,-333.333333333333,4,2,1,60,0,0
27588,368.098159509202,4,2,1,60,1,0
27956,410.958904109589,4,2,1,60,1,0
28572,315.789473684211,4,2,1,60,1,0
28729,370.37037037037,4,2,1,60,1,0
28729,-333.333333333333,4,2,1,60,0,0
29099,428.571428571429,4,2,1,60,1,0
29527,389.61038961039,4,2,1,60,1,0
29916,372.670807453416,4,2,1,60,1,0
30288,428.571428571429,4,2,1,60,1,0
30716,340.909090909091,4,2,1,60,1,0
31056,425.531914893617,4,2,1,60,1,0
31056,-333.333333333333,4,2,1,60,0,0
31481,319.148936170213,4,2,1,60,1,0
31800,368.098159509202,4,2,1,70,1,0
31800,-100,4,2,2,70,0,0
31892,-100,4,2,1,70,0,0
32536,361.44578313253,4,2,1,70,1,0
32897,379.746835443038,4,2,1,70,1,0
32897,-100,4,2,2,70,0,0
32991,-100,4,2,1,70,0,0
33276,352.941176470588,4,2,1,70,1,0
33628,285.714285714286,4,2,1,70,1,0
33770,461.538461538462,4,2,1,70,1,0
33770,-100,4,2,2,70,0,0
33885,-100,4,2,1,70,0,0
34000,363.086232980333,4,2,1,70,1,0
34726,379.746835443038,4,2,1,80,1,0
34726,-285.714285714286,4,2,2,80,0,0
34820,-285.714285714286,4,2,1,80,0,0
35105,387.096774193548,4,2,1,80,1,0
35105,-285.714285714286,4,2,1,80,0,0
35879,375,4,2,1,80,1,0
36254,383.386581469649,4,2,1,80,1,0
36254,-285.714285714286,4,2,2,80,0,0
36349,-285.714285714286,4,2,1,80,0,0
37020,377.358490566038,4,2,1,80,1,0
37020,-285.714285714286,4,2,1,80,0,0
37774,387.096774193548,4,2,1,80,1,0
37774,-285.714285714286,4,2,2,80,0,0
37870,-285.714285714286,4,2,1,80,0,0
38161,372.670807453416,4,2,1,80,1,0
38161,-285.714285714286,4,2,1,80,0,0
39279,376.175548589342,4,2,1,80,1,0
39279,-285.714285714286,4,2,2,80,0,0
39373,-285.714285714286,4,2,1,80,0,0
40031,364.741641337386,4,2,1,80,1,0
40031,-285.714285714286,4,2,1,80,0,0
40760,387.096774193548,4,2,1,80,1,0
40760,-285.714285714286,4,2,2,80,0,0
40856,-285.714285714286,4,2,1,80,0,0
41147,375,4,2,1,80,1,0
41147,-285.714285714286,4,2,1,80,0,0
41897,348.837209302326,4,2,1,80,1,0
42245,382.165605095541,4,2,1,80,1,0
42245,-285.714285714286,4,2,2,80,0,0
42340,-285.714285714286,4,2,1,80,0,0
43009,365.853658536585,4,2,1,80,1,0
43374,-285.714285714286,4,2,1,80,0,0
43740,352.941176470588,4,2,1,80,1,0
43740,-83.3333333333333,4,2,2,80,0,0
43828,-83.3333333333333,4,2,1,80,0,0
44445,365.853658536585,4,2,1,80,1,0
44445,-83.3333333333333,4,2,1,80,0,0
45176,344.827586206897,4,2,1,80,1,0
45176,-83.3333333333333,4,2,1,80,0,0
45520,285.714285714286,4,2,1,80,1,0
45662,500,4,2,1,80,1,0
45662,-83.3333333333333,4,2,2,80,0,0
45787,-83.3333333333333,4,2,1,80,0,0
45912,347.826086956522,4,2,1,80,1,0
46259,357.142857142857,4,2,1,80,1,0
46616,372.670807453416,4,2,1,80,1,0
46616,-90.9090909090909,4,2,2,80,0,0
46709,-90.9090909090909,4,2,1,80,0,0
46988,355.029585798817,4,2,1,80,1,0
47343,376.766091051805,4,2,1,80,1,0
47908,-90.9090909090909,4,2,2,80,0,0
48096,369.230769230769,4,2,1,80,1,0
48188,-90.9090909090909,4,2,1,80,0,0
48834,377.358490566038,4,2,1,80,1,0
49400,-90.9090909090909,4,2,2,80,0,0
49588,371.22969837587,4,2,1,80,1,0
49680,-90.9090909090909,4,2,1,80,0,0
50887,-90.9090909090909,4,2,2,80,0,0
51165,-90.9090909090909,4,2,1,80,0,0
52372,-90.9090909090909,4,2,2,80,0,0
52557,373.831775700935,4,2,1,80,1,0
52650,-90.9090909090909,4,2,1,80,0,0
53865,-90.9090909090909,4,2,2,80,0,0
54145,-90.9090909090909,4,2,1,80,0,0
55360,-90.9090909090909,4,2,2,80,0,0
55547,377.358490566038,4,2,1,80,1,0
55641,-90.9090909090909,4,2,1,80,0,0
56301,370.37037037037,4,2,1,80,1,0
56856,-90.9090909090909,4,2,2,80,0,0
57041,392.156862745098,4,2,1,80,1,0
57139,-90.9090909090909,4,2,1,80,0,0
57433,352.941176470588,4,2,1,80,1,0
57785,379.746835443038,4,2,1,80,1,0
58164,348.837209302326,4,2,1,80,1,0
58338,-90.9090909090909,4,2,2,80,0,0
58512,368.098159509202,4,2,1,70,1,0
58512,-100,4,2,2,70,0,0
58604,-100,4,2,1,70,0,0
58880,371.517027863777,4,2,1,70,1,0
59065,-100,4,2,2,70,0,0
59158,-100,4,2,1,70,0,0
59437,-100,4,2,2,70,0,0
59530,-100,4,2,1,70,0,0
59623,-100,4,2,2,70,0,0
59715,-100,4,2,1,70,0,0
59994,352.941176470588,4,2,1,70,1,0
59994,-100,4,2,2,70,0,0
60082,-100,4,2,1,70,0,0
60346,379.746835443038,4,2,1,70,1,0
60535,-100,4,2,2,70,0,0
60725,365.853658536585,4,2,1,70,1,0
60725,-100,4,2,1,70,0,0
60907,-100,4,2,2,70,0,0
60999,-100,4,2,1,70,0,0
61090,-100,4,2,2,70,0,0
61182,-100,4,2,1,70,0,0
61274,-100,4,2,2,70,0,0
61366,-100,4,2,1,70,0,0
61456,370.37037037037,4,2,1,70,1,0
61456,-100,4,2,2,70,0,0
61548,-100,4,2,1,70,0,0
62011,-100,4,2,2,70,0,0
62196,364.741641337386,4,2,1,70,1,0
62196,-100,4,2,1,70,0,0
62378,-100,4,2,2,70,0,0
62469,-100,4,2,1,70,0,0
62560,-100,4,2,2,70,0,0
62651,-100,4,2,1,70,0,0
62743,-100,4,2,2,70,0,0
62834,-100,4,2,1,70,0,0
62925,369.79969183359,4,2,1,70,1,0
62925,-100,4,2,2,70,0,0
63017,-100,4,2,1,70,0,0
63109,-100,4,2,2,70,0,0
63202,-100,4,2,1,70,0,0
63479,-100,4,2,2,70,0,0
63664,362.537764350453,4,2,1,70,1,0
63664,-100,4,2,1,70,0,0
63845,-100,4,2,2,70,0,0
63935,-100,4,2,1,70,0,0
64026,-100,4,2,2,70,0,0
64118,-100,4,2,1,70,0,0
64207,-100,4,2,2,70,0,0
64298,-100,4,2,1,70,0,0
64389,363.636363636364,4,2,1,70,1,0
64389,-100,4,2,2,70,0,0
64479,-100,4,2,1,70,0,0
64661,-100,4,2,2,70,0,0
64752,-100,4,2,1,70,0,0
64934,-100,4,2,2,70,0,0
65116,-100,4,2,1,70,0,0
65298,-100,4,2,2,70,0,0
65389,-100,4,2,1,70,0,0
65480,-100,4,2,2,70,0,0
65570,-100,4,2,1,70,0,0
65661,-100,4,2,2,70,0,0
65752,-100,4,2,1,70,0,0
65843,369.230769230769,4,2,1,70,1,0
65843,-100,4,2,2,70,0,0
65935,-100,4,2,1,70,0,0
66119,-100,4,2,2,70,0,0
66212,-100,4,2,1,70,0,0
66396,-100,4,2,2,70,0,0
66581,365.853658536585,4,2,1,70,1,0
66581,-100,4,2,1,70,0,0
66763,-100,4,2,2,70,0,0
66855,-100,4,2,1,70,0,0
66946,-100,4,2,2,70,0,0
67038,-100,4,2,1,70,0,0
67129,-100,4,2,2,70,0,0
67223,-100,4,2,1,70,0,0
67312,352.941176470588,4,2,1,70,1,0
67312,-100,4,2,2,70,0,0
67400,-100,4,2,1,70,0,0
67488,-100,4,2,2,70,0,0
67576,-100,4,2,1,70,0,0
67841,410.958904109589,4,2,1,70,1,0
67841,-100,4,2,2,70,0,0
68046,374.531835205993,4,2,1,70,1,0
68046,-100,4,2,1,70,0,0
68233,-100,4,2,2,70,0,0
68326,-100,4,2,1,70,0,0
68420,-100,4,2,2,70,0,0
68514,-100,4,2,1,70,0,0
68607,-100,4,2,2,70,0,0
68701,-100,4,2,1,70,0,0
68795,379.746835443038,4,2,1,70,1,0
68795,-100,4,2,2,70,0,0
68889,-100,4,2,1,70,0,0
69174,361.44578313253,4,2,1,70,1,0
69535,377.358490566038,4,2,1,70,1,0
69535,-100,4,2,2,70,0,0
69629,-100,4,2,1,70,0,0
69912,355.029585798817,4,2,1,70,1,0
70267,368.098159509202,4,2,1,70,1,0
70267,-100,4,2,2,70,0,0
70359,-100,4,2,1,70,0,0
70635,351.906158357771,4,2,1,70,1,0
70635,-100,4,2,2,70,0,0
70722,-100,4,2,1,70,0,0
71338,370.37037037037,4,2,1,70,1,0
71338,-100,4,2,2,70,0,0
71430,-100,4,2,1,70,0,0
71708,358.4229390681,4,2,1,70,1,0
71708,-100,4,2,2,70,0,0
71797,-100,4,2,1,70,0,0
72066,-100,4,2,2,70,0,0
72156,-100,4,2,1,70,0,0
72783,-100,4,2,2,70,0,0
72872,-100,4,2,1,70,0,0
73141,362.537764350453,4,2,1,70,1,0
73141,-100,4,2,2,70,0,0
73231,-100,4,2,1,70,0,0
73503,-100,4,2,2,70,0,0
73594,-100,4,2,1,70,0,0
73866,355.029585798817,4,2,1,70,1,0
74221,-100,4,2,2,70,0,0
74309,-100,4,2,1,70,0,0
74576,360.36036036036,4,2,1,70,1,0
74576,-100,4,2,2,70,0,0
74666,-100,4,2,1,70,0,0
74936,-100,4,2,2,70,0,0
75026,-100,4,2,1,70,0,0
75657,-100,4,2,2,70,0,0
75747,-100,4,2,1,70,0,0
76017,365.853658536585,4,2,1,70,1,0
76017,-100,4,2,2,70,0,0
76108,-100,4,2,1,70,0,0
76382,-100,4,2,2,70,0,0
76474,-100,4,2,1,70,0,0
76748,357.142857142857,4,2,1,70,1,0
77105,-100,4,2,2,70,0,0
77194,-100,4,2,1,70,0,0
77462,358.208955223881,4,2,1,70,1,0
77462,-100,4,2,2,70,0,0
77551,-100,4,2,1,70,0,0
77820,365.296803652968,4,2,1,70,1,0
77820,-100,4,2,2,70,0,0
77911,-100,4,2,1,70,0,0
78550,-100,4,2,2,70,0,0
78641,-100,4,2,1,70,0,0
78915,392.156862745098,4,2,1,60,1,0
78915,-125,4,2,1,60,0,0
79307,361.44578313253,4,2,1,60,1,0
79668,393.44262295082,4,2,1,60,1,0
79668,-166.666666666667,4,2,1,60,0,0
80061,372.670807453416,4,2,1,60,1,0
80433,370.37037037037,4,2,1,60,1,0
80433,-250,4,2,1,60,0,0
80803,378.548895899054,4,2,1,60,1,0
80803,-250,4,2,1,60,0,0
80992,-250,4,2,2,60,0,0
81181,380.952380952381,4,2,1,60,1,0
81181,-500,4,2,1,60,0,0
81561,-500,4,2,2,60,0,0
81942,404.040404040404,4,2,1,60,1,0
81942,-200,4,2,1,60,0,0
83558,434.782608695652,4,2,1,60,1,0
83992,372.670807453416,4,2,1,60,1,0
84364,401.33779264214,4,2,1,60,1,0
85166,416.666666666667,4,2,1,60,1,0
85582,392.156862745098,4,2,1,60,1,0
85974,404.040404040404,4,2,1,60,1,0
86378,394.736842105263,4,2,1,60,1,0
86772,422.535211267606,4,2,1,60,1,0
87194,379.746835443038,4,2,1,60,1,0
87573,398.671096345515,4,2,1,60,1,0
88370,400,4,2,1,60,1,0
88770,378.548895899054,4,2,1,60,1,0
89148,402.684563758389,4,2,1,60,1,0
89550,375,4,2,1,60,1,0
89925,410.958904109589,4,2,1,60,1,0
89925,-200,4,2,1,60,0,0
90335,352.941176470588,4,2,1,60,1,0
90687,404.040404040404,4,2,1,60,1,0
91091,359.281437125748,4,2,1,60,1,0
91450,373.831775700935,4,2,1,70,1,0
91450,-100,4,2,2,70,0,0
91543,-100,4,2,1,70,0,0
91823,359.281437125748,4,2,1,70,1,0
92182,378.548895899054,4,2,1,70,1,0
92560,371.517027863777,4,2,1,70,1,0
92560,-100,4,2,2,70,0,0
92652,-100,4,2,1,70,0,0
92931,359.281437125748,4,2,1,70,1,0
93469,434.782608695652,4,2,1,70,1,0
93469,-100,4,2,2,70,0,0
93577,-100,4,2,1,70,0,0
93686,352.941176470588,4,2,1,70,1,0
94391,389.61038961039,4,2,1,80,1,0
94391,-333.333333333333,4,2,2,80,0,0
94488,-333.333333333333,4,2,1,80,0,0
94780,400,4,2,1,80,1,0
94780,-333.333333333333,4,2,1,80,0,0
95580,359.281437125748,4,2,1,80,1,0
95939,389.61038961039,4,2,1,80,1,0
95939,-333.333333333333,4,2,2,80,0,0
96036,-333.333333333333,4,2,1,80,0,0
96718,380.952380952381,4,2,1,80,1,0
96718,-333.333333333333,4,2,1,80,0,0
97479,384.615384615385,4,2,1,80,1,0
97479,-333.333333333333,4,2,2,80,0,0
97575,-333.333333333333,4,2,1,80,0,0
98632,357.142857142857,4,2,1,80,1,0
98989,388.349514563107,4,2,1,80,1,0
98989,-333.333333333333,4,2,2,80,0,0
99086,-333.333333333333,4,2,1,80,0,0
99765,376.175548589342,4,2,1,80,1,0
99765,-333.333333333333,4,2,1,80,0,0
100517,388.978930307942,4,2,1,80,1,0
100517,-333.333333333333,4,2,2,80,0,0
100614,-333.333333333333,4,2,1,80,0,0
100905,385.852090032154,4,2,1,80,1,0
100905,-333.333333333333,4,2,1,80,0,0
101676,377.358490566038,4,2,1,80,1,0
102053,374.414976599064,4,2,1,80,1,0
102053,-333.333333333333,4,2,2,80,0,0
102146,-333.333333333333,4,2,1,80,0,0
103176,365.853658536585,4,2,1,80,1,0
103176,-333.333333333333,4,2,1,80,0,0
103541,363.636363636364,4,2,1,70,1,0
103541,-83.3333333333333,4,2,2,70,0,0
103631,-83.3333333333333,4,2,1,70,0,0
103904,355.029585798817,4,2,1,70,1,0
103904,-83.3333333333333,4,2,1,70,0,0
104259,365.853658536585,4,2,1,70,1,0
104259,-83.3333333333333,4,2,1,70,0,0
104624,-83.3333333333333,4,2,2,70,0,0
104716,-83.3333333333333,4,2,1,70,0,0
104990,359.712230215827,4,2,1,70,1,0
104990,-83.3333333333333,4,2,1,70,0,0
105529,-83.3333333333333,4,2,2,70,0,0
105619,-83.3333333333333,4,2,1,70,0,0
106069,405.405405405405,4,2,1,70,1,0
106474,333.333333333333,4,2,1,70,1,0
106474,-125,4,2,2,70,0,0
106557,-125,4,2,1,70,0,0
106807,392.156862745098,4,2,1,70,1,0
106807,-125,4,2,1,70,0,0
107199,383.386581469649,4,2,1,70,1,0
107199,-125,4,2,1,70,0,0
107965,365.853658536585,4,2,1,70,1,0
107965,-125,4,2,2,70,0,0
108056,-125,4,2,1,70,0,0
108330,357.142857142857,4,2,1,70,1,0
108330,-125,4,2,1,70,0,0
108687,387.096774193548,4,2,1,70,1,0
108687,-125,4,2,1,70,0,0
109074,375,4,2,1,70,1,0
109074,-125,4,2,1,70,0,0
109449,376.175548589342,4,2,1,70,1,0
109449,-125,4,2,2,70,0,0
109543,-125,4,2,1,70,0,0
110201,397.350993377483,4,2,1,70,1,0
110201,-125,4,2,1,70,0,0
110598,376.175548589342,4,2,1,70,1,0
110598,-125,4,2,1,70,0,0
110974,376.175548589342,4,2,1,70,1,0
110974,-125,4,2,2,70,0,0
111068,-125,4,2,1,70,0,0
111726,374.531835205993,4,2,1,70,1,0
111726,-125,4,2,1,70,0,0
112475,368.098159509202,4,2,1,70,1,0
112475,-125,4,2,2,70,0,0
112567,-125,4,2,1,70,0,0
112843,383.386581469649,4,2,1,70,1,0
112843,-125,4,2,1,70,0,0
113226,384,4,2,1,70,1,0
113226,-125,4,2,1,70,0,0
113994,368.098159509202,4,2,1,70,1,0
113994,-125,4,2,2,70,0,0
114086,-125,4,2,1,70,0,0
114362,382.165605095541,4,2,1,70,1,0
114362,-125,4,2,1,70,0,0
114744,378.548895899054,4,2,1,70,1,0
114744,-125,4,2,1,70,0,0
115501,373.831775700935,4,2,1,70,1,0
115501,-125,4,2,2,70,0,0
115594,-125,4,2,1,70,0,0
116622,363.636363636364,4,2,1,70,1,0
116622,-125,4,2,1,70,0,0
116864,472.44094488189,4,2,1,70,1,0
116864,-125,4,2,1,70,0,0
117021,372.670807453416,4,2,1,70,1,0
117021,-125,4,2,2,70,0,0
117114,-125,4,2,1,70,0,0
117766,369.79969183359,4,2,1,70,1,0
118505,375,4,2,1,70,1,0
118505,-125,4,2,2,70,0,0
118598,-125,4,2,1,70,0,0
118880,368.098159509202,4,2,1,70,1,0
118880,-125,4,2,1,70,0,0
119064,-125,4,2,2,70,0,0
119158,-125,4,2,1,70,0,0
119248,359.281437125748,4,2,1,70,1,0
119248,-125,4,2,1,70,0,0
119607,384.615384615385,4,2,1,70,1,0
119607,-125,4,2,1,70,0,0
119991,389.61038961039,4,2,1,70,1,0
119991,-125,4,2,2,70,0,0
120088,-125,4,2,1,70,0,0
120380,372.670807453416,4,2,1,70,1,0
120380,-125,4,2,1,70,0,0
121498,385.232744783307,4,2,1,70,1,0
121498,-125,4,2,2,70,0,0
121594,-125,4,2,1,70,0,0
123038,383.386581469649,4,2,1,70,1,0
123038,-125,4,2,2,70,0,0
123133,-125,4,2,1,70,0,0
123804,366.300366300366,4,2,1,70,1,0
123804,-125,4,2,1,70,0,0
124536,363.636363636364,4,2,1,70,1,0
124536,-125,4,2,2,70,0,0
124626,-125,4,2,1,70,0,0
124899,384.615384615385,4,2,1,70,1,0
125091,-125,4,2,2,70,0,0
125190,-125,4,2,1,70,0,0
125283,370.37037037037,4,2,1,70,1,0
125283,-125,4,2,1,70,0,0
126023,363.636363636364,4,2,1,70,1,0
126023,-125,4,2,2,70,0,0
126113,-125,4,2,1,70,0,0
126386,384,4,2,1,70,1,0
126386,-125,4,2,2,70,0,0
126482,-125,4,2,1,70,0,0
126770,371.517027863777,4,2,1,70,1,0
126770,-125,4,2,1,70,0,0
127513,382.65306122449,4,2,1,70,1,0
127513,-125,4,2,2,70,0,0
127608,-125,4,2,1,70,0,0
128278,383.386581469649,4,2,1,70,1,0
128278,-125,4,2,1,70,0,0
129044,388.349514563107,4,2,1,70,1,0
129044,-125,4,2,2,70,0,0
129141,-125,4,2,1,70,0,0
129820,363.636363636364,4,2,1,70,1,0
129820,-125,4,2,1,70,0,0
130183,387.096774193548,4,2,1,70,1,0
130183,-125,4,2,1,70,0,0
130570,382.165605095541,4,2,1,60,1,0
130570,-333.333333333333,4,2,1,60,0,0
131334,388.349514563107,4,2,1,60,1,0
131722,375,4,2,1,60,1,0
132097,387.096774193548,4,2,1,60,1,0
132484,357.142857142857,4,2,1,60,1,0
132841,375,4,2,1,60,1,0
133216,382.165605095541,4,2,1,60,1,0
133598,370.37037037037,4,2,1,60,1,0
133598,-333.333333333333,4,2,1,60,0,0
133968,378.548895899054,4,2,1,60,1,0
134725,428.571428571429,4,2,1,60,1,0
135153,346.820809248555,4,2,1,60,1,0
135499,397.350993377483,4,2,1,60,1,0
135896,409.556313993174,4,2,1,60,1,0
135896,-333.333333333333,4,2,1,60,0,0
136715,405.405405405405,4,2,1,60,1,0
136715,-333.333333333333,4,2,1,60,0,0
137120,385.852090032154,4,2,1,60,1,0
137505,405.405405405405,4,2,1,60,1,0
137910,397.350993377483,4,2,1,60,1,0
138307,415.22491349481,4,2,1,60,1,0
138722,379.746835443038,4,2,1,60,1,0
139101,397.350993377483,4,2,1,60,1,0
139498,352.941176470588,4,2,1,60,1,0
139850,368.098159509202,4,2,1,60,1,0
140218,394.736842105263,4,2,1,60,1,0
140415,-100,4,2,2,60,0,0
140514,-100,4,2,1,60,0,0
140612,365.853658536585,4,2,1,60,1,0
140977,398.671096345515,4,2,1,60,1,0
141375,358.208955223881,4,2,1,60,1,0
141375,-100,4,2,2,60,0,0
141464,-100,4,2,1,60,0,0
141733,382.165605095541,4,2,1,60,1,0
142115,350.877192982456,4,2,1,60,1,0
142115,-100,4,2,2,60,0,0
142202,-100,4,2,1,60,0,0
142465,387.096774193548,4,2,1,60,1,0
142852,382.165605095541,4,2,1,70,1,0
142852,-100,4,2,2,70,0,0
142947,-100,4,2,1,70,0,0
143234,378.548895899054,4,2,1,70,1,0
143991,363.636363636364,4,2,1,70,1,0
143991,-100,4,2,2,70,0,0
144081,-100,4,2,1,70,0,0
144354,377.358490566038,4,2,1,70,1,0
144354,-100,4,2,2,70,0,0
144448,-100,4,2,1,70,0,0
145486,375,4,2,1,70,1,0
145486,-100,4,2,2,70,0,0
145579,-100,4,2,1,70,0,0
145861,373.831775700935,4,2,1,70,1,0
145861,-100,4,2,2,70,0,0
145954,-100,4,2,1,70,0,0
146234,392.156862745098,4,2,1,70,1,0
146626,359.281437125748,4,2,1,70,1,0
146985,377.358490566038,4,2,1,70,1,0
146985,-100,4,2,2,70,0,0
147079,-100,4,2,1,70,0,0
147362,377.358490566038,4,2,1,70,1,0
147362,-100,4,2,2,70,0,0
147456,-100,4,2,1,70,0,0
147739,370.37037037037,4,2,1,70,1,0
148479,375,4,2,1,70,1,0
148479,-100,4,2,2,70,0,0
148572,-100,4,2,1,70,0,0
148854,375,4,2,1,70,1,0
148854,-100,4,2,2,70,0,0
148947,-100,4,2,1,70,0,0
149229,384.615384615385,4,2,1,70,1,0
149613,368.098159509202,4,2,1,70,1,0
149981,-100,4,2,2,70,0,0
150073,-100,4,2,1,70,0,0
150349,370.37037037037,4,2,1,70,1,0
150349,-100,4,2,2,70,0,0
150441,-100,4,2,1,70,0,0
151089,377.358490566038,4,2,1,70,1,0
151466,-100,4,2,2,70,0,0
151560,-100,4,2,1,70,0,0
151843,355.029585798817,4,2,1,60,1,0
151843,-100,4,2,2,60,0,0
151931,-100,4,2,1,60,0,0
152198,377.358490566038,4,2,1,60,1,0
152575,365.853658536585,4,2,1,60,1,0
152940,352.941176470588,4,2,1,60,1,0
152940,-100,4,2,2,60,0,0
153028,-100,4,2,1,60,0,0
153292,365.853658536585,4,2,1,60,1,0
153292,-100,4,2,2,60,0,0
153383,-100,4,2,1,60,0,0
153657,359.281437125748,4,2,1,60,1,0
153657,-100,4,2,2,60,0,0
153746,-100,4,2,1,60,0,0
154014,375,4,2,1,60,1,0
154014,-100,4,2,2,60,0,0
154107,-100,4,2,1,60,0,0

[Colours]
Combo1 : 136,185,210
Combo2 : 143,208,34
Combo3 : 228,208,67
Combo4 : 233,158,67
Combo5 : 203,154,201
Combo6 : 240,117,120

[HitObjects]
62,137,264,6,0,B|121:127|121:127|126:129|126:129|174:121,3,111.999996582031,2|2|2|2,0:2|0:2|0:2|0:2,0:2:0:0:
283,25,1631,6,0,B|224:15|224:15|219:17|219:17|168:10,3,111.999996582031,2|2|2|2,0:2|0:2|0:2|0:2,0:2:0:0:
98,15,2806,1,2,0:2:0:0:
5,91,2983,6,0,L|17:222,3,111.999996582031,2|2|2|2,0:2|0:2|0:2|0:2,0:2:0:0:
125,311,4344,2,0,L|135:199,3,111.999996582031,2|2|2|2,0:2|0:2|0:2|0:2,0:2:0:0:
196,151,5534,1,2,0:2:0:0:
298,220,5720,6,0,P|350:259|403:257,3,111.999996582031,2|2|2|2,0:2|0:2|0:2|0:2,0:2:0:0:
319,340,7038,6,0,P|267:379|214:377,3,111.999996582031,2|2|2|2,0:2|0:2|0:2|0:2,0:2:0:0:
146,384,8229,1,2,0:2:0:0:
94,279,8402,6,0,B|56:251|56:251|-16:350,2,160,2|2|2,0:2|0:2|0:2,0:2:0:0:
94,279,9418,1,2,0:2:0:0:
142,215,9757,5,2,0:2:0:0:
423,86,10605,1,2,0:2:0:0:
431,0,10775,1,2,0:2:0:0:
511,45,10946,1,2,0:2:0:0:
377,197,11133,6,0,P|434:142|511:124,1,160,6|2,3:2|0:2,0:2:0:0:
358,37,11656,1,2,3:2:0:0:
275,141,11830,2,0,P|269:88|260:50,1,80,2|2,1:2|0:2,0:2:0:0:
140,9,12176,2,0,P|143:48|151:87,1,80,2|2,0:2|0:2,0:2:0:0:
160,97,12436,1,2,0:2:0:0:
168,101,12523,1,2,3:2:0:0:
21,66,12696,5,2,3:2:0:0:
30,69,12783,1,2,3:2:0:0:
52,85,12869,1,2,3:2:0:0:
44,118,12956,1,2,0:2:0:0:
71,141,13043,1,2,3:2:0:0:
5,237,13216,2,0,P|69:235|99:293,1,120,2|0,1:2|0:2,0:2:0:0:
98,290,13563,2,0,P|120:288|193:302,1,80,2|2,0:2|0:2,0:2:0:0:
28,328,13910,5,6,3:2:0:0:
177,212,14082,1,2,3:2:0:0:
191,223,14169,1,2,3:2:0:0:
224,208,14256,1,2,3:2:0:0:
221,171,14343,1,0,0:2:0:0:
254,156,14430,1,2,3:2:0:0:
372,269,14624,2,0,L|359:179,1,80,2|2,1:2|0:2,0:2:0:0:
359,180,14886,1,0,0:2:0:0:
358,172,14973,1,2,2:2:0:0:
254,343,15150,1,2,0:2:0:0:
256,329,15237,1,0,0:2:0:0:
260,316,15324,5,2,3:2:0:0:
454,381,15497,1,2,3:2:0:0:
443,372,15584,1,2,3:2:0:0:
415,360,15670,1,2,3:2:0:0:
376,383,15757,1,0,0:2:0:0:
341,358,15844,1,2,3:2:0:0:
169,384,16017,2,0,P|117:376|21:373,1,120,2|0,1:2|0:2,0:2:0:0:
43,381,16364,2,0,B|21:348|21:348|60:313,1,80,2|2,0:2|0:2,0:2:0:0:
263,195,16711,5,6,3:2:0:0:
231,70,16884,1,0,3:2:0:0:
239,59,16971,1,0,3:2:0:0:
271,67,17058,1,2,3:2:0:0:
314,45,17144,1,2,0:2:0:0:
358,62,17231,1,2,3:2:0:0:
425,163,17420,2,0,P|478:164|516:128,1,80,2|2,1:2|0:2,0:2:0:0:
506,144,17685,1,2,0:2:0:0:
507,136,17774,1,2,0:2:0:0:
355,242,17951,1,2,0:2:0:0:
378,258,18040,1,2,0:2:0:0:
394,277,18129,5,2,3:2:0:0:
499,150,18301,1,0,3:2:0:0:
502,136,18387,1,0,3:2:0:0:
481,105,18473,1,2,3:2:0:0:
497,70,18560,1,2,0:2:0:0:
449,60,18646,1,2,3:2:0:0:
292,8,18831,2,0,L|394:-3,1,80,2|0,1:2|0:2,0:2:0:0:
233,80,19176,1,2,0:2:0:0:
270,165,19349,1,2,0:2:0:0:
234,379,19522,5,6,3:2:0:0:
165,298,19696,1,0,3:2:0:0:
180,287,19783,1,0,3:2:0:0:
219,294,19870,1,2,3:2:0:0:
259,274,19958,1,2,0:2:0:0:
281,225,20045,1,2,3:2:0:0:
135,62,20243,2,0,P|143:114|142:161,1,80,2|2,1:2|0:2,0:2:0:0:
396,162,20600,2,0,P|397:122|404:82,1,80,2|0,3:2|0:2,0:2:0:0:
267,7,20957,6,0,B|255:35|270:64|285:40|303:79|283:110,1,96,6|0,3:2|0:2,0:2:0:0:
289,108,21316,2,0,P|269:130|221:127,1,64,6|0,3:2|0:2,0:2:0:0:
71,32,21675,6,0,P|100:45|116:57,1,40,2|0,1:2|0:2,0:2:0:0:
133,20,22045,2,0,P|85:48|63:73,1,80,2|0,3:2|3:2,0:2:0:0:
67,74,25592,5,0,3:2:0:0:
66,83,28729,5,0,3:2:0:0:
64,92,31800,6,0,L|79:228,1,120,0|0,3:2|0:2,0:2:0:0:
82,220,32168,2,0,B|114:243|114:243|149:213,1,80,2|0,1:2|0:2,0:2:0:0:
8,376,32536,2,0,P|10:311|-7:186,1,160,2|2,0:2|3:2,0:2:0:0:
221,384,33276,6,0,P|219:319|236:194,1,160,2|2,1:2|0:2,0:2:0:0:
229,224,33770,1,0,3:2:0:0:
276,23,34000,2,0,L|280:47,1,20,2|0,1:2|0:2,0:2:0:0:
276,23,34726,6,0,P|255:27|228:28,1,41.9999987182618,4|0,3:2|0:2,0:2:0:0:
49,0,35105,6,0,P|59:37|63:65,2,55.9999982910157,2|2|2,0:2|1:2|0:2,0:2:0:0:
241,110,36066,1,0,3:2:0:0:
449,66,36254,6,0,P|439:103|433:127,2,55.9999982910157,2|2|2,3:2|3:2|1:2,0:2:0:0:
241,110,37208,1,0,3:2:0:0:
162,237,37397,6,0,P|188:246|214:245,1,41.9999987182618,2|0,3:2|0:2,0:2:0:0:
395,301,37774,6,0,P|367:320|354:334,1,41.9999987182618,4|0,3:2|0:2,0:2:0:0:
134,384,38161,6,0,L|73:375,2,55.9999982910157,2|2|2,3:2|1:2|0:2,0:2:0:0:
298,254,39092,1,0,3:2:0:0:
107,102,39279,6,0,L|168:93,1,55.9999982910157,2|2,3:2|3:2,0:2:0:0:
298,254,39843,1,0,3:2:0:0:
482,203,40031,6,0,B|479:248|479:248|481:251|481:251|478:306,1,97.9999970092774,2|0,1:2|0:2,0:2:0:0:
368,132,40760,6,0,B|382:118|382:118|400:136,1,41.9999987182618,4|0,3:2|0:2,0:2:0:0:
503,0,41147,6,0,P|474:3|438:4,2,55.9999982910157,2|2|2,3:2|1:2|0:2,0:2:0:0:
236,58,42071,1,0,3:2:0:0:
0,193,42245,6,0,P|27:196|62:205,2,55.9999982910157,2|2|2,3:2|3:2|1:2,0:2:0:0:
236,58,43191,1,0,3:2:0:0:
173,314,43374,6,0,P|176:281|176:263,1,41.9999987182618,2|0,3:2|0:2,0:2:0:0:
88,131,43740,6,0,B|125:115|125:115|179:153|179:153|236:128,1,143.999995605469,4|0,3:2|0:2,0:2:0:0:
317,11,44092,2,0,L|309:106,1,95.9999970703126,6|0,1:2|0:2,0:2:0:0:
356,380,44445,6,0,P|380:318|448:183,1,191.999994140625,2|6,0:2|1:2,0:2:0:0:
0,94,45176,6,0,P|43:179|79:268,1,191.999994140625,6|2,1:2|3:2,0:2:0:0:
87,270,45662,1,0,3:2:0:0:
43,11,45912,5,6,1:2:0:0:
5,377,46616,6,0,L|118:363,1,88.000002685547,6|2,3:2|3:2,0:2:0:0:
17,273,46988,1,2,0:2:0:0:
71,206,47165,1,2,3:2:0:0:
205,285,47343,1,2,1:2:0:0:
173,207,47531,1,2,3:2:0:0:
177,193,47625,1,0,3:2:0:0:
187,178,47719,1,2,3:2:0:0:
231,158,47813,1,0,3:2:0:0:
265,114,47908,1,2,3:2:0:0:
512,225,48096,5,6,3:2:0:0:
486,50,48280,1,2,3:2:0:0:
444,56,48372,1,0,3:2:0:0:
426,90,48465,1,2,0:2:0:0:
428,101,48557,1,0,3:2:0:0:
436,112,48649,1,2,3:2:0:0:
403,380,48834,5,2,1:2:0:0:
265,114,49022,1,2,0:2:0:0:
277,108,49117,1,0,3:2:0:0:
297,108,49211,1,2,3:2:0:0:
330,123,49305,1,0,3:2:0:0:
347,155,49400,1,2,3:2:0:0:
512,384,49588,5,6,3:2:0:0:
280,306,49773,1,2,3:2:0:0:
293,303,49866,1,0,3:2:0:0:
325,299,49959,1,2,3:2:0:0:
361,294,50052,1,0,3:2:0:0:
380,293,50145,1,2,3:2:0:0:
512,146,50330,5,2,1:2:0:0:
389,15,50516,1,2,3:2:0:0:
376,29,50608,1,0,3:2:0:0:
345,44,50701,1,2,3:2:0:0:
311,56,50794,1,0,3:2:0:0:
305,73,50887,1,2,3:2:0:0:
289,128,50980,1,0,3:2:0:0:
311,177,51072,5,2,3:2:0:0:
147,131,51257,1,2,3:2:0:0:
147,151,51350,1,0,3:2:0:0:
122,169,51443,1,2,3:2:0:0:
74,169,51536,1,0,3:2:0:0:
56,136,51629,1,2,3:2:0:0:
162,0,51815,5,2,1:2:0:0:
219,78,52000,1,2,3:2:0:0:
147,270,52185,1,2,3:2:0:0:
155,288,52278,1,0,3:2:0:0:
147,321,52371,1,2,3:2:0:0:
170,347,52464,1,0,3:2:0:0:
166,378,52557,5,6,3:2:0:0:
0,239,52743,1,2,3:2:0:0:
14,227,52837,1,0,3:2:0:0:
40,242,52930,1,2,3:2:0:0:
76,223,53024,1,0,3:2:0:0:
84,173,53117,1,2,3:2:0:0:
12,384,53304,5,2,1:2:0:0:
147,270,53491,1,2,3:2:0:0:
168,274,53585,1,0,3:2:0:0:
204,255,53678,1,2,3:2:0:0:
253,273,53771,1,0,3:2:0:0:
295,247,53865,1,2,3:2:0:0:
507,180,54052,5,6,3:2:0:0:
478,380,54239,1,2,3:2:0:0:
459,355,54332,1,0,3:2:0:0:
478,321,54426,1,2,3:2:0:0:
468,277,54519,1,0,3:2:0:0:
428,248,54613,1,2,3:2:0:0:
451,2,54799,5,2,1:2:0:0:
375,190,54986,1,2,3:2:0:0:
382,180,55080,1,0,3:2:0:0:
370,148,55173,1,2,3:2:0:0:
387,115,55267,1,0,3:2:0:0:
368,74,55360,1,2,3:2:0:0:
310,78,55454,1,0,3:2:0:0:
267,37,55547,5,6,3:2:0:0:
0,109,55735,1,2,3:2:0:0:
15,101,55830,1,0,3:2:0:0:
25,65,55924,1,2,3:2:0:0:
64,33,56018,1,0,3:2:0:0:
49,2,56113,1,2,3:2:0:0:
200,227,56301,5,2,1:2:0:0:
281,346,56486,1,2,3:2:0:0:
138,377,56670,1,2,3:2:0:0:
116,345,56763,1,0,3:2:0:0:
65,343,56856,1,2,3:2:0:0:
36,309,56949,1,0,3:2:0:0:
64,259,57041,5,2,3:2:0:0:
369,378,57237,5,2,1:2:0:0:
387,336,57335,1,0,1:2:0:0:
379,292,57433,1,2,1:2:0:0:
388,268,57521,1,0,3:2:0:0:
385,249,57609,1,2,3:2:0:0:
413,126,57785,5,2,3:2:0:0:
264,381,57974,5,2,1:2:0:0:
249,337,58069,1,0,1:2:0:0:
266,296,58164,1,2,1:2:0:0:
255,281,58251,1,0,3:2:0:0:
263,257,58338,1,2,3:2:0:0:
256,235,58425,1,0,3:2:0:0:
251,162,58512,6,0,P|227:141|139:157,1,120,6|0,3:2|3:2,0:2:0:0:
146,164,58880,2,0,P|146:108|118:76,1,80,2|0,3:2|3:2,0:2:0:0:
14,13,59251,1,2,1:2:0:0:
264,51,59437,1,0,3:2:0:0:
272,45,59530,1,0,3:2:0:0:
279,38,59623,2,0,P|222:35|184:23,1,80,2|2,3:2|3:2,0:2:0:0:
0,145,59994,6,0,P|57:142|95:130,1,80,4|0,3:2|3:2,0:2:0:0:
76,130,60258,1,0,3:2:0:0:
74,124,60346,1,2,0:2:0:0:
0,279,60535,1,0,3:2:0:0:
200,207,60725,1,2,1:2:0:0:
100,379,60907,1,0,3:2:0:0:
96,365,60999,1,0,3:2:0:0:
92,353,61090,5,2,3:2:0:0:
111,317,61182,1,2,3:2:0:0:
147,297,61273,1,2,3:2:0:0:
187,301,61365,1,2,3:2:0:0:
198,313,61456,6,0,B|232:337|232:337|261:311,1,80,6|2,3:2|3:2,0:2:0:0:
260,301,61733,1,0,3:2:0:0:
260,291,61826,1,2,3:2:0:0:
248,145,62011,1,0,3:2:0:0:
393,279,62196,1,2,1:2:0:0:
343,379,62378,1,0,3:2:0:0:
365,376,62469,1,0,3:2:0:0:
390,371,62560,1,2,3:2:0:0:
127,209,62743,1,2,3:2:0:0:
174,218,62834,1,2,3:2:0:0:
215,224,62925,5,2,3:2:0:0:
427,69,63109,1,0,3:2:0:0:
417,80,63202,1,0,3:2:0:0:
391,72,63294,1,2,3:2:0:0:
361,88,63387,1,0,3:2:0:0:
351,123,63479,1,2,3:2:0:0:
140,29,63664,2,0,P|194:46|247:47,1,80,2|0,1:2|3:2,0:2:0:0:
226,42,63935,5,0,3:2:0:0:
237,35,64026,1,2,3:2:0:0:
264,55,64117,1,0,3:2:0:0:
249,84,64207,1,2,3:2:0:0:
251,128,64298,1,0,3:2:0:0:
218,166,64389,6,0,L|124:155,1,80,6|2,3:2|3:2,0:2:0:0:
135,164,64661,1,0,3:2:0:0:
132,169,64752,2,0,B|85:212|85:212|24:178,1,120,2|2,1:2|0:2,0:2:0:0:
35,176,65116,1,2,1:2:0:0:
201,271,65298,1,2,3:2:0:0:
193,280,65389,1,2,3:2:0:0:
182,292,65479,5,2,3:2:0:0:
146,298,65570,1,0,3:2:0:0:
114,302,65661,1,0,3:2:0:0:
83,305,65752,1,0,3:2:0:0:
41,309,65843,6,0,P|74:343|92:382,1,80,6|2,3:2|3:2,0:2:0:0:
84,380,66119,1,0,3:2:0:0:
77,383,66212,1,0,1:2:0:0:
247,376,66396,1,0,3:2:0:0:
369,224,66581,2,0,P|309:232|269:229,1,80,2|0,1:2|3:2,0:2:0:0:
287,241,66855,1,0,3:2:0:0:
285,250,66946,1,0,3:2:0:0:
439,129,67129,1,2,3:2:0:0:
445,168,67221,1,0,3:2:0:0:
452,207,67312,5,6,3:2:0:0:
417,383,67488,1,2,3:2:0:0:
423,375,67576,1,0,3:2:0:0:
420,339,67664,1,2,3:2:0:0:
391,312,67753,1,2,0:2:0:0:
347,306,67841,1,2,3:2:0:0:
193,376,68046,5,2,1:2:0:0:
69,257,68233,1,2,3:2:0:0:
63,249,68326,1,0,3:2:0:0:
66,213,68420,1,2,3:2:0:0:
95,186,68514,1,2,0:2:0:0:
139,180,68607,1,2,3:2:0:0:
20,7,68795,5,2,3:2:0:0:
23,18,68889,1,0,3:2:0:0:
27,29,68984,2,0,L|83:24,1,40,2|0,1:2|3:2,2:2:0:0:
0,126,69174,2,0,L|56:121,1,40,2|2,1:2|3:2,2:2:0:0:
203,108,69354,1,2,3:2:0:0:
0,126,69535,1,2,3:2:0:0:
268,17,69723,5,2,1:2:0:0:
277,25,69818,1,0,3:2:0:0:
287,33,69912,1,2,1:2:0:0:
310,75,70000,1,0,3:2:0:0:
305,126,70089,1,2,3:2:0:0:
274,169,70178,1,0,3:2:0:0:
274,218,70267,6,0,P|239:209|188:199,1,80,6|0,3:2|3:2,0:2:0:0:
287,33,70635,2,0,P|325:42|364:50,1,80,2|0,3:2|3:2,0:2:0:0:
493,265,70986,2,0,L|480:125,1,120,2|0,1:2|0:2,0:2:0:0:
475,139,71338,2,0,L|480:58,1,80,2|0,3:2|3:2,0:2:0:0:
336,240,71708,6,0,P|284:218|247:223,1,80,6|0,3:2|3:2,0:2:0:0:
176,322,71976,1,2,0:2:0:0:
181,333,72066,2,0,P|220:331|255:312,1,80,2|0,3:2|3:2,0:2:0:0:
162,213,72335,1,2,0:2:0:0:
153,221,72424,5,2,1:2:0:0:
72,288,72604,1,2,3:2:0:0:
8,194,72783,2,0,L|26:41,1,120,2|0,3:2|0:2,0:2:0:0:
17,65,73141,5,6,3:2:0:0:
203,46,73322,1,2,3:2:0:0:
309,168,73503,5,2,3:2:0:0:
292,79,73684,1,2,3:2:0:0:
76,275,73866,5,2,1:2:0:0:
113,63,74043,1,2,3:2:0:0:
187,130,74221,5,2,3:2:0:0:
89,168,74398,1,2,3:2:0:0:
207,4,74576,5,2,3:2:0:0:
418,69,74756,1,2,3:2:0:0:
187,130,74936,1,2,3:2:0:0:
355,7,75116,1,2,3:2:0:0:
308,167,75296,2,0,L|317:247,1,80,2|0,1:2|3:2,0:2:0:0:
512,122,75657,2,0,B|508:181|508:181|511:186|511:186|507:257,1,120,2|2,3:2|0:2,0:2:0:0:
502,248,76017,5,6,3:2:0:0:
405,161,76199,1,2,3:2:0:0:
391,347,76382,2,0,P|406:306|416:255,1,80,2|0,3:2|3:2,0:2:0:0:
296,87,76748,5,2,1:2:0:0:
218,180,76926,1,2,3:2:0:0:
111,66,77105,2,0,L|194:59,1,80,2|2,3:2|3:2,0:2:0:0:
7,40,77462,5,6,3:2:0:0:
95,184,77641,1,2,3:2:0:0:
58,278,77820,1,2,3:2:0:0:
11,143,78002,5,2,3:2:0:0:
165,342,78185,2,0,P|104:357|23:396,1,120,2|0,1:2|0:2,0:2:0:0:
40,377,78550,2,0,P|6:351|44:289,1,120,2|0,3:2|0:2,0:2:0:0:
95,184,78915,6,0,P|137:187|234:167,1,128,6|2,1:2|0:2,0:2:0:0:
289,208,79487,1,2,0:2:0:0:
212,331,79668,6,0,P|257:319|311:333,1,95.9999970703126,6|2,1:2|0:2,0:2:0:0:
363,379,80247,1,2,0:2:0:0:
360,202,80433,6,0,P|395:221|408:245,1,64,6|0,1:2|3:2,0:2:0:0:
450,308,80992,1,0,3:2:0:0:
450,308,81181,2,0,P|441:328|439:339,2,32,0|0|0,1:2|3:2|3:2,0:2:0:0:
423,270,85166,5,0,3:2:0:0:
431,262,88370,5,0,3:2:0:0:
436,255,91450,6,0,B|404:240|371:253|392:267|355:292|318:271,1,120,0|0,3:2|0:2,0:2:0:0:
314,280,91823,2,0,P|320:241|306:204,1,80,2|0,1:2|0:2,0:2:0:0:
413,17,92182,2,0,P|376:64|285:25,1,160,2|2,0:2|3:2,0:2:0:0:
39,130,92931,6,0,P|76:177|167:138,1,160,2|2,1:2|0:2,0:2:0:0:
200,0,93469,1,0,3:2:0:0:
212,277,93686,2,0,L|207:246,1,20,2|0,1:2|0:2,0:2:0:0:
212,277,94391,6,0,L|174:274,1,35.9999989013672,4|0,3:2|0:2,0:2:0:0:
8,96,94780,6,0,P|29:108|38:129,2,47.9999985351563,2|2|2,3:2|1:2|0:2,0:2:0:0:
310,185,95759,1,0,3:2:0:0:
41,351,95939,6,0,P|20:363|11:384,2,47.9999985351563,2|2|2,3:2|3:2|1:2,0:2:0:0:
310,185,96908,1,0,3:2:0:0:
507,384,97098,6,0,L|513:347,1,35.9999989013672,2|0,3:2|0:2,0:2:0:0:
442,153,97479,6,0,L|447:193,1,35.9999989013672,4|0,3:2|0:2,0:2:0:0:
328,379,97863,6,0,B|309:389|309:389|283:384,2,47.9999985351563,2|2|2,3:2|1:2|3:2,0:2:0:0:
11,240,98810,1,0,3:2:0:0:
211,45,98989,6,0,B|237:40|237:40|256:49,1,47.9999985351563,2|2,3:2|3:2,0:2:0:0:
11,240,99571,1,0,3:2:0:0:
410,202,99765,6,0,B|431:206|452:191|442:181|466:171|486:175,1,83.9999974365235,2|0,1:2|0:2,0:2:0:0:
503,1,100517,6,0,P|486:3|464:13,1,35.9999989013672,4|0,3:2|0:2,0:2:0:0:
278,174,100905,6,0,L|224:165,2,47.9999985351563,2|2|2,3:2|1:2|3:2,0:2:0:0:
510,315,101864,1,0,3:2:0:0:
202,377,102053,6,0,L|154:384,2,47.9999985351563,2|2|2,3:2|3:2|1:2,0:2:0:0:
510,315,102989,1,0,3:2:0:0:
208,258,103176,6,0,P|225:261|244:277,1,35.9999989013672,2|0,3:2|0:2,0:2:0:0:
54,384,103541,6,0,P|70:327|70:207,1,143.999995605469,0|0,3:2|0:2,0:2:0:0:
172,170,103904,2,0,P|144:122|90:145,1,95.9999970703126,6|0,1:2|0:2,0:2:0:0:
439,25,104259,6,0,P|403:77|288:29,1,191.999994140625,2|6,0:2|3:2,0:2:0:0:
210,258,104990,6,0,P|289:216|354:278,1,191.999994140625,6|2,1:2|3:2,0:2:0:0:
352,288,105529,1,0,3:2:0:0:
3,72,105709,5,6,1:2:0:0:
10,66,106069,1,2,0:2:0:0:
18,61,106474,6,0,P|54:62|84:125,1,96,4|0,3:2|0:2,0:2:0:0:
85,118,106807,2,0,P|104:157|72:210,1,96,2|2,0:2|0:2,0:2:0:0:
23,299,107199,6,0,P|62:291|87:274,2,42.6666666666667,2|2|2,1:2|0:2|0:2,0:2:0:0:
106,374,107582,6,0,P|127:374|162:388,2,42.6666666666667,2|2|2,0:2|0:2|3:2,0:2:0:0:
214,217,107965,6,0,B|219:272|219:272|222:274|222:274|228:313,1,96,4|0,3:2|0:2,0:2:0:0:
227,322,108330,2,0,B|268:352|268:352|315:312,1,96,2|2,0:2|0:2,0:2:0:0:
362,251,108687,6,0,L|356:208,2,42.6666666666667,2|2|2,1:2|0:2|0:2,0:2:0:0:
426,342,109074,6,0,L|420:385,2,42.6666666666667,2|2|2,0:2|0:2|0:2,0:2:0:0:
512,222,109449,6,0,L|487:0,1,224,4|2,3:2|0:2,0:2:0:0:
367,63,110201,6,0,P|400:39|413:24,2,42.6666666666667,2|2|2,1:2|0:2|0:2,0:2:0:0:
281,151,110598,6,0,P|248:127|235:112,2,42.6666666666667,2|2|2,0:2|0:2|0:2,0:2:0:0:
300,316,110974,6,0,B|255:287|188:317|206:345|151:389|92:352,1,224,4|2,3:2|0:2,0:2:0:0:
18,189,111726,6,0,P|8:219|-10:238,2,42.6666666666667,2|2|2,1:2|0:2|0:2,0:2:0:0:
116,252,112100,6,0,P|121:272|132:290,2,42.6666666666667,2|2|2,0:2|0:2|0:2,0:2:0:0:
14,70,112475,6,0,L|136:88,1,96,4|2,3:2|0:2,0:2:0:0:
114,77,112843,2,0,L|208:62,1,96,2|2,0:2|0:2,0:2:0:0:
287,18,113226,5,2,1:2:0:0:
304,29,113354,5,2,0:2:0:0:
289,52,113482,5,2,0:2:0:0:
315,83,113610,5,2,0:2:0:0:
284,120,113738,5,2,0:2:0:0:
314,158,113866,5,2,0:2:0:0:
288,203,113994,6,0,P|315:249|381:258,1,96,4|2,3:2|0:2,0:2:0:0:
366,274,114362,2,0,P|406:266|480:259,1,96,2|2,0:2|0:2,0:2:0:0:
509,179,114745,5,2,1:2:0:0:
498,165,114870,5,2,0:2:0:0:
507,132,114996,5,2,0:2:0:0:
474,102,115122,5,2,0:2:0:0:
501,61,115248,5,2,0:2:0:0:
468,24,115374,5,2,0:2:0:0:
426,3,115501,6,0,B|361:17|269:61|269:61|192:29,1,224,4|0,3:2|0:2,0:2:0:0:
132,7,116248,5,2,1:2:0:0:
121,24,116373,5,2,0:2:0:0:
100,2,116497,5,2,0:2:0:0:
72,34,116622,5,2,2:2:0:0:
38,2,116743,5,2,0:2:0:0:
11,50,116864,5,2,0:2:0:0:
12,107,117021,6,0,B|64:152|130:138|130:138|168:102|222:118,1,224,4|0,3:2|0:2,0:2:0:0:
289,153,117766,5,2,1:2:0:0:
317,131,117889,5,2,0:2:0:0:
340,169,118012,5,2,0:2:0:0:
370,126,118135,5,2,0:2:0:0:
406,172,118259,5,2,0:2:0:0:
431,129,118382,5,2,0:2:0:0:
474,168,118505,6,0,B|498:187|498:187|490:248,1,85.3333333333333,4|0,3:2|3:2,0:2:0:0:
490,255,118817,5,0,3:2:0:0:
489,268,118880,5,2,3:2:0:0:
464,356,119064,1,2,3:2:0:0:
385,291,119248,6,0,P|356:281|328:277,2,42.6666666666667,2|2|2,1:2|0:2|0:2,0:2:0:0:
275,212,119607,5,2,0:2:0:0:
245,244,119735,5,2,0:2:0:0:
250,295,119863,5,2,3:2:0:0:
269,354,119991,6,0,P|223:371|159:368,1,96,4|2,3:2|0:2,0:2:0:0:
169,380,120380,2,0,P|124:359|81:312,1,96,2|2,3:2|0:2,0:2:0:0:
0,384,120752,6,0,L|7:341,2,42.6666666666667,2|2|2,1:2|0:2|0:2,0:2:0:0:
5,230,121125,5,2,3:2:0:0:
46,223,121249,5,2,3:2:0:0:
91,237,121373,5,2,3:2:0:0:
147,222,121498,6,0,P|212:188|121:99,1,224,4|0,3:2|0:2,0:2:0:0:
65,41,122268,6,0,L|57:0,2,42.6666666666667,2|2|2,1:2|0:2|0:2,0:2:0:0:
160,7,122653,5,2,0:2:0:0:
209,19,122782,5,2,0:2:0:0:
250,10,122910,5,2,0:2:0:0:
288,28,123038,6,0,P|310:232|314:258,1,224,4|0,3:2|0:2,0:2:0:0:
245,372,123804,6,0,P|227:337|237:311,2,42.6666666666667,2|2|2,1:2|0:2|0:2,0:2:0:0:
338,378,124170,5,2,3:2:0:0:
369,353,124292,5,2,3:2:0:0:
403,380,124414,5,2,3:2:0:0:
449,366,124536,6,0,P|451:320|455:278,1,85.3333333333333,4|0,3:2|3:2,0:2:0:0:
457,272,124839,5,0,3:2:0:0:
461,263,124899,5,2,3:2:0:0:
406,137,125091,1,2,3:2:0:0:
376,0,125283,5,2,1:2:0:0:
395,17,125406,5,2,0:2:0:0:
381,46,125529,5,2,0:2:0:0:
363,49,125653,6,0,L|307:58,2,42.6666666666667,2|2|2,0:2|0:2|0:2,0:2:0:0:
462,71,126023,6,0,L|479:173,1,96,4|2,3:2|3:2,0:2:0:0:
482,190,126386,2,0,P|443:187|370:199,1,96,2|2,3:2|0:2,0:2:0:0:
316,284,126770,5,2,1:2:0:0:
297,272,126893,5,2,0:2:0:0:
269,288,127017,5,2,0:2:0:0:
229,262,127141,6,0,L|222:211,2,42.6666666666667,2|2|2,0:2|0:2|3:2,0:2:0:0:
189,141,127513,6,0,P|126:155|56:22,1,224,4|0,3:2|0:2,0:2:0:0:
3,169,128278,5,2,1:2:0:0:
30,197,128405,5,2,3:2:0:0:
16,235,128533,5,2,3:2:0:0:
40,279,128661,6,0,L|97:274,2,42.6666666666667,2|2|2,3:2|3:2|3:2,0:2:0:0:
8,378,129044,6,0,L|259:383,1,224,4|0,3:2|0:2,0:2:0:0:
250,303,129820,5,2,1:2:0:0:
234,281,129941,5,2,0:2:0:0:
251,249,130062,5,2,0:2:0:0:
234,211,130183,6,0,P|225:181|229:158,2,42.6666666666667,2|2|2,0:2|0:2|0:2,0:2:0:0:
229,90,130570,5,0,3:2:0:0:
234,85,133598,5,0,3:2:0:0:
229,80,136715,5,0,3:2:0:0:
235,73,139850,5,0,3:2:0:0:
9,238,140415,1,0,3:2:0:0:
28,135,140612,1,2,1:2:0:0:
128,369,141176,1,0,3:2:0:0:
114,270,141375,1,2,3:2:0:0:
221,172,141924,1,2,3:2:0:0:
235,73,142115,1,2,3:2:0:0:
367,19,142852,6,0,P|408:14|446:94,1,120,4|0,3:2|0:2,0:2:0:0:
459,85,143234,2,0,P|461:131|477:177,1,80,10|0,2:2|0:2,0:2:0:0:
374,283,143612,2,0,P|447:294|515:308,1,120,2|0,1:2|0:2,0:2:0:0:
504,312,143991,2,0,B|527:277|527:277|506:240,1,80,10|0,3:2|0:2,0:2:0:0:
277,383,144354,6,0,P|249:333|256:234,2,160,2|2|2,3:2|2:2|1:2,0:2:0:0:
134,384,145486,2,0,P|144:305|139:238,1,120,2|0,3:2|0:2,0:2:0:0:
154,252,145861,6,0,P|143:201|70:189,1,120,4|0,3:2|0:2,0:2:0:0:
72,189,146234,2,0,L|58:102,1,80,10|0,2:2|0:2,0:2:0:0:
251,25,146626,2,0,B|213:2|186:18|200:28|159:48|117:28,1,120,2|0,1:2|0:2,0:2:0:0:
129,43,146985,2,0,P|75:34|39:33,1,80,10|0,3:2|0:2,0:2:0:0:
219,149,147362,6,0,P|268:136|351:125,1,120,2|0,3:2|0:2,0:2:0:0:
345,122,147739,2,0,P|376:93|363:51,1,80,2|0,0:2|0:2,0:2:0:0:
502,215,148109,6,0,P|498:138|513:69,1,120,2|0,1:2|0:2,0:2:0:0:
493,94,148479,2,0,P|485:153|490:213,1,120,0|0,3:2|0:2,0:2:0:0:
472,294,148854,6,0,B|414:321|414:321|370:278,1,120,4|0,3:2|0:2,0:2:0:0:
376,272,149229,2,0,L|364:372,1,80,10|0,0:2|0:2,0:2:0:0:
215,378,149613,2,0,L|201:239,1,120,2|0,1:2|0:2,0:2:0:0:
215,256,149981,2,0,L|223:174,1,80,10|0,3:2|0:2,0:2:0:0:
260,29,150349,6,0,P|315:53|438:58,2,160,2|2|2,3:2|0:2|1:2,0:2:0:0:
0,76,151466,2,0,P|64:83|155:75,1,120,2|0,3:2|0:2,0:2:0:0:
253,147,151843,6,0,B|217:144|217:144|192:198|192:198|141:194,1,120,4|0,3:2|0:2,0:2:0:0:
36,298,152198,2,0,L|23:185,1,80,2|0,1:2|0:2,0:2:0:0:
235,382,152575,6,0,P|160:366|151:307,1,120,2|0,1:2|0:2,0:2:0:0:
140,322,152940,2,0,P|185:323|234:297,1,80,2|0,3:2|0:2,0:2:0:0:
402,162,153292,6,0,P|381:217|377:308,1,120,2|0,3:2|0:2,0:2:0:0:
378,293,153657,2,0,B|346:324|346:324|301:289,1,80,2|0,3:2|0:2,0:2:0:0:
347,13,154014,5,6,1:2:0:0:
