osu file format v14

[General]
AudioFilename: audio.ogg
AudioLeadIn: 0
PreviewTime: 168661
Countdown: 0
SampleSet: Drum
StackLeniency: 0.5
Mode: 0
LetterboxInBreaks: 0
WidescreenStoryboard: 1

[Editor]
DistanceSpacing: 0.5
BeatDivisor: 4
GridSize: 16
TimelineZoom: 2.9

[Metadata]
Title:Crystallite Dream
TitleUnicode:Crystallite Dream
Artist:Vulpecula
ArtistUnicode:Vulpecula
Creator:Urition
Version:shoyeu's Expert
Source:
Tags:English Melodic Symphonic Choir Power Metal Fantasy Love Adventure Romance Epic male vocals First Debut Single Original Noah Simmons Fridolf Karlsfeld Brad Wosko Jack Stanley Callum Tuffen Kylee Stream Death Runigh Roupus shoyeu TrueInverse
BeatmapID:4134579
BeatmapSetID:1943645

[Difficulty]
HPDrainRate:4.4
CircleSize:4
OverallDifficulty:8.5
ApproachRate:9.3
SliderMultiplier:1.8
SliderTickRate:1

[Events]
//Background and Video events
0,0,"bg.png",0,0
//Break Periods
//Storyboard Layer 0 (Background)
//Storyboard Layer 1 (Fail)
//Storyboard Layer 2 (Pass)
//Storyboard Layer 3 (Foreground)
//Storyboard Layer 4 (Overlay)
//Storyboard Sound Samples

[TimingPoints]
694,320.855614973262,4,3,1,60,1,0
694,-166.666666666667,4,3,1,60,0,0
1014,-166.666666666667,4,3,1,15,0,0
1335,-166.666666666667,4,3,1,60,0,0
1656,-166.666666666667,4,3,2,60,0,0
1816,-166.666666666667,4,3,1,60,0,0
2298,-166.666666666667,4,3,1,15,0,0
2778,-166.666666666667,4,3,1,60,0,0
2939,-166.666666666667,4,3,1,60,0,0
3581,-166.666666666667,4,3,1,15,0,0
3821,-166.666666666667,4,3,1,5,0,0
3902,-166.666666666667,4,3,1,60,0,0
5185,-166.666666666667,4,3,4,70,0,0
5827,-125,4,3,1,60,0,0
6308,-125,4,3,1,5,0,0
6469,-142.857142857143,4,3,1,60,0,0
6789,-142.857142857143,4,3,1,60,0,0
6950,-166.666666666667,4,3,1,60,0,0
7592,-125,4,3,1,60,0,0
8554,-125,4,2,5,60,0,0
8715,-125,4,3,1,60,0,0
8795,-125,4,2,5,60,0,0
8875,-125,4,3,1,60,0,0
9036,-125,4,2,5,60,0,0
9116,-125,4,3,1,60,0,0
9196,-125,4,2,5,60,0,0
9357,-125,4,3,1,60,0,0
9437,-125,4,2,5,60,0,0
9517,-125,4,3,1,60,0,0
9597,-125,4,2,5,60,0,0
9677,-125,4,3,1,60,0,0
10961,-100,4,3,1,70,0,0
13367,-100,4,3,1,60,0,0
13528,-125,4,3,1,50,0,0
13849,-125,4,3,1,40,0,0
14009,-125,4,3,1,40,0,0
14169,-125,4,3,1,40,0,0
14329,-125,4,3,1,40,0,0
14490,-125,4,3,1,40,0,0
14971,-125,4,3,1,40,0,0
15132,-125,4,3,1,40,0,0
15613,-83.3333333333333,4,3,1,70,0,0
16014,-83.3333333333333,4,3,1,5,0,0
16095,-100,4,3,1,70,0,0
18501,-100,4,3,1,60,0,0
18661,-125,4,3,1,50,0,0
18982,-125,4,3,1,40,0,0
19195,-125,4,3,1,40,0,0
19222,-125,4,3,1,40,0,0
19250,-125,4,3,1,40,0,0
19263,-125,4,3,1,40,0,0
19303,-125,4,3,1,40,0,0
20266,-125,4,3,1,50,0,0
20426,-125,4,3,1,60,0,0
20587,-83.3333333333333,4,3,1,70,0,0
20827,-83.3333333333333,4,3,1,5,0,0
20907,-83.3333333333333,4,3,1,70,0,0
21147,-83.3333333333333,4,3,1,5,0,0
21228,-100,4,3,1,70,0,0
25560,-166.666666666667,4,3,1,70,0,0
26362,-125,4,3,1,55,0,0
26682,-125,4,3,1,55,0,0
26843,-125,4,3,1,55,0,0
27244,-125,4,3,1,5,0,0
27325,-125,4,3,1,55,0,0
27885,-125,4,3,1,5,0,0
27966,-125,4,3,1,55,0,0
28126,-125,4,3,1,5,0,0
28287,-125,4,3,1,55,0,0
28688,-125,4,3,1,55,0,0
28768,-125,4,3,1,55,0,0
30212,-100,4,3,1,70,0,0
32619,-100,4,3,1,60,0,0
32779,-125,4,3,1,50,0,0
32859,-125,4,3,4,55,0,0
33902,-125,4,3,1,55,0,0
34062,-125,4,3,4,100,0,0
34383,-125,4,3,1,55,0,0
34865,-125,4,3,1,70,0,0
35025,-83.3333333333333,4,3,1,70,0,0
35265,-83.3333333333333,4,3,1,70,0,0
35346,-100,4,3,1,70,0,0
36629,-100,4,3,1,75,0,0
37271,-100,4,3,1,80,0,0
37913,-100,4,3,1,85,0,0
38073,-100,4,3,1,70,0,0
38234,-100,4,3,1,60,0,0
39838,-83.3333333333333,4,3,1,70,0,0
40078,-83.3333333333333,4,3,1,5,0,0
40159,-83.3333333333333,4,3,1,70,0,0
40399,-83.3333333333333,4,3,1,5,0,0
40479,-100,4,3,1,70,0,0
44330,-100,4,3,1,55,0,0
44490,-100,4,3,1,55,0,0
44651,-100,4,3,1,55,0,0
44811,-166.666666666667,4,3,1,55,0,0
44891,-166.666666666667,4,3,1,30,0,0
45132,-100,4,3,1,55,0,0
45613,-125,4,3,1,40,0,0
46495,-125,4,3,1,5,0,0
46576,-125,4,3,1,40,0,0
46736,-125,4,3,1,40,0,0
46897,-125,4,3,1,40,0,0
47137,-125,4,3,1,40,0,0
47218,-125,4,3,1,40,0,0
47378,-125,4,3,1,40,0,0
47538,-125,4,3,1,40,0,0
49143,-125,4,3,4,60,0,0
49464,-100,4,3,4,60,0,0
49544,-100,4,3,4,60,0,0
49624,-100,4,3,1,60,0,0
50025,-100,4,3,1,60,0,0
50105,-100,4,3,1,60,0,0
50346,-100,4,3,4,60,0,0
50747,-100,4,3,1,60,0,0
50827,-100,4,3,1,60,0,0
50907,-100,4,3,1,60,0,0
51549,-100,4,3,1,70,0,0
52030,-83.3333333333333,4,3,1,90,0,1
61014,-71.4285714285714,4,3,1,80,0,1
61576,-71.4285714285714,4,3,1,40,0,1
61816,-71.4285714285714,4,3,4,75,0,1
61897,-71.4285714285714,4,3,4,75,0,1
61977,-100,4,3,4,75,0,1
62298,-76.9230769230769,4,3,1,90,0,1
71282,-76.9230769230769,4,3,1,80,0,1
71924,-76.9230769230769,4,3,1,70,0,1
72083,-76.9230769230769,4,3,1,70,0,1
72565,-125,4,3,1,70,0,1
73126,-125,4,3,1,5,0,1
73207,-125,4,3,4,70,0,1
73287,-125,4,3,4,70,0,1
73313,-125,4,3,4,70,0,1
73367,-125,4,3,4,70,0,1
73447,-125,4,3,4,70,0,1
73528,-125,4,3,1,70,0,1
73849,-100,4,3,1,70,0,0
76255,-100,4,3,1,60,0,0
76416,-125,4,3,1,50,0,0
76736,-125,4,3,4,40,0,0
77057,-125,4,3,1,40,0,0
77217,-125,4,3,4,40,0,0
77378,-125,4,3,4,40,0,0
77859,-125,4,3,4,40,0,0
78020,-125,4,3,1,40,0,0
78180,-125,4,3,4,40,0,0
78341,-125,4,3,1,40,0,0
78501,-83.3333333333333,4,3,1,70,0,0
78901,-83.3333333333333,4,3,1,5,0,0
78982,-100,4,3,1,70,0,0
80266,-100,4,3,1,75,0,0
80587,-100,4,3,1,80,0,0
80907,-100,4,3,1,85,0,0
81068,-100,4,3,1,90,0,0
81228,-100,4,3,4,70,0,0
81549,-125,4,3,1,80,0,0
81629,-125,4,3,1,60,0,0
81790,-100,4,3,1,80,0,0
81870,-100,4,3,1,60,0,0
82030,-83.3333333333333,4,3,1,80,0,0
82110,-83.3333333333333,4,3,1,60,0,0
82271,-71.4285714285714,4,3,1,80,0,0
82351,-71.4285714285714,4,3,1,60,0,0
82512,-62.5,4,3,1,80,0,0
82592,-62.5,4,3,1,15,0,0
82672,-125,4,3,4,60,0,0
83073,-125,4,3,1,40,0,0
83474,-83.3333333333333,4,3,1,70,0,0
83714,-83.3333333333333,4,3,1,5,0,0
83795,-83.3333333333333,4,3,1,70,0,0
84035,-83.3333333333333,4,3,1,5,0,0
84116,-100,4,3,1,70,0,0
88127,-100,4,3,4,70,0,0
88448,-100,4,3,1,70,0,0
88929,-100,4,3,1,70,0,0
89009,-100,4,3,1,30,0,0
89089,-100,4,3,1,70,0,0
89169,-100,4,3,1,30,0,0
89250,-125,4,3,1,40,0,0
89570,-125,4,3,1,40,0,0
89891,-125,4,3,1,40,0,0
90131,-125,4,3,1,5,0,0
90212,-125,4,3,1,40,0,0
90292,-125,4,3,1,40,0,0
90372,-125,4,3,1,40,0,0
92859,-125,4,3,1,40,0,0
92939,-125,4,3,1,40,0,0
93100,-100,4,3,1,60,0,0
93180,-100,4,3,1,60,0,0
93260,-100,4,3,1,60,0,0
93421,-100,4,3,4,60,0,0
93581,-100,4,3,1,60,0,0
93902,-100,4,3,4,60,0,0
94062,-100,4,3,1,60,0,0
94142,-100,4,3,4,100,0,0
94303,-100,4,3,4,100,0,0
94383,-90.9090909090909,4,3,1,60,0,0
94543,-90.9090909090909,4,3,1,60,0,0
94624,-90.9090909090909,4,3,1,60,0,0
94784,-90.9090909090909,4,3,1,60,0,0
94865,-90.9090909090909,4,3,1,60,0,0
94945,-90.9090909090909,4,3,1,60,0,0
95025,-90.9090909090909,4,3,1,60,0,0
95105,-90.9090909090909,4,3,1,15,0,0
95185,-90.9090909090909,4,3,1,70,0,0
95667,-83.3333333333333,4,3,1,90,0,1
104650,-71.4285714285714,4,3,1,80,0,1
105212,-71.4285714285714,4,3,1,40,0,1
105452,-71.4285714285714,4,3,4,75,0,1
105533,-71.4285714285714,4,3,4,75,0,1
105613,-100,4,3,4,75,0,1
105934,-76.9230769230769,4,3,1,90,0,1
114918,-76.9230769230769,4,3,1,80,0,1
115561,-76.9230769230769,4,3,1,70,0,1
115719,-76.9230769230769,4,3,1,70,0,1
116202,-100,4,3,1,70,0,0
118287,-90.9090909090909,4,3,1,70,0,0
118768,-90.9090909090909,4,3,1,55,0,0
120211,-90.9090909090909,4,3,1,5,0,0
120373,-90.9090909090909,4,3,1,65,0,0
120693,-90.9090909090909,4,3,1,70,0,0
121014,-90.9090909090909,4,3,1,75,0,0
121335,-125,4,3,1,55,0,0
121497,-125,4,3,1,20,0,0
121657,-125,4,3,1,55,0,0
121737,-125,4,3,1,20,0,0
121816,-125,4,3,1,55,0,0
121977,-125,4,3,1,55,0,0
122137,-125,4,3,1,20,0,0
122298,-125,4,3,1,55,0,0
122379,-125,4,3,1,20,0,0
122458,-125,4,3,1,5,0,0
122619,-125,4,3,1,55,0,0
122780,-125,4,3,1,20,0,0
122859,-125,4,3,1,20,0,0
122939,-125,4,3,1,55,0,0
123021,-125,4,3,1,20,0,0
123099,-125,4,3,1,5,0,0
123260,-125,4,3,4,60,0,0
123581,-125,4,3,4,65,0,0
123742,-125,4,3,4,70,0,0
123902,-100,4,3,1,85,0,1
126469,-100,4,3,1,80,0,0
129276,-100,4,3,1,5,0,0
129357,-100,4,3,1,80,0,0
134409,-100,4,3,1,5,0,0
134490,-100,4,3,1,80,0,0
135372,-100,4,3,1,80,0,0
135453,-100,4,3,1,80,0,0
135533,-100,4,3,1,80,0,0
135613,-100,4,3,1,80,0,0
135854,-100,4,3,1,80,0,0
135934,-100,4,3,1,80,0,0
136014,-100,4,3,1,80,0,0
136095,-100,4,3,1,80,0,0
141228,-71.4285714285714,4,3,1,80,0,0
141469,-71.4285714285714,4,3,1,5,0,0
141549,-71.4285714285714,4,3,1,80,0,0
141790,-71.4285714285714,4,3,1,5,0,0
141870,-100,4,3,1,80,0,0
144437,-90.9090909090909,4,3,1,70,0,0
147004,-90.9090909090909,4,3,1,80,0,0
148287,-90.9090909090909,4,3,1,70,0,0
148929,-90.9090909090909,4,3,1,60,0,0
149169,-90.9090909090909,4,3,1,60,0,0
149250,-90.9090909090909,4,3,1,60,0,0
149303,-90.9090909090909,4,3,1,60,0,0
149410,-90.9090909090909,4,3,1,60,0,0
149463,-90.9090909090909,4,3,1,60,0,0
149571,-90.9090909090909,4,3,1,80,0,0
149891,-90.9090909090909,4,3,1,75,0,0
150212,-90.9090909090909,4,3,1,70,0,0
150533,-90.9090909090909,4,3,1,65,0,0
150855,-90.9090909090909,4,3,1,60,0,0
151014,-90.9090909090909,4,3,1,60,0,0
151176,-90.9090909090909,4,3,1,55,0,0
151335,-90.9090909090909,4,3,1,55,0,0
152137,-100,4,3,1,70,0,0
155907,-100,4,3,1,70,0,0
155988,-100,4,3,1,70,0,0
156469,-166.666666666667,4,3,1,70,0,0
156549,-166.666666666667,4,3,1,75,0,0
157271,-125,4,3,1,55,0,0
158153,-125,4,3,1,5,0,0
158234,-125,4,3,1,55,0,0
158394,-125,4,3,1,55,0,0
158554,-125,4,3,1,55,0,0
158794,-125,4,3,1,5,0,0
158875,-125,4,3,1,55,0,0
159035,-125,4,3,1,55,0,0
159196,-125,4,3,1,55,0,0
161121,-125,4,3,1,80,0,0
163688,-500,4,2,10,50,0,0
164010,-500,4,2,11,50,0,0
164331,-500,4,2,12,50,0,0
164652,-500,4,2,13,50,0,0
164812,-500,4,2,14,50,0,0
165133,-500,4,2,15,50,0,0
165293,-500,4,2,16,50,0,0
165454,-500,4,2,17,50,0,0
165534,-500,4,2,18,50,0,0
165614,-500,4,2,19,50,0,0
165775,-500,4,2,20,50,0,0
165935,-500,4,2,21,50,0,0
166096,-500,4,2,22,50,0,0
166256,-500,4,2,23,50,0,0
166577,-500,4,2,24,50,0,0
166898,-500,4,2,25,50,0,0
167219,-500,4,2,26,50,0,0
167378,-83.3333333333333,4,2,27,50,0,0
167698,-83.3333333333333,4,3,1,5,0,0
167752,-83.3333333333333,4,3,1,70,0,0
167939,-83.3333333333333,4,3,1,70,0,0
168019,-83.3333333333333,4,3,1,70,0,0
168233,-83.3333333333333,4,3,1,70,0,0
168286,-83.3333333333333,4,3,1,70,0,0
168340,-83.3333333333333,4,3,1,70,0,0
168393,-83.3333333333333,4,3,1,70,0,0
168501,-83.3333333333333,4,3,1,70,0,0
168822,-83.3333333333333,4,3,1,90,0,1
172672,-71.4285714285714,4,3,1,80,0,1
173234,-71.4285714285714,4,3,1,40,0,1
173473,-71.4285714285714,4,3,4,75,0,1
173554,-71.4285714285714,4,3,4,75,0,1
173635,-100,4,3,4,75,0,1
173956,-76.9230769230769,4,3,1,90,0,1
182939,-76.9230769230769,4,3,1,80,0,1
183581,-76.9230769230769,4,3,1,70,0,1
184223,-100,4,3,1,70,0,0
186308,-90.9090909090909,4,3,1,70,0,0
186790,-90.9090909090909,4,3,1,55,0,0
188394,-90.9090909090909,4,3,1,65,0,0
188554,-90.9090909090909,4,3,1,75,0,0
188715,-90.9090909090909,4,3,1,85,0,0
189357,-100,4,3,1,90,0,0
191923,-100,4,3,1,100,0,1
196095,-100,4,3,1,100,0,0
196255,-100,4,3,1,15,0,0
196335,-100,4,2,0,30,0,0
197378,-166.666666666667,4,3,1,60,0,0
198661,-166.666666666667,4,3,1,15,0,0
199143,-166.666666666667,4,3,1,60,0,0
200586,-166.666666666667,4,3,1,15,0,0
200747,-166.666666666667,4,3,1,60,0,0
201229,-166.666666666667,4,3,1,15,0,0
201388,-166.666666666667,4,3,1,60,0,0
201549,-166.666666666667,4,3,4,70,0,0
202191,-125,4,3,1,60,0,0
202672,-125,4,3,1,5,0,0
202833,-142.857142857143,4,3,1,60,0,0
203153,-142.857142857143,4,3,1,60,0,0
203314,-166.666666666667,4,3,1,60,0,0
203956,-125,4,3,1,60,0,0
204918,-125,4,2,5,60,0,0
205079,-125,4,3,1,60,0,0
205159,-125,4,2,5,60,0,0
205239,-125,4,3,1,60,0,0
205399,-125,4,2,5,60,0,0
205480,-125,4,3,1,60,0,0
205560,-125,4,2,5,60,0,0
205720,-125,4,3,1,60,0,0
205800,-125,4,2,5,60,0,0
205881,-125,4,3,1,60,0,0
205961,-125,4,2,5,60,0,0
206041,-125,4,3,1,60,0,0
207325,-100,4,3,1,60,0,0
207431,-100,4,3,1,30,0,0
207645,-100,4,3,1,40,0,0
207751,-100,4,3,1,30,0,0
207966,-100,4,3,1,40,0,0
208072,-100,4,3,1,30,0,0
208287,-100,4,3,1,40,0,0
208393,-100,4,3,1,30,0,0
208608,-100,4,3,1,40,0,0
208714,-100,4,3,1,30,0,0
208929,-100,4,3,1,40,0,0
209035,-100,4,3,1,30,0,0
209250,-125,4,3,4,40,0,0
209571,-166.666666666667,4,3,4,30,0,0
209891,-166.666666666667,4,3,1,100,0,0
212137,-166.666666666667,4,1,2,15,0,0
212458,-166.666666666667,4,3,1,70,0,0
214143,-166.666666666667,4,3,1,70,0,0
214169,-166.666666666667,4,3,1,70,0,0
214383,-166.666666666667,4,3,1,70,0,0
214436,-166.666666666667,4,3,1,70,0,0
214543,-166.666666666667,4,3,1,70,0,0
214704,-166.666666666667,4,3,1,100,0,0

[Colours]
Combo1 : 147,165,183
Combo2 : 255,188,32
Combo3 : 242,91,0
Combo4 : 94,187,126

[HitObjects]
129,117,694,22,0,B|102:110|94:28|212:-29|300:150|171:228,1,323.999990112305,4|8,0:0|2:0,0:0:0:0:
1,283,1816,2,0,B|85:230|173:310|133:343|216:397|302:347,1,323.999990112305,4|0,0:0|0:0,0:0:0:0:
329,235,2939,2,0,P|288:266|284:283,1,53.9999983520508,8|0,2:0|0:0,0:0:0:0:
450,360,3260,38,0,B|430:283|430:283|433:264|433:264|408:173,1,188.999994232178,4|0,0:0|0:0,0:0:0:0:
356,117,3902,2,0,L|371:47,2,53.9999983520508,0|0|8,0:0|0:0|2:0,0:0:0:0:
277,155,4383,6,0,P|237:132|164:209,1,161.999995056153,4|8,0:0|2:0,0:0:0:0:
238,246,5025,1,2,0:0:0:0:
313,292,5185,2,0,P|331:298|346:313,3,26.9999991760254,8|8|8|8,0:0|0:0|0:0|0:0,0:0:0:0:
242,341,5506,2,0,P|227:353|207:359,3,26.9999991760254
108,333,5827,38,0,B|80:236|80:236|81:227|81:227|51:117,1,216,4|0,0:0|0:0,0:0:0:0:
235,74,6469,2,0,P|216:132|139:139,1,125.999996154785,4|0,0:0|0:0,0:0:0:0:
10,24,6950,2,0,B|90:-2|90:-2|157:62,1,161.999995056153,4|0,0:0|0:0,0:0:0:0:
225,161,7592,2,0,B|267:174|298:146|285:142|320:111|367:120,1,144,4|2,0:0|0:0,0:0:0:0:
433,152,7993,1,0,0:0:0:0:
441,168,8073,2,0,L|418:247,1,72,2|2,0:0|0:0,0:0:0:0:
367,330,8394,5,4,0:0:0:0:
364,312,8474,1,0,0:0:0:0:
356,295,8554,1,0,2:0:0:0:
343,281,8634,1,0,2:0:0:0:
327,272,8714,1,0,0:0:0:0:
309,268,8795,1,0,2:0:0:0:
291,271,8875,1,0,0:0:0:0:
275,281,8956,1,0,0:0:0:0:
262,293,9036,2,0,P|254:316|255:339,3,36,0|0|0|0,2:0|0:0|2:0|2:0,0:0:0:0:
177,366,9357,37,0,0:0:0:0:
161,348,9437,1,0,2:0:0:0:
140,340,9517,1,0,0:0:0:0:
116,339,9597,1,0,2:0:0:0:
96,348,9677,1,6,0:0:0:0:
231,197,9838,1,2,0:0:0:0:
231,197,10159,22,0,L|243:234,3,24,2|2|2|2,0:0|0:0|0:0|0:0,0:0:0:0:
304,384,10480,5,2,0:0:0:0:
416,170,10961,22,0,P|362:164|332:194,1,90,6|8,0:0|0:0,0:0:0:0:
311,281,11282,2,0,P|292:297|261:299,2,45,0|2|8,0:0|0:0|0:0,0:0:0:0:
413,344,11603,2,0,L|437:241,1,90,2|8,0:0|0:0,0:0:0:0:
512,190,11923,2,0,L|500:146,1,45,0|2,0:0|0:0,0:0:0:0:
443,76,12084,1,8,0:0:0:0:
342,133,12244,38,0,P|291:135|259:101,1,90,2|8,0:0|0:0,0:0:0:0:
190,20,12565,2,0,P|196:39|188:77,2,45,0|2|8,0:0|0:0|0:0,0:0:0:0:
130,207,12886,2,0,P|153:161|199:151,1,90,2|8,0:0|0:0,0:0:0:0:
285,277,13207,5,2,0:0:0:0:
324,265,13287,1,2,0:0:0:0:
363,254,13367,1,2,0:0:0:0:
403,242,13448,1,2,0:0:0:0:
442,231,13528,1,6,0:0:0:0:
442,231,13849,38,0,L|350:206,1,72
396,126,14169,2,0,L|488:151,1,72,8|0,0:0|0:0,0:0:0:0:
442,231,14490,1,0,0:0:0:0:
398,116,14651,1,0,0:0:0:0:
400,107,14731,1,0,0:0:0:0:
403,98,14811,2,0,L|428:6,1,72
288,188,15132,1,0,0:0:0:0:
285,198,15212,1,0,0:0:0:0:
282,208,15292,1,0,0:0:0:0:
279,218,15373,1,0,0:0:0:0:
277,228,15453,1,10,0:0:0:0:
365,24,15613,5,4,0:0:0:0:
384,203,15774,2,0,P|446:222|488:139,1,161.999995056153,8|0,0:0|0:0,0:0:0:0:
438,79,16095,38,0,L|343:57,1,90,4|8,0:0|0:0,0:0:0:0:
272,0,16415,2,0,L|210:15,2,45,0|0|8,0:0|0:0|0:0,0:0:0:0:
260,101,16736,2,0,P|202:103|176:159,1,90,2|8,0:0|0:0,0:0:0:0:
144,203,17057,2,0,P|158:220|159:254,1,45
64,158,17218,1,8,0:0:0:0:
0,246,17378,6,0,P|57:248|81:288,1,90,2|8,0:0|0:0,0:0:0:0:
141,326,17699,2,0,P|142:350|126:379,2,45,0|0|8,0:0|0:0|0:0,0:0:0:0:
40,354,18020,1,2,0:0:0:0:
168,219,18180,1,8,0:0:0:0:
239,384,18341,37,10,0:0:0:0:
278,372,18421,1,10,0:0:0:0:
317,361,18501,1,2,0:0:0:0:
357,349,18581,1,2,0:0:0:0:
396,338,18661,1,6,0:0:0:0:
396,338,18982,6,0,L|375:237,1,96,0|0,2:0|0:0,0:0:0:0:
365,238,19250,6,0,L|361:214,1,24,0|8,0:0|0:0,0:0:0:0:
214,243,19464,5,0,0:0:0:0:
214,243,19784,5,0,0:0:0:0:
271,140,19945,1,0,0:0:0:0:
307,309,20105,1,8,0:0:0:0:
270,129,20266,1,2,0:0:0:0:
203,247,20426,1,2,0:0:0:0:
315,56,20587,6,0,B|360:37|405:71|386:81|423:113|477:97,1,161.999995056153,6|0,0:0|0:0,0:0:0:0:
512,39,20907,2,0,P|441:24|391:119,1,161.999995056153,4|0,0:0|0:0,0:0:0:0:
361,176,21228,38,0,L|382:277,1,90,4|8,0:0|0:0,0:0:0:0:
467,299,21549,2,0,L|480:246,2,45,0|0|8,0:0|0:0|0:0,0:0:0:0:
399,358,21870,1,0,0:0:0:0:
314,325,22030,1,8,0:0:0:0:
241,384,22191,1,0,0:0:0:0:
241,384,22271,1,0,0:0:0:0:
241,384,22351,1,8,0:0:0:0:
191,248,22512,6,0,P|159:222|106:228,1,90,4|8,0:0|0:0,0:0:0:0:
30,185,22833,2,0,P|10:197|-2:226,2,45,0|0|8,0:0|0:0|0:0,0:0:0:0:
206,152,23153,1,0,0:0:0:0:
84,304,23314,1,8,0:0:0:0:
35,99,23474,1,0,0:0:0:0:
52,85,23554,1,0,0:0:0:0:
74,81,23635,2,0,P|107:88|123:113,1,45,8|8,0:0|0:0,0:0:0:0:
214,165,23795,38,0,P|274:190|299:177,1,90,4|8,0:0|0:0,0:0:0:0:
387,137,24116,2,0,L|401:92,2,45,0|0|8,0:0|0:0|0:0,0:0:0:0:
447,236,24437,2,0,P|403:227|368:252,1,90,0|8,0:0|0:0,0:0:0:0:
307,338,24758,2,0,P|305:317|289:287,1,45
209,184,24918,1,8,0:0:0:0:
107,354,25079,5,2,0:0:0:0:
200,284,25239,1,2,0:0:0:0:
117,371,25399,1,2,0:0:0:0:
62,219,25560,2,0,B|35:244|47:286|47:286|60:261|87:249,2,107.999996704102,4|8|8,0:0|0:0|0:0,0:0:0:0:
3,132,26362,38,0,B|45:152|77:122|68:118|107:86|151:111,1,144,4|0,0:0|0:0,0:0:0:0:
233,167,26843,1,0,0:0:0:0:
308,58,27004,2,0,P|310:95|376:121,1,108,8|0,0:0|0:0,0:0:0:0:
406,112,27325,2,0,P|442:119|467:154,1,72,0|8,0:0|0:0,0:0:0:0:
494,219,27565,1,0,0:0:0:0:
478,238,27645,6,0,B|430:225|430:225|423:229|423:229|366:217,1,108,8|0,0:0|0:0,0:0:0:0:
354,244,27966,2,0,L|276:270,1,72
191,249,28287,1,8,0:0:0:0:
184,232,28367,1,0,0:0:0:0:
187,214,28448,1,0,0:0:0:0:
238,347,28608,1,4,0:0:0:0:
241,365,28688,1,0,0:0:0:0:
234,382,28768,1,0,0:0:0:0:
69,316,28929,38,0,P|87:313|106:304,1,36,0|2,0:0|0:0,0:0:0:0:
272,194,29089,1,8,0:0:0:0:
212,384,29250,1,8,0:0:0:0:
345,264,29410,1,0,0:0:0:0:
345,264,29490,1,0,0:0:0:0:
345,264,29571,1,8,0:0:0:0:
305,366,29731,1,8,0:0:0:0:
420,311,29891,1,8,0:0:0:0:
443,301,29972,1,8,0:0:0:0:
468,305,30052,2,0,P|484:313|498:328,1,36,8|2,0:0|0:0,0:0:0:0:
334,249,30212,6,0,P|288:222|242:237,1,90,4|8,0:0|0:0,0:0:0:0:
166,184,30533,2,0,P|141:195|124:218,2,45,0|2|8,0:0|0:0|0:0,0:0:0:0:
81,316,30854,1,2,0:0:0:0:
64,153,31014,1,8,0:0:0:0:
206,294,31175,2,0,P|175:291|159:282,1,45,0|2,0:0|0:0,0:0:0:0:
55,144,31335,1,8,0:0:0:0:
248,79,31496,38,0,B|255:118|255:118|254:125|254:125|263:178,1,90,4|8,0:0|0:0,0:0:0:0:
312,255,31816,2,0,L|298:314,2,45,0|2|8,0:0|0:0|0:0,0:0:0:0:
399,202,32137,1,2,0:0:0:0:
352,121,32298,1,8,0:0:0:0:
461,34,32458,5,2,0:0:0:0:
473,73,32538,1,2,0:0:0:0:
484,112,32619,1,2,0:0:0:0:
496,152,32699,1,2,0:0:0:0:
507,191,32779,38,0,L|522:241,3,36,6|8|8|8,0:0|0:0|0:0|0:0,0:0:0:0:
475,300,33100,2,0,L|490:350,3,36,0|8|8|0,0:0|0:0|0:0|0:0,0:0:0:0:
381,284,33421,2,0,L|396:334,3,36
306,332,33742,2,0,L|321:382,1,36,8|8,0:0|0:0,0:0:0:0:
215,306,33902,2,0,L|232:373,1,36,10|8,0:0|0:0,0:0:0:0:
284,245,34062,5,0,0:0:0:0:
280,232,34143,1,0,0:0:0:0:
277,219,34223,2,0,L|262:169,1,36,8|8,0:0|0:0,0:0:0:0:
349,168,34383,1,10,0:0:0:0:
345,155,34464,1,8,0:0:0:0:
342,142,34544,2,0,L|327:92,1,36
440,186,34704,37,8,0:0:0:0:
375,12,34865,1,4,0:0:0:0:
238,140,35025,2,0,P|166:144|150:42,1,161.999995056153,8|0,0:0|0:0,0:0:0:0:
181,10,35346,6,0,L|283:41,1,90,4|8,0:0|0:0,0:0:0:0:
104,111,35667,2,0,L|33:132,2,45,0|2|8,0:0|0:0|0:0,0:0:0:0:
251,152,35988,1,2,0:0:0:0:
171,232,36148,1,8,0:0:0:0:
256,277,36308,2,0,P|263:254|280:233,1,45,2|2,0:0|0:0,0:0:0:0:
207,345,36469,2,0,P|220:363|226:384,1,45,8|2,0:0|0:0,0:0:0:0:
96,305,36629,37,4,0:0:0:0:
81,301,36710,1,0,0:0:0:0:
72,290,36790,2,0,P|60:268|66:239,1,45,8|0,0:0|0:0,0:0:0:0:
3,199,36950,1,0,0:0:0:0:
0,173,37030,1,0,0:0:0:0:
14,150,37111,2,0,P|31:137|55:135,1,45,8|0,0:0|0:0,0:0:0:0:
124,81,37271,5,0,0:0:0:0:
159,62,37351,1,0,0:0:0:0:
198,70,37431,1,8,0:0:0:0:
224,101,37512,1,0,0:0:0:0:
230,140,37592,1,2,0:0:0:0:
256,174,37672,1,2,0:0:0:0:
301,189,37752,1,8,0:0:0:0:
350,170,37833,1,2,0:0:0:0:
380,122,37913,38,0,L|429:106,1,45,2|2,0:0|0:0,0:0:0:0:
497,138,38073,2,0,L|513:187,1,45,8|8,0:0|0:0,0:0:0:0:
489,258,38234,1,0,0:0:0:0:
476,262,38314,1,0,0:0:0:0:
463,267,38394,2,0,L|414:283,1,45
352,236,38554,2,0,L|336:187,1,45,8|8,0:0|0:0,0:0:0:0:
303,312,38715,6,0,L|320:364,5,45,4|0|8|8|0|0,0:0|0:0|0:0|0:0|0:0|0:0,0:0:0:0:
216,314,39196,37,4,0:0:0:0:
209,292,39276,1,0,0:0:0:0:
202,270,39357,1,2,0:0:0:0:
195,248,39437,1,2,0:0:0:0:
188,226,39517,1,2,0:0:0:0:
181,204,39597,1,2,0:0:0:0:
174,182,39677,1,2,0:0:0:0:
167,160,39758,1,2,0:0:0:0:
160,138,39838,6,0,B|324:181,1,161.999995056153,4|0,0:0|0:0,0:0:0:0:
289,65,40159,2,0,B|240:53|210:79|219:95|184:126|141:110,1,161.999995056153,4|0,0:0|0:0,0:0:0:0:
66,73,40480,38,0,P|19:81|-11:117,1,90,4|8,0:0|0:0,0:0:0:0:
69,189,40800,2,0,L|128:202,2,45,0|2|8,0:0|0:0|0:0,0:0:0:0:
6,268,41121,1,2,0:0:0:0:
69,348,41282,1,8,0:0:0:0:
164,300,41442,1,2,0:0:0:0:
164,300,41522,1,2,0:0:0:0:
164,300,41603,1,8,0:0:0:0:
269,363,41763,6,0,P|317:368|355:336,1,90,4|8,0:0|0:0,0:0:0:0:
424,293,42084,2,0,P|433:270|435:237,2,45,0|2|8,0:0|0:0|0:0,0:0:0:0:
298,205,42405,1,0,0:0:0:0:
431,384,42565,1,8,0:0:0:0:
484,164,42726,1,2,0:0:0:0:
467,150,42806,1,2,0:0:0:0:
445,146,42886,2,0,P|412:153|396:178,1,45,8|8,0:0|0:0,0:0:0:0:
303,298,43046,38,0,P|263:325|211:306,1,90,4|8,0:0|0:0,0:0:0:0:
143,192,43367,2,0,P|172:196|190:211,2,45,2|2|8,0:0|0:0|0:0,0:0:0:0:
284,120,43688,2,0,P|317:156|309:203,1,90,2|8,0:0|0:0,0:0:0:0:
199,327,44009,1,0,0:0:0:0:
199,327,44089,1,2,0:0:0:0:
199,327,44169,1,8,0:0:0:0:
105,97,44330,5,4,0:0:0:0:
203,158,44490,1,0,0:0:0:0:
82,104,44651,1,8,0:0:0:0:
224,43,44811,38,0,B|266:36|266:36|306:67,1,80.9999975280763,4|8,0:0|0:0,0:0:0:0:
312,90,45132,5,8,0:0:0:0:
35,172,45292,1,8,0:0:0:0:
221,161,45453,37,8,0:0:0:0:
211,165,45533,1,8,0:0:0:0:
204,174,45613,2,0,B|184:214|214:246|218:237|245:268|230:312,1,144,4|0,0:0|0:0,0:0:0:0:
144,378,46095,1,0,0:0:0:0:
123,247,46255,2,0,P|116:264|19:272,1,108,8|0,0:0|0:0,0:0:0:0:
19,265,46576,2,0,L|1:189,1,72
74,105,46897,6,0,B|102:94|128:111|122:120|144:142|181:130,1,108,4|0,0:0|0:0,0:0:0:0:
202,120,47218,2,0,P|236:112|277:138,1,72,4|0,0:0|0:0,0:0:0:0:
364,29,47538,1,8,0:0:0:0:
345,29,47619,1,0,0:0:0:0:
330,39,47699,1,2,0:0:0:0:
432,109,47859,1,4,0:0:0:0:
451,109,47939,1,0,0:0:0:0:
466,99,48020,1,2,0:0:0:0:
329,164,48180,37,8,0:0:0:0:
501,212,48341,1,8,0:0:0:0:
320,149,48501,1,8,0:0:0:0:
379,347,48661,1,0,0:0:0:0:
379,347,48742,1,0,0:0:0:0:
379,347,48822,1,8,0:0:0:0:
499,199,48982,1,8,0:0:0:0:
289,298,49143,5,8,0:0:0:0:
278,301,49223,1,8,0:0:0:0:
267,299,49303,1,8,0:0:0:0:
257,294,49383,1,0,0:0:0:0:
248,283,49464,2,0,P|236:255|239:230,1,45
202,58,49624,37,8,0:0:0:0:
218,71,49704,1,8,0:0:0:0:
225,92,49784,1,8,0:0:0:0:
224,114,49865,1,8,0:0:0:0:
213,134,49945,2,0,P|182:159|163:159,1,45,8|0,0:0|0:0,0:0:0:0:
42,313,50105,5,8,0:0:0:0:
45,277,50185,1,8,0:0:0:0:
68,250,50266,1,4,0:0:0:0:
101,235,50346,1,0,0:0:0:0:
137,237,50426,1,8,0:0:0:0:
130,253,50506,1,8,0:0:0:0:
131,271,50587,1,0,0:0:0:0:
138,287,50667,1,0,0:0:0:0:
150,299,50747,2,0,P|175:315|201:313,1,45,4|0,0:0|0:0,0:0:0:0:
374,256,50907,37,0,0:0:0:0:
374,256,50988,1,0,0:0:0:0:
374,256,51068,1,4,0:0:0:0:
142,155,51228,1,4,0:0:0:0:
341,44,51389,1,4,0:0:0:0:
362,74,51469,1,8,0:0:0:0:
362,112,51549,1,8,0:0:0:0:
340,144,51629,1,8,0:0:0:0:
301,154,51710,2,0,P|280:150|258:129,3,45,8|8|8|8,0:0|0:0|0:0|0:0,0:0:0:0:
206,76,52030,5,4,0:0:0:0:
189,29,52111,1,0,0:0:0:0:
148,1,52191,1,8,0:0:0:0:
99,1,52271,1,0,0:0:0:0:
56,23,52351,1,2,0:0:0:0:
34,66,52431,1,0,0:0:0:0:
39,114,52512,1,8,0:0:0:0:
68,152,52592,1,0,0:0:0:0:
114,166,52672,37,2,0:0:0:0:
96,132,52752,1,0,0:0:0:0:
101,95,52833,1,8,0:0:0:0:
123,63,52913,1,0,0:0:0:0:
159,51,52993,2,0,P|151:78|162:110,1,53.9999983520508,2|0,0:0|0:0,0:0:0:0:
252,176,53153,5,8,0:0:0:0:
269,188,53234,1,0,0:0:0:0:
290,191,53314,2,0,P|316:186|339:162,1,53.9999983520508,2|0,0:0|0:0,0:0:0:0:
444,55,53474,1,8,0:0:0:0:
421,97,53554,1,0,0:0:0:0:
426,145,53635,1,2,0:0:0:0:
456,182,53715,1,0,0:0:0:0:
491,206,53795,1,8,0:0:0:0:
506,245,53875,1,0,0:0:0:0:
500,279,53956,2,0,P|489:304|469:320,3,53.9999983520508,6|0|8|0,0:0|0:0|0:0|0:0,0:0:0:0:
414,373,54276,2,0,P|386:375|362:366,3,53.9999983520508,6|0|8|0,0:0|0:0|0:0|0:0,0:0:0:0:
335,268,54597,37,6,0:0:0:0:
299,235,54677,1,0,0:0:0:0:
250,229,54758,1,8,0:0:0:0:
208,254,54838,1,0,0:0:0:0:
186,297,54918,1,2,0:0:0:0:
158,336,54998,1,0,0:0:0:0:
111,350,55079,1,8,0:0:0:0:
64,336,55159,1,0,0:0:0:0:
40,293,55239,5,2,0:0:0:0:
71,272,55319,1,0,0:0:0:0:
108,273,55399,1,8,0:0:0:0:
137,296,55480,1,0,0:0:0:0:
150,331,55560,2,0,P|147:367|137:385,1,53.9999983520508,2|0,0:0|0:0,0:0:0:0:
233,189,55720,37,8,0:0:0:0:
266,170,55800,1,0,0:0:0:0:
303,175,55881,1,2,0:0:0:0:
329,201,55961,1,0,0:0:0:0:
346,234,56041,1,8,0:0:0:0:
379,252,56121,1,0,0:0:0:0:
420,250,56202,5,2,0:0:0:0:
434,242,56282,1,0,0:0:0:0:
443,229,56362,2,0,P|451:199|434:167,1,53.9999983520508,8|0,0:0|0:0,0:0:0:0:
270,250,56522,1,6,0:0:0:0:
269,265,56603,1,0,0:0:0:0:
276,280,56683,2,0,P|297:301|333:303,1,53.9999983520508,8|0,0:0|0:0,0:0:0:0:
420,94,56843,2,0,P|389:95|365:113,3,53.9999983520508,6|0|8|0,0:0|0:0|0:0|0:0,0:0:0:0:
288,83,57164,37,6,0:0:0:0:
236,64,57244,1,0,0:0:0:0:
183,77,57325,1,8,0:0:0:0:
150,120,57405,1,0,0:0:0:0:
116,162,57485,1,2,0:0:0:0:
63,172,57565,1,0,0:0:0:0:
16,144,57645,5,8,0:0:0:0:
35,111,57726,1,0,0:0:0:0:
70,97,57806,1,2,0:0:0:0:
107,97,57886,1,0,0:0:0:0:
138,117,57966,1,8,0:0:0:0:
153,151,58046,1,0,0:0:0:0:
151,189,58127,2,0,P|134:215|111:231,3,53.9999983520508,2|0|8|0,0:0|0:0|0:0|0:0,0:0:0:0:
209,311,58448,37,6,0:0:0:0:
256,337,58528,1,0,0:0:0:0:
309,330,58608,1,8,0:0:0:0:
340,287,58688,1,0,0:0:0:0:
335,234,58768,1,2,0:0:0:0:
305,191,58849,1,0,0:0:0:0:
301,140,58929,1,8,0:0:0:0:
333,105,59009,1,0,0:0:0:0:
370,99,59089,2,0,P|397:109|414:141,3,53.9999983520508,2|0|8|0,0:0|0:0|0:0|0:0,0:0:0:0:
485,162,59410,2,0,P|489:191|473:225,3,53.9999983520508,2|0|8|0,0:0|0:0|0:0|0:0,0:0:0:0:
409,272,59731,5,6,0:0:0:0:
370,233,59811,1,0,0:0:0:0:
315,226,59891,1,8,0:0:0:0:
268,254,59972,1,0,0:0:0:0:
249,304,60052,1,2,0:0:0:0:
266,354,60132,1,0,0:0:0:0:
310,384,60212,37,8,0:0:0:0:
320,342,60292,1,0,0:0:0:0:
329,299,60373,1,2,0:0:0:0:
339,257,60453,1,0,0:0:0:0:
350,215,60533,2,0,L|365:146,1,53.9999983520508,8|0,0:0|0:0,0:0:0:0:
469,70,60693,5,2,0:0:0:0:
484,65,60774,1,0,0:0:0:0:
499,70,60854,1,8,0:0:0:0:
509,82,60934,1,0,0:0:0:0:
512,97,61014,2,0,P|430:117|398:85,1,125.999996154785,6|0,0:0|0:0,0:0:0:0:
339,56,61255,1,0,0:0:0:0:
339,56,61335,2,0,P|348:12|374:-9,1,62.9999980773926,8|0,0:0|0:0,0:0:0:0:
291,137,61496,2,0,B|224:102|163:154|183:181|132:231|57:190,1,251.999992309571,12|0,0:0|0:0,0:0:0:0:
13,133,61897,1,0,0:0:0:0:
13,133,61977,2,0,L|31:83,3,45,8|8|8|0,0:0|0:0|0:0|0:0,0:0:0:0:
98,4,62298,37,4,0:0:0:0:
134,27,62378,1,0,0:0:0:0:
148,67,62458,1,8,0:0:0:0:
142,109,62538,1,0,0:0:0:0:
114,143,62619,2,0,P|96:169|91:201,1,58.4999973220826,2|0,0:0|0:0,0:0:0:0:
27,244,62779,2,0,P|40:272|65:292,1,58.4999973220826,8|0,0:0|0:0,0:0:0:0:
171,347,62939,5,2,0:0:0:0:
149,312,63020,1,0,0:0:0:0:
152,272,63100,1,8,0:0:0:0:
178,240,63180,1,0,0:0:0:0:
217,229,63260,2,0,P|244:232|271:252,1,58.4999973220826,2|0,0:0|0:0,0:0:0:0:
334,372,63421,37,8,0:0:0:0:
330,351,63501,1,0,0:0:0:0:
337,330,63581,2,0,P|356:305|400:292,1,58.4999973220826,2|0,0:0|0:0,0:0:0:0:
470,274,63742,5,8,0:0:0:0:
499,243,63822,1,0,0:0:0:0:
505,200,63902,1,2,0:0:0:0:
488,160,63982,1,0,0:0:0:0:
453,134,64062,1,8,0:0:0:0:
426,99,64143,1,0,0:0:0:0:
426,56,64223,2,0,P|441:27|466:7,3,58.4999973220826,6|0|8|0,0:0|0:0|0:0|0:0,0:0:0:0:
335,7,64544,2,0,P|308:11|275:-2,3,58.4999973220826,6|0|8|0,0:0|0:0|0:0|0:0,0:0:0:0:
297,109,64865,37,6,0:0:0:0:
257,82,64945,1,0,0:0:0:0:
208,77,65025,1,8,0:0:0:0:
164,99,65105,1,0,0:0:0:0:
143,142,65185,2,0,P|177:159|190:182,1,58.4999973220826,2|0,0:0|0:0,0:0:0:0:
262,202,65346,2,0,P|264:239|250:265,1,58.4999973220826,8|0,0:0|0:0,0:0:0:0:
183,302,65506,5,2,0:0:0:0:
177,273,65587,1,0,0:0:0:0:
158,248,65667,1,8,0:0:0:0:
130,238,65747,1,0,0:0:0:0:
100,239,65827,2,0,P|76:249|54:277,1,58.4999973220826,2|0,0:0|0:0,0:0:0:0:
73,361,65988,37,8,0:0:0:0:
85,376,66068,1,0,0:0:0:0:
105,384,66148,2,0,P|136:386|172:364,1,58.4999973220826,2|0,0:0|0:0,0:0:0:0:
224,320,66308,5,8,0:0:0:0:
254,307,66389,1,0,0:0:0:0:
285,313,66469,1,2,0:0:0:0:
306,336,66549,1,0,0:0:0:0:
326,361,66629,1,8,0:0:0:0:
356,372,66710,1,0,0:0:0:0:
388,369,66790,2,0,P|406:357|417:324,3,58.4999973220826,6|0|8|0,0:0|0:0|0:0|0:0,0:0:0:0:
484,273,67111,2,0,P|482:251|461:223,3,58.4999973220826,6|0|8|0,0:0|0:0|0:0|0:0,0:0:0:0:
433,141,67431,37,6,0:0:0:0:
406,87,67512,1,0,0:0:0:0:
353,60,67592,1,8,0:0:0:0:
295,69,67672,1,0,0:0:0:0:
253,109,67752,1,2,0:0:0:0:
248,167,67833,1,0,0:0:0:0:
273,219,67913,5,8,0:0:0:0:
312,199,67993,1,0,0:0:0:0:
329,160,68073,1,2,0:0:0:0:
325,118,68153,1,0,0:0:0:0:
296,85,68234,1,8,0:0:0:0:
253,75,68314,1,0,0:0:0:0:
212,90,68394,2,0,P|190:114|181:137,3,58.4999973220826,2|0|8|0,0:0|0:0|0:0|0:0,0:0:0:0:
41,43,68715,37,6,0:0:0:0:
81,69,68795,1,0,0:0:0:0:
97,114,68875,1,8,0:0:0:0:
75,158,68956,1,0,0:0:0:0:
33,183,69036,1,2,0:0:0:0:
6,223,69116,1,0,0:0:0:0:
4,271,69196,1,8,0:0:0:0:
27,311,69276,1,0,0:0:0:0:
71,329,69357,1,2,0:0:0:0:
113,327,69437,1,0,0:0:0:0:
144,303,69517,1,8,0:0:0:0:
154,273,69597,1,0,0:0:0:0:
148,246,69677,2,0,L|95:223,1,58.4999973220826,2|0,0:0|0:0,0:0:0:0:
239,334,69838,2,0,L|291:309,1,58.4999973220826,8|0,0:0|0:0,0:0:0:0:
345,174,69998,5,6,0:0:0:0:
371,132,70079,1,0,0:0:0:0:
369,83,70159,1,8,0:0:0:0:
344,41,70239,1,0,0:0:0:0:
298,23,70319,1,2,0:0:0:0:
249,25,70399,1,0,0:0:0:0:
211,56,70480,1,8,0:0:0:0:
198,102,70560,1,0,0:0:0:0:
213,146,70640,1,2,0:0:0:0:
249,173,70720,1,0,0:0:0:0:
291,181,70800,1,8,0:0:0:0:
331,166,70881,1,0,0:0:0:0:
351,136,70961,2,0,P|356:113|347:76,3,58.4999973220826,2|0|8|0,0:0|0:0|0:0|0:0,0:0:0:0:
292,27,71282,38,0,B|241:38|241:38|232:48|232:48|171:62,1,116.999994644165,12|0,0:0|0:0,0:0:0:0:
126,106,71522,1,0,0:0:0:0:
116,98,71603,2,0,L|43:80,1,58.4999973220826,2|0,0:0|0:0,0:0:0:0:
106,193,71763,2,0,P|148:267|172:164,1,233.999989288331,12|8,0:0|0:0,0:0:0:0:
246,331,72244,1,2,0:0:0:0:
259,339,72325,1,0,0:0:0:0:
275,341,72405,1,8,0:0:0:0:
291,339,72485,1,8,0:0:0:0:
304,333,72565,6,0,B|265:258|317:190|317:190|377:216|380:265,1,252,12|0,0:0|0:0,0:0:0:0:
399,281,73207,6,0,P|400:296|389:318,4,24,8|8|8|8|0,0:0|0:0|0:0|0:0|0:0,0:0:0:0:
479,384,73528,37,8,0:0:0:0:
470,376,73608,1,8,0:0:0:0:
469,365,73688,2,0,P|472:340|488:320,1,36,8|8,0:0|0:0,0:0:0:0:
512,206,73849,38,0,P|452:214|427:186,1,90,6|8,0:0|0:0,0:0:0:0:
360,122,74169,2,0,P|362:97|375:72,2,45,0|2|8,0:0|0:0|0:0,0:0:0:0:
399,283,74490,1,2,0:0:0:0:
477,114,74651,1,8,0:0:0:0:
301,198,74811,2,0,P|331:204|358:216,1,45
508,303,74972,1,8,0:0:0:0:
289,365,75132,5,6,0:0:0:0:
289,365,75212,1,2,0:0:0:0:
289,365,75292,1,8,0:0:0:0:
406,296,75453,1,0,0:0:0:0:
226,267,75613,1,8,0:0:0:0:
417,309,75774,2,0,L|441:220,1,90,2|8,0:0|0:0,0:0:0:0:
373,81,76095,37,2,0:0:0:0:
334,93,76175,1,2,0:0:0:0:
295,104,76255,1,2,0:0:0:0:
255,116,76335,1,2,0:0:0:0:
216,127,76415,1,6,0:0:0:0:
216,127,76736,6,0,L|127:97,1,72,8|8,0:0|0:0,0:0:0:0:
115,195,77057,2,0,L|183:217,1,72,8|0,0:0|0:0,0:0:0:0:
216,127,77378,1,0,0:0:0:0:
112,205,77538,1,0,0:0:0:0:
109,213,77619,1,0,0:0:0:0:
106,222,77699,2,0,L|77:313,1,72
221,114,78020,1,8,0:0:0:0:
224,103,78100,1,8,0:0:0:0:
228,92,78180,1,8,0:0:0:0:
231,81,78260,1,8,0:0:0:0:
236,70,78341,1,8,0:0:0:0:
48,133,78501,37,4,0:0:0:0:
227,230,78661,2,0,B|272:212|312:239|298:255|337:282|378:267,1,161.999995056153,8|0,0:0|0:0,0:0:0:0:
439,207,78982,6,0,L|411:96,1,90,4|8,0:0|0:0,0:0:0:0:
348,45,79303,2,0,L|364:-17,2,45,0|2|8,0:0|0:0|0:0,0:0:0:0:
310,154,79624,1,2,0:0:0:0:
222,71,79784,1,8,0:0:0:0:
182,189,79945,1,0,0:0:0:0:
182,189,80025,1,2,0:0:0:0:
182,189,80105,1,8,0:0:0:0:
104,90,80266,37,4,0:0:0:0:
89,94,80346,1,0,0:0:0:0:
80,105,80426,2,0,P|68:127|74:156,1,45,8|0,0:0|0:0,0:0:0:0:
11,196,80587,1,0,0:0:0:0:
8,222,80667,1,8,0:0:0:0:
22,245,80747,2,0,P|39:258|63:260,1,45
106,341,80907,5,8,0:0:0:0:
152,312,80988,1,0,0:0:0:0:
205,316,81068,1,8,0:0:0:0:
243,353,81148,1,0,0:0:0:0:
277,381,81228,1,8,0:0:0:0:
321,384,81308,1,8,0:0:0:0:
360,361,81389,1,0,0:0:0:0:
369,319,81469,1,0,0:0:0:0:
352,290,81549,38,0,L|299:274,1,36,6|2,0:0|0:0,0:0:0:0:
269,195,81710,5,0,0:0:0:0:
283,187,81790,2,0,L|341:204,1,45,6|2,0:0|0:0,0:0:0:0:
417,156,81950,37,0,0:0:0:0:
406,141,82030,2,0,L|348:124,1,53.9999983520508,6|2,0:0|0:0,0:0:0:0:
263,42,82191,5,0,0:0:0:0:
277,34,82271,2,0,L|339:50,1,62.9999980773926,6|2,0:0|0:0,0:0:0:0:
480,30,82431,37,0,0:0:0:0:
469,15,82512,2,0,L|397:-6,1,72,6|0,0:0|0:0,0:0:0:0:
255,125,82672,5,8,0:0:0:0:
250,130,82752,1,8,0:0:0:0:
245,135,82833,2,0,L|232:184,1,36,8|0,0:0|0:0,0:0:0:0:
175,88,82993,37,0,0:0:0:0:
170,82,83073,1,0,0:0:0:0:
165,76,83153,2,0,L|177:31,1,36,8|8,0:0|0:0,0:0:0:0:
82,108,83314,5,0,0:0:0:0:
77,113,83394,1,0,0:0:0:0:
72,118,83474,2,0,B|112:159|98:209|98:209|74:184|33:192,1,161.999995056153,4|0,0:0|0:0,0:0:0:0:
0,255,83795,2,0,P|76:208|157:239,1,161.999995056153,6|0,0:0|0:0,0:0:0:0:
199,287,84116,38,0,P|252:308|292:282,1,90,4|8,0:0|0:0,0:0:0:0:
340,216,84437,2,0,L|324:165,2,45,0|2|8,0:0|0:0|0:0,0:0:0:0:
438,251,84758,1,2,0:0:0:0:
501,167,84918,1,8,0:0:0:0:
439,87,85079,1,0,0:0:0:0:
439,87,85159,1,2,0:0:0:0:
439,87,85239,1,8,0:0:0:0:
336,120,85399,6,0,L|237:93,1,90,4|8,0:0|0:0,0:0:0:0:
170,45,85720,2,0,L|154:-6,2,45,2|2|8,0:0|0:0|0:0,0:0:0:0:
259,186,86041,1,2,0:0:0:0:
291,21,86202,1,8,0:0:0:0:
176,146,86362,1,2,0:0:0:0:
156,155,86442,1,2,0:0:0:0:
133,154,86522,2,0,P|102:139|92:111,1,45,8|2,0:0|0:0,0:0:0:0:
22,60,86683,38,0,L|-3:158,1,90,4|8,0:0|0:0,0:0:0:0:
66,237,87004,2,0,P|83:236|117:253,2,45,0|2|8,0:0|0:0|0:0,0:0:0:0:
7,318,87325,1,2,0:0:0:0:
72,384,87485,1,8,0:0:0:0:
167,348,87645,1,0,0:0:0:0:
167,348,87726,1,2,0:0:0:0:
167,348,87806,1,8,0:0:0:0:
120,130,87966,5,4,0:0:0:0:
85,288,88127,1,0,0:0:0:0:
77,248,88207,1,0,0:0:0:0:
68,208,88287,1,8,0:0:0:0:
217,246,88448,38,0,L|266:260,5,45,4|8|8|8|8|8,0:0|0:0|0:0|0:0|0:0|0:0,0:0:0:0:
287,285,88929,5,2,0:0:0:0:
312,277,89009,1,0,0:0:0:0:
338,283,89089,1,8,0:0:0:0:
357,302,89169,1,0,0:0:0:0:
364,332,89250,38,0,P|341:305|383:211,1,144,4|0,0:0|0:0,0:0:0:0:
459,277,89731,1,0,0:0:0:0:
495,162,89891,2,0,P|454:162|409:105,1,108,8|0,0:0|0:0,0:0:0:0:
385,88,90212,2,0,L|396:48,2,36,4|0|0,0:0|0:0|0:0,0:0:0:0:
284,114,90533,6,0,P|247:95|205:102,1,72,4|2,0:0|0:0,0:0:0:0:
139,143,90854,2,0,P|135:159|138:186,2,36,4|2|2,0:0|0:0|0:0,0:0:0:0:
71,67,91175,1,8,0:0:0:0:
71,48,91255,1,2,0:0:0:0:
81,33,91335,1,2,0:0:0:0:
1,127,91496,1,4,0:0:0:0:
1,146,91576,1,2,0:0:0:0:
11,161,91656,1,2,0:0:0:0:
164,127,91816,37,4,0:0:0:0:
120,309,91977,1,8,0:0:0:0:
180,116,92137,1,8,0:0:0:0:
318,263,92298,1,0,0:0:0:0:
318,263,92378,1,0,0:0:0:0:
318,263,92458,1,2,0:0:0:0:
111,327,92619,1,8,0:0:0:0:
367,176,92779,5,8,0:0:0:0:
378,173,92859,1,0,0:0:0:0:
388,177,92939,1,8,0:0:0:0:
398,183,93020,1,8,0:0:0:0:
405,195,93100,2,0,P|413:224|407:248,1,45,4|0,0:0|0:0,0:0:0:0:
282,361,93260,37,2,0:0:0:0:
268,347,93341,1,2,0:0:0:0:
263,325,93421,1,8,0:0:0:0:
267,303,93501,1,0,0:0:0:0:
280,284,93581,2,0,P|313:262|332:265,1,45,4|0,0:0|0:0,0:0:0:0:
512,328,93742,5,8,0:0:0:0:
495,354,93822,1,8,0:0:0:0:
468,371,93902,1,0,0:0:0:0:
436,375,93982,1,0,0:0:0:0:
407,360,94062,2,0,P|391:345|381:314,1,45,4|8,0:0|0:0,0:0:0:0:
309,146,94223,2,0,P|304:173|286:197,1,45
177,295,94383,38,0,P|125:301|90:254,1,99.0000030212403,4|0,0:0|0:0,0:0:0:0:
29,225,94624,1,0,0:0:0:0:
21,214,94704,2,0,P|23:182|44:160,1,49.5000015106202,4|0,0:0|0:0,0:0:0:0:
188,93,94865,2,0,P|159:107|129:100,1,49.5000015106202,4|0,0:0|0:0,0:0:0:0:
1,8,95025,2,0,P|27:25|36:54,1,49.5000015106202,4|8,0:0|0:0,0:0:0:0:
10,199,95185,2,0,P|18:176|38:157,1,49.5000015106202,8|8,0:0|0:0,0:0:0:0:
226,75,95346,5,8,0:0:0:0:
264,79,95426,1,8,0:0:0:0:
297,100,95506,1,8,0:0:0:0:
311,137,95587,1,8,0:0:0:0:
305,179,95667,37,4,0:0:0:0:
262,155,95747,1,0,0:0:0:0:
246,108,95827,1,8,0:0:0:0:
265,63,95907,1,0,0:0:0:0:
306,37,95988,1,2,0:0:0:0:
354,42,96068,1,0,0:0:0:0:
390,74,96148,1,8,0:0:0:0:
403,120,96228,1,0,0:0:0:0:
384,164,96308,5,2,0:0:0:0:
368,198,96389,1,0,0:0:0:0:
375,235,96469,1,8,0:0:0:0:
400,262,96549,1,0,0:0:0:0:
436,271,96629,2,0,L|489:251,1,53.9999983520508,2|0,0:0|0:0,0:0:0:0:
295,160,96790,37,8,0:0:0:0:
274,155,96870,1,0,0:0:0:0:
254,161,96950,2,0,P|232:175|220:206,1,53.9999983520508,2|0,0:0|0:0,0:0:0:0:
306,321,97111,1,8,0:0:0:0:
263,297,97191,1,0,0:0:0:0:
213,298,97271,1,2,0:0:0:0:
174,328,97351,1,0,0:0:0:0:
151,368,97431,1,8,0:0:0:0:
110,381,97512,1,0,0:0:0:0:
78,371,97592,2,0,P|58:350|53:322,3,53.9999983520508,6|0|8|0,0:0|0:0|0:0|0:0,0:0:0:0:
0,270,97913,2,0,P|8:242|29:223,3,53.9999983520508,6|0|8|0,0:0|0:0|0:0|0:0,0:0:0:0:
34,132,98234,5,6,0:0:0:0:
59,90,98314,1,0,0:0:0:0:
102,69,98394,1,8,0:0:0:0:
150,72,98474,1,0,0:0:0:0:
188,102,98554,1,2,0:0:0:0:
208,146,98635,1,0,0:0:0:0:
197,193,98715,1,8,0:0:0:0:
164,228,98795,1,0,0:0:0:0:
117,240,98875,37,2,0:0:0:0:
106,208,98956,1,0,0:0:0:0:
95,177,99036,1,8,0:0:0:0:
84,146,99116,1,0,0:0:0:0:
74,115,99196,2,0,L|48:33,1,53.9999983520508,2|0,0:0|0:0,0:0:0:0:
154,8,99357,5,8,0:0:0:0:
191,0,99437,1,0,0:0:0:0:
226,13,99517,1,2,0:0:0:0:
241,47,99597,1,0,0:0:0:0:
265,76,99677,1,8,0:0:0:0:
301,87,99758,1,0,0:0:0:0:
337,77,99838,37,2,0:0:0:0:
349,66,99918,1,0,0:0:0:0:
354,50,99998,2,0,P|349:20|329:0,1,53.9999983520508,8|0,0:0|0:0,0:0:0:0:
309,175,100159,1,6,0:0:0:0:
313,191,100239,1,0,0:0:0:0:
324,203,100319,2,0,P|352:213|379:206,1,53.9999983520508,8|0,0:0|0:0,0:0:0:0:
194,114,100480,2,0,P|170:133|163:160,3,53.9999983520508,6|0|8|0,0:0|0:0|0:0|0:0,0:0:0:0:
80,264,100800,5,6,0:0:0:0:
130,244,100881,1,0,0:0:0:0:
182,257,100961,1,8,0:0:0:0:
205,305,101041,1,0,0:0:0:0:
240,345,101121,1,2,0:0:0:0:
293,357,101202,1,0,0:0:0:0:
340,332,101282,37,8,0:0:0:0:
311,307,101362,1,0,0:0:0:0:
273,300,101442,1,2,0:0:0:0:
237,312,101522,1,0,0:0:0:0:
213,341,101603,1,8,0:0:0:0:
176,351,101683,1,0,0:0:0:0:
141,336,101763,2,0,P|121:304|116:276,3,53.9999983520508,2|0|8|0,0:0|0:0|0:0|0:0,0:0:0:0:
175,172,102084,5,6,0:0:0:0:
136,207,102164,1,0,0:0:0:0:
83,216,102244,1,8,0:0:0:0:
35,194,102325,1,0,0:0:0:0:
10,145,102405,1,2,0:0:0:0:
24,93,102485,1,0,0:0:0:0:
62,61,102565,1,8,0:0:0:0:
111,56,102645,1,0,0:0:0:0:
153,76,102726,2,0,P|128:91|119:126,3,53.9999983520508,2|0|8|0,0:0|0:0|0:0|0:0,0:0:0:0:
168,176,103046,2,0,P|169:204|195:230,3,53.9999983520508,2|0|8|0,0:0|0:0|0:0|0:0,0:0:0:0:
259,267,103367,37,6,0:0:0:0:
298,228,103448,1,0,0:0:0:0:
353,221,103528,1,8,0:0:0:0:
400,249,103608,1,0,0:0:0:0:
419,299,103688,1,2,0:0:0:0:
402,349,103768,1,0,0:0:0:0:
358,379,103849,5,8,0:0:0:0:
351,336,103929,1,0,0:0:0:0:
339,294,104009,1,2,0:0:0:0:
329,252,104089,1,0,0:0:0:0:
318,210,104169,2,0,L|303:141,1,53.9999983520508,8|0,0:0|0:0,0:0:0:0:
408,48,104330,37,2,0:0:0:0:
423,43,104410,1,0,0:0:0:0:
438,48,104490,1,8,0:0:0:0:
448,60,104571,1,0,0:0:0:0:
450,74,104651,2,0,B|420:93|388:68|396:63|371:39|328:52,1,125.999996154785,6|0,0:0|0:0,0:0:0:0:
271,10,104891,1,0,0:0:0:0:
271,10,104972,2,0,P|236:32|231:63,1,62.9999980773926,8|0,0:0|0:0,0:0:0:0:
152,120,105132,2,0,P|129:53|68:149,1,251.999992309571,12|0,0:0|0:0,0:0:0:0:
120,224,105533,1,0,0:0:0:0:
120,224,105613,2,0,P|92:221|61:245,3,45,8|8|8|0,0:0|0:0|0:0|0:0,0:0:0:0:
0,378,105934,5,4,0:0:0:0:
23,342,106014,1,0,0:0:0:0:
63,328,106095,1,8,0:0:0:0:
105,334,106175,1,0,0:0:0:0:
139,362,106255,2,0,P|165:380|201:384,1,58.4999973220826,2|0,0:0|0:0,0:0:0:0:
240,322,106415,2,0,P|268:309|289:279,1,58.4999973220826,8|0,0:0|0:0,0:0:0:0:
229,224,106576,37,2,0:0:0:0:
213,190,106656,1,0,0:0:0:0:
183,167,106736,1,8,0:0:0:0:
144,161,106816,1,0,0:0:0:0:
108,174,106897,2,0,P|84:194|71:232,1,58.4999973220826,2|0,0:0|0:0,0:0:0:0:
28,95,107057,5,8,0:0:0:0:
31,76,107137,1,0,0:0:0:0:
45,58,107218,2,0,P|71:42|113:43,1,58.4999973220826,2|0,0:0|0:0,0:0:0:0:
189,62,107378,1,8,0:0:0:0:
231,85,107458,1,0,0:0:0:0:
279,80,107538,1,2,0:0:0:0:
316,50,107619,1,0,0:0:0:0:
340,15,107699,1,8,0:0:0:0:
379,0,107779,1,0,0:0:0:0:
413,6,107859,2,0,P|438:17|456:44,3,58.4999973220826,6|0|8|0,0:0|0:0|0:0|0:0,0:0:0:0:
512,128,108180,2,0,P|487:139|470:167,3,58.4999973220826,6|0|8|0,0:0|0:0|0:0|0:0,0:0:0:0:
420,253,108501,37,6,0:0:0:0:
403,207,108581,1,0,0:0:0:0:
364,178,108661,1,8,0:0:0:0:
315,175,108742,1,0,0:0:0:0:
273,199,108822,2,0,P|287:234|284:259,1,58.4999973220826,2|0,0:0|0:0,0:0:0:0:
246,345,108982,2,0,P|236:320|202:301,1,58.4999973220826,8|0,0:0|0:0,0:0:0:0:
128,264,109143,5,2,0:0:0:0:
96,271,109223,1,0,0:0:0:0:
64,278,109303,1,8,0:0:0:0:
32,286,109383,1,0,0:0:0:0:
0,293,109464,2,0,L|67:321,1,58.4999973220826,2|0,0:0|0:0,0:0:0:0:
126,174,109624,37,8,0:0:0:0:
113,158,109704,1,0,0:0:0:0:
94,151,109784,2,0,P|63:149|25:170,1,58.4999973220826,2|0,0:0|0:0,0:0:0:0:
154,296,109945,5,8,0:0:0:0:
184,309,110025,1,0,0:0:0:0:
215,303,110105,1,2,0:0:0:0:
236,280,110185,1,0,0:0:0:0:
256,255,110266,1,8,0:0:0:0:
286,244,110346,1,0,0:0:0:0:
318,247,110426,2,0,P|346:270|357:293,3,58.4999973220826,6|0|8|0,0:0|0:0|0:0|0:0,0:0:0:0:
427,357,110747,2,0,P|431:330|447:304,3,58.4999973220826,6|0|8|0,0:0|0:0|0:0|0:0,0:0:0:0:
481,227,111068,37,6,0:0:0:0:
507,179,111148,1,0,0:0:0:0:
499,125,111228,1,8,0:0:0:0:
459,88,111308,1,0,0:0:0:0:
404,83,111389,1,2,0:0:0:0:
356,109,111469,1,0,0:0:0:0:
340,160,111549,5,8,0:0:0:0:
382,166,111629,1,0,0:0:0:0:
422,149,111710,1,2,0:0:0:0:
441,110,111790,1,0,0:0:0:0:
436,67,111870,1,8,0:0:0:0:
410,32,111950,1,0,0:0:0:0:
366,23,112030,2,0,P|333:28|308:51,3,58.4999973220826,2|0|8|0,0:0|0:0|0:0|0:0,0:0:0:0:
273,118,112351,37,6,0:0:0:0:
235,88,112431,1,0,0:0:0:0:
187,93,112512,1,8,0:0:0:0:
151,124,112592,1,0,0:0:0:0:
140,171,112672,1,2,0:0:0:0:
152,218,112752,1,0,0:0:0:0:
135,264,112833,1,8,0:0:0:0:
95,291,112913,1,0,0:0:0:0:
51,289,112993,1,2,0:0:0:0:
15,268,113073,1,0,0:0:0:0:
1,227,113153,1,8,0:0:0:0:
13,192,113234,1,0,0:0:0:0:
40,173,113314,2,0,P|38:209|54:238,1,58.4999973220826,2|0,0:0|0:0,0:0:0:0:
120,361,113474,2,0,P|118:325|134:297,1,58.4999973220826,8|0,0:0|0:0,0:0:0:0:
222,194,113635,5,6,0:0:0:0:
250,236,113715,1,0,0:0:0:0:
296,250,113795,1,8,0:0:0:0:
341,229,113875,1,0,0:0:0:0:
367,189,113956,1,2,0:0:0:0:
407,162,114036,1,0,0:0:0:0:
455,160,114116,1,8,0:0:0:0:
495,183,114196,1,0,0:0:0:0:
511,225,114276,1,2,0:0:0:0:
500,266,114357,1,0,0:0:0:0:
469,288,114437,1,8,0:0:0:0:
431,289,114517,1,0,0:0:0:0:
403,270,114597,2,0,P|386:247|379:214,3,58.4999973220826,2|0|8|0,0:0|0:0|0:0|0:0,0:0:0:0:
313,166,114918,38,0,P|322:107|282:63,1,116.999994644165,12|0,0:0|0:0,0:0:0:0:
211,90,115159,1,0,0:0:0:0:
202,99,115239,2,0,P|194:140|219:176,1,58.4999973220826,2|0,0:0|0:0,0:0:0:0:
322,280,115399,2,0,B|258:253|211:300|227:325|184:377|108:345,1,233.999989288331,12|8,0:0|0:0,0:0:0:0:
289,384,115881,1,2,0:0:0:0:
73,283,116041,5,8,0:0:0:0:
73,283,116121,1,8,0:0:0:0:
73,283,116202,2,0,P|59:231|43:187,1,90,12|8,0:0|0:0,0:0:0:0:
96,101,116522,2,0,P|101:76|110:52,2,45,2|2|8,0:0|0:0|0:0,0:0:0:0:
184,168,116843,1,2,0:0:0:0:
238,72,117004,1,8,0:0:0:0:
330,127,117164,1,2,0:0:0:0:
330,127,117244,1,2,0:0:0:0:
330,127,117325,1,8,0:0:0:0:
373,33,117485,38,0,P|424:32|456:60,1,90,4|8,0:0|0:0,0:0:0:0:
354,225,117806,1,2,0:0:0:0:
354,225,117886,1,0,0:0:0:0:
354,225,117966,1,8,0:0:0:0:
238,72,118127,1,2,0:0:0:0:
462,135,118287,2,0,P|435:149|417:170,1,49.5000015106202,8|8,0:0|0:0,0:0:0:0:
220,227,118448,2,0,P|240:207|261:196,1,49.5000015106202,8|8,0:0|0:0,0:0:0:0:
388,46,118608,2,0,P|362:58|343:81,1,49.5000015106202,8|8,0:0|0:0,0:0:0:0:
253,331,118768,5,4,0:0:0:0:
175,1,119250,37,4,0:0:0:0:
253,331,119891,6,0,B|308:307|356:342|337:367|383:401|449:377,1,198.000006042481,4|0,0:0|0:0,0:0:0:0:
501,185,120373,38,0,P|492:214|491:239,3,49.5000015106202,8|2|0|0,0:0|0:0|0:0|0:0,0:0:0:0:
395,269,120693,2,0,P|397:244|405:221,3,49.5000015106202,8|2|0|0,0:0|0:0|0:0|0:0,0:0:0:0:
333,146,121014,2,0,P|330:170|322:193,3,49.5000015106202,8|0|0|0,3:0|3:0|0:0|0:0,0:0:0:0:
220,304,121335,6,0,B|206:316|196:339|196:339|159:298|170:235,1,144,4|2,0:0|0:0,0:0:0:0:
217,167,121816,1,0,0:0:0:0:
138,112,121977,2,0,P|100:110|69:133,1,72,2|0,0:0|2:0,0:0:0:0:
24,223,122298,2,0,P|62:225|93:202,1,72,2|0,0:0|0:0,0:0:0:0:
146,97,122619,38,0,B|191:84|191:84|206:89|206:89|266:71,1,108,4|0,0:0|2:0,0:0:0:0:
274,55,122939,2,0,L|357:75,1,72,2|0,0:0|0:0,0:0:0:0:
377,226,123260,5,8,0:0:0:0:
341,235,123341,1,8,0:0:0:0:
307,224,123421,1,0,0:0:0:0:
281,198,123501,1,0,0:0:0:0:
275,162,123581,1,0,0:0:0:0:
293,159,123661,1,0,0:0:0:0:
307,169,123742,2,0,P|322:192|322:211,1,36
202,337,123902,37,8,0:0:0:0:
174,351,123982,1,0,0:0:0:0:
138,351,124062,1,2,0:0:0:0:
107,331,124143,1,2,0:0:0:0:
93,296,124223,1,2,0:0:0:0:
104,257,124303,1,2,0:0:0:0:
132,228,124383,1,0,0:0:0:0:
150,189,124464,1,0,0:0:0:0:
140,147,124544,1,8,0:0:0:0:
109,118,124624,1,0,0:0:0:0:
64,116,124704,1,8,0:0:0:0:
26,142,124784,1,8,0:0:0:0:
12,185,124865,2,0,P|20:210|38:231,3,45,8|2|0|0,0:0|0:0|0:0|0:0,0:0:0:0:
136,261,125185,5,8,0:0:0:0:
179,236,125266,1,2,0:0:0:0:
227,243,125346,1,8,0:0:0:0:
258,281,125426,1,8,0:0:0:0:
268,329,125506,1,8,0:0:0:0:
303,363,125587,1,8,0:0:0:0:
352,367,125667,1,8,0:0:0:0:
402,347,125747,1,8,0:0:0:0:
423,297,125827,1,8,0:0:0:0:
407,245,125907,1,8,0:0:0:0:
359,217,125988,1,2,0:0:0:0:
321,177,126068,1,2,0:0:0:0:
317,123,126148,1,2,0:0:0:0:
347,77,126228,1,8,0:0:0:0:
402,57,126308,1,8,0:0:0:0:
459,71,126389,1,8,0:0:0:0:
491,119,126469,38,0,B|411:164|355:111|389:84|320:26|248:66,1,270,4|8,0:0|0:0,0:0:0:0:
170,274,127111,1,2,0:0:0:0:
286,151,127271,1,8,0:0:0:0:
77,195,127431,2,0,P|103:196|125:212,1,45
247,334,127592,6,0,B|299:354|335:313|323:310|353:260|417:277,1,180,8|8,0:0|0:0,0:0:0:0:
482,236,128073,2,0,P|505:253|516:286,2,45,0|2|8,0:0|0:0|0:0,0:0:0:0:
325,185,128394,1,2,0:0:0:0:
451,348,128554,1,8,0:0:0:0:
469,146,128715,1,2,0:0:0:0:
469,146,128795,1,2,0:0:0:0:
469,146,128875,1,8,0:0:0:0:
341,279,129036,38,0,P|287:293|219:234,1,135,4|0,0:0|0:0,0:0:0:0:
198,178,129357,2,0,P|163:154|107:161,1,90,0|8,0:0|0:0,0:0:0:0:
192,376,129677,1,2,0:0:0:0:
302,201,129838,1,8,0:0:0:0:
98,283,129998,2,0,P|121:279|144:283,1,45,2|2,0:0|0:0,0:0:0:0:
283,361,130159,1,8,0:0:0:0:
194,159,130319,6,0,B|207:117|207:117|206:109|206:109|219:66,1,90,4|8,0:0|0:0,0:0:0:0:
83,293,130640,2,0,B|96:335|96:335|95:343|95:343|108:386,1,90,4|8,0:0|0:0,0:0:0:0:
62,104,130961,37,4,0:0:0:0:
176,262,131121,1,8,0:0:0:0:
123,0,131282,5,4,0:0:0:0:
54,202,131442,1,8,0:0:0:0:
216,63,131603,38,0,P|273:63|302:105,1,90,2|8,0:0|0:0,0:0:0:0:
343,187,131923,2,0,P|345:211|334:238,2,45,0|2|8,0:0|0:0|0:0,0:0:0:0:
322,0,132244,1,6,0:0:0:0:
227,160,132405,1,8,0:0:0:0:
403,96,132565,1,0,0:0:0:0:
403,96,132645,1,2,0:0:0:0:
403,96,132726,1,8,0:0:0:0:
434,302,132886,5,6,0:0:0:0:
332,169,133046,1,8,0:0:0:0:
512,217,133207,2,0,P|479:216|451:230,1,45,0|2,0:0|0:0,0:0:0:0:
341,296,133367,2,0,B|289:316|253:275|266:267|235:222|171:239,1,180,8|8,0:0|0:0,0:0:0:0:
103,330,133849,1,2,0:0:0:0:
120,344,133929,1,2,0:0:0:0:
142,348,134009,2,0,P|175:341|191:316,1,45,8|2,0:0|0:0,0:0:0:0:
54,136,134169,38,0,B|33:128|17:112|17:112|49:227,1,135,6|0,0:0|0:0,0:0:0:0:
21,275,134490,2,0,P|13:298|8:327,2,45,0|2|8,0:0|0:0|0:0,0:0:0:0:
151,166,134811,2,0,P|158:126|124:70,1,90,2|8,0:0|0:0,0:0:0:0:
182,333,135132,2,0,P|204:346|226:340,3,45,0|0|8|0,0:0|0:0|0:0|0:0,0:0:0:0:
273,265,135453,6,0,P|290:250|326:242,1,45,12|0,0:0|0:0,0:0:0:0:
457,368,135613,2,0,P|435:360|410:333,1,45,2|2,0:0|0:0,0:0:0:0:
442,139,135774,2,0,P|446:161|435:196,1,45,8|0,0:0|0:0,0:0:0:0:
259,261,135934,1,8,0:0:0:0:
267,250,136014,1,0,0:0:0:0:
278,243,136095,2,0,P|301:230|329:226,1,45,2|2,0:0|0:0,0:0:0:0:
457,384,136255,2,0,P|435:376|410:349,1,45,12|0,0:0|0:0,0:0:0:0:
455,128,136415,38,0,P|459:150|448:185,1,45,2|2,0:0|0:0,0:0:0:0:
331,351,136576,2,0,P|335:328|324:293,1,45,8|8,0:0|0:0,0:0:0:0:
184,93,136736,6,0,B|213:77|215:42|215:42|246:99|209:151|197:131|149:167|175:240,1,270,12|8,0:0|0:0,0:0:0:0:
209,380,137378,1,2,0:0:0:0:
280,223,137538,1,8,0:0:0:0:
108,341,137699,2,0,P|125:311|127:289,1,45,0|2,0:0|0:0,0:0:0:0:
34,150,137859,38,0,B|4:153|-18:125|-18:125|12:254,1,180,8|8,0:0|0:0,0:0:0:0:
133,75,138341,2,0,L|147:12,2,45,0|2|8,0:0|0:0|0:0,0:0:0:0:
198,167,138661,1,0,0:0:0:0:
290,109,138822,1,8,0:0:0:0:
240,19,138982,1,2,0:0:0:0:
240,19,139062,1,2,0:0:0:0:
240,19,139143,1,8,0:0:0:0:
377,123,139303,5,4,0:0:0:0:
411,82,139383,1,2,0:0:0:0:
462,79,139464,1,8,0:0:0:0:
499,103,139544,1,2,0:0:0:0:
511,141,139624,1,2,0:0:0:0:
498,174,139704,1,2,0:0:0:0:
475,195,139784,2,0,P|443:202|420:191,1,45,8|2,0:0|0:0,0:0:0:0:
329,261,139945,37,2,0:0:0:0:
280,237,140025,1,2,0:0:0:0:
231,254,140105,1,8,0:0:0:0:
213,292,140185,1,2,0:0:0:0:
184,323,140266,1,2,0:0:0:0:
149,332,140346,1,2,0:0:0:0:
119,322,140426,2,0,P|100:301|100:264,1,45,8|2,0:0|0:0,0:0:0:0:
20,129,140587,5,2,0:0:0:0:
37,78,140667,1,2,0:0:0:0:
82,48,140747,1,8,0:0:0:0:
135,47,140827,1,2,0:0:0:0:
181,73,140907,1,2,0:0:0:0:
195,125,140988,1,2,0:0:0:0:
177,176,141068,1,8,0:0:0:0:
134,208,141148,1,2,0:0:0:0:
83,207,141228,38,0,B|61:126|61:126|64:113|64:113|40:19,1,188.999994232178,12|2,0:0|0:0,0:0:0:0:
12,0,141549,2,0,B|34:81|34:81|31:94|31:94|55:188,1,188.999994232178,12|2,0:0|0:0,0:0:0:0:
0,289,141870,6,0,P|52:278|88:313,1,90,4|8,0:0|0:0,0:0:0:0:
169,338,142191,2,0,P|181:363|173:390,2,45,0|2|8,0:0|0:0|0:0,0:0:0:0:
72,197,142512,1,4,0:0:0:0:
247,278,142672,1,8,0:0:0:0:
90,384,142833,1,0,0:0:0:0:
90,384,142913,1,2,0:0:0:0:
90,384,142993,1,8,0:0:0:0:
196,179,143153,38,0,B|236:171|236:171|243:175|243:175|294:164,1,90,4|8,0:0|0:0,0:0:0:0:
383,264,143474,2,0,L|329:245,1,45,0|2,0:0|0:0,0:0:0:0:
407,97,143635,2,0,P|379:119|370:178,1,90,8|12,0:0|0:0,0:0:0:0:
411,348,143956,1,12,0:0:0:0:
276,199,144116,1,8,0:0:0:0:
263,384,144276,5,2,0:0:0:0:
263,384,144357,1,2,0:0:0:0:
263,384,144437,2,0,L|291:269,1,99.0000030212403,4|2,0:0|0:0,0:0:0:0:
163,159,144758,37,8,0:0:0:0:
199,309,144918,1,2,0:0:0:0:
52,232,145079,5,8,0:0:0:0:
259,189,145239,1,2,0:0:0:0:
117,377,145399,37,8,0:0:0:0:
58,92,145560,2,0,L|44:158,1,49.5000015106202,2|2,0:0|0:0,0:0:0:0:
213,324,145720,6,0,P|259:326|295:291,1,99.0000030212403,4|2,0:0|0:0,0:0:0:0:
306,67,146041,37,8,0:0:0:0:
253,203,146202,1,2,0:0:0:0:
320,52,146362,5,8,0:0:0:0:
366,251,146522,2,0,L|375:189,1,49.5000015106202,8|8,0:0|0:0,0:0:0:0:
465,59,146683,37,8,0:0:0:0:
380,270,146843,2,0,L|389:208,1,49.5000015106202,8|8,0:0|0:0,0:0:0:0:
306,35,147004,5,4,0:0:0:0:
253,19,147084,1,0,0:0:0:0:
202,39,147164,1,0,0:0:0:0:
183,90,147244,1,0,0:0:0:0:
207,139,147325,2,0,P|217:116|245:93,1,49.5000015106202,8|0,0:0|0:0,0:0:0:0:
102,22,147485,37,0,0:0:0:0:
54,46,147565,1,0,0:0:0:0:
34,94,147645,1,8,0:0:0:0:
55,139,147726,1,0,0:0:0:0:
94,161,147806,1,0,0:0:0:0:
122,192,147886,1,0,0:0:0:0:
126,231,147966,1,8,0:0:0:0:
97,266,148046,1,0,0:0:0:0:
56,273,148127,1,0,0:0:0:0:
25,257,148207,1,0,0:0:0:0:
12,227,148287,6,0,L|24:179,1,49.5000015106202,4|0,0:0|0:0,0:0:0:0:
119,33,148448,2,0,L|133:86,1,49.5000015106202,4|0,0:0|0:0,0:0:0:0:
229,249,148608,2,0,L|243:196,3,49.5000015106202,4|0|0|0,0:0|0:0|0:0|0:0,0:0:0:0:
308,155,148929,2,0,B|354:144|383:173|369:183|400:216|448:198,1,148.50000453186,4|0,0:0|0:0,0:0:0:0:
496,145,149250,6,0,L|484:99,5,33.0000010070801,8|0|0|0|0|0,0:0|0:0|0:0|0:0|0:0|0:0,0:0:0:0:
439,34,149571,21,4,0:0:0:0:
156,135,149891,1,2,0:0:0:0:
439,34,150212,1,2,0:0:0:0:
217,61,150533,5,2,0:0:0:0:
377,104,150693,1,6,0:0:0:0:
156,135,151014,37,6,0:0:0:0:
439,34,151335,1,6,0:0:0:0:
299,82,151496,5,4,0:0:0:0:
299,82,152137,38,0,L|320:183,1,90,4|8,0:0|0:0,0:0:0:0:
411,230,152458,2,0,L|424:177,2,45,0|2|8,0:0|0:0|0:0,0:0:0:0:
357,309,152779,1,2,0:0:0:0:
266,261,152939,1,8,0:0:0:0:
211,344,153100,1,0,0:0:0:0:
211,344,153180,1,2,0:0:0:0:
211,344,153260,1,8,0:0:0:0:
119,284,153421,6,0,P|91:236|111:194,1,90,4|8,0:0|0:0,0:0:0:0:
18,128,153742,1,0,0:0:0:0:
18,128,153822,1,2,0:0:0:0:
18,128,153902,2,0,B|69:144|104:112|91:101|132:61|195:83,1,180,8|8,0:0|0:0,0:0:0:0:
249,155,154383,1,2,0:0:0:0:
270,163,154464,1,2,0:0:0:0:
291,159,154544,2,0,P|319:141|326:112,1,45,8|2,0:0|0:0,0:0:0:0:
420,98,154704,38,0,B|428:90|431:73|431:73|448:154,1,90,4|8,0:0|0:0,0:0:0:0:
472,219,155025,1,0,0:0:0:0:
472,219,155105,1,2,0:0:0:0:
472,219,155185,2,0,B|494:209|509:187|509:187|486:343,1,180,8|8,0:0|0:0,0:0:0:0:
411,358,155667,1,0,0:0:0:0:
391,346,155747,1,2,0:0:0:0:
370,346,155827,2,0,P|338:358|326:385,1,45,8|0,0:0|0:0,0:0:0:0:
257,211,155988,6,0,L|318:231,1,45,4|8,0:0|0:0,0:0:0:0:
168,322,156148,2,0,L|107:342,1,45,8|8,0:0|0:0,0:0:0:0:
266,198,156308,2,0,L|327:218,1,45,8|8,0:0|0:0,0:0:0:0:
100,261,156469,2,0,B|28:282|28:282|45:285|57:298,2,107.999996704102,4|8|8,0:0|0:0|0:0,0:0:0:0:
0,188,157271,38,0,P|12:121|76:120,1,144,4|8,0:0|0:0,0:0:0:0:
158,166,157752,1,2,0:0:0:0:
200,83,157913,2,0,B|234:76|254:92|248:98|271:121|300:116,1,108,8|0,0:0|0:0,0:0:0:0:
331,103,158234,2,0,P|356:72|356:23,1,72,2|0,0:0|0:0,0:0:0:0:
247,199,158554,6,0,L|276:313,1,108,4|0,0:0|0:0,0:0:0:0:
301,330,158875,2,0,L|324:258,1,72,4|0,0:0|0:0,0:0:0:0:
410,195,159196,1,8,0:0:0:0:
410,214,159276,1,0,0:0:0:0:
400,229,159357,1,0,0:0:0:0:
418,367,159517,1,4,0:0:0:0:
418,348,159597,1,0,0:0:0:0:
428,333,159677,1,0,0:0:0:0:
493,233,159838,37,0,0:0:0:0:
320,293,159998,1,8,0:0:0:0:
501,248,160159,1,8,0:0:0:0:
360,105,160319,1,0,0:0:0:0:
360,105,160399,1,0,0:0:0:0:
360,105,160480,1,8,0:0:0:0:
309,301,160640,1,8,0:0:0:0:
171,185,160800,5,8,0:0:0:0:
183,223,160881,1,2,0:0:0:0:
195,261,160961,1,2,0:0:0:0:
208,299,161041,1,2,0:0:0:0:
221,336,161121,37,4,0:0:0:0:
291,49,161603,5,4,0:0:0:0:
213,218,161923,37,4,0:0:0:0:
297,166,162084,1,4,0:0:0:0:
117,122,162244,5,4,0:0:0:0:
397,265,162405,1,4,0:0:0:0:
291,49,162726,37,4,0:0:0:0:
221,336,162886,1,4,0:0:0:0:
117,122,163046,5,4,0:0:0:0:
138,112,163127,1,2,0:0:0:0:
159,113,163207,2,0,P|187:124|201:154,1,36,2|2,0:0|0:0,0:0:0:0:
395,262,163367,1,2,0:0:0:0:
374,272,163448,1,0,0:0:0:0:
353,271,163528,2,0,P|326:259|312:229,1,36
256,192,163688,38,0,L|269:152,2,36,2|2|2,0:0|0:0|0:0,0:0:0:0:
183,235,164651,1,2,0:0:0:0:
191,243,164811,2,0,L|199:267,1,18,2|0,0:0|0:0,0:0:0:0:
266,293,165132,2,0,P|259:314|261:333,1,36,2|2,0:0|0:0,0:0:0:0:
351,278,165533,1,2,0:0:0:0:
351,278,165613,2,0,L|358:256,1,18,2|2,0:0|0:0,0:0:0:0:
412,337,165934,2,0,L|419:359,1,18,2|2,0:0|0:0,0:0:0:0:
465,230,166255,6,0,P|449:219|427:217,1,36,2|2,0:0|0:0,0:0:0:0:
374,143,166897,2,0,P|354:146|337:160,1,36,2|2,0:0|0:0,0:0:0:0:
256,192,167378,38,0,B|234:192|215:228|215:228|250:72,1,215.999993408203,6|0,0:0|0:0,0:0:0:0:
258,46,167752,1,2,0:0:0:0:
259,39,167806,1,2,0:0:0:0:
260,34,167859,2,0,L|279:96,3,53.9999983520508,8|0|0|0,0:0|0:0|0:0|0:0,0:0:0:0:
345,119,168180,22,0,L|357:160,5,35.9999989013672,8|0|0|0|0|0,0:0|0:0|0:0|0:0|0:0|0:0,0:0:0:0:
417,202,168501,37,8,0:0:0:0:
417,202,168822,37,6,0:0:0:0:
380,162,168902,1,0,0:0:0:0:
326,155,168982,1,8,0:0:0:0:
279,182,169062,1,0,0:0:0:0:
267,235,169143,1,2,0:0:0:0:
292,282,169223,1,0,0:0:0:0:
339,307,169303,5,8,0:0:0:0:
303,294,169383,1,0,0:0:0:0:
266,302,169464,1,2,0:0:0:0:
245,333,169544,1,0,0:0:0:0:
218,362,169624,1,8,0:0:0:0:
181,368,169704,1,0,0:0:0:0:
144,358,169784,2,0,P|117:331|106:305,3,53.9999983520508,2|0|8|0,0:0|0:0|0:0|0:0,0:0:0:0:
114,234,170105,37,6,0:0:0:0:
85,187,170185,1,0,0:0:0:0:
92,133,170266,1,8,0:0:0:0:
138,103,170346,1,0,0:0:0:0:
191,108,170426,1,2,0:0:0:0:
234,138,170506,1,0,0:0:0:0:
285,142,170587,1,8,0:0:0:0:
320,113,170667,1,0,0:0:0:0:
326,73,170747,2,0,P|303:51|270:45,3,53.9999983520508,2|0|8|0,0:0|0:0|0:0|0:0,0:0:0:0:
423,159,171068,2,0,P|448:150|466:130,3,53.9999983520508,2|0|8|0,0:0|0:0|0:0|0:0,0:0:0:0:
291,198,171389,5,6,0:0:0:0:
254,238,171469,1,0,0:0:0:0:
251,294,171549,1,8,0:0:0:0:
282,339,171629,1,0,0:0:0:0:
334,354,171710,1,2,0:0:0:0:
382,334,171790,1,0,0:0:0:0:
404,285,171870,37,8,0:0:0:0:
395,242,171950,1,0,0:0:0:0:
386,199,172030,1,2,0:0:0:0:
377,156,172111,1,0,0:0:0:0:
368,114,172191,2,0,L|354:174,1,53.9999983520508,8|0,0:0|0:0,0:0:0:0:
276,286,172351,5,2,0:0:0:0:
261,291,172431,1,0,0:0:0:0:
246,286,172512,1,8,0:0:0:0:
236,274,172592,1,0,0:0:0:0:
234,260,172672,2,0,P|181:215|121:230,1,125.999996154785,6|0,0:0|0:0,0:0:0:0:
54,232,172913,1,0,0:0:0:0:
54,232,172993,2,0,P|35:261|34:312,1,62.9999980773926,8|0,0:0|0:0,0:0:0:0:
159,359,173153,2,0,P|149:274|94:115,1,251.999992309571,12|0,0:0|0:0,0:0:0:0:
142,47,173554,1,0,0:0:0:0:
142,47,173635,2,0,P|145:17|161:-8,3,45,8|8|8|0,0:0|0:0|0:0|0:0,0:0:0:0:
230,76,173956,37,4,0:0:0:0:
253,40,174036,1,0,0:0:0:0:
293,26,174116,1,8,0:0:0:0:
335,32,174196,1,0,0:0:0:0:
369,60,174276,2,0,P|395:78|427:81,1,58.4999973220826,2|0,0:0|0:0,0:0:0:0:
504,127,174437,2,0,P|477:139|458:162,1,58.4999973220826,8|0,0:0|0:0,0:0:0:0:
427,253,174597,5,2,0:0:0:0:
401,230,174677,1,0,0:0:0:0:
366,231,174758,1,8,0:0:0:0:
338,251,174838,1,0,0:0:0:0:
326,284,174918,2,0,L|354:358,1,58.4999973220826,2|0,0:0|0:0,0:0:0:0:
206,196,175079,37,8,0:0:0:0:
198,214,175159,1,0,0:0:0:0:
200,237,175239,2,0,P|213:265|251:286,1,58.4999973220826,2|0,0:0|0:0,0:0:0:0:
264,119,175399,5,8,0:0:0:0:
229,93,175480,1,0,0:0:0:0:
186,92,175560,1,2,0:0:0:0:
149,114,175640,1,0,0:0:0:0:
128,152,175720,1,8,0:0:0:0:
96,183,175800,1,0,0:0:0:0:
53,188,175881,2,0,P|22:175|0:154,3,58.4999973220826,6|0|8|0,0:0|0:0|0:0|0:0,0:0:0:0:
12,81,176202,2,0,P|33:64|69:60,3,58.4999973220826,6|0|8|0,0:0|0:0|0:0|0:0,0:0:0:0:
143,9,176522,37,6,0:0:0:0:
188,23,176603,1,0,0:0:0:0:
215,60,176683,1,8,0:0:0:0:
207,106,176763,1,0,0:0:0:0:
168,131,176843,2,0,P|145:156|136:182,1,58.4999973220826,2|0,0:0|0:0,0:0:0:0:
76,233,177004,2,0,P|87:259|107:280,1,58.4999973220826,8|0,0:0|0:0,0:0:0:0:
174,341,177164,5,2,0:0:0:0:
190,310,177244,1,0,0:0:0:0:
221,293,177325,1,8,0:0:0:0:
255,297,177405,1,0,0:0:0:0:
282,319,177485,2,0,P|294:344|291:373,1,58.4999973220826,2|0,0:0|0:0,0:0:0:0:
292,213,177645,37,8,0:0:0:0:
308,199,177726,1,0,0:0:0:0:
328,197,177806,2,0,P|358:202|388:229,1,58.4999973220826,2|0,0:0|0:0,0:0:0:0:
434,354,177966,5,8,0:0:0:0:
421,324,178046,1,0,0:0:0:0:
427,293,178127,1,2,0:0:0:0:
450,272,178207,1,0,0:0:0:0:
475,252,178287,1,8,0:0:0:0:
486,222,178367,1,0,0:0:0:0:
483,190,178448,2,0,P|460:162|438:150,3,58.4999973220826,6|0|8|0,0:0|0:0|0:0|0:0,0:0:0:0:
394,88,178768,2,0,P|358:93|339:107,3,58.4999973220826,6|0|8|0,0:0|0:0|0:0|0:0,0:0:0:0:
315,209,179089,37,6,0:0:0:0:
266,185,179169,1,0,0:0:0:0:
213,194,179250,1,8,0:0:0:0:
184,239,179330,1,0,0:0:0:0:
149,278,179410,1,2,0:0:0:0:
96,286,179490,1,0,0:0:0:0:
50,258,179571,5,8,0:0:0:0:
81,228,179651,1,0,0:0:0:0:
123,218,179731,1,2,0:0:0:0:
164,232,179811,1,0,0:0:0:0:
198,261,179891,1,8,0:0:0:0:
241,264,179972,1,0,0:0:0:0:
281,245,180052,2,0,P|303:210|302:180,3,58.4999973220826,2|0|8|0,0:0|0:0|0:0|0:0,0:0:0:0:
241,137,180373,37,6,0:0:0:0:
217,94,180453,1,0,0:0:0:0:
226,46,180533,1,8,0:0:0:0:
265,18,180613,1,0,0:0:0:0:
313,16,180693,1,2,0:0:0:0:
353,43,180774,1,0,0:0:0:0:
366,89,180854,1,8,0:0:0:0:
352,135,180934,1,0,0:0:0:0:
327,171,181014,1,2,0:0:0:0:
325,209,181095,1,0,0:0:0:0:
347,245,181175,1,8,0:0:0:0:
378,260,181255,1,0,0:0:0:0:
415,254,181335,2,0,P|443:233|458:199,1,58.4999973220826,2|0,0:0|0:0,0:0:0:0:
264,108,181496,2,0,P|236:129|221:163,1,58.4999973220826,8|0,0:0|0:0,0:0:0:0:
99,330,181656,5,6,0:0:0:0:
137,359,181736,1,0,0:0:0:0:
185,357,181816,1,8,0:0:0:0:
222,325,181897,1,0,0:0:0:0:
231,277,181977,1,2,0:0:0:0:
206,235,182057,1,0,0:0:0:0:
158,223,182137,1,8,0:0:0:0:
111,238,182218,1,0,0:0:0:0:
66,220,182298,1,2,0:0:0:0:
46,178,182378,1,0,0:0:0:0:
64,143,182458,1,8,0:0:0:0:
96,127,182538,1,0,0:0:0:0:
128,133,182619,2,0,P|111:161|79:173,3,58.4999973220826,2|0|8|0,0:0|0:0|0:0|0:0,0:0:0:0:
32,63,182939,38,0,P|24:39|22:6,3,58.4999973220826,12|0|0|0,0:0|0:0|0:0|0:0,0:0:0:0:
165,53,183260,2,0,P|172:24|187:0,3,58.4999973220826,12|0|0|0,0:0|0:0|0:0|0:0,0:0:0:0:
226,155,183581,2,0,P|252:143|281:139,2,58.4999973220826,12|0|8,0:0|0:0|0:0,0:0:0:0:
158,253,183822,1,8,0:0:0:0:
158,253,183902,2,0,P|182:266|201:298,1,58.4999973220826,10|2,0:0|0:0,0:0:0:0:
271,370,184062,5,8,0:0:0:0:
271,370,184143,1,8,0:0:0:0:
271,370,184223,2,0,P|288:321|326:296,1,90,12|8,0:0|0:0,0:0:0:0:
398,225,184544,2,0,P|430:233|450:252,2,45,0|2|8,0:0|0:0|0:0,0:0:0:0:
296,177,184865,1,2,0:0:0:0:
363,92,185025,1,8,0:0:0:0:
267,35,185185,1,2,0:0:0:0:
267,35,185266,1,2,0:0:0:0:
267,35,185346,1,8,0:0:0:0:
202,124,185506,38,0,B|161:118|161:118|156:115|156:115|110:108,1,90,4|8,0:0|0:0,0:0:0:0:
13,183,185827,1,2,0:0:0:0:
13,183,185907,1,2,0:0:0:0:
13,183,185988,1,8,0:0:0:0:
67,275,186148,1,2,0:0:0:0:
132,68,186308,2,0,P|119:90|111:129,1,49.5000015106202,8|8,0:0|0:0,0:0:0:0:
175,324,186469,2,0,P|164:292|166:267,1,49.5000015106202,8|8,0:0|0:0,0:0:0:0:
259,65,186629,2,0,P|234:87|218:119,1,49.5000015106202,8|8,0:0|0:0,0:0:0:0:
278,372,186790,5,12,0:0:0:0:
13,183,187271,37,12,0:0:0:0:
278,372,187913,6,0,B|296:284|296:284|289:262|289:262|309:163,1,198.000006042481,12|2,0:0|0:0,0:0:0:0:
396,238,188394,1,8,0:0:0:0:
181,315,188554,1,0,0:0:0:0:
395,149,188715,1,0,0:0:0:0:
416,144,188795,1,0,0:0:0:0:
437,151,188875,2,0,P|462:172|467:203,1,49.5000015106202
286,88,189036,1,8,0:0:0:0:
271,72,189116,1,8,0:0:0:0:
266,50,189196,2,0,P|271:16|296:-2,1,49.5000015106202,8|8,0:0|0:0,0:0:0:0:
283,207,189357,38,0,P|228:235|191:227,1,90,8|8,0:0|0:0,0:0:0:0:
144,125,189677,2,0,L|164:74,2,45,2|0|12,0:0|0:0|0:0,0:0:0:0:
34,157,189998,1,4,0:0:0:0:
30,266,190159,1,12,0:0:0:0:
136,310,190319,1,4,0:0:0:0:
136,310,190399,1,0,0:0:0:0:
136,310,190480,1,8,0:0:0:0:
201,231,190640,6,0,P|252:233|283:273,1,90,2|8,0:0|0:0,0:0:0:0:
356,295,190961,2,0,P|366:313|365:339,2,45,2|0|8,0:0|0:0|0:0,0:0:0:0:
244,137,191282,1,2,0:0:0:0:
271,381,191442,1,8,0:0:0:0:
383,181,191603,1,8,0:0:0:0:
172,275,191763,2,0,P|164:246|161:225,1,45,8|8,0:0|0:0,0:0:0:0:
229,16,191923,37,12,0:0:0:0:
269,5,192004,1,0,0:0:0:0:
307,20,192084,1,2,0:0:0:0:
329,54,192164,1,0,0:0:0:0:
325,94,192244,1,8,0:0:0:0:
297,123,192325,1,0,0:0:0:0:
258,128,192405,1,2,0:0:0:0:
220,114,192485,1,0,0:0:0:0:
190,87,192565,1,8,0:0:0:0:
151,77,192645,1,0,0:0:0:0:
115,94,192726,1,2,0:0:0:0:
98,130,192806,1,0,0:0:0:0:
109,168,192886,2,0,P|125:190|148:201,3,45,8|0|2|8,0:0|0:0|0:0|0:0,0:0:0:0:
197,255,193207,5,12,0:0:0:0:
237,226,193287,1,0,0:0:0:0:
286,230,193367,1,2,0:0:0:0:
323,262,193448,1,0,0:0:0:0:
325,311,193528,1,8,0:0:0:0:
350,353,193608,1,0,0:0:0:0:
397,367,193688,1,2,0:0:0:0:
445,357,193768,1,0,0:0:0:0:
477,318,193849,1,8,0:0:0:0:
475,268,193929,1,0,0:0:0:0:
444,229,194009,1,2,0:0:0:0:
395,218,194089,1,8,0:0:0:0:
350,238,194169,2,0,L|343:292,3,45,8|0|2|8,0:0|0:0|0:0|0:0,0:0:0:0:
270,330,194490,37,12,0:0:0:0:
221,355,194571,1,0,0:0:0:0:
168,340,194651,1,2,0:0:0:0:
138,294,194731,1,0,0:0:0:0:
154,242,194811,1,8,0:0:0:0:
200,215,194891,1,0,0:0:0:0:
223,165,194972,1,2,0:0:0:0:
209,112,195052,1,0,0:0:0:0:
162,84,195132,1,8,0:0:0:0:
104,92,195212,1,0,0:0:0:0:
68,137,195292,1,2,0:0:0:0:
70,195,195373,1,0,0:0:0:0:
117,229,195453,1,8,0:0:0:0:
175,233,195533,1,0,0:0:0:0:
220,196,195613,1,2,0:0:0:0:
232,139,195693,1,0,0:0:0:0:
267,91,195774,5,8,0:0:0:0:
327,61,195854,1,0,0:0:0:0:
393,71,195934,1,2,0:0:0:0:
443,116,196014,1,0,0:0:0:0:
451,184,196095,1,4,0:0:0:0:
451,184,197378,38,0,L|423:300,2,107.999996704102,4|0|0,0:0|0:0|0:0,0:0:0:0:
384,59,198180,2,0,B|346:47|305:9|305:9|359:209|359:209|326:176|275:161,1,377.999988464356,4|0,0:0|0:0,0:0:0:0:
26,86,199624,6,0,B|13:17|13:17|91:0|135:54|123:67|165:117|240:83,1,323.999990112305,4|0,0:0|2:0,0:0:0:0:
108,191,200747,2,0,B|144:333|144:333|150:292|174:268,1,215.999993408203,4|0,0:0|0:0,0:0:0:0:
253,218,201549,1,8,0:0:0:0:
270,214,201629,1,8,0:0:0:0:
287,221,201710,2,0,P|301:234|307:257,1,26.9999991760254,8|8,0:0|0:0,0:0:0:0:
344,321,201870,1,0,0:0:0:0:
355,333,201950,1,0,0:0:0:0:
374,336,202030,2,0,P|393:332|410:316,1,26.9999991760254
472,267,202191,38,0,B|445:172|445:172|446:160|446:160|414:52,1,216,4|0,0:0|0:0,0:0:0:0:
233,167,202833,2,0,P|299:211|347:189,1,125.999996154785,4|0,0:0|0:0,0:0:0:0:
260,28,203314,2,0,B|178:9|178:9|115:78,1,161.999995056153,4|0,0:0|0:0,0:0:0:0:
41,181,203956,2,0,P|111:165|146:238,1,144,4|2,0:0|0:0,0:0:0:0:
108,287,204357,1,0,0:0:0:0:
96,293,204437,2,0,P|50:288|29:257,1,72,2|2,0:0|0:0,0:0:0:0:
249,356,204758,5,4,0:0:0:0:
239,341,204838,1,0,0:0:0:0:
238,323,204918,1,0,2:0:0:0:
243,306,204998,1,0,2:0:0:0:
257,294,205079,1,0,0:0:0:0:
272,284,205159,1,0,2:0:0:0:
280,268,205239,1,0,0:0:0:0:
277,250,205319,1,0,0:0:0:0:
271,232,205399,2,0,P|256:213|233:206,3,36,0|0|0|0,2:0|0:0|2:0|2:0,0:0:0:0:
340,176,205720,37,0,0:0:0:0:
329,149,205800,1,0,2:0:0:0:
335,120,205881,1,0,0:0:0:0:
354,99,205961,1,0,2:0:0:0:
381,90,206041,5,6,0:0:0:0:
479,254,206202,1,8,0:0:0:0:
189,93,206576,6,0,L|176:50,2,24,2|2|4,0:0|0:0|0:0,0:0:0:0:
162,343,206843,5,4,0:0:0:0:
44,139,207164,21,2,0:0:0:0:
44,139,207244,1,2,0:0:0:0:
44,139,207325,6,0,P|43:104|67:64,2,60,4|2|0,0:0|0:0|0:0,0:0:0:0:
129,177,207645,6,0,P|159:193|182:234,2,60,4|2|0,0:0|0:0|0:0,0:0:0:0:
54,230,207966,38,0,P|24:248|-22:247,2,60,4|2|0,0:0|0:0|0:0,0:0:0:0:
44,139,208287,6,0,P|43:104|67:64,2,60,4|2|0,0:0|0:0|0:0,0:0:0:0:
129,177,208608,38,0,L|199:157,1,60,4|2,0:0|0:0,0:0:0:0:
249,213,208822,5,0,0:0:0:0:
266,199,208929,38,0,L|336:219,1,60,4|2,0:0|0:0,0:0:0:0:
389,176,209143,5,0,0:0:0:0:
402,187,209250,38,0,L|467:168,2,48
489,267,209571,6,0,L|445:253,2,35.9999989013672,8|8|8,0:0|0:0|0:0,0:0:0:0:
407,339,209891,37,4,0:0:0:0:
256,192,209972,12,0,212137,0:0:0:0:
230,75,212458,5,4,0:0:0:0:
281,308,212672,37,4,0:0:0:0:
170,165,212886,5,8,0:0:0:0:
157,158,212993,37,8,0:0:0:0:
143,152,213100,5,4,0:0:0:0:
369,232,213314,37,4,0:0:0:0:
190,253,213528,5,8,0:0:0:0:
179,262,213635,37,8,0:0:0:0:
168,272,213742,5,4,0:0:0:0:
344,112,213956,37,4,0:0:0:0:
281,308,214169,5,8,0:0:0:0:
230,75,214383,38,0,L|225:52,4,17.9999994506836,8|0|0|2|2,0:0|0:0|0:0|0:0|0:0,0:0:0:0:
256,192,214704,5,4,0:0:0:0:
