osu file format v14

[General]
AudioFilename: audio.ogg
AudioLeadIn: 0
PreviewTime: 168661
Countdown: 0
SampleSet: Drum
StackLeniency: 0.7
Mode: 0
LetterboxInBreaks: 0
WidescreenStoryboard: 1

[Editor]
DistanceSpacing: 0.4
BeatDivisor: 4
GridSize: 8
TimelineZoom: 3.499999

[Metadata]
Title:Crystallite Dream
TitleUnicode:Crystallite Dream
Artist:Vulpecula
ArtistUnicode:Vulpecula
Creator:Urition
Version:Runigh's Hard
Source:
Tags:English Melodic Symphonic Choir Power Metal Fantasy Love Adventure Romance Epic male vocals First Debut Single Original Noah Simmons Fridolf Karlsfeld Brad Wosko Jack Stanley Callum Tuffen Kylee Stream Death Runigh Roupus shoyeu TrueInverse
BeatmapID:4235350
BeatmapSetID:1943645

[Difficulty]
HPDrainRate:4
CircleSize:3.5
OverallDifficulty:6
ApproachRate:8
SliderMultiplier:1.4
SliderTickRate:1

[Events]
//Background and Video events
0,0,"bg.png",0,0
//Break Periods
2,163888,166628
//Storyboard Layer 0 (Background)
//Storyboard Layer 1 (Fail)
//Storyboard Layer 2 (Pass)
//Storyboard Layer 3 (Foreground)
//Storyboard Layer 4 (Overlay)
//Storyboard Sound Samples

[TimingPoints]
694,320.855614973262,4,3,1,60,1,0
694,-166.666666666667,4,3,1,60,0,0
1013,-166.666666666667,4,3,1,15,0,0
1334,-166.666666666667,4,3,1,60,0,0
1655,-166.666666666667,4,3,2,60,0,0
1815,-166.666666666667,4,3,1,60,0,0
2297,-166.666666666667,4,3,1,15,0,0
2778,-166.666666666667,4,3,1,60,0,0
2939,-166.666666666667,4,3,1,60,0,0
3580,-166.666666666667,4,3,1,15,0,0
3901,-166.666666666667,4,3,1,60,0,0
5184,-166.666666666667,4,3,4,70,0,0
5827,-166.666666666667,4,3,1,60,0,0
8554,-166.666666666667,4,2,5,60,0,0
8715,-166.666666666667,4,3,1,60,0,0
8795,-166.666666666667,4,2,5,60,0,0
8875,-166.666666666667,4,3,1,60,0,0
9036,-166.666666666667,4,2,5,60,0,0
9116,-166.666666666667,4,3,1,60,0,0
9196,-166.666666666667,4,2,5,60,0,0
9357,-166.666666666667,4,3,1,60,0,0
9437,-166.666666666667,4,2,5,60,0,0
9517,-166.666666666667,4,3,1,60,0,0
9597,-166.666666666667,4,2,5,60,0,0
9677,-166.666666666667,4,3,1,60,0,0
10961,-100,4,3,1,70,0,0
13367,-100,4,3,1,60,0,0
13528,-100,4,3,1,50,0,0
13688,-100,4,2,1,5,0,0
13849,-100,4,3,1,40,0,0
14329,-100,4,3,1,40,0,0
14490,-100,4,3,1,40,0,0
14971,-100,4,3,1,40,0,0
15132,-100,4,3,1,40,0,0
15613,-100,4,3,1,70,0,0
16014,-100,4,2,1,5,0,0
16095,-100,4,3,1,70,0,0
18501,-100,4,3,1,60,0,0
18661,-100,4,3,1,50,0,0
18821,-100,4,2,1,5,0,0
18982,-100,4,3,1,40,0,0
19463,-100,4,3,1,40,0,0
19784,-100,4,3,1,40,0,0
20266,-100,4,3,1,50,0,0
20426,-100,4,3,1,60,0,0
20587,-100,4,3,1,70,0,0
20827,-100,4,2,1,5,0,0
20907,-100,4,3,1,70,0,0
21147,-100,4,2,1,5,0,0
21228,-100,4,3,1,70,0,0
25559,-100,4,3,1,70,0,0
25720,-100,4,3,1,70,0,0
26281,-100,4,3,1,70,0,0
26362,-125,4,3,1,55,0,0
30212,-100,4,3,1,70,0,0
32619,-100,4,3,1,60,0,0
32779,-100,4,3,1,50,0,0
32858,-100,4,3,4,55,0,0
33901,-100,4,3,1,55,0,0
34061,-100,4,3,4,100,0,0
34223,-100,4,3,4,5,0,0
34382,-100,4,3,1,55,0,0
34623,-100,4,3,1,55,0,0
34704,-100,4,3,1,55,0,0
34865,-100,4,3,1,70,0,0
36629,-100,4,3,1,75,0,0
37271,-100,4,3,1,80,0,0
37913,-100,4,3,1,85,0,0
38073,-100,4,3,1,70,0,0
38234,-100,4,3,1,60,0,0
39838,-100,4,3,1,70,0,0
40078,-100,4,2,1,5,0,0
40159,-100,4,3,1,70,0,0
40399,-100,4,2,1,5,0,0
40480,-100,4,3,1,70,0,0
44330,-100,4,3,1,55,0,0
44972,-100,4,3,1,60,0,0
45131,-100,4,3,1,55,0,0
45613,-125,4,3,1,40,0,0
49142,-125,4,3,4,60,0,0
49464,-100,4,3,4,60,0,0
49623,-100,4,3,1,60,0,0
50345,-100,4,3,4,60,0,0
50586,-100,4,3,4,60,0,0
50746,-100,4,3,1,60,0,0
51468,-100,4,3,1,30,0,0
51548,-100,4,3,1,70,0,0
52030,-90.9090909090909,4,3,1,90,0,1
61014,-90.9090909090909,4,3,1,80,0,1
61575,-90.9090909090909,4,3,1,40,0,1
61815,-90.9090909090909,4,3,4,75,0,1
61977,-90.9090909090909,4,3,4,75,0,1
62297,-90.9090909090909,4,3,1,90,0,1
71282,-90.9090909090909,4,3,1,80,0,1
71923,-90.9090909090909,4,3,1,70,0,1
72565,-100,4,3,1,70,0,0
73206,-100,4,3,4,70,0,0
73527,-100,4,3,1,70,0,0
73849,-100,4,3,1,70,0,0
76255,-100,4,3,1,60,0,0
76415,-100,4,3,1,50,0,0
76575,-100,4,2,1,5,0,0
76735,-100,4,3,4,40,0,0
77056,-100,4,3,1,40,0,0
77217,-100,4,3,4,40,0,0
77378,-100,4,3,4,40,0,0
77859,-100,4,3,4,40,0,0
78019,-100,4,3,1,40,0,0
78179,-100,4,3,4,40,0,0
78340,-100,4,3,1,40,0,0
78501,-100,4,3,1,70,0,0
78902,-100,4,2,1,5,0,0
78982,-100,4,3,1,70,0,0
80266,-100,4,3,1,75,0,0
80587,-100,4,3,1,80,0,0
80827,-100,4,3,1,80,0,0
80907,-100,4,3,1,85,0,0
81068,-100,4,3,1,90,0,0
81227,-100,4,3,4,70,0,0
81549,-100,4,3,1,80,0,0
81628,-100,4,3,1,60,0,0
81789,-100,4,3,1,80,0,0
81870,-100,4,3,1,60,0,0
82029,-100,4,3,1,80,0,0
82111,-100,4,3,1,60,0,0
82270,-100,4,3,1,80,0,0
82351,-100,4,3,1,60,0,0
82511,-100,4,3,1,80,0,0
82591,-100,4,3,1,15,0,0
82671,-100,4,3,4,60,0,0
83072,-100,4,3,1,40,0,0
83474,-100,4,3,1,70,0,0
83714,-100,4,2,1,5,0,0
83795,-100,4,3,1,70,0,0
84035,-100,4,2,1,5,0,0
84116,-100,4,3,1,70,0,0
88126,-100,4,3,4,70,0,0
88447,-100,4,3,1,70,0,0
89008,-100,4,3,1,30,0,0
89088,-100,4,3,1,70,0,0
89168,-100,4,3,1,30,0,0
89250,-125,4,3,1,40,0,0
93100,-100,4,3,1,60,0,0
93420,-100,4,3,4,60,0,0
93580,-100,4,3,1,60,0,0
93901,-100,4,3,4,60,0,0
94061,-100,4,3,1,60,0,0
94142,-100,4,3,4,100,0,0
94222,-100,4,3,4,100,0,0
94382,-100,4,3,1,60,0,0
95184,-100,4,3,1,70,0,0
95667,-90.9090909090909,4,3,1,90,0,1
104651,-90.9090909090909,4,3,1,80,0,1
105211,-90.9090909090909,4,3,1,40,0,1
105452,-90.9090909090909,4,3,4,75,0,1
105613,-90.9090909090909,4,3,4,75,0,1
105933,-90.9090909090909,4,3,1,90,0,1
114918,-90.9090909090909,4,3,1,80,0,1
115560,-90.9090909090909,4,3,1,70,0,1
116202,-100,4,3,1,70,0,0
118768,-100,4,3,1,55,0,0
120211,-100,4,2,1,5,0,0
120373,-100,4,3,1,65,0,0
120693,-100,4,3,1,70,0,0
121014,-100,4,3,1,75,0,0
121335,-100,4,3,1,55,0,0
121496,-100,4,3,1,20,0,0
121656,-100,4,3,1,55,0,0
121736,-100,4,3,1,20,0,0
121816,-100,4,2,1,5,0,0
121977,-100,4,3,1,55,0,0
122137,-100,4,3,1,20,0,0
122298,-100,4,3,1,55,0,0
122378,-100,4,3,1,20,0,0
122458,-100,4,2,1,5,0,0
122619,-100,4,3,1,55,0,0
122779,-100,4,3,1,20,0,0
122939,-100,4,3,1,55,0,0
123020,-100,4,3,1,20,0,0
123100,-100,4,2,1,5,0,0
123259,-100,4,3,4,60,0,0
123581,-100,4,3,4,65,0,0
123742,-100,4,3,4,70,0,0
123902,-100,4,3,1,85,0,1
126469,-100,4,3,1,80,0,0
130559,-100,4,2,1,5,0,0
130640,-100,4,3,1,80,0,0
130880,-100,4,2,1,5,0,0
130961,-100,4,3,1,80,0,0
131201,-100,4,2,1,5,0,0
131282,-100,4,3,1,80,0,0
144437,-100,4,3,1,70,0,0
147004,-100,4,3,1,80,0,0
147164,-100,4,3,1,80,0,0
147325,-100,4,3,1,80,0,0
148287,-100,4,3,1,70,0,0
148768,-100,4,3,1,70,0,0
148929,-100,4,3,1,60,0,0
149410,-100,4,3,1,60,0,0
149571,-100,4,3,1,80,0,0
149891,-100,4,3,1,75,0,0
150212,-100,4,3,1,70,0,0
150533,-100,4,3,1,65,0,0
150854,-100,4,3,1,60,0,0
151175,-100,4,3,1,55,0,0
152137,-100,4,3,1,70,0,0
156548,-100,4,3,1,75,0,0
157271,-125,4,3,1,55,0,0
161121,-100,4,3,1,80,0,0
163688,-100,4,2,10,50,0,0
164009,-100,4,2,11,100,0,0
164330,-100,4,2,12,100,0,0
164651,-100,4,2,13,100,0,0
164811,-100,4,2,14,100,0,0
165132,-100,4,2,15,100,0,0
165292,-100,4,2,16,100,0,0
165453,-100,4,2,17,100,0,0
165533,-100,4,2,18,100,0,0
165613,-100,4,2,19,100,0,0
165774,-100,4,2,20,100,0,0
165934,-100,4,2,21,100,0,0
166095,-100,4,2,22,100,0,0
166255,-100,4,2,23,100,0,0
166576,-100,4,2,24,100,0,0
166897,-100,4,2,25,100,0,0
167218,-100,4,2,26,100,0,0
167378,-100,4,2,27,50,0,0
167699,-100,4,2,27,5,0,0
167779,-100,4,3,1,70,0,0
168822,-90.9090909090909,4,3,1,90,0,1
172672,-90.9090909090909,4,3,1,80,0,1
173233,-90.9090909090909,4,3,1,40,0,1
173473,-90.9090909090909,4,3,4,75,0,1
173635,-90.9090909090909,4,3,4,75,0,1
173955,-90.9090909090909,4,3,1,90,0,1
182939,-90.9090909090909,4,3,1,80,0,1
183581,-90.9090909090909,4,3,1,70,0,1
184223,-100,4,3,1,70,0,0
186789,-100,4,3,1,55,0,0
188394,-100,4,3,1,65,0,0
188554,-100,4,3,1,75,0,0
188715,-100,4,3,1,85,0,0
189357,-100,4,3,1,90,0,0
191923,-100,4,3,1,100,0,1
192163,-100,4,3,1,100,0,1
192244,-100,4,3,1,100,0,1
192484,-100,4,3,1,100,0,1
192565,-100,4,3,1,100,0,1
192805,-100,4,3,1,100,0,1
192886,-100,4,3,1,100,0,1
193447,-100,4,3,1,100,0,1
193528,-100,4,3,1,100,0,1
193768,-100,4,3,1,100,0,1
193849,-100,4,3,1,100,0,1
194730,-100,4,3,1,100,0,1
194811,-100,4,3,1,100,0,1
196095,-100,4,3,1,100,0,0
196254,-100,4,3,1,15,0,0
196334,-100,4,2,0,30,0,0
197378,-166.666666666667,4,3,1,60,0,0
198660,-166.666666666667,4,3,1,15,0,0
199142,-166.666666666667,4,3,1,60,0,0
199303,-166.666666666667,4,3,1,60,0,0
200587,-166.666666666667,4,3,1,60,0,0
200747,-166.666666666667,4,3,1,60,0,0
201228,-166.666666666667,4,3,1,15,0,0
201388,-166.666666666667,4,3,1,60,0,0
201549,-166.666666666667,4,3,4,70,0,0
202190,-166.666666666667,4,3,1,60,0,0
204918,-166.666666666667,4,2,5,60,0,0
205079,-166.666666666667,4,3,1,60,0,0
205159,-166.666666666667,4,2,5,60,0,0
205239,-166.666666666667,4,3,1,60,0,0
205399,-166.666666666667,4,2,5,60,0,0
205480,-166.666666666667,4,3,1,60,0,0
205560,-166.666666666667,4,2,5,60,0,0
205720,-166.666666666667,4,3,1,60,0,0
205800,-166.666666666667,4,2,5,60,0,0
205881,-166.666666666667,4,3,1,60,0,0
205961,-166.666666666667,4,2,5,60,0,0
206041,-166.666666666667,4,3,1,60,0,0
207325,-100,4,3,1,60,0,0
207430,-100,4,3,1,30,0,0
207644,-100,4,3,1,40,0,0
207751,-100,4,3,1,30,0,0
207965,-100,4,3,1,40,0,0
208072,-100,4,3,1,30,0,0
208286,-100,4,3,1,40,0,0
208393,-100,4,3,1,30,0,0
208607,-100,4,3,1,40,0,0
208714,-100,4,3,1,30,0,0
208821,-100,4,3,1,30,0,0
208928,-100,4,3,1,40,0,0
209035,-100,4,3,1,30,0,0
209142,-100,4,3,1,30,0,0
209249,-100,4,3,4,40,0,0
209571,-100,4,3,4,30,0,0
209890,-100,4,3,1,100,0,0
212136,-100,4,1,2,15,0,0
212457,-100,4,3,1,70,0,0
214704,-100,4,3,1,100,0,0

[Colours]
Combo1 : 147,165,183
Combo2 : 255,188,32
Combo3 : 242,91,0
Combo4 : 94,187,126

[HitObjects]
0,330,694,22,0,B|73:288|73:288|121:356,1,167.999994873047,4|0,0:0|0:0,0:0:0:0:
205,359,1656,1,8,2:0:0:0:
205,359,1816,38,0,B|237:329|237:329|443:351,1,251.999992309571,4|0,0:0|0:0,0:0:0:0:
480,328,2939,1,8,2:0:0:0:
458,291,3100,1,0,0:0:0:0:
433,256,3260,6,0,B|361:248|361:248|342:263|342:263|255:253,1,167.999994873047,4|0,0:0|0:0,0:0:0:0:
250,217,4062,1,0,0:0:0:0:
268,179,4223,1,8,2:0:0:0:
287,141,4383,38,0,B|343:149|343:149|352:157|352:157|425:166,1,125.999996154785,4|8,0:0|2:0,0:0:0:0:
444,141,5025,1,2,0:0:0:0:
478,115,5185,2,0,P|492:77|473:41,1,83.9999974365235,8|0,0:0|0:0,0:0:0:0:
389,51,5827,6,0,B|361:64|361:64|222:45,1,167.999994873047,4|4,0:0|0:0,0:0:0:0:
94,7,6950,2,0,P|35:20|24:78,1,125.999996154785,4|0,0:0|0:0,0:0:0:0:
41,109,7592,2,0,P|82:105|124:105,1,83.9999974365235,4|2,0:0|0:0,0:0:0:0:
145,133,8073,2,0,L|138:180,1,41.9999987182618,2|2,0:0|0:0,0:0:0:0:
132,214,8394,38,0,B|177:235|218:207|218:207|243:237|243:237|296:194|356:233,1,251.999992309571,4|0,0:0|0:0,0:0:0:0:
300,298,9677,2,0,L|292:348,1,41.9999987182618,6|2,0:0|0:0,0:0:0:0:
387,384,10159,2,0,L|393:349,4,20.9999993591309,2|0|2|0|2,0:0|0:0|0:0|0:0|0:0,0:0:0:0:
512,92,10961,6,0,B|482:73|482:73|447:78,1,70,6|8,0:0|0:0,0:0:0:0:
383,134,11282,2,0,L|392:65,1,70,0|8,0:0|0:0,0:0:0:0:
310,52,11603,2,0,L|301:121,1,70,2|8,0:0|0:0,0:0:0:0:
208,113,11923,1,0,0:0:0:0:
208,113,12084,38,0,P|206:47|143:26,1,140,8|8,0:0|0:0,0:0:0:0:
84,89,12565,2,0,L|95:158,1,70,0|8,0:0|0:0,0:0:0:0:
11,172,12886,2,0,L|-1:102,1,70,2|8,0:0|0:0,0:0:0:0:
29,24,13207,1,2,0:0:0:0:
29,24,13367,1,2,0:0:0:0:
84,89,13528,6,0,B|106:94|106:94|150:81,1,70,6|0,0:0|0:0,0:0:0:0:
237,118,13849,1,0,0:0:0:0:
237,118,14009,1,0,0:0:0:0:
320,78,14169,2,0,B|315:56|315:56|328:12,2,70,8|0|0,0:0|0:0|0:0,0:0:0:0:
433,63,14651,1,0,0:0:0:0:
433,63,14811,38,0,L|415:141,1,70
498,194,15132,1,0,0:0:0:0:
498,194,15292,2,0,L|505:229,2,35,0|0|10,0:0|0:0|0:0,0:0:0:0:
409,229,15613,6,0,B|300:200|361:304|219:264,1,175,4|0,0:0|0:0,0:0:0:0:
235,243,16095,38,0,B|205:223|205:223|173:235,1,70,4|8,0:0|0:0,0:0:0:0:
113,298,16415,2,0,L|124:378,1,70,0|8,0:0|0:0,0:0:0:0:
34,384,16736,2,0,L|23:304,1,70,2|8,0:0|0:0,0:0:0:0:
57,228,17057,1,0,0:0:0:0:
57,228,17218,6,0,P|77:165|143:162,1,140,8|8,0:0|0:0,0:0:0:0:
201,234,17699,2,0,L|270:227,1,70,0|8,0:0|0:0,0:0:0:0:
343,267,18020,2,0,L|412:260,1,70,2|8,0:0|0:0,0:0:0:0:
486,301,18341,2,0,P|494:285|507:274,3,35,10|10|2|2,0:0|0:0|0:0|0:0,0:0:0:0:
501,318,18661,38,0,B|510:331|510:331|495:399,1,70,6|0,0:0|0:0,0:0:0:0:
337,362,19143,5,0,0:0:0:0:
337,362,19303,2,0,L|355:280,1,70,8|0,0:0|0:0,0:0:0:0:
190,254,19784,37,0,0:0:0:0:
190,254,19945,1,0,0:0:0:0:
121,299,20105,1,8,0:0:0:0:
121,299,20266,2,0,L|105:367,1,70,2|2,0:0|0:0,0:0:0:0:
23,347,20587,6,0,B|35:303|35:303|32:297|32:297|44:245,1,105,6|0,0:0|0:0,0:0:0:0:
29,209,20907,38,0,B|41:165|41:165|38:159|38:159|50:107,1,105,4|0,0:0|0:0,0:0:0:0:
31,69,21228,6,0,B|19:36|19:36|46:13,1,70,4|8,0:0|0:0,0:0:0:0:
116,60,21549,1,0,0:0:0:0:
116,60,21710,1,8,0:0:0:0:
186,13,21870,1,0,0:0:0:0:
186,13,22030,1,8,0:0:0:0:
235,81,22191,2,0,L|226:179,1,70,0|8,0:0|0:0,0:0:0:0:
296,201,22512,38,0,B|330:192|330:192|376:222,1,70,4|8,0:0|0:0,0:0:0:0:
347,294,22833,2,0,L|338:392,1,70,0|8,0:0|0:0,0:0:0:0:
423,373,23153,2,0,L|432:275,1,70,0|8,0:0|0:0,0:0:0:0:
496,252,23474,1,0,0:0:0:0:
496,252,23635,6,0,P|507:185|450:152,1,140,8|8,0:0|0:0,0:0:0:0:
393,86,24116,1,0,0:0:0:0:
270,197,24437,1,0,0:0:0:0:
149,82,24758,2,0,L|60:93,1,70,0|8,0:0|0:0,0:0:0:0:
17,151,25079,37,2,0:0:0:0:
17,151,25239,1,2,0:0:0:0:
73,212,25399,2,0,P|126:202|174:197,1,70,2|4,0:0|0:0,0:0:0:0:
220,231,25720,2,0,B|276:199|361:236|299:275|386:329|459:277,1,245,8|0,0:0|0:0,0:0:0:0:
466,297,26362,6,0,P|481:193|503:66,2,224,4|8|8,0:0|0:0|0:0,0:0:0:0:
373,375,27966,1,0,0:0:0:0:
251,335,28287,2,0,P|248:307|242:279,1,56,8|0,0:0|0:0,0:0:0:0:
317,240,28608,1,4,0:0:0:0:
156,196,28929,2,0,P|151:168|161:143,2,56,0|8|8,0:0|0:0|0:0,0:0:0:0:
317,240,29571,38,0,L|323:183,1,56,8|8,0:0|0:0,0:0:0:0:
291,96,29891,2,0,L|264:69,2,28,8|8|8,0:0|0:0|0:0,0:0:0:0:
384,109,30212,6,0,B|418:103|418:103|446:124,1,70,4|8,0:0|0:0,0:0:0:0:
431,207,30533,2,0,L|534:201,1,70,0|8,0:0|0:0,0:0:0:0:
510,294,30854,2,0,L|440:298,1,70,2|8,0:0|0:0,0:0:0:0:
361,263,31175,1,0,0:0:0:0:
361,263,31335,38,0,P|295:272|277:336,1,140,8|8,0:0|0:0,0:0:0:0:
196,362,31816,2,0,L|190:292,1,70,0|8,0:0|0:0,0:0:0:0:
100,303,32137,2,0,L|105:372,1,70,2|8,0:0|0:0,0:0:0:0:
12,348,32458,1,2,0:0:0:0:
12,348,32619,2,0,P|-4:316|0:282,1,70,2|6,0:0|0:0,0:0:0:0:
94,117,33100,6,0,L|129:122,3,35,0|8|8|0,0:0|0:0|0:0|0:0,0:0:0:0:
156,134,33421,2,0,L|191:129,3,35
219,124,33742,2,0,L|254:129,3,35,8|8|10|8,0:0|0:0|0:0|0:0,0:0:0:0:
274,143,34062,2,0,P|298:169|292:206,1,70,0|8,0:0|0:0,0:0:0:0:
228,246,34383,38,0,B|128:236|198:303|74:288,1,140,10|8,0:0|0:0,0:0:0:0:
16,262,34865,1,4,0:0:0:0:
16,262,35025,2,0,L|29:347,1,70,8|8,0:0|0:0,0:0:0:0:
107,370,35346,6,0,B|135:349|135:349|169:357,1,70,4|8,0:0|0:0,0:0:0:0:
251,383,35667,2,0,L|247:313,1,70,0|8,0:0|0:0,0:0:0:0:
337,308,35988,2,0,L|340:377,1,70,2|8,0:0|0:0,0:0:0:0:
437,381,36308,1,2,0:0:0:0:
437,381,36469,38,0,P|495:344|485:271,1,140,8|8,0:0|0:0,0:0:0:0:
424,216,36950,2,0,L|354:222,1,70,0|8,0:0|0:0,0:0:0:0:
280,181,37271,2,0,L|210:187,1,70,0|8,0:0|0:0,0:0:0:0:
143,236,37592,1,2,0:0:0:0:
143,236,37752,1,8,0:0:0:0:
76,184,37913,6,0,B|71:165|71:165|76:151,9,35,2|2|8|8|0|0|0|0|8|8,0:0|0:0|0:0|0:0|0:0|0:0|0:0|0:0|0:0|0:0,0:0:0:0:
111,126,38715,38,0,B|116:107|116:107|110:92,5,35,4|0|8|8|0|0,0:0|0:0|0:0|0:0|0:0|0:0,0:0:0:0:
95,53,39196,6,0,B|90:34|90:34|95:19,7,35,4|0|2|2|2|2|2|2,0:0|0:0|0:0|0:0|0:0|0:0|0:0|0:0,0:0:0:0:
136,9,39838,38,0,P|188:11|239:21,1,105,4|0,0:0|0:0,0:0:0:0:
277,40,40159,6,0,P|328:50|380:53,1,105,4|0,0:0|0:0,0:0:0:0:
429,52,40480,38,0,B|454:78|454:78|448:111,1,70,4|8,0:0|0:0,0:0:0:0:
498,189,40800,1,0,0:0:0:0:
498,189,40961,1,8,0:0:0:0:
415,236,41121,1,2,0:0:0:0:
415,236,41282,1,8,0:0:0:0:
472,311,41442,1,2,0:0:0:0:
292,371,41763,6,0,P|257:372|222:380,1,70,4|8,0:0|0:0,0:0:0:0:
211,288,42084,2,0,P|245:286|280:278,1,70,0|8,0:0|0:0,0:0:0:0:
291,196,42405,2,0,P|290:165|249:143,1,70,0|8,0:0|0:0,0:0:0:0:
230,69,42726,1,2,0:0:0:0:
230,69,42886,38,0,P|275:18|342:24,1,140,8|8,0:0|0:0,0:0:0:0:
381,105,43367,1,2,0:0:0:0:
507,215,43688,1,2,0:0:0:0:
370,313,44009,2,0,L|288:307,1,70,0|8,0:0|0:0,0:0:0:0:
243,245,44330,5,4,0:0:0:0:
243,245,44490,1,0,0:0:0:0:
173,197,44651,2,0,P|138:194|103:194,1,70,8|4,0:0|0:0,0:0:0:0:
96,110,44972,2,0,B|156:130|237:102|179:64|263:19|335:64,1,245,8|8,0:0|0:0,0:0:0:0:
340,72,45613,38,0,P|350:189|364:310,2,224,4|8|4,0:0|0:0|0:0,0:0:0:0:
238,19,47218,1,4,0:0:0:0:
135,111,47538,2,0,L|137:82,2,28,8|0|2,0:0|0:0|0:0,0:0:0:0:
45,69,47859,1,4,0:0:0:0:
56,167,48180,1,8,0:0:0:0:
56,167,48341,2,0,L|59:222,1,56,8|8,0:0|0:0,0:0:0:0:
131,308,48822,6,0,L|134:363,2,56,8|8|8,0:0|0:0|0:0,0:0:0:0:
203,243,49303,1,8,0:0:0:0:
244,324,49464,38,0,P|313:319|383:318,1,140,0|8,0:0|0:0,0:0:0:0:
383,224,49945,2,0,P|313:228|243:229,1,140,8|4,0:0|0:0,0:0:0:0:
162,188,50426,2,0,P|140:161|141:126,1,70,8|0,0:0|0:0,0:0:0:0:
213,78,50747,6,0,P|283:72|377:34,1,140,4|4,0:0|0:0,0:0:0:0:
424,12,51228,1,4,0:0:0:0:
484,85,51389,37,4,0:0:0:0:
484,85,51469,1,8,0:0:0:0:
484,85,51549,2,0,B|480:129,1,35,8|8,0:0|0:0,0:0:0:0:
471,161,51710,2,0,P|419:151|367:158,1,105,8|8,0:0|0:0,0:0:0:0:
352,201,52030,6,0,B|337:211|337:211|281:194,1,77.0000023498536,4|8,0:0|0:0,0:0:0:0:
206,138,52351,1,2,0:0:0:0:
206,138,52512,1,8,0:0:0:0:
164,221,52672,2,0,P|125:221|87:227,1,77.0000023498536,2|8,0:0|0:0,0:0:0:0:
94,323,52993,1,2,0:0:0:0:
94,323,53153,38,0,P|132:322|170:316,1,77.0000023498536,8|2,0:0|0:0,0:0:0:0:
264,328,53474,2,0,P|337:322|375:384,1,154.000004699707,8|8,0:0|0:0,0:0:0:0:
464,345,53956,2,0,P|465:306|468:268,1,77.0000023498536,6|8,0:0|0:0,0:0:0:0:
421,193,54276,1,6,0:0:0:0:
421,193,54437,1,8,0:0:0:0:
488,130,54597,6,0,B|480:109|480:109|495:56,1,77.0000023498536,6|8,0:0|0:0,0:0:0:0:
414,21,54918,1,2,0:0:0:0:
414,21,55079,1,8,0:0:0:0:
326,49,55239,2,0,P|250:32|174:23,1,154.000004699707,2|2,0:0|0:0,0:0:0:0:
189,114,55720,38,0,P|208:147|213:185,1,77.0000023498536,8|2,0:0|0:0,0:0:0:0:
283,247,56041,1,8,0:0:0:0:
283,247,56202,2,0,P|263:281|258:319,1,77.0000023498536,2|8,0:0|0:0,0:0:0:0:
198,384,56522,1,6,0:0:0:0:
198,384,56683,1,8,0:0:0:0:
147,309,56843,1,6,0:0:0:0:
359,309,57164,6,0,B|376:320|376:320|507:295,1,154.000004699707,6|2,0:0|0:0,0:0:0:0:
489,192,57645,2,0,B|472:181|472:181|340:207,1,154.000004699707,8|8,0:0|0:0,0:0:0:0:
267,290,58127,2,0,L|286:391,1,77.0000023498536,2|8,0:0|0:0,0:0:0:0:
184,373,58448,38,0,P|154:268|45:260,1,231.000007049561,6|8,0:0|0:0,0:0:0:0:
0,162,59089,2,0,P|39:166|77:167,1,77.0000023498536,2|8,0:0|0:0,0:0:0:0:
145,117,59410,1,2,0:0:0:0:
211,182,59571,1,8,0:0:0:0:
291,134,59731,6,0,B|299:123|299:123|382:137,1,77.0000023498536,6|8,0:0|0:0,0:0:0:0:
407,44,60052,1,2,0:0:0:0:
407,44,60212,2,0,B|399:55|399:55|230:24,1,154.000004699707,8|8,0:0|0:0,0:0:0:0:
260,29,60693,1,2,0:0:0:0:
136,123,61014,38,0,P|145:198|149:275,1,154.000004699707,6|8,0:0|0:0,0:0:0:0:
252,262,61496,2,0,P|242:186|238:109,1,154.000004699707,12|0,0:0|0:0,0:0:0:0:
178,39,61977,1,8,0:0:0:0:
178,39,62057,1,8,0:0:0:0:
178,39,62137,1,8,0:0:0:0:
270,12,62298,6,0,B|282:19|282:19|368:-2,1,77.0000023498536,4|8,0:0|0:0,0:0:0:0:
438,21,62619,1,2,0:0:0:0:
438,21,62779,1,8,0:0:0:0:
390,99,62939,2,0,B|378:92|378:92|292:113,1,77.0000023498536,2|8,0:0|0:0,0:0:0:0:
227,152,63260,1,2,0:0:0:0:
227,152,63421,38,0,P|189:141|151:135,1,77.0000023498536,8|2,0:0|0:0,0:0:0:0:
121,222,63742,2,0,P|196:238|268:265,1,154.000004699707,8|8,0:0|0:0,0:0:0:0:
300,347,64223,2,0,P|262:340|223:338,1,77.0000023498536,6|8,0:0|0:0,0:0:0:0:
160,384,64544,1,6,0:0:0:0:
14,284,64865,6,0,B|21:268|21:268|0:213,1,77.0000023498536,6|8,0:0|0:0,0:0:0:0:
26,125,65185,1,2,0:0:0:0:
26,125,65346,1,8,0:0:0:0:
99,72,65506,2,0,B|92:56|92:56|114:0,1,77.0000023498536,2|8,0:0|0:0,0:0:0:0:
197,70,65827,1,2,0:0:0:0:
197,70,65988,38,0,P|235:72|272:82,1,77.0000023498536,8|2,0:0|0:0,0:0:0:0:
349,32,66308,2,0,P|423:12|499:0,1,154.000004699707,8|8,0:0|0:0,0:0:0:0:
512,97,66790,2,0,P|474:97|436:103,1,77.0000023498536,6|8,0:0|0:0,0:0:0:0:
420,190,67111,1,6,0:0:0:0:
222,223,67431,6,0,B|204:237|204:237|73:220,1,154.000004699707,6|2,0:0|0:0,0:0:0:0:
35,328,67913,2,0,B|53:314|53:314|183:330,1,154.000004699707,8|8,0:0|0:0,0:0:0:0:
267,299,68394,2,0,P|292:326|294:364,1,77.0000023498536,2|8,0:0|0:0,0:0:0:0:
390,361,68715,38,0,P|403:252|508:221,1,231.000007049561,6|8,0:0|0:0,0:0:0:0:
500,336,69357,1,2,0:0:0:0:
500,336,69437,1,0,0:0:0:0:
500,336,69517,1,8,0:0:0:0:
413,259,69677,2,0,L|421:182,1,77.0000023498536,2|8,0:0|0:0,0:0:0:0:
469,91,69998,6,0,B|436:127|436:127|143:94,1,308.000009399414,6|2,0:0|0:0,0:0:0:0:
1,266,70961,2,0,P|30:242|68:236,1,77.0000023498536,2|8,0:0|0:0,0:0:0:0:
155,268,71282,38,0,P|231:267|307:254,1,154.000004699707,12|2,0:0|0:0,0:0:0:0:
312,346,71763,2,0,P|235:347|159:360,1,154.000004699707,12|8,0:0|0:0,0:0:0:0:
82,329,72244,1,2,0:0:0:0:
82,329,72325,1,0,0:0:0:0:
82,329,72405,1,8,0:0:0:0:
155,268,72565,6,0,P|218:253|294:249,2,140,12|2|8,0:0|0:0|0:0,0:0:0:0:
360,13,73849,38,0,B|330:-5|330:-5|282:9,1,70,6|8,0:0|0:0,0:0:0:0:
257,82,74169,2,0,L|265:152,1,70,0|8,0:0|0:0,0:0:0:0:
180,160,74490,2,0,L|171:91,1,70,2|8,0:0|0:0,0:0:0:0:
110,39,74811,1,0,0:0:0:0:
110,39,74972,6,0,P|43:42|7:103,1,140,8|8,0:0|0:0,0:0:0:0:
27,182,75453,2,0,L|11:278,1,70,0|8,0:0|0:0,0:0:0:0:
97,271,75774,2,0,L|113:175,1,70,2|8,0:0|0:0,0:0:0:0:
87,120,76095,1,2,0:0:0:0:
87,120,76255,1,2,0:0:0:0:
159,70,76415,38,0,B|175:59|175:59|224:70,1,70,6|0,0:0|0:0,0:0:0:0:
299,125,76736,1,8,0:0:0:0:
299,125,76897,1,8,0:0:0:0:
344,53,77057,1,8,0:0:0:0:
512,101,77378,5,0,0:0:0:0:
512,101,77538,1,0,0:0:0:0:
460,177,77699,38,0,L|475:246,1,70
435,334,78020,1,8,0:0:0:0:
435,334,78181,2,0,L|450:395,2,35,8|8|8,0:0|0:0|0:0,0:0:0:0:
350,284,78501,2,0,B|250:250|289:348|169:304,1,175,4|0,0:0|0:0,0:0:0:0:
156,281,78982,6,0,B|138:252|138:252|158:222,1,70,4|8,0:0|0:0,0:0:0:0:
241,205,79303,2,0,L|171:195,1,70,0|8,0:0|0:0,0:0:0:0:
186,105,79624,2,0,L|255:114,1,70,2|8,0:0|0:0,0:0:0:0:
328,176,79945,1,0,0:0:0:0:
328,176,80105,38,0,P|358:114|432:111,1,140,8|8,0:0|0:0,0:0:0:0:
462,181,80587,2,0,P|465:233|466:286,1,105
456,302,80907,1,8,0:0:0:0:
374,274,81068,1,8,0:0:0:0:
323,344,81228,2,0,P|316:328|303:316,3,35,8|8|0|0,0:0|0:0|0:0|0:0,0:0:0:0:
318,355,81549,6,0,B|268:353|268:353|260:359|260:359|188:355,1,105,6|6,0:0|0:0,0:0:0:0:
126,268,82030,2,0,B|176:270|176:270|184:264|184:264|228:266,1,105,6|6,0:0|0:0,0:0:0:0:
326,191,82512,1,6,0:0:0:0:
400,255,82672,1,8,0:0:0:0:
400,255,82833,38,0,L|404:198,4,35,8|0|0|0|8,0:0|0:0|0:0|0:0|0:0,0:0:0:0:
465,383,83474,6,0,B|471:337|471:337|467:332|467:332|473:279,1,105,4|0,0:0|0:0,0:0:0:0:
489,240,83795,38,0,B|495:194|495:194|491:189|491:189|497:136,1,105,6|0,0:0|0:0,0:0:0:0:
511,97,84116,6,0,B|483:75|483:75|451:88,1,70,4|8,0:0|0:0,0:0:0:0:
371,71,84437,1,0,0:0:0:0:
371,71,84597,1,8,0:0:0:0:
326,147,84758,2,0,B|293:160|293:160|266:138,1,70,2|8,0:0|0:0,0:0:0:0:
186,176,85079,1,0,0:0:0:0:
186,176,85239,1,8,0:0:0:0:
148,92,85399,38,0,P|149:57|155:22,1,70,4|8,0:0|0:0,0:0:0:0:
70,7,85720,2,0,P|68:41|62:76,1,70,2|8,0:0|0:0,0:0:0:0:
93,160,86041,2,0,P|59:166|40:194,1,70,2|8,0:0|0:0,0:0:0:0:
147,247,86362,1,2,0:0:0:0:
147,247,86522,6,0,P|214:267|228:336,1,140,8|8,0:0|0:0,0:0:0:0:
159,384,87004,1,0,0:0:0:0:
25,278,87325,1,2,0:0:0:0:
155,167,87645,1,0,0:0:0:0:
155,167,87806,38,0,L|247:182,1,70,8|4,0:0|0:0,0:0:0:0:
295,220,88127,2,0,P|307:196|330:179,2,35,0|0|8,0:0|0:0|0:0,0:0:0:0:
326,300,88448,1,4,0:0:0:0:
326,300,88608,2,0,B|267:263|183:303|249:347|158:385|85:337,1,245,8|0,0:0|0:0,0:0:0:0:
87,325,89250,6,0,P|98:213|119:103,2,224,4|8|4,0:0|0:0|0:0,0:0:0:0:
149,378,90693,1,2,0:0:0:0:
220,337,90854,2,0,B|246:325|246:325|346:347,2,112,4|8|4,0:0|0:0|0:0,0:0:0:0:
141,217,91816,37,4,0:0:0:0:
141,217,91977,2,0,L|150:149,1,56,8|8,0:0|0:0,0:0:0:0:
84,70,92458,2,0,L|76:14,2,56,2|8|8,0:0|0:0|0:0,0:0:0:0:
2,237,93100,6,0,P|12:306|17:376,1,140,4|8,0:0|0:0,0:0:0:0:
105,363,93581,2,0,P|94:293|89:223,1,140,4|0,0:0|0:0,0:0:0:0:
125,142,94062,2,0,P|149:117|183:111,1,70,4|0,0:0|0:0,0:0:0:0:
212,195,94383,38,0,P|281:189|343:158,1,140,4|4,0:0|0:0,0:0:0:0:
405,99,94865,1,4,0:0:0:0:
490,138,95025,1,4,0:0:0:0:
490,138,95105,1,8,0:0:0:0:
490,138,95185,2,0,P|497:153|503:170,1,35,8|8,0:0|0:0,0:0:0:0:
510,211,95346,2,0,P|484:256|473:308,1,105,8|8,0:0|0:0,0:0:0:0:
503,343,95667,6,0,B|481:336|481:336|431:354,1,77.0000023498536,4|8,0:0|0:0,0:0:0:0:
345,321,95988,2,0,B|323:328|323:328|272:310,1,77.0000023498536,2|8,0:0|0:0,0:0:0:0:
236,224,96308,2,0,P|236:185|248:149,1,77.0000023498536,2|8,0:0|0:0,0:0:0:0:
343,167,96629,1,2,0:0:0:0:
343,167,96790,38,0,P|343:205|332:242,1,77.0000023498536,8|2,0:0|0:0,0:0:0:0:
272,310,97111,2,0,P|198:314|168:380,1,154.000004699707,8|8,0:0|0:0,0:0:0:0:
75,380,97592,2,0,P|77:341|73:303,1,77.0000023498536,6|8,0:0|0:0,0:0:0:0:
28,224,97913,1,6,0:0:0:0:
28,224,98073,1,8,0:0:0:0:
94,163,98234,6,0,B|84:145|84:145|95:89,1,77.0000023498536,6|8,0:0|0:0,0:0:0:0:
160,22,98554,1,2,0:0:0:0:
160,22,98715,1,8,0:0:0:0:
244,63,98875,2,0,P|320:46|396:41,1,154.000004699707,2|2,0:0|0:0,0:0:0:0:
358,136,99357,38,0,P|339:168|340:206,1,77.0000023498536,8|2,0:0|0:0,0:0:0:0:
434,228,99677,1,8,0:0:0:0:
434,228,99838,2,0,P|454:195|453:157,1,77.0000023498536,2|8,0:0|0:0,0:0:0:0:
358,136,100159,1,6,0:0:0:0:
358,136,100319,1,8,0:0:0:0:
285,201,100480,1,6,0:0:0:0:
92,166,100800,6,0,B|106:185|106:185|92:314,1,154.000004699707,6|2,0:0|0:0,0:0:0:0:
191,384,101282,2,0,B|177:365|177:365|192:235,1,154.000004699707,8|8,0:0|0:0,0:0:0:0:
282,237,101763,2,0,L|274:313,1,77.0000023498536,2|8,0:0|0:0,0:0:0:0:
355,384,102084,38,0,P|396:281|508:293,1,231.000007049561,6|8,0:0|0:0,0:0:0:0:
467,368,102726,2,0,P|462:330|463:292,1,77.0000023498536,2|8,0:0|0:0,0:0:0:0:
512,215,103046,1,2,0:0:0:0:
433,169,103207,1,8,0:0:0:0:
452,81,103367,6,0,B|437:73|437:73|374:80,1,77.0000023498536,6|8,0:0|0:0,0:0:0:0:
314,170,103688,1,2,0:0:0:0:
314,170,103849,2,0,B|295:182|295:182|162:167,1,154.000004699707,8|8,0:0|0:0,0:0:0:0:
164,167,104330,1,2,0:0:0:0:
169,6,104651,38,0,P|245:16|322:20,1,154.000004699707,6|8,0:0|0:0,0:0:0:0:
309,111,105132,2,0,P|232:100|155:96,1,154.000004699707,12|0,0:0|0:0,0:0:0:0:
85,44,105613,1,8,0:0:0:0:
85,44,105693,1,8,0:0:0:0:
85,44,105774,1,8,0:0:0:0:
15,106,105934,6,0,B|10:122|10:122|23:180,1,77.0000023498536,4|8,0:0|0:0,0:0:0:0:
103,236,106255,1,2,0:0:0:0:
103,236,106415,1,8,0:0:0:0:
31,295,106576,2,0,B|36:311|36:311|24:370,1,77.0000023498536,2|8,0:0|0:0,0:0:0:0:
120,374,106897,1,2,0:0:0:0:
120,374,107057,38,0,P|157:362|195:356,1,77.0000023498536,8|2,0:0|0:0,0:0:0:0:
267,298,107378,2,0,P|342:312|413:340,1,154.000004699707,8|8,0:0|0:0,0:0:0:0:
497,379,107859,2,0,P|496:340|505:303,1,77.0000023498536,6|8,0:0|0:0,0:0:0:0:
439,249,108180,1,6,0:0:0:0:
402,92,108501,6,0,B|384:99|384:99|327:82,1,77.0000023498536,6|8,0:0|0:0,0:0:0:0:
269,15,108822,1,2,0:0:0:0:
269,15,108982,1,8,0:0:0:0:
193,72,109143,2,0,B|175:65|175:65|118:82,1,77.0000023498536,2|8,0:0|0:0,0:0:0:0:
49,21,109464,1,2,0:0:0:0:
0,99,109624,38,0,P|9:137|13:175,1,77.0000023498536,8|2,0:0|0:0,0:0:0:0:
95,216,109945,2,0,P|94:293|82:369,1,154.000004699707,8|8,0:0|0:0,0:0:0:0:
174,381,110426,2,0,P|181:343|186:305,1,77.0000023498536,6|8,0:0|0:0,0:0:0:0:
270,273,110747,1,6,0:0:0:0:
340,142,111068,6,0,B|351:128|351:128|487:134,1,154.000004699707,6|2,0:0|0:0,0:0:0:0:
495,33,111549,2,0,B|484:47|484:47|347:40,1,154.000004699707,8|8,0:0|0:0,0:0:0:0:
261,73,112030,2,0,P|228:53|217:17,1,77.0000023498536,2|8,0:0|0:0,0:0:0:0:
126,1,112351,38,0,P|107:109|2:143,1,231.000007049561,6|8,0:0|0:0,0:0:0:0:
29,37,112993,1,2,0:0:0:0:
29,37,113073,1,0,0:0:0:0:
29,37,113153,1,8,0:0:0:0:
105,112,113314,2,0,L|88:198,1,77.0000023498536,2|8,0:0|0:0,0:0:0:0:
15,260,113635,6,0,B|47:238|47:238|325:262,1,308.000009399414,6|2,0:0|0:0,0:0:0:0:
491,149,114597,2,0,P|460:171|422:175,1,77.0000023498536,2|8,0:0|0:0,0:0:0:0:
353,104,114918,38,0,P|276:101|200:113,1,154.000004699707,12|2,0:0|0:0,0:0:0:0:
194,20,115399,2,0,P|270:22|346:10,1,154.000004699707,12|8,0:0|0:0,0:0:0:0:
432,58,115881,1,2,0:0:0:0:
432,58,115961,1,0,0:0:0:0:
432,58,116041,1,8,0:0:0:0:
505,98,116202,6,0,L|483:324,1,210,12|8,0:0|0:0,0:0:0:0:
402,290,116843,2,0,P|398:222|340:188,1,140,2|2,0:0|0:0,0:0:0:0:
315,354,117485,2,0,P|245:349|175:340,1,140,4|2,0:0|0:0,0:0:0:0:
328,269,118127,2,0,P|258:260|188:255,1,140,2|8,0:0|0:0,0:0:0:0:
115,286,118608,1,8,0:0:0:0:
115,286,118688,1,8,0:0:0:0:
115,286,118768,38,0,P|58:251|61:184,1,140,4|0,0:0|0:0,0:0:0:0:
139,152,119250,2,0,L|354:163,1,210,4|0,0:0|0:0,0:0:0:0:
426,194,119891,6,0,P|482:159|479:92,1,140,4|0,0:0|0:0,0:0:0:0:
400,58,120373,1,8,0:0:0:0:
268,162,120693,1,8,0:0:0:0:
143,49,121014,1,8,3:0:0:0:
0,139,121335,38,0,P|95:161|93:258,1,210,4|0,0:0|0:0,0:0:0:0:
11,280,121977,2,0,P|115:268|223:262,1,210,2|0,0:0|0:0,0:0:0:0:
295,225,122619,2,0,P|200:238|203:334,1,210,4|0,0:0|0:0,0:0:0:0:
282,359,123260,2,0,L|317:357,3,35,8|8|0|0,0:0|0:0|0:0|0:0,0:0:0:0:
356,340,123581,2,0,L|391:342,3,35
428,360,123902,6,0,P|434:327|449:290,1,70,8|2,0:0|0:0,0:0:0:0:
401,222,124223,2,0,P|395:189|380:152,1,70,2|0,0:0|0:0,0:0:0:0:
468,115,124544,37,8,0:0:0:0:
468,115,124624,1,0,0:0:0:0:
467,115,124704,2,0,P|489:87|488:53,1,70,8|8,0:0|0:0,0:0:0:0:
417,8,125025,1,0,0:0:0:0:
341,62,125186,5,8,0:0:0:0:
341,62,125266,1,2,0:0:0:0:
341,62,125346,2,0,L|303:56,5,35,8|8|8|8|8|8,0:0|0:0|0:0|0:0|0:0|0:0,0:0:0:0:
274,62,125827,1,8,0:0:0:0:
274,62,125988,2,0,P|251:88|255:133,1,70,2|2,0:0|0:0,0:0:0:0:
345,189,126308,1,8,0:0:0:0:
270,267,126469,38,0,B|243:244|243:244|65:252,1,210,4|8,0:0|0:0,0:0:0:0:
23,180,127111,2,0,P|6:149|9:115,1,70,2|8,0:0|0:0,0:0:0:0:
77,65,127431,1,0,0:0:0:0:
77,65,127592,6,0,B|169:60|169:60|181:64|181:64|310:58,1,210,8|0,0:0|0:0,0:0:0:0:
457,100,128394,2,0,B|472:132|472:132|455:162,1,70,2|8,0:0|0:0,0:0:0:0:
368,154,128715,1,2,0:0:0:0:
368,154,128875,38,0,B|352:119|352:119|376:94|376:94|385:24,1,140,8|8,0:0|0:0,0:0:0:0:
292,37,129357,1,0,0:0:0:0:
219,173,129677,2,0,P|230:140|229:105,1,70,2|8,0:0|0:0,0:0:0:0:
150,76,129998,2,0,P|143:41|125:12,1,70,2|8,0:0|0:0,0:0:0:0:
41,22,130319,6,0,P|10:61|22:111,1,105,4|0,0:0|0:0,0:0:0:0:
13,152,130640,38,0,P|32:199|81:213,1,105,4|0,0:0|0:0,0:0:0:0:
109,245,130961,6,0,P|160:252|196:207,1,105,4|0,0:0|0:0,0:0:0:0:
183,174,131282,38,0,P|184:92|191:18,1,140,4|2,0:0|0:0,0:0:0:0:
337,112,131923,1,0,0:0:0:0:
510,177,132244,2,0,P|445:163|409:218,1,140,6|0,0:0|0:0,0:0:0:0:
503,357,132886,6,0,B|473:337|473:337|440:345,1,70,6|8,0:0|0:0,0:0:0:0:
377,297,133207,1,0,0:0:0:0:
377,297,133367,2,0,B|276:290|276:290|264:297|264:297|168:288,1,210,8|2,0:0|0:0,0:0:0:0:
95,328,134009,1,8,0:0:0:0:
38,265,134169,38,0,B|17:238|17:238|45:50,1,210,6|8,0:0|0:0,0:0:0:0:
120,30,134811,2,0,P|140:58|154:90,1,70,2|8,0:0|0:0,0:0:0:0:
232,120,135132,2,0,P|211:148|197:180,1,70,0|8,0:0|0:0,0:0:0:0:
117,195,135453,5,12,0:0:0:0:
117,195,135613,2,0,P|98:166|64:158,1,70,2|8,0:0|0:0,0:0:0:0:
0,208,135934,2,0,P|4:277|7:347,1,140,8|12,0:0|0:0,0:0:0:0:
99,370,136415,1,2,0:0:0:0:
99,370,136496,1,2,0:0:0:0:
99,370,136576,1,8,0:0:0:0:
168,308,136736,38,0,B|194:281|194:281|374:295,1,210,12|8,0:0|0:0,0:0:0:0:
445,236,137378,2,0,P|466:208|467:174,1,70,2|8,0:0|0:0,0:0:0:0:
357,183,137699,1,0,0:0:0:0:
357,183,137859,6,0,B|257:175|257:175|247:179|247:179|124:167,1,210,8|0,0:0|0:0,0:0:0:0:
95,26,138661,2,0,B|127:11|127:11|159:23,1,70,0|8,0:0|0:0,0:0:0:0:
213,88,138982,1,2,0:0:0:0:
285,42,139143,1,8,0:0:0:0:
285,42,139303,38,0,L|278:-12,6,35,4|2|8|2|2|2|8,0:0|0:0|0:0|0:0|0:0|0:0|0:0,0:0:0:0:
374,52,139945,6,0,L|378:17,6,35,2|2|8|2|2|2|8,0:0|0:0|0:0|0:0|0:0|0:0|0:0,0:0:0:0:
457,40,140587,38,0,L|461:74,6,35,2|2|8|2|2|2|8,0:0|0:0|0:0|0:0|0:0|0:0|0:0,0:0:0:0:
374,52,141228,6,0,P|382:103|389:155,1,105,12|2,0:0|0:0,0:0:0:0:
421,183,141549,38,0,P|429:234|436:286,1,105,12|2,0:0|0:0,0:0:0:0:
466,317,141870,6,0,P|432:307|397:306,1,70,4|8,0:0|0:0,0:0:0:0:
329,356,142191,1,0,0:0:0:0:
238,214,142512,2,0,P|171:228|156:296,1,140,4|0,0:0|0:0,0:0:0:0:
3,363,143153,38,0,P|6:328|6:293,1,70,4|8,0:0|0:0,0:0:0:0:
75,243,143474,1,0,0:0:0:0:
75,243,143635,2,0,P|71:208|71:173,1,70,8|12,0:0|0:0,0:0:0:0:
18,103,143956,1,12,0:0:0:0:
18,103,144116,1,8,0:0:0:0:
169,2,144437,6,0,P|199:19|219:47,1,70,4|2,0:0|0:0,0:0:0:0:
304,37,144758,2,0,P|321:67|325:101,1,70,8|2,0:0|0:0,0:0:0:0:
400,140,145079,2,0,P|400:174|386:206,1,70,8|2,0:0|0:0,0:0:0:0:
431,277,145399,2,0,P|413:307|385:327,1,70,8|2,0:0|0:0,0:0:0:0:
344,320,145640,1,2,0:0:0:0:
344,320,145720,38,0,P|311:306|278:296,1,70,4|2,0:0|0:0,0:0:0:0:
253,215,146041,2,0,P|219:225|187:238,1,70,8|2,0:0|0:0,0:0:0:0:
113,192,146362,2,0,P|94:221|77:252,1,70,8|8,0:0|0:0,0:0:0:0:
43,276,146603,1,8,0:0:0:0:
43,276,146683,2,0,P|47:310|55:344,1,70,8|8,0:0|0:0,0:0:0:0:
138,354,147004,6,0,B|165:334|165:334|205:337,1,70,4|0,0:0|0:0,0:0:0:0:
278,384,147325,38,0,L|326:375,3,35,8|0|0|0,0:0|0:0|0:0|0:0,0:0:0:0:
361,311,147645,2,0,L|412:321,3,35,8|0|0|0,0:0|0:0|0:0|0:0,0:0:0:0:
460,363,147966,2,0,L|511:348,3,35,8|0|0|0,0:0|0:0|0:0|0:0,0:0:0:0:
484,269,148287,5,4,0:0:0:0:
402,222,148448,1,4,0:0:0:0:
443,140,148608,2,0,P|474:125|509:126,1,70,4|0,0:0|0:0,0:0:0:0:
506,30,148929,2,0,P|401:37|296:49,1,210,4|0,0:0|0:0,0:0:0:0:
229,99,149571,38,0,B|243:122|243:122|230:249,2,140,4|2|2,0:0|0:0|0:0,0:0:0:0:
64,101,150533,1,2,0:0:0:0:
64,101,150693,2,0,B|50:124|50:124|63:251,2,140,6|6|6,0:0|0:0|0:0,0:0:0:0:
137,143,151496,5,4,0:0:0:0:
395,357,152137,38,0,B|414:324|414:324|402:294,1,70,4|8,0:0|0:0,0:0:0:0:
364,219,152458,2,0,B|344:186|344:186|356:156,1,70,0|8,0:0|0:0,0:0:0:0:
426,108,152779,1,2,0:0:0:0:
426,108,152939,1,8,0:0:0:0:
373,41,153100,2,0,L|290:27,1,70,0|8,0:0|0:0,0:0:0:0:
231,72,153421,6,0,B|203:50|203:50|170:62,1,70,4|8,0:0|0:0,0:0:0:0:
149,147,153742,1,0,0:0:0:0:
149,147,153902,2,0,P|150:216|154:286,1,140,8|8,0:0|0:0,0:0:0:0:
70,296,154383,2,0,P|68:261|66:226,1,70,2|8,0:0|0:0,0:0:0:0:
3,164,154704,38,0,B|27:138|27:138|67:135,1,70,4|8,0:0|0:0,0:0:0:0:
149,147,155025,1,0,0:0:0:0:
149,147,155185,2,0,P|218:145|288:141,1,140,8|8,0:0|0:0,0:0:0:0:
373,131,155667,2,0,P|407:128|442:126,1,70,0|8,0:0|0:0,0:0:0:0:
506,180,155988,6,0,P|504:198|503:215,3,35,4|8|8|8,0:0|0:0|0:0|0:0,0:0:0:0:
473,244,156308,2,0,P|475:262|476:279,3,35,8|8|4|8,0:0|0:0|0:0|0:0,0:0:0:0:
441,303,156629,2,0,B|382:266|298:306|364:350|273:388|200:340,1,245,8|8,0:0|0:0,0:0:0:0:
209,323,157271,38,0,P|204:211|197:79,2,224,4|8|4,0:0|0:0|0:0,0:0:0:0:
133,379,158715,1,8,0:0:0:0:
133,379,158875,1,4,0:0:0:0:
9,287,159196,5,8,0:0:0:0:
9,287,159357,2,0,L|-4:213,1,56,0|4,0:0|0:0,0:0:0:0:
137,178,159838,38,0,L|150:104,2,56,0|8|8,0:0|0:0|0:0,0:0:0:0:
54,51,160480,1,8,0:0:0:0:
54,51,160640,1,8,0:0:0:0:
130,12,160800,2,0,L|177:17,3,28,8|2|2|2,0:0|0:0|0:0|0:0,0:0:0:0:
176,7,161121,6,0,L|147:237,1,210,4|4,0:0|0:0,0:0:0:0:
320,240,161923,1,4,0:0:0:0:
320,240,162084,2,0,L|331:148,2,70,4|4|4,0:0|0:0|0:0,0:0:0:0:
156,223,162726,37,4,0:0:0:0:
156,223,162886,1,4,0:0:0:0:
82,262,163046,6,0,L|77:302,3,35,4|2|2|2,0:0|0:0|0:0|0:0,0:0:0:0:
42,320,163367,2,0,L|37:360,3,35,2|0|0|0,0:0|0:0|0:0|0:0,0:0:0:0:
2,378,163688,1,2,0:0:0:0:
71,35,167378,38,0,B|82:63|82:63|48:167,1,140,6|0,0:0|0:0,0:0:0:0:
13,189,167779,1,0,0:0:0:0:
13,189,167859,1,8,0:0:0:0:
159,271,168180,6,0,L|153:224,4,35,8|0|0|2|8,0:0|0:0|0:0|0:0|0:0,0:0:0:0:
321,182,168822,38,0,B|337:176|337:176|471:202,1,154.000004699707,6|2,0:0|0:0,0:0:0:0:
510,117,169303,2,0,B|494:123|494:123|359:96,1,154.000004699707,8|8,0:0|0:0,0:0:0:0:
270,72,169784,2,0,L|194:81,1,77.0000023498536,2|8,0:0|0:0,0:0:0:0:
161,168,170105,6,0,P|146:51|56:55,1,231.000007049561,6|8,0:0|0:0,0:0:0:0:
1,140,170747,2,0,P|7:177|10:216,1,77.0000023498536,2|8,0:0|0:0,0:0:0:0:
85,274,171068,1,2,0:0:0:0:
85,274,171228,1,8,0:0:0:0:
61,359,171389,38,0,B|79:364|79:364|164:339,1,77.0000023498536,6|8,0:0|0:0,0:0:0:0:
222,294,171710,1,2,0:0:0:0:
222,294,171870,2,0,B|240:288|240:288|403:330,1,154.000004699707,8|8,0:0|0:0,0:0:0:0:
370,321,172351,1,2,0:0:0:0:
498,201,172672,6,0,P|485:124|480:48,1,154.000004699707,6|8,0:0|0:0,0:0:0:0:
388,57,173153,2,0,P|400:133|405:209,1,154.000004699707,12|0,0:0|0:0,0:0:0:0:
464,288,173635,1,8,0:0:0:0:
464,288,173715,1,8,0:0:0:0:
464,288,173795,1,8,0:0:0:0:
382,332,173956,38,0,B|367:319|367:319|309:316,1,77.0000023498536,4|8,0:0|0:0,0:0:0:0:
255,249,174276,1,2,0:0:0:0:
255,249,174437,1,8,0:0:0:0:
190,314,174597,2,0,B|172:322|172:322|116:310,1,77.0000023498536,2|8,0:0|0:0,0:0:0:0:
28,329,174918,1,2,0:0:0:0:
28,329,175079,6,0,P|33:290|43:253,1,77.0000023498536,8|2,0:0|0:0,0:0:0:0:
71,166,175399,2,0,P|65:89|53:13,1,154.000004699707,8|8,0:0|0:0,0:0:0:0:
146,71,175881,2,0,P|185:72|221:59,1,77.0000023498536,6|8,0:0|0:0,0:0:0:0:
284,0,176202,1,6,0:0:0:0:
471,66,176522,38,0,B|454:78|454:78|442:132,1,77.0000023498536,6|8,0:0|0:0,0:0:0:0:
503,209,176843,1,2,0:0:0:0:
503,209,177004,1,8,0:0:0:0:
419,247,177164,2,0,B|436:259|436:259|447:313,1,77.0000023498536,2|8,0:0|0:0,0:0:0:0:
372,367,177485,1,2,0:0:0:0:
372,367,177645,6,0,P|334:357|296:351,1,77.0000023498536,8|2,0:0|0:0,0:0:0:0:
235,280,177966,2,0,P|159:296|89:327,1,154.000004699707,8|8,0:0|0:0,0:0:0:0:
5,368,178448,2,0,P|13:330|18:292,1,77.0000023498536,6|8,0:0|0:0,0:0:0:0:
83,230,178768,1,6,0:0:0:0:
27,79,179089,38,0,B|49:90|49:90|196:66,1,154.000004699707,6|2,0:0|0:0,0:0:0:0:
245,158,179571,2,0,B|223:147|223:147|76:171,1,154.000004699707,8|8,0:0|0:0,0:0:0:0:
123,257,180052,2,0,L|198:244,1,77.0000023498536,2|8,0:0|0:0,0:0:0:0:
237,334,180373,6,0,P|263:232|372:242,1,231.000007049561,6|8,0:0|0:0,0:0:0:0:
421,335,181014,1,2,0:0:0:0:
421,335,181095,1,0,0:0:0:0:
421,335,181175,1,8,0:0:0:0:
510,270,181335,2,0,L|506:194,1,77.0000023498536,2|8,0:0|0:0,0:0:0:0:
476,98,181656,38,0,B|451:122|451:122|167:110,1,308.000009399414,6|2,0:0|0:0,0:0:0:0:
193,309,182619,2,0,P|211:276|205:238,1,77.0000023498536,2|8,0:0|0:0,0:0:0:0:
130,203,182939,6,0,P|132:126|141:49,1,154.000004699707,12|12,0:0|0:0,0:0:0:0:
48,44,183421,2,0,P|45:120|36:197,1,154.000004699707,0|8,0:0|0:0,0:0:0:0:
73,287,183902,1,10,0:0:0:0:
73,287,183982,1,2,0:0:0:0:
73,287,184062,1,8,0:0:0:0:
4,335,184223,38,0,L|245:316,1,210,12|8,0:0|0:0,0:0:0:0:
286,359,184865,2,0,P|351:328|349:253,1,140,2|2,0:0|0:0,0:0:0:0:
219,174,185506,2,0,P|222:104|230:34,1,140,4|2,0:0|0:0,0:0:0:0:
306,178,186148,2,0,P|313:108|317:38,1,140,2|8,0:0|0:0,0:0:0:0:
399,16,186629,1,8,0:0:0:0:
399,16,186790,6,0,P|464:28|480:93,1,140,12|0,0:0|0:0,0:0:0:0:
422,154,187271,2,0,P|317:147|212:138,1,210,12|0,0:0|0:0,0:0:0:0:
144,89,187913,2,0,P|78:101|62:166,1,140,12|2,0:0|0:0,0:0:0:0:
124,220,188394,1,8,0:0:0:0:
266,131,188715,1,0,0:0:0:0:
375,258,189036,2,0,L|457:242,1,70,8|8,0:0|0:0,0:0:0:0:
489,315,189357,38,0,P|400:331|265:357,1,210,8|12,0:0|0:0,0:0:0:0:
221,296,189998,2,0,P|117:276|14:257,1,210,4|8,0:0|0:0,0:0:0:0:
17,172,190640,6,0,P|48:79|146:82,1,210,2|8,0:0|0:0,0:0:0:0:
202,144,191282,2,0,L|192:235,1,70,2|8,0:0|0:0,0:0:0:0:
134,272,191603,1,8,0:0:0:0:
134,272,191763,1,8,0:0:0:0:
194,329,191923,38,0,P|230:291|279:275,1,105,12|0,0:0|0:0,0:0:0:0:
322,278,192244,2,0,P|371:294|407:331,1,105,8|0,0:0|0:0,0:0:0:0:
439,359,192565,2,0,P|437:303|440:254,1,105,8|0,0:0|0:0,0:0:0:0:
460,216,192886,2,0,P|459:181|455:146,1,70,8|2,0:0|0:0,0:0:0:0:
431,109,193127,1,8,0:0:0:0:
431,109,193207,6,0,P|382:91|331:84,1,105,12|0,0:0|0:0,0:0:0:0:
288,82,193528,2,0,P|236:89|187:107,1,105,8|0,0:0|0:0,0:0:0:0:
149,127,193849,2,0,P|99:145|48:152,1,105,8|8,0:0|0:0,0:0:0:0:
12,129,194169,2,0,L|4:42,1,70,8|2,0:0|0:0,0:0:0:0:
19,19,194410,1,8,0:0:0:0:
19,19,194490,38,0,P|71:24|107:66,1,105,12|0,0:0|0:0,0:0:0:0:
105,103,194811,2,0,L|96:159,3,35,8|0|2|0,0:0|0:0|0:0|0:0,0:0:0:0:
119,174,195132,2,0,L|128:230,3,35,8|0|2|0,0:0|0:0|0:0|0:0,0:0:0:0:
111,248,195453,2,0,L|102:304,3,35,8|0|2|0,0:0|0:0|0:0|0:0,0:0:0:0:
119,322,195774,2,0,L|128:378,3,35,8|0|2|0,0:0|0:0|0:0|0:0,0:0:0:0:
199,384,196095,5,4,0:0:0:0:
475,248,197378,38,0,L|461:348,1,83.9999974365235,4|0,0:0|0:0,0:0:0:0:
388,372,198020,1,0,0:0:0:0:
388,372,198180,6,0,B|369:355|369:355|405:113,1,251.999992309571,4|0,0:0|0:0,0:0:0:0:
369,105,199303,1,0,0:0:0:0:
333,82,199464,1,0,0:0:0:0:
295,63,199624,38,0,B|282:134|282:134|266:150|266:150|250:235,1,167.999994873047,4|0,0:0|0:0,0:0:0:0:
214,238,200426,1,0,0:0:0:0:
175,221,200587,1,0,2:0:0:0:
139,198,200747,6,0,B|149:143|149:143|157:132|157:132|169:61,1,125.999996154785,4|0,0:0|2:0,0:0:0:0:
136,46,201389,1,0,0:0:0:0:
102,21,201549,2,0,P|61:20|40:54,1,83.9999974365235,8|0,0:0|0:0,0:0:0:0:
1,128,202191,38,0,B|23:110|23:110|162:117,1,167.999994873047,4|4,0:0|0:0,0:0:0:0:
222,227,203314,2,0,P|236:168|294:150,1,125.999996154785,4|0,0:0|0:0,0:0:0:0:
326,175,203956,2,0,L|321:263,1,83.9999974365235,4|2,0:0|0:0,0:0:0:0:
347,291,204437,2,0,P|366:297|381:312,1,41.9999987182618,2|2,0:0|0:0,0:0:0:0:
376,353,204758,6,0,B|331:374|290:346|290:346|265:376|265:376|212:333|152:372,1,251.999992309571,4|0,0:0|0:0,0:0:0:0:
112,360,205881,37,0,0:0:0:0:
112,360,206041,2,0,L|121:302,1,41.9999987182618,6|8,0:0|0:0,0:0:0:0:
177,209,206522,2,0,L|171:172,2,20.9999993591309,2|0|4,0:0|0:0|0:0,0:0:0:0:
260,228,206843,1,4,0:0:0:0:
36,143,207164,37,2,0:0:0:0:
36,143,207325,38,0,L|45:74,2,46.6666666666667,4|2|0,0:0|0:0|0:0,0:0:0:0:
90,33,207645,6,0,L|153:4,2,46.6666666666667,4|2|0,0:0|0:0|0:0,0:0:0:0:
208,28,207966,38,0,L|262:69,2,46.6666666666667,4|2|0,0:0|0:0|0:0,0:0:0:0:
264,131,208287,6,0,L|253:199,2,46.6666666666667,4|2|0,0:0|0:0|0:0,0:0:0:0:
303,241,208608,38,0,P|348:232|368:191,1,93.3333333333333,4|0,0:0|0:0,0:0:0:0:
408,102,208929,6,0,P|429:142|473:152,1,93.3333333333333,4|0,0:0|0:0,0:0:0:0:
503,222,209250,38,0,P|488:241|484:264,2,46.6666666666667
402,294,209571,6,0,P|410:316|428:331,2,46.6666666666667,8|8|8,0:0|0:0|0:0,0:0:0:0:
512,340,209891,37,4,0:0:0:0:
256,192,210052,12,0,212137,0:0:0:0:
296,165,212458,6,0,P|328:197|339:242,1,93.3333333333333,4|4,0:0|0:0,0:0:0:0:
216,181,212886,37,8,0:0:0:0:
206,170,212993,5,8,0:0:0:0:
200,157,213100,38,0,P|212:112|245:80,1,93.3333333333333,4|4,0:0|0:0,0:0:0:0:
271,242,213528,5,8,0:0:0:0:
266,256,213635,37,8,0:0:0:0:
259,268,213742,6,0,P|214:279|169:266,2,93.3333333333333,4|4|8,0:0|0:0|0:0,0:0:0:0:
256,192,214704,5,4,0:0:0:0:
