osu file format v14

[General]
AudioFilename: audio.ogg
AudioLeadIn: 0
PreviewTime: 168661
Countdown: 0
SampleSet: Drum
StackLeniency: 0.4
Mode: 0
LetterboxInBreaks: 0
WidescreenStoryboard: 1

[Editor]
Bookmarks: 30212,52030,72565,83474,95667,116202,126469,136736,149571,163688,184223,196095
DistanceSpacing: 0.6
BeatDivisor: 4
GridSize: 32
TimelineZoom: 3.499999

[Metadata]
Title:Crystallite Dream
TitleUnicode:Crystallite Dream
Artist:Vulpecula
ArtistUnicode:Vulpecula
Creator:Urition
Version:Roupition's Insane
Source:
Tags:English Melodic Symphonic Choir Power Metal Fantasy Love Adventure Romance Epic male vocals First Debut Single Original Noah Simmons Fridolf Karlsfeld Brad Wosko Jack Stanley Callum Tuffen Kylee Stream Death Runigh Roupus shoyeu TrueInverse
BeatmapID:4127005
BeatmapSetID:1943645

[Difficulty]
HPDrainRate:4
CircleSize:4
OverallDifficulty:8
ApproachRate:9
SliderMultiplier:1.7
SliderTickRate:1

[Events]
//Background and Video events
0,0,"bg.png",0,0
//Break Periods
2,163888,166778
//Storyboard Layer 0 (Background)
//Storyboard Layer 1 (Fail)
//Storyboard Layer 2 (Pass)
//Storyboard Layer 3 (Foreground)
//Storyboard Layer 4 (Overlay)
//Storyboard Sound Samples

[TimingPoints]
694,320.855614973262,4,3,1,60,1,0
694,-133.333333333333,4,3,1,60,0,0
1013,-133.333333333333,4,3,1,15,0,0
1175,-133.333333333333,4,2,1,5,0,0
1334,-133.333333333333,4,3,1,60,0,0
1495,-133.333333333333,4,2,1,5,0,0
1655,-133.333333333333,4,3,2,60,0,0
1815,-133.333333333333,4,3,1,60,0,0
2297,-133.333333333333,4,3,1,15,0,0
2778,-133.333333333333,4,3,1,60,0,0
3580,-133.333333333333,4,3,1,15,0,0
3901,-133.333333333333,4,3,1,60,0,0
5184,-133.333333333333,4,3,4,70,0,0
5827,-133.333333333333,4,3,1,60,0,0
8394,-117.647058823529,4,3,1,60,0,0
8554,-117.647058823529,4,2,5,60,0,0
8635,-117.647058823529,4,2,5,60,0,0
8715,-117.647058823529,4,3,1,60,0,0
8795,-117.647058823529,4,2,5,60,0,0
8875,-117.647058823529,4,3,1,60,0,0
9036,-117.647058823529,4,2,5,60,0,0
9116,-117.647058823529,4,3,1,60,0,0
9196,-117.647058823529,4,2,5,60,0,0
9357,-117.647058823529,4,3,1,60,0,0
9437,-117.647058823529,4,2,5,60,0,0
9517,-117.647058823529,4,3,1,60,0,0
9597,-117.647058823529,4,2,5,60,0,0
9677,-117.647058823529,4,3,1,60,0,0
10960,-117.647058823529,4,3,1,70,0,0
11282,-100,4,3,1,70,0,0
13367,-100,4,3,1,60,0,0
13528,-166.666666666667,4,3,1,50,0,0
13849,-166.666666666667,4,3,1,40,0,0
14169,-100,4,3,1,40,0,0
14971,-100,4,3,1,40,0,0
15132,-100,4,3,1,40,0,0
15613,-100,4,3,1,70,0,0
16014,-100,4,2,1,5,0,0
16095,-100,4,3,1,70,0,0
18501,-100,4,3,1,60,0,0
18661,-100,4,3,1,50,0,0
18982,-100,4,3,1,40,0,0
20266,-100,4,3,1,50,0,0
20426,-100,4,3,1,60,0,0
20587,-100,4,3,1,70,0,0
26362,-125,4,3,1,55,0,0
26843,-125,4,3,1,55,0,0
27004,-125,4,3,1,55,0,0
30212,-100,4,3,1,70,0,0
32619,-100,4,3,1,60,0,0
32779,-100,4,3,1,50,0,0
32858,-100,4,3,4,55,0,0
33901,-100,4,3,1,55,0,0
34061,-100,4,3,4,100,0,0
34382,-100,4,3,1,55,0,0
34865,-100,4,3,1,70,0,0
35266,-100,4,3,1,70,0,0
35347,-100,4,3,1,70,0,0
36629,-100,4,3,1,75,0,0
37271,-100,4,3,1,80,0,0
37913,-100,4,3,1,85,0,0
38073,-100,4,3,1,70,0,0
38234,-100,4,3,1,60,0,0
39838,-100,4,3,1,70,0,0
40239,-100,4,2,1,5,0,0
40320,-100,4,3,1,70,0,0
44330,-100,4,3,1,55,0,0
44890,-100,4,3,1,30,0,0
45131,-100,4,3,1,55,0,0
45613,-142.857142857143,4,3,1,40,0,0
47458,-142.857142857143,4,2,1,5,0,0
47538,-142.857142857143,4,3,1,40,0,0
48341,-100,4,3,1,40,0,0
49062,-100,4,3,1,50,0,0
49142,-100,4,3,4,60,0,0
49623,-100,4,3,1,60,0,0
50345,-100,4,3,4,60,0,0
50666,-100,4,3,4,60,0,0
50746,-100,4,3,1,60,0,0
51548,-100,4,3,1,70,0,0
52030,-83.3333333333333,4,3,1,90,0,1
52270,-83.3333333333333,4,3,1,5,0,1
52351,-83.3333333333333,4,3,1,90,0,1
52672,-83.3333333333333,4,3,1,90,0,1
52912,-83.3333333333333,4,3,1,5,0,1
52993,-83.3333333333333,4,3,1,90,0,1
53875,-83.3333333333333,4,3,1,5,0,1
53956,-83.3333333333333,4,3,1,90,0,1
54196,-83.3333333333333,4,3,1,5,0,1
54276,-83.3333333333333,4,3,1,90,0,1
54516,-83.3333333333333,4,3,1,5,0,1
54597,-83.3333333333333,4,3,1,90,0,1
55158,-83.3333333333333,4,3,1,5,0,1
55239,-83.3333333333333,4,3,1,90,0,1
55960,-83.3333333333333,4,3,1,5,0,1
56041,-83.3333333333333,4,3,1,90,0,1
56442,-83.3333333333333,4,3,1,5,0,1
56522,-83.3333333333333,4,3,1,90,0,1
56762,-83.3333333333333,4,3,1,5,0,1
56843,-83.3333333333333,4,3,1,90,0,1
57083,-83.3333333333333,4,3,1,5,0,1
57164,-83.3333333333333,4,3,1,90,0,1
61014,-83.3333333333333,4,3,1,80,0,1
61575,-83.3333333333333,4,3,1,40,0,1
61815,-83.3333333333333,4,3,4,75,0,1
61897,-83.3333333333333,4,3,4,75,0,1
62297,-83.3333333333333,4,3,1,90,0,1
62538,-83.3333333333333,4,3,1,5,0,1
62619,-83.3333333333333,4,3,1,90,0,1
63179,-83.3333333333333,4,3,1,90,0,1
63260,-83.3333333333333,4,3,1,90,0,1
63661,-83.3333333333333,4,3,1,5,0,1
63742,-83.3333333333333,4,3,1,90,0,1
64142,-83.3333333333333,4,3,1,5,0,1
64223,-83.3333333333333,4,3,1,90,0,1
64463,-83.3333333333333,4,3,1,5,0,1
64544,-83.3333333333333,4,3,1,90,0,1
64784,-83.3333333333333,4,3,1,5,0,1
64865,-83.3333333333333,4,3,1,90,0,1
65746,-83.3333333333333,4,3,1,90,0,1
65827,-83.3333333333333,4,3,1,90,0,1
66228,-83.3333333333333,4,3,1,5,0,1
66308,-83.3333333333333,4,3,1,90,0,1
66709,-83.3333333333333,4,3,1,5,0,1
66790,-83.3333333333333,4,3,1,90,0,1
67030,-83.3333333333333,4,3,1,5,0,1
67111,-83.3333333333333,4,3,1,90,0,1
67351,-83.3333333333333,4,3,1,5,0,1
67431,-83.3333333333333,4,3,1,90,0,1
71282,-83.3333333333333,4,3,1,80,0,0
71923,-83.3333333333333,4,3,1,70,0,0
72565,-125,4,3,1,70,0,0
73126,-125,4,2,1,5,0,0
73206,-100,4,3,4,70,0,0
73527,-100,4,3,1,70,0,0
74089,-100,4,2,1,5,0,0
74169,-100,4,3,1,70,0,0
76255,-100,4,3,1,60,0,0
76415,-100,4,3,1,50,0,0
76735,-100,4,3,4,40,0,0
77056,-100,4,3,1,40,0,0
77217,-100,4,3,4,40,0,0
78019,-100,4,3,1,40,0,0
78179,-100,4,3,4,40,0,0
78340,-100,4,3,1,40,0,0
78501,-100,4,3,1,70,0,0
78902,-100,4,2,1,5,0,0
78983,-100,4,3,1,70,0,0
80266,-100,4,3,1,75,0,0
80587,-100,4,3,1,80,0,0
80907,-100,4,3,1,85,0,0
81068,-100,4,3,1,90,0,0
81227,-100,4,3,4,70,0,0
81549,-100,4,3,1,80,0,0
81628,-100,4,3,1,60,0,0
81789,-100,4,3,1,80,0,0
81870,-100,4,3,1,60,0,0
82029,-100,4,3,1,80,0,0
82111,-100,4,3,1,60,0,0
82270,-100,4,3,1,80,0,0
82351,-100,4,3,1,60,0,0
82511,-100,4,3,1,80,0,0
82591,-100,4,3,1,15,0,0
82671,-100,4,3,4,60,0,0
83072,-100,4,3,1,40,0,0
83474,-100,4,3,1,70,0,0
88126,-100,4,3,4,70,0,0
88447,-100,4,3,1,70,0,0
89008,-100,4,3,1,30,0,0
89088,-100,4,3,1,70,0,0
89168,-100,4,3,1,30,0,0
89249,-125,4,3,1,40,0,0
89730,-125,4,2,1,5,0,0
89891,-125,4,3,1,40,0,0
90372,-125,4,3,1,40,0,0
90452,-125,4,3,1,40,0,0
93100,-100,4,3,1,60,0,0
93420,-100,4,3,4,60,0,0
93580,-100,4,3,1,60,0,0
93901,-100,4,3,4,60,0,0
94061,-100,4,3,1,60,0,0
94142,-100,4,3,4,100,0,0
94382,-90.9090909090909,4,3,1,60,0,0
94543,-90.9090909090909,4,3,1,60,0,0
94624,-90.9090909090909,4,3,1,60,0,0
95184,-100,4,3,1,70,0,0
95667,-83.3333333333333,4,3,1,90,0,1
95907,-83.3333333333333,4,3,1,5,0,1
95988,-83.3333333333333,4,3,1,90,0,1
96228,-83.3333333333333,4,3,1,90,0,1
96308,-83.3333333333333,4,3,1,90,0,1
96548,-83.3333333333333,4,3,1,5,0,1
96630,-83.3333333333333,4,3,1,90,0,1
97512,-83.3333333333333,4,3,1,5,0,1
97593,-83.3333333333333,4,3,1,90,0,1
97833,-83.3333333333333,4,3,1,5,0,1
97913,-83.3333333333333,4,3,1,90,0,1
98153,-83.3333333333333,4,3,1,5,0,1
98234,-83.3333333333333,4,3,1,90,0,1
98795,-83.3333333333333,4,3,1,5,0,1
98876,-83.3333333333333,4,3,1,90,0,1
99597,-83.3333333333333,4,3,1,5,0,1
99678,-83.3333333333333,4,3,1,90,0,1
100079,-83.3333333333333,4,3,1,5,0,1
100159,-83.3333333333333,4,3,1,90,0,1
100399,-83.3333333333333,4,3,1,5,0,1
100480,-83.3333333333333,4,3,1,90,0,1
100720,-83.3333333333333,4,3,1,5,0,1
100801,-83.3333333333333,4,3,1,90,0,1
104651,-83.3333333333333,4,3,1,80,0,1
105211,-100,4,3,1,40,0,1
105452,-83.3333333333333,4,3,4,5,0,1
105534,-83.3333333333333,4,3,4,75,0,1
105933,-83.3333333333333,4,3,1,90,0,1
106175,-83.3333333333333,4,3,1,5,0,1
106255,-83.3333333333333,4,3,1,90,0,1
106815,-83.3333333333333,4,3,1,90,0,1
106897,-83.3333333333333,4,3,1,90,0,1
107297,-83.3333333333333,4,3,1,5,0,1
107379,-83.3333333333333,4,3,1,90,0,1
107779,-83.3333333333333,4,3,1,5,0,1
107860,-83.3333333333333,4,3,1,90,0,1
108100,-83.3333333333333,4,3,1,5,0,1
108181,-83.3333333333333,4,3,1,90,0,1
108421,-83.3333333333333,4,3,1,5,0,1
108502,-83.3333333333333,4,3,1,90,0,1
109383,-83.3333333333333,4,3,1,90,0,1
109464,-83.3333333333333,4,3,1,90,0,1
109865,-83.3333333333333,4,3,1,5,0,1
109945,-83.3333333333333,4,3,1,90,0,1
110346,-83.3333333333333,4,3,1,5,0,1
110427,-83.3333333333333,4,3,1,90,0,1
110667,-83.3333333333333,4,3,1,5,0,1
110748,-83.3333333333333,4,3,1,90,0,1
110988,-83.3333333333333,4,3,1,5,0,1
111068,-83.3333333333333,4,3,1,90,0,1
114918,-83.3333333333333,4,3,1,80,0,0
115560,-83.3333333333333,4,3,1,70,0,0
116202,-100,4,3,1,70,0,0
118768,-100,4,3,1,55,0,0
119891,-133.333333333333,4,3,1,55,0,0
120373,-100,4,3,1,65,0,0
120693,-100,4,3,1,70,0,0
121014,-100,4,3,1,75,0,0
121335,-100,4,3,1,55,0,0
121496,-100,4,3,1,20,0,0
121656,-100,4,3,1,55,0,0
121736,-100,4,3,1,55,0,0
121977,-100,4,3,1,55,0,0
122137,-100,4,3,1,20,0,0
122298,-100,4,3,1,55,0,0
122378,-100,4,3,1,20,0,0
122619,-100,4,3,1,55,0,0
122779,-100,4,3,1,20,0,0
122939,-100,4,3,1,55,0,0
123020,-100,4,3,1,20,0,0
123259,-100,4,3,4,60,0,0
123581,-100,4,3,4,65,0,0
123742,-100,4,3,4,70,0,0
123902,-100,4,3,1,85,0,1
124223,-83.3333333333333,4,3,1,85,0,1
125506,-76.9230769230769,4,3,1,85,0,1
126469,-100,4,3,1,80,0,0
127030,-100,4,2,1,5,0,0
127111,-100,4,3,1,80,0,0
139222,-100,4,2,1,5,0,0
139303,-100,4,3,1,80,0,0
144437,-100,4,3,1,70,0,0
147004,-90.9090909090909,4,3,1,80,0,0
148287,-90.9090909090909,4,3,1,70,0,0
148929,-100,4,3,1,60,0,0
149571,-100,4,3,1,80,0,0
149891,-100,4,3,1,75,0,0
150212,-100,4,3,1,70,0,0
150533,-100,4,3,1,65,0,0
150854,-100,4,3,1,60,0,0
151175,-100,4,3,1,55,0,0
152137,-100,4,3,1,70,0,0
156548,-100,4,3,1,75,0,0
157270,-142.857142857143,4,3,1,55,0,0
159115,-142.857142857143,4,2,1,5,0,0
159196,-142.857142857143,4,3,1,55,0,0
160159,-100,4,3,1,55,0,0
160560,-100,4,2,1,5,0,0
160640,-100,4,3,1,55,0,0
161121,-100,4,3,1,80,0,0
163687,-100,4,2,10,50,0,0
164009,-100,4,2,11,100,0,0
164330,-100,4,2,12,100,0,0
164651,-100,4,2,13,100,0,0
164811,-100,4,2,14,100,0,0
165132,-100,4,2,15,100,0,0
165292,-100,4,2,16,100,0,0
165453,-100,4,2,17,100,0,0
165533,-100,4,2,18,100,0,0
165613,-100,4,2,19,100,0,0
165774,-100,4,2,20,100,0,0
165934,-100,4,2,21,100,0,0
166095,-100,4,2,22,100,0,0
166255,-100,4,2,23,100,0,0
166576,-100,4,2,24,100,0,0
166897,-100,4,2,25,100,0,0
167218,-100,4,2,26,100,0,0
167377,-100,4,2,27,50,0,0
167619,-100,4,2,27,5,0,0
167699,-100,4,3,1,70,0,0
168099,-100,4,3,1,5,0,0
168180,-100,4,3,1,70,0,0
168822,-83.3333333333333,4,3,1,90,0,1
172672,-83.3333333333333,4,3,1,80,0,1
173233,-83.3333333333333,4,3,1,40,0,1
173473,-83.3333333333333,4,3,4,5,0,1
173554,-100,4,3,4,75,0,1
173955,-83.3333333333333,4,3,1,90,0,1
174196,-83.3333333333333,4,3,1,5,0,1
174277,-83.3333333333333,4,3,1,90,0,1
174837,-83.3333333333333,4,3,1,90,0,1
174918,-83.3333333333333,4,3,1,90,0,1
175319,-83.3333333333333,4,3,1,5,0,1
175400,-83.3333333333333,4,3,1,90,0,1
175800,-83.3333333333333,4,3,1,5,0,1
175881,-83.3333333333333,4,3,1,90,0,1
176121,-83.3333333333333,4,3,1,5,0,1
176202,-83.3333333333333,4,3,1,90,0,1
176442,-83.3333333333333,4,3,1,5,0,1
176523,-83.3333333333333,4,3,1,90,0,1
177404,-83.3333333333333,4,3,1,90,0,1
177485,-83.3333333333333,4,3,1,90,0,1
177886,-83.3333333333333,4,3,1,5,0,1
177966,-83.3333333333333,4,3,1,90,0,1
178367,-83.3333333333333,4,3,1,5,0,1
178448,-83.3333333333333,4,3,1,90,0,1
178688,-83.3333333333333,4,3,1,5,0,1
178769,-83.3333333333333,4,3,1,90,0,1
179009,-83.3333333333333,4,3,1,5,0,1
179089,-83.3333333333333,4,3,1,90,0,1
182939,-83.3333333333333,4,3,1,80,0,0
183581,-83.3333333333333,4,3,1,70,0,0
184223,-100,4,3,1,70,0,0
186789,-100,4,3,1,55,0,0
188394,-100,4,3,1,65,0,0
188554,-100,4,3,1,75,0,0
188715,-100,4,3,1,85,0,0
189357,-100,4,3,1,90,0,0
191522,-100,4,3,1,5,0,0
191603,-100,4,3,1,90,0,0
191843,-100,4,3,1,5,0,0
191923,-100,4,3,1,100,0,1
196095,-100,4,3,1,100,0,0
196254,-100,4,3,1,15,0,0
196334,-100,4,2,0,30,0,0
197377,-100,4,3,1,60,0,0
197378,-90.9090909090909,4,3,1,60,0,0
198660,-100,4,3,1,15,0,0
199142,-100,4,3,1,60,0,0
200105,-100,4,2,1,5,0,0
200266,-100,4,3,1,60,0,0
200587,-100,4,3,1,60,0,0
200747,-100,4,3,1,60,0,0
201228,-100,4,3,1,15,0,0
201388,-100,4,3,1,60,0,0
201549,-100,4,3,4,70,0,0
202190,-100,4,3,1,60,0,0
204918,-100,4,2,5,60,0,0
205079,-100,4,3,1,60,0,0
205159,-100,4,2,5,60,0,0
205239,-100,4,3,1,60,0,0
205399,-100,4,2,5,60,0,0
205480,-100,4,3,1,60,0,0
205560,-100,4,2,5,60,0,0
205720,-100,4,3,1,60,0,0
205800,-100,4,2,5,60,0,0
205881,-100,4,3,1,60,0,0
205961,-100,4,2,5,60,0,0
206041,-100,4,3,1,60,0,0
207430,-100,4,3,1,30,0,0
207644,-100,4,3,1,40,0,0
207751,-100,4,3,1,30,0,0
207965,-100,4,3,1,40,0,0
208072,-100,4,3,1,30,0,0
208286,-100,4,3,1,40,0,0
208393,-100,4,3,1,30,0,0
208607,-100,4,3,1,40,0,0
208714,-100,4,3,1,30,0,0
208928,-100,4,3,1,40,0,0
209035,-100,4,3,1,30,0,0
209249,-100,4,3,4,40,0,0
209571,-100,4,3,4,30,0,0
209890,-100,4,3,1,100,0,0
212136,-100,4,1,2,15,0,0
212457,-100,4,3,1,70,0,0
214704,-100,4,3,1,100,0,0

[Colours]
Combo1 : 147,165,183
Combo2 : 255,188,32
Combo3 : 242,91,0
Combo4 : 94,187,126

[HitObjects]
42,292,694,6,0,B|78:266|130:289|121:295|177:335|230:291,1,191.250007295609,4|0,0:0|0:0,0:0:0:0:
280,222,1335,2,0,P|326:211|366:228,1,63.7500024318696
421,297,1656,1,8,2:0:0:0:
421,297,1816,6,0,P|434:201|448:96,1,191.250007295609,4|0,0:0|2:0,0:0:0:0:
314,47,2779,2,0,P|358:39|393:26,2,63.7500024318696,0|8|0,0:0|2:0|0:0,0:0:0:0:
210,2,3260,2,0,P|225:74|261:267,1,255.000009727478,4|0,0:0|0:0,0:0:0:0:
199,327,4062,1,0,0:0:0:0:
199,327,4223,1,8,2:0:0:0:
66,271,4383,38,0,P|66:221|174:247,1,191.250007295609,4|8,0:0|2:0,0:0:0:0:
87,364,5025,1,2,0:0:0:0:
53,259,5185,2,0,P|30:254|9:251,3,31.8750012159348,8|8|8|8,0:0|0:0|0:0|0:0,0:0:0:0:
112,179,5506,2,0,P|135:174|156:171,3,31.8750012159348
26,107,5827,5,4,0:0:0:0:
357,20,6469,37,4,0:0:0:0:
256,223,6950,5,4,0:0:0:0:
452,142,7431,37,0,0:0:0:0:
452,142,7592,2,0,P|440:217|432:295,1,127.500004863739,4|2,0:0|0:0,0:0:0:0:
435,277,7993,1,0,0:0:0:0:
436,286,8073,1,2,0:0:0:0:
338,342,8234,1,2,0:0:0:0:
250,246,8394,6,0,P|208:237|152:225,1,72.2500013780594,4|0,0:0|2:0,0:0:0:0:
172,232,8635,1,0,2:0:0:0:
164,233,8715,1,0,0:0:0:0:
66,315,8875,2,0,P|60:273|46:223,2,72.2500013780594,0|0|0,0:0|2:0|2:0,0:0:0:0:
122,373,9276,1,0,2:0:0:0:
122,373,9357,2,0,P|170:355|203:356,1,72.2500013780594
286,382,9677,1,6,0:0:0:0:
333,286,9838,1,2,0:0:0:0:
194,179,10159,6,0,L|187:148,3,24.0833337926865,2|2|2|2,0:0|0:0|0:0|0:0,0:0:0:0:
296,81,10480,5,2,0:0:0:0:
66,22,10961,5,6,0:0:0:0:
155,64,11121,1,8,0:0:0:0:
79,147,11282,2,0,P|83:188|91:237,1,85,0|8,0:0|0:0,0:0:0:0:
176,336,11603,2,0,P|180:294|188:245,1,85,2|8,0:0|0:0,0:0:0:0:
262,164,11923,1,0,0:0:0:0:
327,259,12084,6,0,B|368:293|415:267|409:262|450:235|499:262,1,170,8|8,0:0|0:0,0:0:0:0:
464,366,12565,1,0,0:0:0:0:
464,366,12645,1,2,0:0:0:0:
464,366,12726,1,8,0:0:0:0:
342,294,12886,2,0,P|298:297|251:305,1,85,2|8,0:0|0:0,0:0:0:0:
150,374,13207,38,0,L|155:326,1,42.5,2|2,0:0|0:0,0:0:0:0:
75,264,13367,2,0,L|80:311,1,42.5,2|2,0:0|0:0,0:0:0:0:
157,210,13528,6,0,P|127:176|57:173,1,101.999996887207,6|0,0:0|0:0,0:0:0:0:
1,213,14009,1,0,0:0:0:0:
32,83,14169,2,0,P|85:71|126:66,2,85,8|0|0,0:0|0:0|0:0,0:0:0:0:
186,122,14651,1,0,0:0:0:0:
186,122,14731,1,0,0:0:0:0:
186,122,14811,2,0,P|203:66|216:31,1,85
297,0,15132,1,0,0:0:0:0:
297,0,15212,1,0,0:0:0:0:
297,0,15292,2,0,P|300:22|304:63,1,42.5
317,183,15453,1,10,0:0:0:0:
407,93,15613,37,4,0:0:0:0:
264,118,15774,2,0,P|288:186|306:262,1,127.5,8|0,0:0|0:0,0:0:0:0:
294,271,16095,1,4,0:0:0:0:
361,366,16255,1,8,0:0:0:0:
438,222,16415,2,0,P|387:208|346:231,1,85,0|8,0:0|0:0,0:0:0:0:
433,337,16736,2,0,P|484:351|525:328,1,85,2|8,0:0|0:0,0:0:0:0:
444,205,17057,1,0,0:0:0:0:
340,328,17218,6,0,P|330:263|303:152,1,170,8|8,0:0|0:0,0:0:0:0:
230,78,17699,2,0,P|179:64|138:87,1,85,0|8,0:0|0:0,0:0:0:0:
201,229,18020,2,0,P|193:173|184:124,1,85,2|8,0:0|0:0,0:0:0:0:
89,70,18341,38,0,L|131:64,1,42.5,10|10,0:0|0:0,0:0:0:0:
63,144,18501,2,0,L|20:138,1,42.5,2|2,0:0|0:0,0:0:0:0:
100,214,18661,1,6,0:0:0:0:
41,382,19223,5,8,0:0:0:0:
41,382,19303,1,8,0:0:0:0:
158,303,19464,1,0,0:0:0:0:
169,315,19784,37,0,0:0:0:0:
273,384,19945,1,0,0:0:0:0:
313,225,20105,2,0,P|359:204|409:209,2,85,8|2|2,0:0|0:0|0:0,0:0:0:0:
254,373,20587,5,6,0:0:0:0:
170,47,20907,37,4,0:0:0:0:
451,240,21228,6,0,P|398:233|355:221,1,85,4|8,0:0|0:0,0:0:0:0:
270,137,21549,1,0,0:0:0:0:
270,137,21629,1,0,0:0:0:0:
270,137,21710,2,0,P|323:130|366:118,1,85,8|0,0:0|0:0,0:0:0:0:
481,28,22030,1,8,0:0:0:0:
512,155,22191,2,0,P|459:163|419:132,1,85,0|8,0:0|0:0,0:0:0:0:
379,28,22512,2,0,P|326:20|286:51,1,85,4|8,0:0|0:0,0:0:0:0:
270,137,22833,37,0,0:0:0:0:
270,137,22913,1,0,0:0:0:0:
270,137,22993,1,8,0:0:0:0:
157,84,23153,2,0,P|172:133|181:182,1,85,0|8,0:0|0:0,0:0:0:0:
102,282,23474,5,0,0:0:0:0:
116,266,23554,1,0,0:0:0:0:
135,256,23635,1,8,0:0:0:0:
155,252,23715,1,8,0:0:0:0:
176,254,23795,2,0,P|203:309|215:348,1,85,4|8,0:0|0:0,0:0:0:0:
300,384,24116,1,0,0:0:0:0:
300,384,24196,1,0,0:0:0:0:
300,384,24276,1,8,0:0:0:0:
401,307,24437,38,0,P|346:293|307:276,1,85,0|8,0:0|0:0,0:0:0:0:
264,166,24758,1,0,0:0:0:0:
176,254,24918,1,8,0:0:0:0:
349,207,25079,5,2,0:0:0:0:
349,207,25239,1,2,0:0:0:0:
291,88,25399,1,2,0:0:0:0:
291,88,25560,2,0,P|351:54|458:17,2,170,4|8|8,0:0|0:0|0:0,0:0:0:0:
194,183,26362,38,4,P|148:190|81:64,1,204,4|0,0:0|0:0,0:0:0:0:
152,47,27004,1,8,0:0:0:0:
62,179,27325,6,0,P|81:235|90:262,1,68,0|8,0:0|0:0,0:0:0:0:
85,253,27565,1,0,0:0:0:0:
86,263,27645,1,8,0:0:0:0:
201,380,27966,37,0,0:0:0:0:
386,231,28287,6,0,L|392:264,2,34,8|0|0,0:0|0:0|0:0,0:0:0:0:
312,357,28608,1,4,0:0:0:0:
312,357,28688,2,0,L|318:323,1,34
239,265,28928,1,0,0:0:0:0:
239,265,29009,1,2,0:0:0:0:
239,265,29089,37,8,0:0:0:0:
310,173,29250,1,8,0:0:0:0:
196,110,29410,1,0,0:0:0:0:
196,110,29490,1,0,0:0:0:0:
196,110,29571,5,8,0:0:0:0:
233,245,29731,1,8,0:0:0:0:
82,159,29891,37,8,0:0:0:0:
76,186,29972,1,8,0:0:0:0:
70,213,30052,1,8,0:0:0:0:
64,241,30132,1,2,0:0:0:0:
59,268,30212,2,0,L|49:180,1,85,4|8,0:0|0:0,0:0:0:0:
25,51,30533,6,0,P|63:77|114:68,1,85,0|8,0:0|0:0,0:0:0:0:
228,68,30854,2,0,P|186:87|168:136,1,85,2|8,0:0|0:0,0:0:0:0:
155,213,31175,1,0,0:0:0:0:
155,213,31255,1,2,0:0:0:0:
155,213,31335,2,0,B|211:235|246:199|223:184|283:153|345:202,1,170,8|8,0:0|0:0,0:0:0:0:
368,263,31816,38,0,P|372:312|387:374,1,85,0|8,0:0|0:0,0:0:0:0:
429,203,32137,2,0,P|445:158|448:92,1,85,2|8,0:0|0:0,0:0:0:0:
367,13,32458,6,0,L|372:61,1,42.5,2|2,0:0|0:0,0:0:0:0:
284,110,32618,2,0,L|289:63,1,42.5,2|2,0:0|0:0,0:0:0:0:
209,12,32779,2,0,P|164:12|128:98,1,127.5,6|8,0:0|0:0,0:0:0:0:
132,101,33100,38,0,L|188:107,3,42.5,0|8|8|0,0:0|0:0|0:0|0:0,0:0:0:0:
61,176,33421,2,0,L|5:182,3,42.5
138,281,33742,5,8,0:0:0:0:
138,281,33822,1,8,0:0:0:0:
138,281,33902,2,0,L|154:224,3,42.5,10|8|0|0,0:0|0:0|0:0|0:0,0:0:0:0:
231,157,34223,1,8,0:0:0:0:
234,141,34303,1,8,0:0:0:0:
237,125,34383,2,0,L|260:177,4,42.5,10|8|0|0|8,0:0|0:0|0:0|0:0|0:0,0:0:0:0:
249,296,34865,37,4,0:0:0:0:
368,219,35026,2,0,P|344:151|326:75,1,127.5,8|0,0:0|0:0,0:0:0:0:
337,69,35347,1,4,0:0:0:0:
292,227,35506,1,8,0:0:0:0:
410,117,35667,6,0,P|430:67|414:21,1,85,0|8,0:0|0:0,0:0:0:0:
268,18,35988,2,0,P|248:68|264:114,1,85,2|8,0:0|0:0,0:0:0:0:
293,231,36308,37,2,0:0:0:0:
294,252,36388,1,2,0:0:0:0:
288,272,36469,1,8,0:0:0:0:
276,289,36549,1,2,0:0:0:0:
260,303,36629,2,0,P|258:251|246:213,1,85,4|8,0:0|0:0,0:0:0:0:
152,191,36950,2,0,L|159:139,3,42.5,0|0|8|0,0:0|0:0|0:0|0:0,0:0:0:0:
53,285,37271,5,0,0:0:0:0:
79,268,37351,1,0,0:0:0:0:
111,263,37431,1,8,0:0:0:0:
141,271,37512,1,0,0:0:0:0:
167,290,37593,2,0,L|173:343,1,42.5,2|2,0:0|0:0,0:0:0:0:
249,324,37753,2,0,L|244:272,1,42.5,8|2,0:0|0:0,0:0:0:0:
247,185,37913,37,2,0:0:0:0:
247,185,37993,1,2,0:0:0:0:
247,185,38073,1,8,0:0:0:0:
247,185,38153,1,8,0:0:0:0:
247,185,38234,2,0,P|268:184|300:203,5,42.5,0|0|0|0|8|8,0:0|0:0|0:0|0:0|0:0|0:0,0:0:0:0:
379,140,38715,5,4,0:0:0:0:
379,140,38795,1,0,0:0:0:0:
379,140,38875,2,0,P|390:158|389:195,3,42.5,8|8|0|0,0:0|0:0|0:0|0:0,0:0:0:0:
496,203,39196,37,4,0:0:0:0:
496,203,39276,1,0,0:0:0:0:
496,203,39356,2,0,P|486:222|453:240,5,42.5,2|2|2|2|2|2,0:0|0:0|0:0|0:0|0:0|0:0,0:0:0:0:
364,285,39838,5,4,0:0:0:0:
429,52,40159,1,4,0:0:0:0:
190,123,40480,38,0,P|142:142|91:108,1,85,4|8,0:0|0:0,0:0:0:0:
15,21,40800,1,0,0:0:0:0:
118,56,40961,1,8,0:0:0:0:
25,140,41121,1,2,0:0:0:0:
29,159,41202,1,0,0:0:0:0:
33,178,41282,1,8,0:0:0:0:
38,197,41362,1,0,0:0:0:0:
42,215,41442,2,0,P|87:218|154:232,1,85,2|8,0:0|0:0,0:0:0:0:
188,376,41763,5,4,0:0:0:0:
251,228,41923,1,8,0:0:0:0:
361,332,42084,1,0,0:0:0:0:
361,332,42164,1,2,0:0:0:0:
361,332,42244,1,8,0:0:0:0:
264,224,42405,2,0,P|243:180|260:127,1,85,0|8,0:0|0:0,0:0:0:0:
352,68,42726,37,2,0:0:0:0:
373,67,42806,1,2,0:0:0:0:
393,73,42887,1,8,0:0:0:0:
410,85,42967,1,8,0:0:0:0:
424,101,43047,2,0,P|373:117|334:115,1,85,4|8,0:0|0:0,0:0:0:0:
170,39,43367,2,0,P|229:40|255:64,1,85,2|8,0:0|0:0,0:0:0:0:
146,183,43688,2,0,P|102:195|56:197,1,85,2|8,0:0|0:0,0:0:0:0:
3,142,44009,5,0,0:0:0:0:
139,270,44169,1,8,0:0:0:0:
212,125,44330,2,0,P|253:126|302:139,2,85,4|0|8,0:0|0:0|0:0,0:0:0:0:
349,64,44811,38,0,P|371:34|374:0,1,42.5,4|8,0:0|0:0,0:0:0:0:
394,145,44972,2,0,P|431:148|462:134,1,42.5,8|8,0:0|0:0,0:0:0:0:
338,220,45132,2,0,P|354:254|382:274,1,42.5,8|0,0:0|0:0,0:0:0:0:
217,130,45292,2,0,P|259:131|307:144,1,85,8|8,0:0|0:0,0:0:0:0:
465,147,45613,6,0,B|443:122|443:91|443:91|395:127|399:212|446:250,1,237.999992736817,4|8,0:0|0:0,0:0:0:0:
470,254,46576,1,0,0:0:0:0:
347,106,46897,38,0,B|248:76|251:193|155:158,1,208.249993644715,4|0,0:0|0:0,0:0:0:0:
99,97,47538,2,0,L|94:50,2,29.7499990921021,8|0|2,0:0|0:0|0:0,0:0:0:0:
14,111,47859,2,0,L|11:81,2,29.7499990921021,4|0|2,0:0|0:0|0:0,0:0:0:0:
45,15,48180,5,8,0:0:0:0:
45,15,48260,1,8,0:0:0:0:
45,15,48341,1,8,0:0:0:0:
67,176,48501,2,0,B|148:181|148:181|156:187|156:187|238:193,1,170,8|8,0:0|0:0,0:0:0:0:
401,122,48982,37,8,0:0:0:0:
386,116,49062,1,0,0:0:0:0:
364,117,49143,1,8,0:0:0:0:
347,129,49223,1,8,0:0:0:0:
338,148,49303,1,8,0:0:0:0:
340,170,49383,1,0,0:0:0:0:
355,187,49464,2,0,P|369:132|281:74,1,170,0|8,0:0|0:0,0:0:0:0:
371,268,49945,2,0,P|411:307|505:260,1,170,8|4,0:0|0:0,0:0:0:0:
256,159,50426,6,0,B|260:223|260:223|257:226|257:226|263:297,1,127.5,8|0,0:0|0:0,0:0:0:0:
248,311,50747,1,4,0:0:0:0:
349,196,50907,37,0,0:0:0:0:
349,196,50988,1,0,0:0:0:0:
349,196,51068,2,0,L|343:242,1,42.5,4|0,0:0|0:0,0:0:0:0:
175,175,51228,2,0,L|169:129,1,42.5,4|0,0:0|0:0,0:0:0:0:
333,56,51389,5,4,0:0:0:0:
314,69,51469,1,8,0:0:0:0:
292,75,51549,2,0,P|266:74|246:64,1,42.5,8|8,0:0|0:0,0:0:0:0:
74,100,51710,37,8,0:0:0:0:
48,122,51790,1,8,0:0:0:0:
38,151,51870,1,8,0:0:0:0:
39,185,51950,1,8,0:0:0:0:
49,211,52030,6,0,B|83:238|123:215|123:215|156:192|205:211,1,152.999995330811,4|0,0:0|0:0,0:0:0:0:
215,225,52351,1,2,0:0:0:0:
293,145,52512,1,8,0:0:0:0:
373,66,52672,2,0,P|443:51|472:131,1,152.999995330811,2|0,0:0|0:0,0:0:0:0:
424,174,52993,37,2,0:0:0:0:
424,174,53073,1,0,0:0:0:0:
424,174,53153,2,0,P|425:200|432:241,3,50.9999984436036,8|0|2|0,0:0|0:0|0:0|0:0,0:0:0:0:
502,284,53474,1,8,0:0:0:0:
502,284,53554,1,0,0:0:0:0:
502,284,53635,6,0,P|457:329|362:285,1,152.999995330811,2|0,0:0|0:0,0:0:0:0:
334,239,53956,2,0,P|265:242|162:260,1,152.999995330811,6|0,0:0|0:0,0:0:0:0:
109,308,54276,2,0,B|79:345|85:383|85:383|116:346|107:308,1,152.999995330811,6|0,0:0|0:0,0:0:0:0:
69,235,54597,37,6,0:0:0:0:
69,235,54677,1,0,0:0:0:0:
69,235,54758,2,0,P|64:206|60:164,1,50.9999984436036,8|0,0:0|0:0,0:0:0:0:
123,126,54918,2,0,P|193:143|291:151,1,152.999995330811,2|0,0:0|0:0,0:0:0:0:
349,122,55239,2,0,B|354:73|354:73|358:68|358:68|365:9,2,101.999996887207,2|8|2,0:0|0:0|0:0,0:0:0:0:
474,254,55720,6,0,B|430:231|392:256|403:262|363:281|309:258,1,152.999995330811,8|0,0:0|0:0,0:0:0:0:
236,196,56041,1,8,0:0:0:0:
236,196,56121,1,0,0:0:0:0:
236,196,56202,38,0,P|245:271|216:363,1,152.999995330811,2|0,0:0|0:0,0:0:0:0:
145,382,56522,2,0,P|127:322|26:326,1,152.999995330811,6|0,0:0|0:0,0:0:0:0:
9,384,56843,2,0,P|25:297|37:212,1,152.999995330811,6|0,0:0|0:0,0:0:0:0:
1,142,57164,5,6,0:0:0:0:
13,133,57244,1,0,0:0:0:0:
27,128,57325,1,8,0:0:0:0:
42,126,57405,1,0,0:0:0:0:
57,127,57485,2,0,P|97:140|124:151,1,50.9999984436036,2|0,0:0|0:0,0:0:0:0:
195,205,57645,38,0,P|190:176|186:134,5,50.9999984436036,8|0|2|0|8|0,0:0|0:0|0:0|0:0|0:0|0:0,0:0:0:0:
288,59,58127,1,2,0:0:0:0:
286,74,58207,1,0,0:0:0:0:
283,89,58287,1,8,0:0:0:0:
280,104,58367,1,0,0:0:0:0:
279,119,58448,6,0,P|274:147|270:189,3,50.9999984436036,6|0|8|0,0:0|0:0|0:0|0:0,0:0:0:0:
346,217,58768,2,0,P|350:245|354:287,3,50.9999984436036,2|0|8|0,0:0|0:0|0:0|0:0,0:0:0:0:
281,323,59089,2,0,P|276:351|272:393,3,50.9999984436036,2|0|8|0,0:0|0:0|0:0|0:0,0:0:0:0:
146,277,59410,2,0,P|174:272|216:268,1,50.9999984436036,2|0,0:0|0:0,0:0:0:0:
206,255,59571,2,0,P|180:258|155:261,1,50.9999984436036,8|0,0:0|0:0,0:0:0:0:
58,318,59731,37,6,0:0:0:0:
46,301,59811,1,0,0:0:0:0:
39,281,59891,1,8,0:0:0:0:
39,260,59972,1,0,0:0:0:0:
45,240,60052,2,0,P|63:217|101:196,1,50.9999984436036,2|0,0:0|0:0,0:0:0:0:
161,169,60212,6,0,P|156:140|152:98,5,50.9999984436036,8|0|2|0|8|0,0:0|0:0|0:0|0:0|0:0|0:0,0:0:0:0:
53,51,60693,37,2,0:0:0:0:
93,45,60774,1,0,0:0:0:0:
133,39,60854,1,8,0:0:0:0:
173,33,60934,1,0,0:0:0:0:
206,28,61014,2,0,P|259:30|333:42,1,101.999996887207,6|0,0:0|0:0,0:0:0:0:
390,168,61335,1,8,0:0:0:0:
512,64,61496,2,0,B|500:155|500:155|497:160|497:160|482:281,1,203.999993774414,12|0,0:0|0:0,0:0:0:0:
439,333,61897,5,0,0:0:0:0:
439,333,61977,2,0,P|410:337|368:341,3,50.9999984436036,8|8|8|0,0:0|0:0|0:0|0:0,0:0:0:0:
313,279,62298,38,0,P|295:341|198:338,1,152.999995330811,4|0,0:0|0:0,0:0:0:0:
190,279,62619,1,2,0:0:0:0:
190,279,62699,1,0,0:0:0:0:
190,279,62779,2,0,P|152:270|118:266,1,50.9999984436036,8|0,0:0|0:0,0:0:0:0:
27,211,62939,5,2,0:0:0:0:
22,196,63020,1,0,0:0:0:0:
20,180,63100,1,8,0:0:0:0:
21,164,63180,1,0,0:0:0:0:
25,149,63260,2,0,P|38:121|55:96,1,50.9999984436036,2|0,0:0|0:0,0:0:0:0:
147,72,63421,2,0,B|191:49|229:74|218:80|258:99|312:76,1,152.999995330811,8|0,0:0|0:0,0:0:0:0:
382,37,63742,1,8,0:0:0:0:
382,37,63822,1,0,0:0:0:0:
382,37,63902,38,0,P|359:134|349:212,1,152.999995330811,2|0,0:0|0:0,0:0:0:0:
391,282,64223,2,0,P|327:260|271:327,1,152.999995330811,6|0,0:0|0:0,0:0:0:0:
315,384,64544,2,0,P|255:345|165:320,1,152.999995330811,6|0,0:0|0:0,0:0:0:0:
94,373,64865,5,6,0:0:0:0:
94,373,64945,2,0,B|87:318|87:318|89:311|89:311|81:245,1,101.999996887207
25,201,65185,1,2,0:0:0:0:
25,201,65265,1,0,0:0:0:0:
25,201,65346,2,0,P|29:172|33:130,1,50.9999984436036,8|0,0:0|0:0,0:0:0:0:
74,62,65506,37,2,0:0:0:0:
88,57,65587,1,0,0:0:0:0:
103,57,65667,1,8,0:0:0:0:
116,63,65747,1,0,0:0:0:0:
125,74,65827,2,0,P|137:108|142:127,1,50.9999984436036,2|0,0:0|0:0,0:0:0:0:
170,235,65988,2,0,P|229:263|303:323,1,152.999995330811,8|0,0:0|0:0,0:0:0:0:
358,374,66308,5,8,0:0:0:0:
358,374,66389,1,0,0:0:0:0:
358,374,66469,2,0,B|402:351|440:376|429:382|469:401|523:378,1,152.999995330811,2|0,0:0|0:0,0:0:0:0:
475,304,66790,2,0,P|450:219|446:139,1,152.999995330811,6|0,0:0|0:0,0:0:0:0:
496,79,67111,2,0,P|431:59|364:109,1,152.999995330811,6|0,0:0|0:0,0:0:0:0:
361,189,67431,37,6,0:0:0:0:
347,194,67511,1,0,0:0:0:0:
332,196,67592,1,8,0:0:0:0:
317,194,67672,1,0,0:0:0:0:
303,190,67752,2,0,P|267:167|243:150,1,50.9999984436036,2|0,0:0|0:0,0:0:0:0:
204,88,67912,6,0,P|208:59|212:17,5,50.9999984436036,8|0|2|0|8|0,0:0|0:0|0:0|0:0|0:0|0:0,0:0:0:0:
128,148,68394,1,2,0:0:0:0:
130,163,68474,1,0,0:0:0:0:
133,178,68554,1,8,0:0:0:0:
136,193,68634,1,0,0:0:0:0:
137,208,68715,38,0,P|141:236|145:278,3,50.9999984436036,6|0|8|0,0:0|0:0|0:0|0:0,0:0:0:0:
235,254,69036,2,0,P|224:280|207:319,3,50.9999984436036,2|0|8|0,0:0|0:0|0:0|0:0,0:0:0:0:
296,342,69357,2,0,P|273:359|239:384,3,50.9999984436036,2|0|8|0,0:0|0:0|0:0|0:0,0:0:0:0:
332,255,69677,2,0,P|360:259|402:263,1,50.9999984436036,2|0,0:0|0:0,0:0:0:0:
397,276,69838,2,0,P|371:272|346:269,1,50.9999984436036,8|0,0:0|0:0,0:0:0:0:
285,179,69998,5,6,0:0:0:0:
273,162,70078,1,0,0:0:0:0:
266,142,70158,1,8,0:0:0:0:
266,121,70239,1,0,0:0:0:0:
272,101,70319,2,0,P|290:78|328:57,1,50.9999984436036,2|0,0:0|0:0,0:0:0:0:
407,50,70479,38,0,P|402:21|398:-20,5,50.9999984436036,8|0|2|0|8|0,0:0|0:0|0:0|0:0|0:0|0:0,0:0:0:0:
346,133,70960,5,2,0:0:0:0:
306,127,71041,1,0,0:0:0:0:
266,121,71121,1,8,0:0:0:0:
226,115,71201,1,0,0:0:0:0:
193,110,71282,2,0,P|167:106|142:103,5,50.9999984436036,12|0|0|0|2|0,0:0|0:0|0:0|0:0|0:0|0:0,0:0:0:0:
57,190,71763,37,12,0:0:0:0:
84,177,71843,1,0,0:0:0:0:
114,175,71923,1,2,0:0:0:0:
143,184,72004,1,0,0:0:0:0:
164,205,72084,1,8,0:0:0:0:
171,234,72164,1,0,0:0:0:0:
167,264,72244,2,0,P|141:260|116:257,1,50.9999984436036,2|0,0:0|0:0,0:0:0:0:
17,313,72405,5,8,0:0:0:0:
17,313,72485,1,8,0:0:0:0:
17,313,72565,2,0,B|70:362|141:306|105:305|176:250|235:297,1,238,12|0,0:0|0:0,0:0:0:0:
241,306,73207,6,0,L|245:347,3,28.3333333333333,8|8|8|8,0:0|0:0|0:0|0:0,0:0:0:0:
302,237,73528,37,8,0:0:0:0:
304,215,73608,1,8,0:0:0:0:
307,194,73688,1,8,0:0:0:0:
310,173,73768,1,8,0:0:0:0:
312,151,73849,38,0,P|244:175|168:193,1,127.5,6|0,0:0|0:0,0:0:0:0:
183,192,74169,2,0,P|202:146|187:99,1,85,0|8,0:0|0:0,0:0:0:0:
44,163,74490,2,0,P|67:197|106:213,1,85,2|8,0:0|0:0,0:0:0:0:
115,47,74811,5,0,0:0:0:0:
94,46,74891,1,0,0:0:0:0:
74,52,74972,1,8,0:0:0:0:
57,64,75052,1,8,0:0:0:0:
48,82,75132,2,0,P|100:80|138:68,1,85,6|8,0:0|0:0,0:0:0:0:
210,153,75453,2,0,P|262:155|300:167,1,85,0|8,0:0|0:0,0:0:0:0:
353,52,75774,2,0,P|405:50|443:38,1,85,2|8,0:0|0:0,0:0:0:0:
412,137,76095,38,0,L|370:131,1,42.5,2|2,0:0|0:0,0:0:0:0:
470,187,76255,2,0,L|513:181,1,42.5,2|2,0:0|0:0,0:0:0:0:
410,246,76415,1,6,0:0:0:0:
410,246,76576,2,0,L|416:289,2,42.5,0|0|8,0:0|0:0|0:0,0:0:0:0:
327,199,76897,5,8,0:0:0:0:
298,313,77057,1,8,0:0:0:0:
255,242,77218,1,0,0:0:0:0:
253,231,77378,1,0,0:0:0:0:
400,255,77538,38,0,L|406:298,2,42.5
471,184,77859,1,0,0:0:0:0:
378,133,78020,1,8,0:0:0:0:
381,112,78100,1,8,0:0:0:0:
386,92,78180,2,0,L|394:46,1,42.5,8|8,0:0|0:0,0:0:0:0:
284,0,78341,2,0,L|298:55,1,42.5,8|0,0:0|0:0,0:0:0:0:
271,151,78501,5,4,0:0:0:0:
197,45,78662,2,0,P|129:69|53:87,1,127.5,8|0,0:0|0:0,0:0:0:0:
47,76,78983,1,4,0:0:0:0:
177,152,79143,1,8,0:0:0:0:
18,215,79303,38,0,P|60:197|118:215,1,85,0|8,0:0|0:0,0:0:0:0:
198,330,79624,2,0,P|161:302|148:243,1,85,2|8,0:0|0:0,0:0:0:0:
192,172,79945,5,0,0:0:0:0:
210,161,80025,1,2,0:0:0:0:
230,156,80105,1,8,0:0:0:0:
251,160,80185,1,8,0:0:0:0:
272,171,80266,2,0,L|262:213,3,42.5,4|0|8|0,0:0|0:0|0:0|0:0,0:0:0:0:
352,188,80587,2,0,L|342:230,3,42.5,0|8|0|0,0:0|0:0|0:0|0:0,0:0:0:0:
435,103,80907,37,8,0:0:0:0:
422,74,80988,1,0,0:0:0:0:
399,59,81068,1,8,0:0:0:0:
373,53,81148,1,0,0:0:0:0:
347,60,81228,2,0,L|361:108,3,42.5,8|8|0|0,0:0|0:0|0:0|0:0,0:0:0:0:
488,168,81549,5,6,0:0:0:0:
406,286,81790,1,6,0:0:0:0:
251,329,82030,1,6,0:0:0:0:
103,261,82271,1,6,0:0:0:0:
67,81,82512,1,6,0:0:0:0:
208,192,82672,37,8,0:0:0:0:
208,192,82752,1,8,0:0:0:0:
208,192,82833,2,0,L|200:255,3,42.5,8|0|0|0,0:0|0:0|0:0|0:0,0:0:0:0:
280,270,83153,2,0,L|288:333,3,42.5,8|8|0|0,0:0|0:0|0:0|0:0,0:0:0:0:
202,382,83474,5,4,0:0:0:0:
150,117,83795,1,6,0:0:0:0:
405,250,84115,38,0,P|412:303|424:346,1,85,4|8,0:0|0:0,0:0:0:0:
318,262,84436,1,0,0:0:0:0:
318,262,84516,1,2,0:0:0:0:
318,262,84597,2,0,P|265:269|222:281,1,85,8|2,0:0|0:0,0:0:0:0:
168,354,84917,1,8,0:0:0:0:
97,246,85079,1,0,0:0:0:0:
92,326,85239,1,8,0:0:0:0:
215,176,85399,2,0,P|162:163|120:190,1,85,4|8,0:0|0:0,0:0:0:0:
49,120,85720,5,2,0:0:0:0:
49,120,85800,1,2,0:0:0:0:
49,120,85880,1,8,0:0:0:0:
119,8,86040,2,0,P|134:57|143:106,1,85,2|8,0:0|0:0,0:0:0:0:
215,176,86361,37,2,0:0:0:0:
229,192,86441,1,2,0:0:0:0:
248,202,86522,1,8,0:0:0:0:
268,206,86602,1,2,0:0:0:0:
289,204,86682,2,0,P|316:149|328:110,1,85,4|8,0:0|0:0,0:0:0:0:
333,22,87003,1,0,0:0:0:0:
333,22,87083,1,2,0:0:0:0:
333,22,87163,1,8,0:0:0:0:
412,75,87324,6,0,P|426:130|443:169,1,85,2|8,0:0|0:0,0:0:0:0:
387,290,87645,1,0,0:0:0:0:
512,197,87805,1,8,0:0:0:0:
356,176,87966,37,4,0:0:0:0:
482,303,88126,1,0,0:0:0:0:
482,303,88207,1,0,0:0:0:0:
482,303,88287,1,8,0:0:0:0:
268,348,88447,2,0,P|286:281|335:179,2,170,4|8|8,0:0|0:0|0:0,0:0:0:0:
163,269,89249,6,0,P|120:250|23:354,1,204,4|0,0:0|0:0,0:0:0:0:
113,359,89891,1,8,0:0:0:0:
27,241,90212,38,0,P|8:185|-1:158,1,68,4|0,0:0|0:0,0:0:0:0:
4,167,90452,1,0,0:0:0:0:
3,157,90532,1,4,0:0:0:0:
157,65,90853,1,4,0:0:0:0:
386,231,91174,6,0,L|392:264,2,34,8|2|2,0:0|0:0|0:0,0:0:0:0:
312,357,91495,1,4,0:0:0:0:
312,357,91575,2,0,L|318:323,1,34,2|2,0:0|0:0,0:0:0:0:
233,245,91816,1,4,0:0:0:0:
233,245,91897,1,0,0:0:0:0:
233,245,91977,37,8,0:0:0:0:
333,133,92137,1,8,0:0:0:0:
193,75,92297,1,0,0:0:0:0:
193,75,92377,1,0,0:0:0:0:
193,75,92458,5,2,0:0:0:0:
233,245,92618,1,8,0:0:0:0:
100,152,92778,37,8,0:0:0:0:
93,185,92859,1,0,0:0:0:0:
86,218,92939,1,8,0:0:0:0:
79,251,93019,1,8,0:0:0:0:
73,284,93100,2,0,L|62:187,1,85,4|2,0:0|0:0,0:0:0:0:
181,105,93341,1,2,0:0:0:0:
181,105,93421,2,0,L|170:201,1,85,8|4,0:0|0:0,0:0:0:0:
216,282,93661,5,0,0:0:0:0:
216,282,93742,2,0,P|236:278|280:274,3,42.5,8|8|0|0,0:0|0:0|0:0|0:0,0:0:0:0:
354,326,94062,1,4,0:0:0:0:
354,326,94143,1,8,0:0:0:0:
354,326,94223,2,0,P|357:306|361:261,1,42.5
312,174,94383,38,0,P|370:153|422:146,1,93.5000028533936,4|0,0:0|0:0,0:0:0:0:
410,150,94624,1,0,0:0:0:0:
418,152,94704,5,4,0:0:0:0:
326,45,94865,1,4,0:0:0:0:
470,1,95025,2,0,P|466:21|462:65,3,46.7500014266968,4|8|8|8,0:0|0:0|0:0|0:0,0:0:0:0:
306,68,95346,37,8,0:0:0:0:
269,80,95426,1,8,0:0:0:0:
232,92,95506,1,8,0:0:0:0:
195,103,95587,1,8,0:0:0:0:
154,118,95667,6,0,B|188:91|228:114|228:114|261:137|310:118,1,152.999995330811,4|0,0:0|0:0,0:0:0:0:
323,105,95988,1,2,0:0:0:0:
313,222,96148,1,8,0:0:0:0:
408,289,96308,2,0,P|478:274|507:354,1,152.999995330811,2|0,0:0|0:0,0:0:0:0:
445,374,96630,37,2,0:0:0:0:
445,374,96710,1,0,0:0:0:0:
445,374,96790,2,0,P|419:375|378:382,3,50.9999984436036,8|0|2|0,0:0|0:0|0:0|0:0,0:0:0:0:
277,384,97111,1,8,0:0:0:0:
277,384,97191,1,0,0:0:0:0:
277,384,97272,6,0,P|322:339|278:244,1,152.999995330811,2|0,0:0|0:0,0:0:0:0:
237,217,97593,2,0,P|234:148|216:45,1,152.999995330811,6|0,0:0|0:0,0:0:0:0:
147,29,97913,2,0,B|110:-1|72:5|72:5|109:36|147:27,1,152.999995330811,6|0,0:0|0:0,0:0:0:0:
285,11,98234,37,6,0:0:0:0:
285,11,98314,1,0,0:0:0:0:
285,11,98395,2,0,P|314:6|356:2,1,50.9999984436036,8|0,0:0|0:0,0:0:0:0:
436,0,98555,2,0,P|419:70|411:168,1,152.999995330811,2|0,0:0|0:0,0:0:0:0:
512,200,98876,2,0,B|507:151|507:151|503:146|503:146|496:87,2,101.999996887207,2|8|2,0:0|0:0|0:0,0:0:0:0:
469,269,99357,6,0,B|426:291|388:266|399:260|359:241|322:258,1,152.999995330811,8|0,0:0|0:0,0:0:0:0:
234,186,99678,1,8,0:0:0:0:
234,186,99758,1,0,0:0:0:0:
234,186,99839,38,0,P|243:261|214:353,1,152.999995330811,2|0,0:0|0:0,0:0:0:0:
150,384,100159,2,0,P|132:324|31:328,1,152.999995330811,6|0,0:0|0:0,0:0:0:0:
0,257,100480,2,0,P|16:170|28:85,1,152.999995330811,6|0,0:0|0:0,0:0:0:0:
103,38,100801,5,6,0:0:0:0:
112,50,100881,1,0,0:0:0:0:
117,64,100962,1,8,0:0:0:0:
119,79,101042,1,0,0:0:0:0:
118,94,101122,2,0,P|105:134|94:161,1,50.9999984436036,2|0,0:0|0:0,0:0:0:0:
197,216,101282,38,0,P|192:187|188:145,5,50.9999984436036,8|0|2|0|8|0,0:0|0:0|0:0|0:0|0:0|0:0,0:0:0:0:
263,70,101764,1,2,0:0:0:0:
278,72,101844,1,0,0:0:0:0:
293,75,101924,1,8,0:0:0:0:
308,78,102004,1,0,0:0:0:0:
323,79,102085,6,0,P|351:84|393:88,3,50.9999984436036,6|0|8|0,0:0|0:0|0:0|0:0,0:0:0:0:
456,148,102405,2,0,P|484:144|526:140,3,50.9999984436036,2|0|8|0,0:0|0:0|0:0|0:0,0:0:0:0:
317,203,102726,2,0,P|345:208|387:212,3,50.9999984436036,2|0|8|0,0:0|0:0|0:0|0:0,0:0:0:0:
452,280,103047,2,0,P|480:275|522:271,1,50.9999984436036,2|0,0:0|0:0,0:0:0:0:
512,258,103208,2,0,P|486:261|461:264,1,50.9999984436036,8|0,0:0|0:0,0:0:0:0:
375,328,103368,37,6,0:0:0:0:
358,340,103448,1,0,0:0:0:0:
338,347,103528,1,8,0:0:0:0:
317,347,103609,1,0,0:0:0:0:
297,341,103689,2,0,P|274:323|253:285,1,50.9999984436036,2|0,0:0|0:0,0:0:0:0:
163,268,103849,6,0,P|158:239|154:197,5,50.9999984436036,8|0|2|0|8|0,0:0|0:0|0:0|0:0|0:0|0:0,0:0:0:0:
35,384,104330,37,2,0:0:0:0:
41,344,104411,1,0,0:0:0:0:
47,304,104491,1,8,0:0:0:0:
53,264,104571,1,0,0:0:0:0:
58,231,104651,2,0,P|56:178|44:104,1,101.999996887207,6|0,0:0|0:0,0:0:0:0:
205,118,104972,1,8,0:0:0:0:
155,271,105133,2,0,B|167:180|167:180|170:175|170:175|185:54,1,203.999993774414,12|0,0:0|0:0,0:0:0:0:
265,23,105534,5,0,0:0:0:0:
265,23,105614,2,0,P|294:19|336:15,3,50.9999984436036,8|8|8|0,0:0|0:0|0:0|0:0,0:0:0:0:
435,48,105935,38,0,P|373:66|376:163,1,152.999995330811,4|0,0:0|0:0,0:0:0:0:
448,172,106255,1,2,0:0:0:0:
448,172,106335,1,0,0:0:0:0:
448,172,106415,2,0,P|466:191|485:216,1,50.9999984436036,8|0,0:0|0:0,0:0:0:0:
489,333,106576,5,2,0:0:0:0:
484,347,106656,1,0,0:0:0:0:
471,356,106736,1,8,0:0:0:0:
456,360,106816,1,0,0:0:0:0:
440,358,106897,2,0,P|410:330|398:315,1,50.9999984436036,2|0,0:0|0:0,0:0:0:0:
354,181,107057,2,0,P|333:109|246:114,1,152.999995330811,8|0,0:0|0:0,0:0:0:0:
186,141,107379,1,8,0:0:0:0:
186,141,107459,1,0,0:0:0:0:
186,141,107539,38,0,P|209:238|219:316,1,152.999995330811,2|0,0:0|0:0,0:0:0:0:
125,384,107860,2,0,P|147:320|80:264,1,152.999995330811,6|0,0:0|0:0,0:0:0:0:
0,259,108181,2,0,P|39:199|64:109,1,152.999995330811,6|0,0:0|0:0,0:0:0:0:
0,22,108502,5,6,0:0:0:0:
0,22,108582,2,0,B|55:29|55:29|62:27|62:27|128:35,1,101.999996887207
226,82,108822,1,2,0:0:0:0:
226,82,108902,1,0,0:0:0:0:
226,82,108983,2,0,P|197:86|155:90,1,50.9999984436036,8|0,0:0|0:0,0:0:0:0:
44,143,109143,37,2,0:0:0:0:
44,158,109223,1,0,0:0:0:0:
49,172,109303,1,8,0:0:0:0:
59,183,109383,1,0,0:0:0:0:
72,189,109464,2,0,P|110:178|126:177,1,50.9999984436036,2|0,0:0|0:0,0:0:0:0:
169,296,109625,2,0,P|197:237|257:163,1,152.999995330811,8|0,0:0|0:0,0:0:0:0:
373,101,109945,5,8,0:0:0:0:
373,101,110026,1,0,0:0:0:0:
373,101,110106,2,0,B|329:124|291:99|302:93|262:74|208:97,1,152.999995330811,2|0,0:0|0:0,0:0:0:0:
124,7,110427,2,0,P|149:92|153:172,1,152.999995330811,6|0,0:0|0:0,0:0:0:0:
44,224,110748,2,0,P|24:159|74:92,1,152.999995330811,6|0,0:0|0:0,0:0:0:0:
172,151,111068,37,6,0:0:0:0:
177,165,111148,1,0,0:0:0:0:
179,180,111229,1,8,0:0:0:0:
177,195,111309,1,0,0:0:0:0:
173,209,111389,2,0,P|150:245|133:269,1,50.9999984436036,2|0,0:0|0:0,0:0:0:0:
50,324,111549,6,0,P|21:320|-21:316,5,50.9999984436036,8|0|2|0|8|0,0:0|0:0|0:0|0:0|0:0|0:0,0:0:0:0:
155,379,112031,1,2,0:0:0:0:
170,377,112111,1,0,0:0:0:0:
185,374,112191,1,8,0:0:0:0:
200,371,112271,1,0,0:0:0:0:
215,370,112352,38,0,P|243:366|285:362,3,50.9999984436036,6|0|8|0,0:0|0:0|0:0|0:0,0:0:0:0:
369,277,112672,2,0,P|341:273|299:269,3,50.9999984436036,2|0|8|0,0:0|0:0|0:0|0:0,0:0:0:0:
202,187,112993,2,0,P|230:183|272:179,3,50.9999984436036,2|0|8|0,0:0|0:0|0:0|0:0,0:0:0:0:
330,96,113314,2,0,P|358:100|400:104,1,50.9999984436036,2|0,0:0|0:0,0:0:0:0:
395,117,113475,2,0,P|369:113|344:110,1,50.9999984436036,8|0,0:0|0:0,0:0:0:0:
242,19,113635,5,6,0:0:0:0:
225,7,113715,1,0,0:0:0:0:
205,0,113795,1,8,0:0:0:0:
184,0,113876,1,0,0:0:0:0:
164,6,113956,2,0,P|141:24|120:62,1,50.9999984436036,2|0,0:0|0:0,0:0:0:0:
41,88,114116,38,0,P|36:117|32:158,5,50.9999984436036,8|0|2|0|8|0,0:0|0:0|0:0|0:0|0:0|0:0,0:0:0:0:
112,244,114597,5,2,0:0:0:0:
152,238,114678,1,0,0:0:0:0:
192,232,114758,1,8,0:0:0:0:
232,226,114838,1,0,0:0:0:0:
265,221,114919,2,0,P|291:217|316:214,5,50.9999984436036,12|0|0|0|2|0,0:0|0:0|0:0|0:0|0:0|0:0,0:0:0:0:
512,118,115400,37,12,0:0:0:0:
489,98,115480,1,0,0:0:0:0:
461,88,115560,1,2,0:0:0:0:
430,89,115641,1,0,0:0:0:0:
405,104,115721,1,8,0:0:0:0:
390,130,115801,1,0,0:0:0:0:
386,160,115881,2,0,P|412:162|437:166,1,50.9999984436036,2|0,0:0|0:0,0:0:0:0:
512,278,116042,5,8,0:0:0:0:
512,278,116122,1,8,0:0:0:0:
512,278,116202,2,0,B|467:248|427:280|439:290|396:314|340:289,1,170,12|2,0:0|0:0,0:0:0:0:
344,282,116603,1,2,0:0:0:0:
336,271,116683,1,8,0:0:0:0:
258,205,116843,38,0,P|253:248|243:320,1,85,2|8,0:0|0:0,0:0:0:0:
160,384,117164,2,0,P|155:340|145:268,1,85,2|8,0:0|0:0,0:0:0:0:
52,228,117485,2,0,P|113:208|230:184,1,170,4|2,0:0|0:0,0:0:0:0:
228,189,117886,1,0,0:0:0:0:
240,192,117966,1,8,0:0:0:0:
326,120,118127,1,2,0:0:0:0:
405,202,118287,5,8,0:0:0:0:
419,166,118367,1,8,0:0:0:0:
433,130,118448,1,8,0:0:0:0:
447,94,118528,1,8,0:0:0:0:
462,59,118608,2,0,P|472:31|482:7,1,42.5,8|8,0:0|0:0,0:0:0:0:
326,120,118768,37,4,0:0:0:0:
180,337,119250,5,4,0:0:0:0:
33,156,119891,38,0,B|83:123|143:167|119:175|178:203|231:173,1,191.250007295609,4|8,0:0|0:0,0:0:0:0:
222,171,120453,1,2,0:0:0:0:
230,161,120533,1,0,0:0:0:0:
351,299,120693,6,0,P|348:273|343:241,3,42.5,8|2|0|0,0:0|0:0|0:0|0:0,0:0:0:0:
325,384,121014,2,0,P|350:381|382:376,1,42.5,8|0,3:0|3:0,0:0:0:0:
429,330,121175,2,0,P|454:327|486:322,1,42.5
509,194,121335,38,0,P|458:208|401:115,1,170,4|2,0:0|0:0,0:0:0:0:
449,11,121816,1,0,0:0:0:0:
330,0,121977,2,0,P|320:68|307:183,1,170,2|2,0:0|0:0,0:0:0:0:
217,335,122619,2,0,B|151:326|151:326|125:296|125:296|48:287,1,170,4|2,0:0|0:0,0:0:0:0:
17,174,123260,5,8,0:0:0:0:
17,174,123341,1,8,0:0:0:0:
17,174,123421,2,0,P|42:171|74:166,1,42.5
137,89,123581,2,0,P|139:114|144:146,1,42.5
217,192,123742,2,0,P|219:166|224:134,1,42.5
295,61,123902,38,0,P|273:63|252:65,3,42.5,8|0|2|2,0:0|0:0|0:0|0:0,0:0:0:0:
369,129,124223,2,0,P|395:132|421:135,3,50.9999984436036,2|2|0|0,0:0|0:0|0:0|0:0,0:0:0:0:
315,200,124544,5,8,0:0:0:0:
315,200,124624,1,0,0:0:0:0:
315,200,124704,2,0,P|317:225|322:257,1,50.9999984436036,8|8,0:0|0:0,0:0:0:0:
244,331,124865,37,8,0:0:0:0:
244,331,124945,1,2,0:0:0:0:
244,331,125025,2,0,P|241:356|236:388,1,50.9999984436036
127,260,125185,2,0,P|153:263|179:266,3,50.9999984436036,8|2|8|8,0:0|0:0|0:0|0:0,0:0:0:0:
54,321,125506,2,0,P|23:324|-7:328,3,55.2499974708558,8|8|8|8,0:0|0:0|0:0|0:0,0:0:0:0:
29,193,125827,5,8,0:0:0:0:
39,180,125907,1,8,0:0:0:0:
53,171,125988,1,2,0:0:0:0:
68,166,126068,1,2,0:0:0:0:
84,166,126148,37,2,0:0:0:0:
110,172,126228,1,8,0:0:0:0:
137,170,126308,1,8,0:0:0:0:
162,159,126389,1,8,0:0:0:0:
169,136,126469,6,0,B|139:67|21:126|132:249|128:193|207:245|179:322,1,297.5,4|0,0:0|0:0,0:0:0:0:
186,323,127111,38,0,P|211:275|258:261,1,85,2|8,0:0|0:0,0:0:0:0:
389,234,127431,1,0,0:0:0:0:
373,384,127592,2,0,P|317:304|328:195,1,170,8|8,0:0|0:0,0:0:0:0:
449,164,128073,6,0,P|478:209|448:254,1,85,0|8,0:0|0:0,0:0:0:0:
407,90,128394,2,0,P|432:42|486:45,1,85,2|8,0:0|0:0,0:0:0:0:
364,164,128715,37,2,0:0:0:0:
302,0,128875,1,8,0:0:0:0:
201,150,129036,2,0,P|159:158|119:146,1,85,4|8,0:0|0:0,0:0:0:0:
248,84,129357,2,0,P|289:75|329:87,1,85,0|8,0:0|0:0,0:0:0:0:
329,87,129677,5,2,0:0:0:0:
165,66,129838,1,8,0:0:0:0:
214,221,129998,1,2,0:0:0:0:
165,74,130159,1,8,0:0:0:0:
221,227,130319,38,0,L|228:320,1,85,4|8,0:0|0:0,0:0:0:0:
70,343,130640,2,0,P|109:363|163:350,1,85,4|8,0:0|0:0,0:0:0:0:
227,222,130961,2,0,L|234:315,1,85,4|8,0:0|0:0,0:0:0:0:
391,342,131282,2,0,P|352:362|298:349,1,85,4|8,0:0|0:0,0:0:0:0:
233,216,131603,6,0,L|240:123,1,85,2|8,0:0|0:0,0:0:0:0:
237,12,131923,2,0,P|273:35|290:73,1,85,0|8,0:0|0:0,0:0:0:0:
133,247,132244,2,0,P|135:203|173:162,1,85,6|8,0:0|0:0,0:0:0:0:
388,220,132565,2,0,P|350:240|309:236,1,85,0|8,0:0|0:0,0:0:0:0:
376,110,132886,37,6,0:0:0:0:
474,267,133046,1,8,0:0:0:0:
380,120,133207,1,0,0:0:0:0:
479,275,133367,2,0,B|490:149|490:149|496:144|496:144|509:2,1,255,8|2,0:0|0:0,0:0:0:0:
502,19,133929,1,2,0:0:0:0:
502,19,134009,1,8,0:0:0:0:
378,127,134169,6,0,B|310:180|241:131|277:113|194:62|141:116,1,255,6|8,0:0|0:0,0:0:0:0:
36,270,134811,2,0,P|74:254|87:215,1,85,2|8,0:0|0:0,0:0:0:0:
8,37,135132,2,0,P|2:77|28:108,1,85,0|8,0:0|0:0,0:0:0:0:
225,154,135453,37,12,0:0:0:0:
92,56,135613,1,2,0:0:0:0:
178,239,135774,1,8,0:0:0:0:
278,69,135934,1,8,0:0:0:0:
114,135,136095,2,0,L|102:232,1,85,2|12,0:0|0:0,0:0:0:0:
3,371,136415,5,2,0:0:0:0:
22,346,136495,1,2,0:0:0:0:
49,329,136575,1,8,0:0:0:0:
80,321,136655,1,8,0:0:0:0:
111,324,136736,2,0,B|173:360|249:297|209:273|274:227|360:250,1,255,12|8,0:0|0:0,0:0:0:0:
430,355,137378,1,2,0:0:0:0:
450,232,137538,1,8,0:0:0:0:
318,346,137699,1,0,0:0:0:0:
230,181,137859,38,0,P|146:163|49:149,1,170,8|8,0:0|0:0,0:0:0:0:
157,28,138341,2,0,P|186:74|224:83,1,85,0|8,0:0|0:0,0:0:0:0:
321,7,138661,1,0,0:0:0:0:
321,7,138742,1,0,0:0:0:0:
321,7,138822,1,8,0:0:0:0:
415,136,138982,2,0,P|366:120|285:121,1,127.5,2|0,0:0|0:0,0:0:0:0:
230,181,139303,5,4,0:0:0:0:
224,196,139383,1,2,0:0:0:0:
222,213,139464,1,8,0:0:0:0:
224,229,139544,1,2,0:0:0:0:
233,243,139624,2,0,L|290:250,1,42.5,2|2,0:0|0:0,0:0:0:0:
360,320,139784,2,0,L|302:327,1,42.5,8|2,0:0|0:0,0:0:0:0:
232,384,139945,37,2,0:0:0:0:
232,384,140025,1,2,0:0:0:0:
232,384,140105,2,0,L|224:326,3,42.5,8|2|2|2,0:0|0:0|0:0|0:0,0:0:0:0:
151,284,140426,5,8,0:0:0:0:
151,284,140506,1,2,0:0:0:0:
151,284,140586,2,0,L|143:341,3,42.5,2|2|8|2,0:0|0:0|0:0|0:0,0:0:0:0:
78,208,140907,37,2,0:0:0:0:
101,188,140988,1,2,0:0:0:0:
129,180,141068,1,8,0:0:0:0:
158,180,141148,1,2,0:0:0:0:
186,189,141228,2,0,P|230:207|279:192,1,85,12|2,0:0|0:0,0:0:0:0:
337,103,141549,2,0,P|293:85|244:100,1,85,12|2,0:0|0:0,0:0:0:0:
362,223,141870,5,4,0:0:0:0:
448,104,142030,1,8,0:0:0:0:
512,280,142191,2,0,P|451:262|404:251,1,85,0|8,0:0|0:0,0:0:0:0:
280,365,142512,2,0,P|341:347|388:336,1,85,4|8,0:0|0:0,0:0:0:0:
267,212,142833,2,0,P|206:194|159:183,1,85,0|8,0:0|0:0,0:0:0:0:
24,328,143153,2,0,P|85:310|132:299,1,85,4|8,0:0|0:0,0:0:0:0:
17,151,143474,37,0,0:0:0:0:
193,77,143635,2,0,P|175:138|164:185,1,85,8|12,0:0|0:0,0:0:0:0:
245,330,143956,5,12,0:0:0:0:
106,274,144116,1,8,0:0:0:0:
298,187,144276,1,2,0:0:0:0:
298,187,144357,1,2,0:0:0:0:
298,187,144437,2,0,P|305:229|311:300,1,85,4|2,0:0|0:0,0:0:0:0:
403,367,144758,2,0,P|410:325|416:253,1,85,8|2,0:0|0:0,0:0:0:0:
512,137,145079,37,8,0:0:0:0:
377,194,145239,1,2,0:0:0:0:
458,51,145399,1,8,0:0:0:0:
279,21,145560,1,2,0:0:0:0:
279,21,145640,1,2,0:0:0:0:
279,21,145720,2,0,P|272:63|265:134,1,85,4|2,0:0|0:0,0:0:0:0:
188,262,146041,5,8,0:0:0:0:
298,187,146202,1,2,0:0:0:0:
107,117,146362,2,0,P|114:159|120:230,1,85,8|8,0:0|0:0,0:0:0:0:
116,209,146603,1,8,0:0:0:0:
114,217,146683,1,8,0:0:0:0:
31,318,146843,37,8,0:0:0:0:
31,318,146923,1,8,0:0:0:0:
31,318,147004,2,0,L|88:325,3,46.7500014266968,4|0|0|0,0:0|0:0|0:0|0:0,0:0:0:0:
154,384,147325,2,0,L|211:376,1,46.7500014266968,8|0,0:0|0:0,0:0:0:0:
271,316,147485,2,0,L|328:323,5,46.7500014266968,0|0|8|0|0|0,0:0|0:0|0:0|0:0|0:0|0:0,0:0:0:0:
393,374,147966,2,0,L|450:366,3,46.7500014266968,8|0|0|0,0:0|0:0|0:0|0:0,0:0:0:0:
397,243,148287,6,0,L|389:300,1,46.7500014266968,4|0,0:0|0:0,0:0:0:0:
478,175,148448,2,0,L|485:232,1,46.7500014266968,4|0,0:0|0:0,0:0:0:0:
395,107,148608,2,0,L|387:164,3,46.7500014266968,4|0|0|0,0:0|0:0|0:0|0:0,0:0:0:0:
279,19,148929,37,4,0:0:0:0:
274,18,149009,1,0,0:0:0:0:
265,17,149089,1,0,0:0:0:0:
252,20,149169,1,0,0:0:0:0:
239,31,149250,1,8,0:0:0:0:
234,51,149330,1,0,0:0:0:0:
239,75,149410,1,0,0:0:0:0:
259,96,149490,1,0,0:0:0:0:
285,109,149571,38,0,P|256:132|223:145,2,56.6666666666667,4|0|0,0:0|0:0|0:0,0:0:0:0:
235,216,149891,38,0,P|200:203|172:182,2,56.6666666666667,2|2|2,0:0|0:0|0:0,0:0:0:0:
113,227,150212,6,0,P|105:191|111:157,2,56.6666666666667,2|2|2,0:0|0:0|0:0,0:0:0:0:
42,119,150533,38,0,P|69:96|102:83,2,56.6666666666667,2|2|2,0:0|0:0|0:0,0:0:0:0:
94,10,150854,6,0,P|127:23|155:44,2,56.6666666666667,2|2|2,0:0|0:0|0:0,0:0:0:0:
216,0,151174,38,0,P|222:36|216:70,2,56.6666666666667,2|2|2,0:0|0:0|0:0,0:0:0:0:
166,118,151496,37,4,0:0:0:0:
413,89,151816,1,0,0:0:0:0:
168,118,152137,38,0,P|216:137|267:103,1,85,4|8,0:0|0:0,0:0:0:0:
353,9,152457,2,0,P|313:41|317:102,1,85,0|8,0:0|0:0,0:0:0:0:
353,221,152778,2,0,P|346:169|291:142,1,85,2|8,0:0|0:0,0:0:0:0:
243,252,153099,2,0,P|246:297|260:364,1,85,0|8,0:0|0:0,0:0:0:0:
344,330,153420,5,4,0:0:0:0:
243,170,153580,1,8,0:0:0:0:
158,327,153741,1,0,0:0:0:0:
158,327,153821,1,2,0:0:0:0:
158,327,153901,1,8,0:0:0:0:
243,170,154062,2,0,P|287:149|340:166,1,85,2|8,0:0|0:0,0:0:0:0:
409,283,154383,37,2,0:0:0:0:
430,284,154463,1,2,0:0:0:0:
450,278,154544,1,8,0:0:0:0:
467,266,154624,1,2,0:0:0:0:
481,250,154704,2,0,P|430:234|391:236,1,85,4|8,0:0|0:0,0:0:0:0:
238,182,155025,2,0,P|282:161|335:178,1,85,0|8,0:0|0:0,0:0:0:0:
201,299,155345,2,0,P|157:311|111:313,1,85,2|8,0:0|0:0,0:0:0:0:
0,221,155666,5,0,0:0:0:0:
81,380,155826,1,8,0:0:0:0:
156,222,155988,2,0,P|157:181|170:132,2,85,4|8|8,0:0|0:0|0:0,0:0:0:0:
96,81,156469,38,0,P|66:59|32:56,1,42.5,4|8,0:0|0:0,0:0:0:0:
182,55,156630,2,0,P|185:18|171:-13,1,42.5,8|8,0:0|0:0,0:0:0:0:
252,108,156790,2,0,P|286:92|306:64,1,42.5,8|8,0:0|0:0,0:0:0:0:
161,217,156950,2,0,P|162:175|175:127,1,85,8|8,0:0|0:0,0:0:0:0:
306,26,157271,6,0,B|324:42|348:42|348:42|320:78|257:75|228:40,1,178.499994552612,4|2,0:0|0:0,0:0:0:0:
102,117,157913,1,8,0:0:0:0:
203,27,158234,1,2,0:0:0:0:
158,216,158554,38,0,B|144:114|144:114|135:106|135:106|123:8,1,208.249993644715,4|0,0:0|0:0,0:0:0:0:
33,17,159196,2,0,L|-14:12,2,29.7499990921021,8|0|0,0:0|0:0|0:0,0:0:0:0:
29,91,159517,2,0,L|-1:88,2,29.7499990921021,4|0|0,0:0|0:0|0:0,0:0:0:0:
109,65,159838,5,0,0:0:0:0:
109,65,159918,1,0,0:0:0:0:
109,65,159999,1,8,0:0:0:0:
160,210,160159,2,0,B|202:237|258:202|232:184|296:130|351:177,1,212.5,8|0,0:0|0:0,0:0:0:0:
448,255,160640,37,8,0:0:0:0:
433,249,160720,1,0,0:0:0:0:
411,250,160801,1,8,0:0:0:0:
394,262,160881,1,2,0:0:0:0:
385,281,160961,1,2,0:0:0:0:
387,303,161041,1,2,0:0:0:0:
403,322,161121,5,4,0:0:0:0:
512,0,161603,1,4,0:0:0:0:
273,95,161923,1,4,0:0:0:0:
478,169,162084,2,0,P|434:138|425:86,1,85,4|4,0:0|0:0,0:0:0:0:
417,77,162405,1,4,0:0:0:0:
424,85,162726,37,4,0:0:0:0:
316,282,162886,1,4,0:0:0:0:
512,255,163046,1,4,0:0:0:0:
497,236,163126,1,2,0:0:0:0:
482,223,163206,1,2,0:0:0:0:
462,214,163286,1,2,0:0:0:0:
435,212,163367,2,0,P|409:211|377:222,3,42.5,2|0|0|0,0:0|0:0|0:0|0:0,0:0:0:0:
313,291,163688,5,2,0:0:0:0:
57,294,167378,38,0,P|116:269|186:245,1,127.5,6|0,0:0|0:0,0:0:0:0:
195,250,167699,2,0,P|217:259|246:264,1,42.5
326,264,167859,2,0,P|360:221|326:153,1,127.5,8|0,0:0|0:0,0:0:0:0:
262,127,168180,2,0,P|228:84|262:16,1,127.5,8|2,0:0|0:0,0:0:0:0:
328,4,168501,1,8,0:0:0:0:
512,183,168822,5,6,0:0:0:0:
500,192,168902,1,0,0:0:0:0:
486,197,168983,1,8,0:0:0:0:
471,199,169063,1,0,0:0:0:0:
456,198,169143,2,0,P|416:185|389:174,1,50.9999984436036,2|0,0:0|0:0,0:0:0:0:
335,158,169303,38,0,P|331:183|327:208,5,50.9999984436036,8|0|2|0|8|0,0:0|0:0|0:0|0:0|0:0|0:0,0:0:0:0:
255,235,169785,1,2,0:0:0:0:
240,237,169865,1,0,0:0:0:0:
225,240,169945,1,8,0:0:0:0:
210,243,170025,1,0,0:0:0:0:
195,244,170106,6,0,P|167:249|125:253,3,50.9999984436036,6|0|8|0,0:0|0:0|0:0|0:0,0:0:0:0:
103,174,170426,2,0,P|75:170|33:166,3,50.9999984436036,2|0|8|0,0:0|0:0|0:0|0:0,0:0:0:0:
195,96,170747,2,0,P|170:100|145:103,3,50.9999984436036,2|0|8|0,0:0|0:0|0:0|0:0,0:0:0:0:
94,44,171068,2,0,P|68:41|43:38,1,50.9999984436036,2|0,0:0|0:0,0:0:0:0:
34,22,171229,2,0,P|59:26|84:29,1,50.9999984436036,8|0,0:0|0:0,0:0:0:0:
256,47,171389,37,6,0:0:0:0:
268,64,171469,1,0,0:0:0:0:
275,84,171549,1,8,0:0:0:0:
275,105,171630,1,0,0:0:0:0:
269,125,171710,2,0,P|251:148|213:169,1,50.9999984436036,2|0,0:0|0:0,0:0:0:0:
110,224,171870,6,0,P|105:195|101:153,5,50.9999984436036,8|0|2|0|8|0,0:0|0:0|0:0|0:0|0:0|0:0,0:0:0:0:
49,299,172351,37,2,0:0:0:0:
89,305,172432,1,0,0:0:0:0:
129,311,172512,1,8,0:0:0:0:
169,317,172592,1,0,0:0:0:0:
202,322,172672,2,0,P|255:320|329:308,1,101.999996887207,6|0,0:0|0:0,0:0:0:0:
376,189,172993,1,8,0:0:0:0:
442,341,173154,2,0,B|454:250|454:250|457:245|457:245|472:124,1,203.999993774414,12|0,0:0|0:0,0:0:0:0:
437,55,173554,5,0,0:0:0:0:
437,55,173635,2,0,P|410:42|384:39,3,42.5,8|8|8|0,0:0|0:0|0:0|0:0,0:0:0:0:
330,110,173956,38,0,P|273:141|206:70,1,152.999995330811,4|0,0:0|0:0,0:0:0:0:
193,1,174277,1,2,0:0:0:0:
193,1,174357,1,0,0:0:0:0:
193,1,174437,2,0,P|169:14|144:30,1,50.9999984436036,8|0,0:0|0:0,0:0:0:0:
58,127,174597,5,2,0:0:0:0:
66,139,174677,1,0,0:0:0:0:
74,151,174758,1,8,0:0:0:0:
81,164,174838,1,0,0:0:0:0:
89,176,174918,2,0,P|103:201|116:226,1,50.9999984436036,2|0,0:0|0:0,0:0:0:0:
101,359,175079,2,0,B|145:382|183:357|172:351|212:332|266:355,1,152.999995330811,8|0,0:0|0:0,0:0:0:0:
336,384,175400,1,8,0:0:0:0:
336,384,175480,1,0,0:0:0:0:
336,384,175560,38,0,P|359:287|369:209,1,152.999995330811,2|0,0:0|0:0,0:0:0:0:
342,160,175881,2,0,P|278:138|222:205,1,152.999995330811,6|0,0:0|0:0,0:0:0:0:
200,270,176202,2,0,P|140:231|50:206,1,152.999995330811,6|0,0:0|0:0,0:0:0:0:
0,253,176523,5,6,0:0:0:0:
0,253,176603,2,0,B|7:308|7:308|5:315|5:315|13:381,1,101.999996887207
93,329,176843,1,2,0:0:0:0:
93,329,176923,1,0,0:0:0:0:
93,329,177004,2,0,P|122:333|164:337,1,50.9999984436036,8|0,0:0|0:0,0:0:0:0:
253,375,177164,37,2,0:0:0:0:
267,369,177244,1,0,0:0:0:0:
278,358,177325,1,8,0:0:0:0:
284,344,177405,1,0,0:0:0:0:
283,328,177485,2,0,P|257:303|234:293,1,50.9999984436036,2|0,0:0|0:0,0:0:0:0:
241,221,177646,2,0,P|300:193|374:133,1,152.999995330811,8|0,0:0|0:0,0:0:0:0:
406,57,177966,1,8,0:0:0:0:
406,57,178047,1,0,0:0:0:0:
406,57,178127,2,0,B|362:34|324:59|335:65|295:84|241:61,1,152.999995330811,2|0,0:0|0:0,0:0:0:0:
196,18,178448,2,0,P|171:103|167:183,1,152.999995330811,6|0,0:0|0:0,0:0:0:0:
220,227,178769,2,0,P|278:271|350:252,1,152.999995330811,6|0,0:0|0:0,0:0:0:0:
435,220,179089,5,6,0:0:0:0:
440,234,179169,1,0,0:0:0:0:
442,249,179250,1,8,0:0:0:0:
440,264,179330,1,0,0:0:0:0:
436,278,179410,2,0,P|413:314|396:338,1,50.9999984436036,2|0,0:0|0:0,0:0:0:0:
338,358,179570,38,0,P|309:354|267:350,5,50.9999984436036,8|0|2|0|8|0,0:0|0:0|0:0|0:0|0:0|0:0,0:0:0:0:
225,286,180052,1,2,0:0:0:0:
210,288,180132,1,0,0:0:0:0:
195,291,180212,1,8,0:0:0:0:
180,294,180292,1,0,0:0:0:0:
165,295,180373,6,0,P|137:299|95:303,3,50.9999984436036,6|0|8|0,0:0|0:0|0:0|0:0,0:0:0:0:
60,233,180693,2,0,P|32:229|-10:225,3,50.9999984436036,2|0|8|0,0:0|0:0|0:0|0:0,0:0:0:0:
123,181,181014,2,0,P|151:177|193:173,3,50.9999984436036,2|0|8|0,0:0|0:0|0:0|0:0,0:0:0:0:
4,96,181335,2,0,P|32:100|74:104,1,50.9999984436036,2|0,0:0|0:0,0:0:0:0:
69,117,181496,2,0,P|43:113|18:110,1,50.9999984436036,8|0,0:0|0:0,0:0:0:0:
88,27,181656,37,6,0:0:0:0:
105,15,181736,1,0,0:0:0:0:
125,8,181816,1,8,0:0:0:0:
146,8,181897,1,0,0:0:0:0:
166,14,181977,2,0,P|189:32|210:70,1,50.9999984436036,2|0,0:0|0:0,0:0:0:0:
234,121,182137,6,0,P|263:126|304:130,5,50.9999984436036,8|0|2|0|8|0,0:0|0:0|0:0|0:0|0:0|0:0,0:0:0:0:
353,47,182618,37,2,0:0:0:0:
359,87,182699,1,0,0:0:0:0:
365,127,182779,1,8,0:0:0:0:
371,167,182859,1,0,0:0:0:0:
376,200,182940,2,0,P|380:226|383:251,5,50.9999984436036,12|0|0|0|12|0,0:0|0:0|0:0|0:0|0:0|0:0,0:0:0:0:
320,336,183421,5,0,0:0:0:0:
297,356,183501,1,0,0:0:0:0:
269,366,183581,1,12,0:0:0:0:
238,365,183662,1,0,0:0:0:0:
213,350,183742,1,8,0:0:0:0:
198,324,183822,1,8,0:0:0:0:
194,294,183902,2,0,P|220:292|245:288,1,50.9999984436036,10|2,0:0|0:0,0:0:0:0:
320,250,184062,37,8,0:0:0:0:
320,250,184143,1,8,0:0:0:0:
320,250,184223,2,0,P|351:215|345:178,1,85,12|8,0:0|0:0,0:0:0:0:
189,152,184544,2,0,P|203:196|238:209,1,85,0|8,0:0|0:0,0:0:0:0:
332,83,184865,6,0,B|284:79|284:79|282:78|282:78|235:74,1,85,2|8,0:0|0:0,0:0:0:0:
182,142,185185,1,2,0:0:0:0:
259,47,185346,1,8,0:0:0:0:
329,162,185506,38,0,P|371:187|421:168,1,85,4|8,0:0|0:0,0:0:0:0:
512,70,185827,2,0,P|469:93|460:147,1,85,2|8,0:0|0:0,0:0:0:0:
503,236,186148,1,2,0:0:0:0:
383,105,186308,5,8,0:0:0:0:
383,105,186389,1,8,0:0:0:0:
383,105,186469,2,0,L|391:43,3,42.5,8|8|8|8,0:0|0:0|0:0|0:0,0:0:0:0:
322,4,186790,37,12,0:0:0:0:
195,124,187271,1,12,0:0:0:0:
321,240,187913,1,12,0:0:0:0:
217,371,188234,5,2,0:0:0:0:
289,162,188394,1,8,0:0:0:0:
73,293,188715,38,0,L|70:344,3,42.5
129,216,189036,1,8,0:0:0:0:
169,199,189116,1,8,0:0:0:0:
215,202,189196,1,8,0:0:0:0:
251,228,189276,1,8,0:0:0:0:
265,264,189357,2,0,P|237:261|219:249,3,42.5,8|0|8|0,0:0|0:0|0:0|0:0,0:0:0:0:
306,170,189677,5,2,0:0:0:0:
306,170,189758,1,0,0:0:0:0:
306,170,189838,2,0,P|341:165|358:170,1,42.5,12|0,0:0|0:0,0:0:0:0:
394,111,189998,2,0,P|415:138|420:156,1,42.5,4|0,0:0|0:0,0:0:0:0:
489,157,190159,2,0,P|475:189|463:202,1,42.5,12|0,0:0|0:0,0:0:0:0:
507,268,190319,2,0,P|472:273|455:268,3,42.5,4|0|8|0,0:0|0:0|0:0|0:0,0:0:0:0:
416,333,190640,37,2,0:0:0:0:
394,301,190720,1,0,0:0:0:0:
357,289,190800,1,8,0:0:0:0:
319,300,190881,1,0,0:0:0:0:
299,335,190961,2,0,P|334:338|353:327,3,42.5,2|0|8|0,0:0|0:0|0:0|0:0,0:0:0:0:
196,384,191282,2,0,P|221:322|211:240,1,127.5,2|0,0:0|0:0,0:0:0:0:
210,255,191603,2,0,P|212:318|188:377,1,127.5,8|8,0:0|0:0,0:0:0:0:
81,376,191923,5,12,0:0:0:0:
83,358,192004,1,0,0:0:0:0:
86,338,192084,1,2,0:0:0:0:
89,316,192164,1,0,0:0:0:0:
92,293,192244,2,0,L|98:248,3,42.5,8|0|2|0,0:0|0:0|0:0|0:0,0:0:0:0:
41,187,192566,37,8,0:0:0:0:
48,142,192646,1,0,0:0:0:0:
81,111,192726,1,2,0:0:0:0:
124,106,192807,1,0,0:0:0:0:
165,123,192887,2,0,P|134:145|104:147,3,42.5,8|0|2|8,0:0|0:0|0:0|0:0,0:0:0:0:
211,185,193207,5,12,0:0:0:0:
249,192,193287,1,0,0:0:0:0:
287,200,193367,1,2,0:0:0:0:
324,209,193448,1,0,0:0:0:0:
361,218,193528,1,8,0:0:0:0:
398,229,193608,1,0,0:0:0:0:
435,240,193688,2,0,L|389:251,4,42.5,2|0|8|0|2,0:0|0:0|0:0|0:0|0:0,0:0:0:0:
298,296,194089,37,8,0:0:0:0:
298,296,194169,2,0,L|352:309,2,42.5,8|0|2,0:0|0:0|0:0,0:0:0:0:
276,375,194410,1,8,0:0:0:0:
276,375,194490,6,0,L|330:388,3,42.5,12|0|2|0,0:0|0:0|0:0|0:0,0:0:0:0:
193,379,194811,1,8,0:0:0:0:
190,339,194891,1,0,0:0:0:0:
171,303,194972,1,2,0:0:0:0:
134,282,195052,1,0,0:0:0:0:
90,280,195132,2,0,L|36:293,3,42.5,8|0|2|0,0:0|0:0|0:0|0:0,0:0:0:0:
196,222,195453,1,8,0:0:0:0:
233,226,195533,1,0,0:0:0:0:
269,235,195613,2,0,L|323:248,1,42.5,2|0,0:0|0:0,0:0:0:0:
340,353,195774,37,8,0:0:0:0:
380,384,195854,1,0,0:0:0:0:
436,381,195934,1,2,0:0:0:0:
480,340,196014,1,0,0:0:0:0:
476,276,196094,5,4,0:0:0:0:
470,292,197378,38,0,B|434:266|382:289|391:295|335:335|282:291,2,187.000005706787,4|0|0,0:0|0:0|0:0,0:0:0:0:
436,363,198180,6,0,P|423:267|393:79,1,280.500008560181,4|0,0:0|2:0,0:0:0:0:
134,16,199143,37,0,0:0:0:0:
162,35,199303,1,0,0:0:0:0:
232,9,199464,1,0,0:0:0:0:
307,81,199624,2,0,P|322:165|196:143,1,255,4|0,0:0|0:0,0:0:0:0:
315,213,200266,5,0,0:0:0:0:
337,235,200426,1,0,0:0:0:0:
306,313,200587,1,0,2:0:0:0:
213,233,200747,2,0,B|147:212|147:212|2:351,1,255,4|0,0:0|2:0,0:0:0:0:
150,365,201389,37,0,0:0:0:0:
58,276,201549,1,8,0:0:0:0:
55,263,201629,1,8,0:0:0:0:
52,250,201710,1,8,0:0:0:0:
50,237,201790,1,8,0:0:0:0:
47,224,201870,2,0,L|38:175,3,42.5
5,79,202191,5,4,0:0:0:0:
266,14,202833,37,4,0:0:0:0:
188,187,203314,6,0,B|256:243|327:191|308:176|380:129|454:186,1,255,4|0,0:0|0:0,0:0:0:0:
482,351,203956,2,0,P|423:354|370:265,1,170,4|2,0:0|0:0,0:0:0:0:
378,258,204357,1,0,0:0:0:0:
388,251,204437,1,2,0:0:0:0:
369,371,204597,1,2,0:0:0:0:
251,287,204758,38,0,L|244:337,3,42.5,4|0|0|0,0:0|0:0|2:0|2:0,0:0:0:0:
148,261,205079,2,0,L|154:311,1,42.5,0|0,0:0|2:0,0:0:0:0:
140,275,205239,2,0,L|146:325,1,42.5
56,365,205399,2,0,L|62:314,3,42.5,0|0|0|0,2:0|0:0|2:0|2:0,0:0:0:0:
24,242,205720,5,0,0:0:0:0:
22,229,205800,1,0,2:0:0:0:
20,216,205881,1,0,0:0:0:0:
18,203,205961,1,0,2:0:0:0:
16,190,206041,37,6,0:0:0:0:
122,82,206202,1,8,0:0:0:0:
240,219,206522,5,2,0:0:0:0:
240,219,206603,1,0,0:0:0:0:
240,219,206683,1,4,0:0:0:0:
129,54,206843,1,4,0:0:0:0:
349,33,207164,37,2,0:0:0:0:
349,33,207244,1,2,0:0:0:0:
349,33,207325,38,0,P|378:25|420:19,2,56.6666666666667,4|2|0,0:0|0:0|0:0,0:0:0:0:
370,108,207645,37,4,0:0:0:0:
389,106,207752,6,0,P|414:122|449:146,1,56.6666666666667,2|0,0:0|0:0,0:0:0:0:
365,185,207966,38,0,P|372:214|378:256,2,56.6666666666667,4|2|0,0:0|0:0|0:0,0:0:0:0:
290,206,208287,5,4,0:0:0:0:
292,225,208394,38,0,P|275:250|251:285,1,56.6666666666667,2|0,0:0|0:0,0:0:0:0:
213,201,208608,6,0,P|183:208|142:214,2,56.6666666666667,4|2|0,0:0|0:0|0:0,0:0:0:0:
192,126,208929,37,4,0:0:0:0:
173,128,209036,6,0,P|147:111|112:87,1,56.6666666666667,2|0,0:0|0:0,0:0:0:0:
44,159,209250,37,0,0:0:0:0:
20,197,209357,5,0,0:0:0:0:
33,240,209464,37,0,0:0:0:0:
64,272,209571,5,8,0:0:0:0:
75,297,209677,37,8,0:0:0:0:
71,325,209784,5,8,0:0:0:0:
53,347,209891,37,4,0:0:0:0:
256,192,209972,12,0,212137,0:0:0:0:
117,98,212458,6,0,P|112:141|107:229,1,113.333333333333,4|4,0:0|0:0,0:0:0:0:
186,287,212886,37,8,0:0:0:0:
251,253,212993,5,8,0:0:0:0:
303,305,213100,38,0,P|352:323|405:294,1,113.333333333333,4|4,0:0|0:0,0:0:0:0:
390,105,213528,5,8,0:0:0:0:
324,139,213635,37,8,0:0:0:0:
262,98,213742,6,0,P|207:79|153:101,2,113.333333333333,4|4|8,0:0|0:0|0:0,0:0:0:0:
140,218,214383,5,8,0:0:0:0:
264,295,214544,1,2,0:0:0:0:
264,295,214624,1,0,0:0:0:0:
275,314,214704,5,4,0:0:0:0:
