osu file format v14

[General]
AudioFilename: Vospi_-_We_Met_Dat_Night.mp3
AudioLeadIn: 2
PreviewTime: 73538
Countdown: 0
SampleSet: Normal
StackLeniency: 0.7
Mode: 1
LetterboxInBreaks: 0
WidescreenStoryboard: 0

[Editor]
DistanceSpacing: 0.8
BeatDivisor: 12
GridSize: 32
TimelineZoom: 2.899999

[Metadata]
Title:We Met Dat Night
TitleUnicode:We Met Dat Night
Artist:Vospi
ArtistUnicode:Vospi
Creator:Nwolf
Version:Muzukashii
Source:
Tags:piano
BeatmapID:941333
BeatmapSetID:437130

[Difficulty]
HPDrainRate:6
CircleSize:4
OverallDifficulty:5
ApproachRate:9
SliderMultiplier:2.1
SliderTickRate:1

[Events]
//Background and Video events
0,0,"we met dat night.jpg",0,-93
//Break Periods
//Storyboard Layer 0 (Background)
//Storyboard Layer 1 (Fail)
//Storyboard Layer 2 (Pass)
//Storyboard Layer 3 (Foreground)
//Storyboard Sound Samples

[TimingPoints]
65.4762,540.5405,4,1,0,60,1,0
35651,-100,4,1,0,40,0,0
38984,-100,4,1,0,60,0,0
64660,-100,4,1,0,30,0,0
72948,-100,4,1,0,45,0,0
73578,-100,4,1,0,70,0,1
90876,-100,4,1,0,70,0,0

[HitObjects]
224,160,1687,5,0,0:0:0:0:
224,160,1777,1,0,0:0:0:0:
224,160,1867,1,0,0:0:0:0:
224,160,1957,1,0,0:0:0:0:
288,224,2227,1,12,0:0:0:0:
288,160,2768,1,8,0:0:0:0:
224,160,3308,1,0,0:0:0:0:
224,160,3578,1,0,0:0:0:0:
288,160,3849,1,8,0:0:0:0:
224,160,4389,1,0,0:0:0:0:
288,160,4930,1,8,0:0:0:0:
224,160,5470,1,0,0:0:0:0:
224,160,5741,1,0,0:0:0:0:
288,160,6011,1,8,0:0:0:0:
288,160,6281,1,8,0:0:0:0:
224,160,6551,1,0,0:0:0:0:
288,160,7092,1,8,0:0:0:0:
224,160,7633,1,0,0:0:0:0:
224,160,7903,1,0,0:0:0:0:
288,160,8173,1,8,0:0:0:0:
288,224,8714,1,12,0:0:0:0:
288,160,9254,1,8,0:0:0:0:
224,224,9524,1,4,0:0:0:0:
224,160,10065,1,0,0:0:0:0:
288,160,10335,1,8,0:0:0:0:
288,160,10425,1,8,0:0:0:0:
288,160,10515,1,8,0:0:0:0:
288,160,10606,1,8,0:0:0:0:
288,224,10876,1,12,0:0:0:0:
224,160,11146,1,0,0:0:0:0:
288,160,11416,1,8,0:0:0:0:
224,160,11957,1,0,0:0:0:0:
224,160,12137,1,0,0:0:0:0:
224,160,12227,1,0,0:0:0:0:
288,160,12497,1,8,0:0:0:0:
224,160,12678,1,0,0:0:0:0:
224,160,13038,1,0,0:0:0:0:
224,160,13308,1,0,0:0:0:0:
288,160,13578,1,8,0:0:0:0:
224,160,14029,1,0,0:0:0:0:
224,160,14119,1,0,0:0:0:0:
224,160,14389,1,0,0:0:0:0:
288,160,14660,1,8,0:0:0:0:
288,160,14930,1,8,0:0:0:0:
224,160,15110,1,0,0:0:0:0:
224,160,15200,1,0,0:0:0:0:
224,160,15470,1,0,0:0:0:0:
288,160,15741,1,8,0:0:0:0:
224,160,16281,1,0,0:0:0:0:
224,160,16551,1,0,0:0:0:0:
288,160,16822,1,8,0:0:0:0:
224,160,17002,1,0,0:0:0:0:
288,224,17362,1,12,0:0:0:0:
288,160,17903,1,8,0:0:0:0:
224,224,18173,1,4,0:0:0:0:
224,160,18714,1,0,0:0:0:0:
288,160,18984,1,8,0:0:0:0:
288,224,19524,5,12,0:0:0:0:
224,160,19795,1,0,0:0:0:0:
288,160,20065,1,8,0:0:0:0:
288,160,20606,1,8,0:0:0:0:
224,160,21056,1,0,0:0:0:0:
288,160,21416,1,8,0:0:0:0:
288,160,21687,1,8,0:0:0:0:
224,160,21957,1,0,0:0:0:0:
288,160,22227,1,8,0:0:0:0:
288,160,22768,1,8,0:0:0:0:
224,160,23218,1,0,0:0:0:0:
288,160,23488,1,8,0:0:0:0:
288,160,23578,1,8,0:0:0:0:
288,160,23849,1,8,0:0:0:0:
224,160,24119,1,0,0:0:0:0:
288,160,24389,1,8,0:0:0:0:
288,160,24930,1,8,0:0:0:0:
224,160,25380,1,0,0:0:0:0:
288,160,25741,1,8,0:0:0:0:
288,224,26011,1,12,0:0:0:0:
288,160,26551,1,8,0:0:0:0:
224,224,26822,1,4,0:0:0:0:
224,160,27092,1,0,0:0:0:0:
224,160,27362,1,0,0:0:0:0:
288,224,27542,1,12,0:0:0:0:
224,160,27813,1,0,0:0:0:0:
288,224,28173,1,12,0:0:0:0:
224,160,28443,1,0,0:0:0:0:
288,160,28714,1,8,0:0:0:0:
288,160,29254,1,8,0:0:0:0:
224,160,29705,1,0,0:0:0:0:
288,160,30065,1,8,0:0:0:0:
288,160,30335,1,8,0:0:0:0:
224,160,30606,1,0,0:0:0:0:
288,160,30876,1,8,0:0:0:0:
288,160,31416,1,8,0:0:0:0:
224,160,31867,1,0,0:0:0:0:
288,160,32137,1,8,0:0:0:0:
288,160,32227,1,8,0:0:0:0:
288,160,32497,1,8,0:0:0:0:
224,160,32768,1,0,0:0:0:0:
288,160,33038,1,8,0:0:0:0:
288,160,33578,1,8,0:0:0:0:
224,160,34029,1,0,0:0:0:0:
224,160,34389,1,0,0:0:0:0:
288,224,34660,1,12,0:0:0:0:
288,160,34930,1,8,0:0:0:0:
288,160,35200,1,8,0:0:0:0:
224,160,35741,5,0,0:0:0:0:
224,160,36281,1,0,0:0:0:0:
288,160,36822,1,8,0:0:0:0:
288,160,37362,1,8,0:0:0:0:
224,160,37633,1,0,0:0:0:0:
288,160,37903,1,8,0:0:0:0:
288,160,38173,1,8,0:0:0:0:
224,160,38443,1,0,0:0:0:0:
224,160,38714,1,0,0:0:0:0:
224,224,38984,1,4,0:0:0:0:
288,160,40065,1,8,0:0:0:0:
224,160,40245,1,0,0:0:0:0:
288,160,40515,1,8,0:0:0:0:
224,160,40786,1,0,0:0:0:0:
224,160,41146,1,0,0:0:0:0:
224,160,41416,1,0,0:0:0:0:
288,224,41957,1,12,0:0:0:0:
288,160,43038,1,8,0:0:0:0:
224,224,43308,1,4,0:0:0:0:
288,160,44389,1,8,0:0:0:0:
224,160,44569,1,0,0:0:0:0:
288,160,44840,1,8,0:0:0:0:
224,160,45110,1,0,0:0:0:0:
288,224,45470,1,12,0:0:0:0:
224,160,45741,1,0,0:0:0:0:
288,224,46281,1,12,0:0:0:0:
224,160,46551,1,0,0:0:0:0:
224,160,46957,1,0,0:0:0:0:
224,224,47633,1,4,0:0:0:0:
288,160,48714,1,8,0:0:0:0:
224,160,48894,1,0,0:0:0:0:
288,160,49164,1,8,0:0:0:0:
224,160,49434,1,0,0:0:0:0:
224,160,49795,1,0,0:0:0:0:
224,160,50065,1,0,0:0:0:0:
288,224,50606,1,12,0:0:0:0:
288,160,51687,1,8,0:0:0:0:
224,224,51957,1,4,0:0:0:0:
288,160,53038,1,8,0:0:0:0:
224,160,53218,1,0,0:0:0:0:
288,160,53488,1,8,0:0:0:0:
288,160,53759,1,0,0:0:0:0:
224,224,54119,1,4,0:0:0:0:
224,160,54389,1,0,0:0:0:0:
288,224,54930,1,12,0:0:0:0:
224,160,55200,1,0,0:0:0:0:
224,160,55606,1,0,0:0:0:0:
224,224,56281,5,4,0:0:0:0:
288,160,57002,1,8,0:0:0:0:
288,160,57182,1,8,0:0:0:0:
224,224,57362,1,4,0:0:0:0:
224,160,58083,1,0,0:0:0:0:
224,160,58263,1,0,0:0:0:0:
288,224,58443,1,12,0:0:0:0:
288,160,59164,1,8,0:0:0:0:
224,160,59344,1,0,0:0:0:0:
224,224,59524,1,4,0:0:0:0:
288,224,60065,1,12,0:0:0:0:
224,224,60606,1,4,0:0:0:0:
288,160,64930,5,8,0:0:0:0:
288,160,66011,1,8,0:0:0:0:
288,160,67092,1,8,0:0:0:0:
288,160,67633,1,8,0:0:0:0:
288,160,68173,1,8,0:0:0:0:
288,160,68443,1,8,0:0:0:0:
288,160,68714,1,8,0:0:0:0:
288,224,69254,1,12,0:0:0:0:
288,224,70335,1,12,0:0:0:0:
288,224,71416,1,12,0:0:0:0:
288,160,71687,1,8,0:0:0:0:
288,160,71957,1,8,0:0:0:0:
288,224,72497,1,12,0:0:0:0:
288,160,73038,1,8,0:0:0:0:
288,160,73308,1,8,0:0:0:0:
224,224,73578,5,4,0:0:0:0:
224,160,73849,1,0,0:0:0:0:
288,160,74119,1,8,0:0:0:0:
288,160,74389,1,8,0:0:0:0:
224,160,74660,1,0,0:0:0:0:
224,160,74930,1,0,0:0:0:0:
288,160,75200,1,8,0:0:0:0:
224,160,75741,1,0,0:0:0:0:
224,160,75831,1,0,0:0:0:0:
224,160,75921,1,0,0:0:0:0:
224,160,76011,1,0,0:0:0:0:
288,160,76281,1,8,0:0:0:0:
288,160,76371,1,8,0:0:0:0:
288,160,76461,1,8,0:0:0:0:
288,160,76551,1,8,0:0:0:0:
288,224,76822,1,12,0:0:0:0:
224,224,77092,1,4,0:0:0:0:
288,224,77362,1,12,0:0:0:0:
224,224,77903,1,4,0:0:0:0:
224,160,78173,1,0,0:0:0:0:
288,160,78443,1,8,0:0:0:0:
224,160,78714,1,0,0:0:0:0:
288,160,78984,1,8,0:0:0:0:
224,160,79254,1,0,0:0:0:0:
288,160,79524,1,8,0:0:0:0:
224,160,80065,1,0,0:0:0:0:
224,160,80155,1,0,0:0:0:0:
224,160,80245,1,0,0:0:0:0:
224,160,80335,1,0,0:0:0:0:
288,160,80606,1,8,0:0:0:0:
288,160,80696,1,8,0:0:0:0:
288,160,80786,1,8,0:0:0:0:
288,160,80876,1,8,0:0:0:0:
288,224,81146,1,12,0:0:0:0:
288,224,81687,1,12,0:0:0:0:
288,160,82227,1,8,0:0:0:0:
288,160,82317,1,8,0:0:0:0:
288,160,82407,1,8,0:0:0:0:
288,160,82497,1,8,0:0:0:0:
288,160,82768,1,8,0:0:0:0:
288,160,83038,1,8,0:0:0:0:
224,160,83308,1,0,0:0:0:0:
224,160,83398,1,0,0:0:0:0:
224,160,83488,1,0,0:0:0:0:
224,160,83578,1,0,0:0:0:0:
224,160,83849,1,0,0:0:0:0:
288,160,84389,1,8,0:0:0:0:
288,160,84479,1,8,0:0:0:0:
288,160,84569,1,8,0:0:0:0:
288,160,84660,1,8,0:0:0:0:
288,160,84930,1,8,0:0:0:0:
224,160,85200,1,0,0:0:0:0:
224,160,85470,1,0,0:0:0:0:
224,160,85651,1,0,0:0:0:0:
224,160,85741,1,0,0:0:0:0:
288,160,86011,1,8,0:0:0:0:
224,160,86551,1,0,0:0:0:0:
224,160,86642,1,0,0:0:0:0:
224,160,86732,1,0,0:0:0:0:
224,160,86822,1,0,0:0:0:0:
224,160,87092,1,0,0:0:0:0:
224,160,87362,1,0,0:0:0:0:
288,160,87633,1,8,0:0:0:0:
288,160,87723,1,8,0:0:0:0:
288,160,87813,1,8,0:0:0:0:
288,160,87903,1,8,0:0:0:0:
288,160,88173,1,8,0:0:0:0:
224,160,88714,1,0,0:0:0:0:
224,160,88804,1,0,0:0:0:0:
224,160,88894,1,0,0:0:0:0:
224,160,88984,1,0,0:0:0:0:
288,160,89254,1,8,0:0:0:0:
224,160,89524,1,0,0:0:0:0:
224,160,89795,1,0,0:0:0:0:
288,160,89975,1,8,0:0:0:0:
288,160,90065,1,8,0:0:0:0:
288,160,90335,1,8,0:0:0:0:
224,160,90606,1,0,0:0:0:0:
288,224,90876,1,12,0:0:0:0:
288,224,91597,1,12,0:0:0:0:
288,224,91777,1,12,0:0:0:0:
224,224,91957,1,4,0:0:0:0:
224,224,92678,1,4,0:0:0:0:
224,224,92858,1,4,0:0:0:0:
288,224,93038,1,12,0:0:0:0:
288,224,93759,1,12,0:0:0:0:
224,224,93939,1,4,0:0:0:0:
224,224,94119,1,4,0:0:0:0:
288,224,94660,1,12,0:0:0:0:
224,224,95200,1,4,0:0:0:0:
