osu file format v14

[General]
AudioFilename: audio.mp3
AudioLeadIn: 0
PreviewTime: 132703
Countdown: 0
SampleSet: Soft
StackLeniency: 0.7
Mode: 3
LetterboxInBreaks: 0
SpecialStyle: 0
WidescreenStoryboard: 0

[Editor]
Bookmarks: 22358
DistanceSpacing: 2.7
BeatDivisor: 4
GridSize: 4
TimelineZoom: 2.4

[Metadata]
Title:Nervous
TitleUnicode:Nervous
Artist:Vospi
ArtistUnicode:Vospi
Creator:Ryu Sei
Version:R-sane
Source:Pump It Up Infinity
Tags:PIU
BeatmapID:1948455
BeatmapSetID:933294

[Difficulty]
HPDrainRate:8.3
CircleSize:4
OverallDifficulty:8
ApproachRate:5
SliderMultiplier:1.4
SliderTickRate:1

[Events]
//Background and Video events
0,0,"ye.png",0,0
//Break Periods
//Storyboard Layer 0 (Background)
//Storyboard Layer 1 (Fail)
//Storyboard Layer 2 (Pass)
//Storyboard Layer 3 (Foreground)
//Storyboard Layer 4 (Overlay)
//Storyboard Sound Samples

[TimingPoints]
290,344.827586206897,4,2,1,50,1,0
132703,-100,4,2,1,50,0,0
133738,-66.6666666666667,4,2,1,50,0,0
133824,-200,4,2,1,50,0,0
133910,-100,4,2,1,50,0,0
135117,-66.6666666666667,4,2,1,50,0,0
135203,-200,4,2,1,50,0,0
135290,-100,4,2,1,50,0,0
135462,-52.6315789473684,4,2,1,50,0,0
135491,-1000,4,2,1,50,0,0
135519,-52.6315789473684,4,2,1,50,0,0
135548,-1000,4,2,1,50,0,0
135577,-52.6315789473684,4,2,1,50,0,0
135606,-1000,4,2,1,50,0,0
135634,-52.6315789473684,4,2,1,50,0,0
135663,-1000,4,2,1,50,0,0
135692,-52.6315789473684,4,2,1,50,0,0
135721,-1000,4,2,1,50,0,0
135749,-52.6315789473684,4,2,1,50,0,0
135778,-1000,4,2,1,50,0,0
135807,-100,4,2,1,50,0,0
136755,-1000,4,2,1,50,0,0
136820,-27.027027027027,4,2,1,50,0,0
136841,-100,4,2,1,50,0,0
138048,-200,4,2,1,50,0,0
138134,-66.6666666666667,4,2,1,50,0,0
138221,-100,4,2,1,50,0,0
139255,-66.6666666666667,4,2,1,50,0,0
139341,-200,4,2,1,50,0,0
139427,-100,4,2,1,50,0,0
140634,-66.6666666666667,4,2,1,50,0,0
140721,-200,4,2,1,50,0,0
140807,-100,4,2,1,50,0,0
140979,-52.6315789473684,4,2,1,50,0,0
141008,-1000,4,2,1,50,0,0
141037,-52.6315789473684,4,2,1,50,0,0
141065,-1000,4,2,1,50,0,0
141094,-52.6315789473684,4,2,1,50,0,0
141123,-1000,4,2,1,50,0,0
141152,-52.6315789473684,4,2,1,50,0,0
141180,-1000,4,2,1,50,0,0
141209,-52.6315789473684,4,2,1,50,0,0
141238,-1000,4,2,1,50,0,0
141267,-52.6315789473684,4,2,1,50,0,0
141295,-1000,4,2,1,50,0,0
141324,-100,4,2,1,50,0,0
142272,-1000,4,2,1,50,0,0
142337,-27.027027027027,4,2,1,50,0,0
142358,-100,4,2,1,50,0,0
143565,-200,4,2,1,50,0,0
143652,-66.6666666666667,4,2,1,50,0,0
143738,-100,4,2,1,50,0,0
144773,-66.6666666666667,4,2,1,50,0,0
144859,-200,4,2,1,50,0,0
144945,-100,4,2,1,50,0,0
146152,-66.6666666666667,4,2,1,50,0,0
146238,-200,4,2,1,50,0,0
146325,-100,4,2,1,50,0,0
146497,-52.6315789473684,4,2,1,50,0,0
146526,-1000,4,2,1,50,0,0
146554,-52.6315789473684,4,2,1,50,0,0
146583,-1000,4,2,1,50,0,0
146612,-52.6315789473684,4,2,1,50,0,0
146641,-1000,4,2,1,50,0,0
146669,-52.6315789473684,4,2,1,50,0,0
146698,-1000,4,2,1,50,0,0
146727,-52.6315789473684,4,2,1,50,0,0
146756,-1000,4,2,1,50,0,0
146784,-52.6315789473684,4,2,1,50,0,0
146813,-1000,4,2,1,50,0,0
146842,-100,4,2,1,50,0,0
147790,-1000,4,2,1,50,0,0
147855,-27.027027027027,4,2,1,50,0,0
147876,-100,4,2,1,50,0,0
149083,-200,4,2,1,50,0,0
149126,-66.6666666666667,4,2,1,50,0,0
149169,-100,4,2,1,50,0,0
150290,-66.6666666666667,4,2,1,50,0,0
150376,-200,4,2,1,50,0,0
150462,-100,4,2,1,50,0,0
151669,-66.6666666666667,4,2,1,50,0,0
151756,-200,4,2,1,50,0,0
151842,-100,4,2,1,50,0,0
152014,-52.6315789473684,4,2,1,50,0,0
152043,-1000,4,2,1,50,0,0
152072,-52.6315789473684,4,2,1,50,0,0
152100,-1000,4,2,1,50,0,0
152129,-52.6315789473684,4,2,1,50,0,0
152158,-1000,4,2,1,50,0,0
152187,-52.6315789473684,4,2,1,50,0,0
152215,-1000,4,2,1,50,0,0
152244,-52.6315789473684,4,2,1,50,0,0
152273,-1000,4,2,1,50,0,0
152302,-52.6315789473684,4,2,1,50,0,0
152330,-1000,4,2,1,50,0,0
152359,-100,4,2,1,50,0,0
153307,-1000,4,2,1,50,0,0
153372,-27.027027027027,4,2,1,50,0,0
153393,-100,4,2,1,50,0,0
154083,-55.5555555555556,4,2,1,50,0,0
154126,-500,4,2,1,50,0,0
154169,-55.5555555555556,4,2,1,50,0,0
154212,-500,4,2,1,50,0,0
154255,-55.5555555555556,4,2,1,50,0,0
154298,-500,4,2,1,50,0,0
154341,-55.5555555555556,4,2,1,50,0,0
154384,-500,4,2,1,50,0,0
154427,-55.5555555555556,4,2,1,50,0,0
154471,-500,4,2,1,50,0,0
154514,-55.5555555555556,4,2,1,50,0,0
154557,-500,4,2,1,50,0,0
154600,-55.5555555555556,4,2,1,50,0,0
154643,-500,4,2,1,50,0,0
154686,-55.5555555555556,4,2,1,50,0,0
154729,-500,4,2,1,50,0,0
154772,-100,4,2,1,50,0,0
158910,-1000,4,2,1,50,0,0
158996,-100,4,2,1,50,0,0
159255,-1000,4,2,1,50,0,0
159341,-100,4,2,1,50,0,0
159600,-1000,4,2,1,50,0,0
159686,-100,4,2,1,50,0,0
159945,-1000,4,2,1,50,0,0
160031,-100,4,2,1,50,0,0

[HitObjects]
448,192,290,128,0,376:0:0:0:0:
448,192,548,128,0,634:0:0:0:0:
320,192,634,128,0,721:0:0:0:0:
320,192,807,128,0,893:0:0:0:0:
192,192,979,128,0,1065:0:0:0:0:
192,192,1152,128,0,1238:0:0:0:0:
64,192,1324,128,0,1410:0:0:0:0:
64,192,1496,128,0,1583:0:0:0:0:
192,192,1669,128,0,1755:0:0:0:0:
64,192,1841,1,0,0:0:0:0:
192,192,1899,1,0,0:0:0:0:
320,192,1927,1,0,0:0:0:0:
448,192,1956,1,0,0:0:0:0:
64,192,1985,1,0,0:0:0:0:
192,192,2014,128,0,2100:0:0:0:0:
448,192,2186,128,0,2272:0:0:0:0:
192,192,2358,128,0,2445:0:0:0:0:
320,192,2531,128,0,2617:0:0:0:0:
192,192,2703,128,0,2790:0:0:0:0:
64,192,2876,128,0,2962:0:0:0:0:
448,192,3048,128,0,3134:0:0:0:0:
448,192,3307,128,0,3393:0:0:0:0:
320,192,3393,128,0,3479:0:0:0:0:
320,192,3565,128,0,3652:0:0:0:0:
192,192,3738,128,0,3824:0:0:0:0:
192,192,3910,128,0,3996:0:0:0:0:
64,192,4083,128,0,4169:0:0:0:0:
64,192,4255,128,0,4341:0:0:0:0:
192,192,4427,128,0,4514:0:0:0:0:
64,192,4600,1,0,0:0:0:0:
192,192,4657,1,0,0:0:0:0:
320,192,4686,1,0,0:0:0:0:
448,192,4715,1,0,0:0:0:0:
64,192,4744,1,0,0:0:0:0:
192,192,4772,128,0,4858:0:0:0:0:
448,192,4945,128,0,5031:0:0:0:0:
192,192,5117,128,0,5203:0:0:0:0:
64,192,5290,128,0,5376:0:0:0:0:
320,192,5462,128,0,5548:0:0:0:0:
64,192,5634,128,0,5721:0:0:0:0:
192,192,5807,128,0,5979:0:0:0:0:
320,192,5807,1,0,0:0:0:0:
64,192,5979,128,0,6152:0:0:0:0:
448,192,6065,1,0,0:0:0:0:
192,192,6152,128,0,6324:0:0:0:0:
320,192,6152,1,0,0:0:0:0:
320,192,6324,1,0,0:0:0:0:
448,192,6324,128,0,6669:0:0:0:0:
192,192,6496,1,0,0:0:0:0:
192,192,6669,1,0,0:0:0:0:
320,192,6669,128,0,6841:0:0:0:0:
64,192,6841,1,0,0:0:0:0:
448,192,6841,128,0,7186:0:0:0:0:
64,192,7014,1,0,0:0:0:0:
320,192,7186,128,0,7358:0:0:0:0:
192,192,7186,1,0,0:0:0:0:
64,192,7358,1,0,0:0:0:0:
448,192,7358,128,0,7445:0:0:0:0:
192,192,7416,1,0,0:0:0:0:
320,192,7445,1,0,0:0:0:0:
64,192,7473,1,0,0:0:0:0:
192,192,7502,1,0,0:0:0:0:
320,192,7531,1,0,0:0:0:0:
448,192,7531,128,0,7703:0:0:0:0:
320,192,7703,128,0,8048:0:0:0:0:
64,192,7703,1,0,0:0:0:0:
192,192,7876,1,0,0:0:0:0:
64,192,8048,128,0,8221:0:0:0:0:
448,192,8048,1,0,0:0:0:0:
320,192,8221,128,0,8565:0:0:0:0:
192,192,8221,1,0,0:0:0:0:
64,192,8393,1,0,0:0:0:0:
192,192,8565,128,0,8738:0:0:0:0:
448,192,8565,1,0,0:0:0:0:
64,192,8738,128,0,8910:0:0:0:0:
448,192,8824,1,0,0:0:0:0:
192,192,8910,128,0,9083:0:0:0:0:
320,192,8910,1,0,0:0:0:0:
64,192,9083,128,0,9427:0:0:0:0:
320,192,9083,1,0,0:0:0:0:
192,192,9255,1,0,0:0:0:0:
320,192,9427,128,0,9600:0:0:0:0:
192,192,9427,1,0,0:0:0:0:
448,192,9600,128,0,9945:0:0:0:0:
64,192,9600,1,0,0:0:0:0:
64,192,9772,1,0,0:0:0:0:
320,192,9945,128,0,10117:0:0:0:0:
192,192,9945,1,0,0:0:0:0:
448,192,10117,128,0,10203:0:0:0:0:
64,192,10117,1,0,0:0:0:0:
192,192,10175,1,0,0:0:0:0:
320,192,10203,1,0,0:0:0:0:
64,192,10232,1,0,0:0:0:0:
192,192,10261,1,0,0:0:0:0:
448,192,10290,128,0,10462:0:0:0:0:
320,192,10290,1,0,0:0:0:0:
192,192,10462,128,0,10807:0:0:0:0:
64,192,10462,1,0,0:0:0:0:
320,192,10634,1,0,0:0:0:0:
448,192,10807,128,0,10979:0:0:0:0:
64,192,10807,1,0,0:0:0:0:
64,192,10979,128,0,11324:0:0:0:0:
320,192,10979,1,0,0:0:0:0:
192,192,11152,1,0,0:0:0:0:
320,192,11324,128,0,11496:0:0:0:0:
192,192,11324,1,0,0:0:0:0:
448,192,11496,128,0,11669:0:0:0:0:
64,192,11583,1,0,0:0:0:0:
320,192,11669,128,0,11841:0:0:0:0:
192,192,11669,1,0,0:0:0:0:
64,192,11669,1,0,0:0:0:0:
192,192,11841,1,0,0:0:0:0:
64,192,11841,128,0,12186:0:0:0:0:
320,192,12014,1,0,0:0:0:0:
320,192,12186,1,0,0:0:0:0:
192,192,12186,128,0,12358:0:0:0:0:
448,192,12358,1,0,0:0:0:0:
320,192,12358,1,0,0:0:0:0:
64,192,12358,128,0,12703:0:0:0:0:
448,192,12531,1,0,0:0:0:0:
192,192,12703,128,0,12876:0:0:0:0:
320,192,12703,1,0,0:0:0:0:
448,192,12876,1,0,0:0:0:0:
64,192,12876,128,0,12962:0:0:0:0:
320,192,12933,1,0,0:0:0:0:
192,192,12962,1,0,0:0:0:0:
448,192,12991,1,0,0:0:0:0:
320,192,13019,1,0,0:0:0:0:
192,192,13048,1,0,0:0:0:0:
64,192,13048,128,0,13221:0:0:0:0:
192,192,13221,128,0,13565:0:0:0:0:
448,192,13221,1,0,0:0:0:0:
320,192,13393,1,0,0:0:0:0:
448,192,13565,128,0,13738:0:0:0:0:
64,192,13565,1,0,0:0:0:0:
192,192,13738,128,0,14083:0:0:0:0:
320,192,13738,1,0,0:0:0:0:
64,192,13738,1,0,0:0:0:0:
448,192,13910,1,0,0:0:0:0:
320,192,14083,128,0,14255:0:0:0:0:
64,192,14083,1,0,0:0:0:0:
64,192,14255,128,0,14427:0:0:0:0:
448,192,14341,1,0,0:0:0:0:
192,192,14427,128,0,14600:0:0:0:0:
320,192,14427,1,0,0:0:0:0:
448,192,14427,1,0,0:0:0:0:
64,192,14600,128,0,14945:0:0:0:0:
320,192,14600,1,0,0:0:0:0:
192,192,14772,1,0,0:0:0:0:
320,192,14945,128,0,15117:0:0:0:0:
192,192,14945,1,0,0:0:0:0:
448,192,15117,128,0,15462:0:0:0:0:
64,192,15117,1,0,0:0:0:0:
192,192,15117,1,0,0:0:0:0:
64,192,15290,1,0,0:0:0:0:
320,192,15462,128,0,15634:0:0:0:0:
192,192,15462,1,0,0:0:0:0:
64,192,15634,1,0,0:0:0:0:
448,192,15634,128,0,15721:0:0:0:0:
192,192,15692,1,0,0:0:0:0:
320,192,15721,1,0,0:0:0:0:
64,192,15749,1,0,0:0:0:0:
192,192,15778,1,0,0:0:0:0:
448,192,15807,128,0,15979:0:0:0:0:
320,192,15807,1,0,0:0:0:0:
192,192,15979,128,0,16324:0:0:0:0:
64,192,15979,1,0,0:0:0:0:
320,192,16152,1,0,0:0:0:0:
64,192,16324,128,0,16496:0:0:0:0:
448,192,16324,1,0,0:0:0:0:
448,192,16496,128,0,16841:0:0:0:0:
192,192,16496,1,0,0:0:0:0:
320,192,16496,1,0,0:0:0:0:
320,192,16669,1,0,0:0:0:0:
64,192,16841,128,0,16927:0:0:0:0:
64,192,17876,128,0,17962:0:0:0:0:
64,192,18048,128,0,18134:0:0:0:0:
192,192,18134,128,0,18221:0:0:0:0:
320,192,18221,128,0,18307:0:0:0:0:
448,192,18565,128,0,18652:0:0:0:0:
64,192,18565,128,0,18824:0:0:0:0:
448,192,18910,128,0,18996:0:0:0:0:
64,192,18910,128,0,19169:0:0:0:0:
320,192,19255,128,0,19341:0:0:0:0:
192,192,19255,128,0,19514:0:0:0:0:
448,192,19600,128,0,20979:0:0:0:0:
64,192,19600,128,0,19686:0:0:0:0:
320,192,19600,1,0,0:0:0:0:
192,192,19772,1,0,0:0:0:0:
64,192,19858,1,0,0:0:0:0:
320,192,19945,1,0,0:0:0:0:
192,192,20031,1,0,0:0:0:0:
64,192,20117,1,0,0:0:0:0:
192,192,20290,1,0,0:0:0:0:
320,192,20376,1,0,0:0:0:0:
64,192,20462,1,0,0:0:0:0:
192,192,20548,1,0,0:0:0:0:
320,192,20634,1,0,0:0:0:0:
192,192,20807,1,0,0:0:0:0:
64,192,20979,1,0,0:0:0:0:
192,192,20979,1,0,0:0:0:0:
320,192,21065,1,0,0:0:0:0:
448,192,21065,1,0,0:0:0:0:
192,192,21152,1,0,0:0:0:0:
64,192,21152,1,0,0:0:0:0:
448,192,21238,1,0,0:0:0:0:
192,192,21324,1,0,0:0:0:0:
320,192,21410,1,0,0:0:0:0:
64,192,21496,1,0,0:0:0:0:
192,192,21496,1,0,0:0:0:0:
448,192,21583,1,0,0:0:0:0:
320,192,21583,1,0,0:0:0:0:
192,192,21669,1,0,0:0:0:0:
64,192,21669,1,0,0:0:0:0:
448,192,21726,1,0,0:0:0:0:
192,192,21784,1,0,0:0:0:0:
64,192,21841,1,0,0:0:0:0:
320,192,21927,1,0,0:0:0:0:
192,192,22014,1,0,0:0:0:0:
448,192,22014,1,0,0:0:0:0:
64,192,22100,1,0,0:0:0:0:
320,192,22100,1,0,0:0:0:0:
192,192,22186,1,0,0:0:0:0:
448,192,22186,1,0,0:0:0:0:
64,192,22272,1,0,0:0:0:0:
320,192,22272,1,0,0:0:0:0:
448,192,22358,128,0,22531:0:0:0:0:
192,192,22358,1,0,0:0:0:0:
320,192,22531,128,0,22876:0:0:0:0:
64,192,22531,1,0,0:0:0:0:
64,192,22703,1,0,0:0:0:0:
448,192,22703,1,0,0:0:0:0:
192,192,22876,128,0,23048:0:0:0:0:
64,192,22876,1,0,0:0:0:0:
448,192,22962,1,0,0:0:0:0:
64,192,23048,128,0,23393:0:0:0:0:
320,192,23048,1,0,0:0:0:0:
192,192,23134,1,0,0:0:0:0:
448,192,23221,1,0,0:0:0:0:
448,192,23393,128,0,23565:0:0:0:0:
320,192,23393,1,0,0:0:0:0:
192,192,23393,1,0,0:0:0:0:
320,192,23565,128,0,23738:0:0:0:0:
64,192,23565,1,0,0:0:0:0:
192,192,23738,128,0,23910:0:0:0:0:
448,192,23738,1,0,0:0:0:0:
64,192,23910,128,0,24083:0:0:0:0:
320,192,23910,1,0,0:0:0:0:
320,192,24083,1,0,0:0:0:0:
448,192,24083,1,0,0:0:0:0:
192,192,24083,1,0,0:0:0:0:
448,192,24198,1,0,0:0:0:0:
192,192,24198,1,0,0:0:0:0:
448,192,24312,1,0,0:0:0:0:
192,192,24312,1,0,0:0:0:0:
320,192,24427,128,0,24600:0:0:0:0:
64,192,24427,1,0,0:0:0:0:
448,192,24600,128,0,24772:0:0:0:0:
64,192,24600,1,0,0:0:0:0:
192,192,24600,1,0,0:0:0:0:
192,192,24772,128,0,25117:0:0:0:0:
64,192,24772,1,0,0:0:0:0:
320,192,24945,1,0,0:0:0:0:
64,192,25117,128,0,25290:0:0:0:0:
320,192,25117,1,0,0:0:0:0:
192,192,25290,128,0,25634:0:0:0:0:
448,192,25290,1,0,0:0:0:0:
448,192,25462,1,0,0:0:0:0:
64,192,25462,1,0,0:0:0:0:
320,192,25634,128,0,25807:0:0:0:0:
448,192,25634,1,0,0:0:0:0:
64,192,25721,1,0,0:0:0:0:
448,192,25807,128,0,26152:0:0:0:0:
192,192,25807,1,0,0:0:0:0:
320,192,25893,1,0,0:0:0:0:
64,192,25979,1,0,0:0:0:0:
64,192,26152,128,0,26324:0:0:0:0:
192,192,26152,1,0,0:0:0:0:
320,192,26152,1,0,0:0:0:0:
192,192,26324,128,0,26496:0:0:0:0:
448,192,26324,1,0,0:0:0:0:
320,192,26496,128,0,26669:0:0:0:0:
64,192,26496,1,0,0:0:0:0:
448,192,26669,128,0,26841:0:0:0:0:
192,192,26669,1,0,0:0:0:0:
192,192,26841,1,0,0:0:0:0:
64,192,26841,1,0,0:0:0:0:
320,192,26841,1,0,0:0:0:0:
64,192,26956,1,0,0:0:0:0:
320,192,26956,1,0,0:0:0:0:
64,192,27071,1,0,0:0:0:0:
320,192,27071,1,0,0:0:0:0:
192,192,27186,128,0,27358:0:0:0:0:
448,192,27186,1,0,0:0:0:0:
64,192,27358,128,0,27531:0:0:0:0:
448,192,27358,1,0,0:0:0:0:
320,192,27358,1,0,0:0:0:0:
320,192,27531,128,0,27876:0:0:0:0:
448,192,27531,1,0,0:0:0:0:
192,192,27703,1,0,0:0:0:0:
448,192,27876,128,0,28048:0:0:0:0:
192,192,27876,1,0,0:0:0:0:
64,192,28048,128,0,28393:0:0:0:0:
320,192,28048,1,0,0:0:0:0:
320,192,28221,1,0,0:0:0:0:
192,192,28221,1,0,0:0:0:0:
448,192,28393,128,0,28565:0:0:0:0:
320,192,28393,1,0,0:0:0:0:
192,192,28479,1,0,0:0:0:0:
320,192,28565,128,0,28910:0:0:0:0:
64,192,28565,1,0,0:0:0:0:
448,192,28652,1,0,0:0:0:0:
192,192,28738,1,0,0:0:0:0:
192,192,28910,128,0,29083:0:0:0:0:
64,192,28910,1,0,0:0:0:0:
448,192,28910,1,0,0:0:0:0:
64,192,29083,128,0,29255:0:0:0:0:
320,192,29083,1,0,0:0:0:0:
448,192,29255,128,0,29427:0:0:0:0:
192,192,29255,1,0,0:0:0:0:
320,192,29427,128,0,29600:0:0:0:0:
64,192,29427,1,0,0:0:0:0:
64,192,29600,1,0,0:0:0:0:
192,192,29600,1,0,0:0:0:0:
448,192,29600,1,0,0:0:0:0:
192,192,29715,1,0,0:0:0:0:
448,192,29715,1,0,0:0:0:0:
192,192,29830,1,0,0:0:0:0:
448,192,29830,1,0,0:0:0:0:
64,192,29945,128,0,30117:0:0:0:0:
320,192,29945,1,0,0:0:0:0:
192,192,30117,128,0,30290:0:0:0:0:
320,192,30117,1,0,0:0:0:0:
448,192,30117,1,0,0:0:0:0:
448,192,30290,128,0,30634:0:0:0:0:
320,192,30290,1,0,0:0:0:0:
64,192,30462,1,0,0:0:0:0:
320,192,30634,128,0,30807:0:0:0:0:
192,192,30634,1,0,0:0:0:0:
64,192,30634,128,0,30749:0:0:0:0:
448,192,30807,128,0,31152:0:0:0:0:
192,192,30807,1,0,0:0:0:0:
192,192,30979,1,0,0:0:0:0:
320,192,30979,1,0,0:0:0:0:
320,192,31123,128,0,31238:0:0:0:0:
64,192,31152,128,0,31324:0:0:0:0:
192,192,31152,1,0,0:0:0:0:
448,192,31238,1,0,0:0:0:0:
192,192,31324,128,0,31669:0:0:0:0:
320,192,31324,1,0,0:0:0:0:
64,192,31410,1,0,0:0:0:0:
320,192,31496,1,0,0:0:0:0:
448,192,31583,128,0,31698:0:0:0:0:
320,192,31669,128,0,31841:0:0:0:0:
64,192,31669,1,0,0:0:0:0:
448,192,31841,128,0,32014:0:0:0:0:
192,192,31841,1,0,0:0:0:0:
64,192,32014,128,0,32186:0:0:0:0:
320,192,32014,1,0,0:0:0:0:
192,192,32014,128,0,32129:0:0:0:0:
192,192,32186,128,0,32358:0:0:0:0:
448,192,32186,1,0,0:0:0:0:
448,192,32358,1,0,0:0:0:0:
320,192,32358,1,0,0:0:0:0:
64,192,32358,1,0,0:0:0:0:
320,192,32473,1,0,0:0:0:0:
192,192,32473,128,0,32588:0:0:0:0:
64,192,32473,1,0,0:0:0:0:
320,192,32588,1,0,0:0:0:0:
64,192,32588,1,0,0:0:0:0:
448,192,32703,128,0,32876:0:0:0:0:
320,192,32703,1,0,0:0:0:0:
320,192,32876,128,0,33048:0:0:0:0:
192,192,32876,1,0,0:0:0:0:
64,192,32876,1,0,0:0:0:0:
448,192,32962,128,0,33077:0:0:0:0:
64,192,33048,128,0,33393:0:0:0:0:
192,192,33048,1,0,0:0:0:0:
448,192,33221,1,0,0:0:0:0:
448,192,33393,128,0,33565:0:0:0:0:
192,192,33393,1,0,0:0:0:0:
320,192,33393,1,0,0:0:0:0:
192,192,33565,128,0,33910:0:0:0:0:
64,192,33738,1,0,0:0:0:0:
448,192,33738,1,0,0:0:0:0:
320,192,33910,128,0,34083:0:0:0:0:
64,192,33910,1,0,0:0:0:0:
448,192,33996,1,0,0:0:0:0:
64,192,34083,128,0,34427:0:0:0:0:
192,192,34083,1,0,0:0:0:0:
320,192,34169,1,0,0:0:0:0:
448,192,34255,1,0,0:0:0:0:
448,192,34427,128,0,34600:0:0:0:0:
192,192,34427,1,0,0:0:0:0:
320,192,34427,1,0,0:0:0:0:
192,192,34600,128,0,34772:0:0:0:0:
64,192,34600,1,0,0:0:0:0:
320,192,34772,128,0,34945:0:0:0:0:
448,192,34772,1,0,0:0:0:0:
64,192,34945,128,0,35117:0:0:0:0:
192,192,34945,1,0,0:0:0:0:
192,192,35117,1,0,0:0:0:0:
448,192,35117,1,0,0:0:0:0:
320,192,35117,1,0,0:0:0:0:
192,192,35232,1,0,0:0:0:0:
320,192,35232,1,0,0:0:0:0:
192,192,35347,1,0,0:0:0:0:
320,192,35347,1,0,0:0:0:0:
192,192,35462,128,0,35634:0:0:0:0:
64,192,35462,1,0,0:0:0:0:
448,192,35634,128,0,35807:0:0:0:0:
64,192,35634,1,0,0:0:0:0:
320,192,35634,1,0,0:0:0:0:
320,192,35807,128,0,36152:0:0:0:0:
64,192,35807,1,0,0:0:0:0:
192,192,35979,1,0,0:0:0:0:
64,192,36152,128,0,36324:0:0:0:0:
192,192,36152,1,0,0:0:0:0:
320,192,36324,128,0,36669:0:0:0:0:
448,192,36324,1,0,0:0:0:0:
448,192,36496,1,0,0:0:0:0:
64,192,36496,1,0,0:0:0:0:
192,192,36669,128,0,36841:0:0:0:0:
448,192,36669,1,0,0:0:0:0:
64,192,36755,1,0,0:0:0:0:
448,192,36841,128,0,37186:0:0:0:0:
320,192,36841,1,0,0:0:0:0:
192,192,36927,1,0,0:0:0:0:
64,192,37014,1,0,0:0:0:0:
64,192,37186,128,0,37358:0:0:0:0:
320,192,37186,1,0,0:0:0:0:
192,192,37186,1,0,0:0:0:0:
320,192,37358,128,0,37531:0:0:0:0:
448,192,37358,1,0,0:0:0:0:
192,192,37531,128,0,37703:0:0:0:0:
64,192,37531,1,0,0:0:0:0:
448,192,37703,128,0,37876:0:0:0:0:
320,192,37703,1,0,0:0:0:0:
320,192,37876,1,0,0:0:0:0:
64,192,37876,1,0,0:0:0:0:
192,192,37876,1,0,0:0:0:0:
320,192,37991,1,0,0:0:0:0:
192,192,37991,1,0,0:0:0:0:
320,192,38106,1,0,0:0:0:0:
192,192,38106,1,0,0:0:0:0:
320,192,38221,128,0,38393:0:0:0:0:
448,192,38221,1,0,0:0:0:0:
64,192,38393,128,0,38565:0:0:0:0:
448,192,38393,1,0,0:0:0:0:
192,192,38393,1,0,0:0:0:0:
192,192,38565,128,0,38910:0:0:0:0:
448,192,38565,1,0,0:0:0:0:
320,192,38738,1,0,0:0:0:0:
448,192,38910,128,0,39083:0:0:0:0:
320,192,38910,1,0,0:0:0:0:
64,192,39083,128,0,39427:0:0:0:0:
192,192,39083,1,0,0:0:0:0:
192,192,39255,1,0,0:0:0:0:
320,192,39255,1,0,0:0:0:0:
448,192,39427,128,0,39600:0:0:0:0:
192,192,39427,1,0,0:0:0:0:
320,192,39514,1,0,0:0:0:0:
192,192,39600,128,0,39945:0:0:0:0:
64,192,39600,1,0,0:0:0:0:
448,192,39686,1,0,0:0:0:0:
320,192,39772,1,0,0:0:0:0:
320,192,39945,128,0,40117:0:0:0:0:
64,192,39945,1,0,0:0:0:0:
448,192,39945,1,0,0:0:0:0:
64,192,40117,128,0,40290:0:0:0:0:
192,192,40117,1,0,0:0:0:0:
448,192,40290,128,0,40462:0:0:0:0:
320,192,40290,1,0,0:0:0:0:
192,192,40462,128,0,40634:0:0:0:0:
64,192,40462,1,0,0:0:0:0:
64,192,40634,1,0,0:0:0:0:
320,192,40634,1,0,0:0:0:0:
448,192,40634,1,0,0:0:0:0:
64,192,40749,1,0,0:0:0:0:
448,192,40749,1,0,0:0:0:0:
64,192,40864,1,0,0:0:0:0:
448,192,40864,1,0,0:0:0:0:
64,192,40979,128,0,41152:0:0:0:0:
192,192,40979,1,0,0:0:0:0:
320,192,41152,128,0,41324:0:0:0:0:
192,192,41152,1,0,0:0:0:0:
448,192,41152,1,0,0:0:0:0:
448,192,41324,128,0,41669:0:0:0:0:
192,192,41324,1,0,0:0:0:0:
64,192,41496,1,0,0:0:0:0:
320,192,41669,1,0,0:0:0:0:
192,192,41669,1,0,0:0:0:0:
192,192,41841,1,0,0:0:0:0:
64,192,42014,1,0,0:0:0:0:
320,192,42014,1,0,0:0:0:0:
448,192,42014,1,0,0:0:0:0:
192,192,42186,1,0,0:0:0:0:
448,192,42186,1,0,0:0:0:0:
64,192,42272,1,0,0:0:0:0:
192,192,42358,1,0,0:0:0:0:
448,192,42445,1,0,0:0:0:0:
320,192,42531,1,0,0:0:0:0:
64,192,42531,1,0,0:0:0:0:
192,192,42703,1,0,0:0:0:0:
448,192,42703,1,0,0:0:0:0:
64,192,42703,1,0,0:0:0:0:
320,192,42876,1,0,0:0:0:0:
64,192,42962,1,0,0:0:0:0:
448,192,43048,1,0,0:0:0:0:
320,192,43048,1,0,0:0:0:0:
192,192,43134,1,0,0:0:0:0:
64,192,43134,1,0,0:0:0:0:
320,192,43221,1,0,0:0:0:0:
448,192,43221,1,0,0:0:0:0:
64,192,43307,1,0,0:0:0:0:
320,192,43393,1,0,0:0:0:0:
192,192,43479,1,0,0:0:0:0:
448,192,43565,1,0,0:0:0:0:
320,192,43565,1,0,0:0:0:0:
64,192,43652,1,0,0:0:0:0:
192,192,43652,1,0,0:0:0:0:
320,192,43738,1,0,0:0:0:0:
448,192,43738,1,0,0:0:0:0:
192,192,43795,1,0,0:0:0:0:
320,192,43853,1,0,0:0:0:0:
448,192,43910,1,0,0:0:0:0:
64,192,43910,1,0,0:0:0:0:
192,192,43996,1,0,0:0:0:0:
320,192,44083,1,0,0:0:0:0:
64,192,44083,1,0,0:0:0:0:
448,192,44169,1,0,0:0:0:0:
192,192,44169,1,0,0:0:0:0:
320,192,44255,1,0,0:0:0:0:
64,192,44255,1,0,0:0:0:0:
448,192,44341,1,0,0:0:0:0:
192,192,44341,1,0,0:0:0:0:
64,192,44427,1,0,0:0:0:0:
320,192,44427,128,0,44542:0:0:0:0:
448,192,44600,1,0,0:0:0:0:
192,192,44772,1,0,0:0:0:0:
320,192,44772,1,0,0:0:0:0:
448,192,44887,128,0,45002:0:0:0:0:
192,192,44945,1,0,0:0:0:0:
64,192,45031,1,0,0:0:0:0:
320,192,45031,1,0,0:0:0:0:
192,192,45117,1,0,0:0:0:0:
448,192,45203,1,0,0:0:0:0:
320,192,45290,1,0,0:0:0:0:
64,192,45290,1,0,0:0:0:0:
192,192,45347,128,0,45462:0:0:0:0:
64,192,45462,1,0,0:0:0:0:
448,192,45462,1,0,0:0:0:0:
320,192,45634,1,0,0:0:0:0:
192,192,45721,1,0,0:0:0:0:
320,192,45807,1,0,0:0:0:0:
64,192,45807,128,0,45922:0:0:0:0:
192,192,45979,1,0,0:0:0:0:
320,192,46152,1,0,0:0:0:0:
448,192,46152,1,0,0:0:0:0:
192,192,46295,128,0,46410:0:0:0:0:
448,192,46324,1,0,0:0:0:0:
64,192,46410,1,0,0:0:0:0:
320,192,46410,1,0,0:0:0:0:
448,192,46496,1,0,0:0:0:0:
64,192,46583,1,0,0:0:0:0:
192,192,46669,1,0,0:0:0:0:
320,192,46669,1,0,0:0:0:0:
448,192,46726,128,0,46841:0:0:0:0:
64,192,46841,1,0,0:0:0:0:
320,192,46841,1,0,0:0:0:0:
448,192,47014,1,0,0:0:0:0:
64,192,47100,1,0,0:0:0:0:
192,192,47186,1,0,0:0:0:0:
320,192,47186,128,0,47301:0:0:0:0:
448,192,47358,1,0,0:0:0:0:
320,192,47531,1,0,0:0:0:0:
192,192,47531,1,0,0:0:0:0:
448,192,47675,128,0,47790:0:0:0:0:
192,192,47703,1,0,0:0:0:0:
64,192,47790,1,0,0:0:0:0:
320,192,47790,1,0,0:0:0:0:
192,192,47876,1,0,0:0:0:0:
448,192,47962,1,0,0:0:0:0:
320,192,48048,1,0,0:0:0:0:
64,192,48048,1,0,0:0:0:0:
192,192,48106,128,0,48221:0:0:0:0:
320,192,48221,1,0,0:0:0:0:
448,192,48221,1,0,0:0:0:0:
192,192,48393,1,0,0:0:0:0:
448,192,48479,1,0,0:0:0:0:
320,192,48565,1,0,0:0:0:0:
64,192,48565,128,0,48680:0:0:0:0:
192,192,48738,1,0,0:0:0:0:
192,192,48910,1,0,0:0:0:0:
448,192,48910,1,0,0:0:0:0:
320,192,49025,128,0,49140:0:0:0:0:
192,192,49083,1,0,0:0:0:0:
64,192,49169,1,0,0:0:0:0:
448,192,49169,1,0,0:0:0:0:
192,192,49255,1,0,0:0:0:0:
320,192,49341,1,0,0:0:0:0:
64,192,49427,1,0,0:0:0:0:
448,192,49427,1,0,0:0:0:0:
192,192,49485,128,0,49600:0:0:0:0:
320,192,49600,1,0,0:0:0:0:
448,192,49600,1,0,0:0:0:0:
192,192,49772,1,0,0:0:0:0:
320,192,49858,1,0,0:0:0:0:
448,192,49945,1,0,0:0:0:0:
192,192,49945,128,0,50060:0:0:0:0:
64,192,50117,1,0,0:0:0:0:
192,192,50290,1,0,0:0:0:0:
320,192,50290,1,0,0:0:0:0:
64,192,50433,128,0,50548:0:0:0:0:
320,192,50462,1,0,0:0:0:0:
192,192,50548,1,0,0:0:0:0:
448,192,50548,1,0,0:0:0:0:
320,192,50634,1,0,0:0:0:0:
64,192,50721,1,0,0:0:0:0:
448,192,50807,1,0,0:0:0:0:
192,192,50807,1,0,0:0:0:0:
320,192,50864,128,0,50979:0:0:0:0:
64,192,50979,1,0,0:0:0:0:
448,192,50979,1,0,0:0:0:0:
192,192,51152,1,0,0:0:0:0:
320,192,51238,1,0,0:0:0:0:
192,192,51324,1,0,0:0:0:0:
448,192,51324,128,0,51439:0:0:0:0:
320,192,51496,1,0,0:0:0:0:
64,192,51669,1,0,0:0:0:0:
192,192,51669,1,0,0:0:0:0:
320,192,51812,128,0,51927:0:0:0:0:
64,192,51841,1,0,0:0:0:0:
192,192,51927,1,0,0:0:0:0:
448,192,51927,1,0,0:0:0:0:
64,192,52014,1,0,0:0:0:0:
448,192,52100,1,0,0:0:0:0:
192,192,52186,1,0,0:0:0:0:
320,192,52186,1,0,0:0:0:0:
64,192,52244,128,0,52358:0:0:0:0:
192,192,52358,1,0,0:0:0:0:
448,192,52358,1,0,0:0:0:0:
64,192,52531,1,0,0:0:0:0:
448,192,52617,1,0,0:0:0:0:
320,192,52703,1,0,0:0:0:0:
64,192,52876,1,0,0:0:0:0:
320,192,53048,1,0,0:0:0:0:
192,192,53048,1,0,0:0:0:0:
320,192,53221,1,0,0:0:0:0:
192,192,53307,1,0,0:0:0:0:
448,192,53307,1,0,0:0:0:0:
320,192,53393,1,0,0:0:0:0:
64,192,53479,1,0,0:0:0:0:
448,192,53565,1,0,0:0:0:0:
192,192,53565,1,0,0:0:0:0:
64,192,53738,1,0,0:0:0:0:
192,192,53738,1,0,0:0:0:0:
448,192,53824,1,0,0:0:0:0:
320,192,53910,1,0,0:0:0:0:
448,192,54083,1,0,0:0:0:0:
64,192,54255,1,0,0:0:0:0:
192,192,54427,1,0,0:0:0:0:
320,192,54600,1,0,0:0:0:0:
192,192,54772,1,0,0:0:0:0:
320,192,54858,1,0,0:0:0:0:
448,192,54945,1,0,0:0:0:0:
64,192,54945,1,0,0:0:0:0:
192,192,55031,1,0,0:0:0:0:
64,192,55117,1,0,0:0:0:0:
448,192,55117,1,0,0:0:0:0:
448,192,55376,1,0,0:0:0:0:
320,192,55462,1,0,0:0:0:0:
192,192,55462,1,0,0:0:0:0:
64,192,55548,1,0,0:0:0:0:
192,192,55634,1,0,0:0:0:0:
320,192,55721,1,0,0:0:0:0:
192,192,55807,1,0,0:0:0:0:
448,192,55807,1,0,0:0:0:0:
64,192,55807,1,0,0:0:0:0:
320,192,55979,1,0,0:0:0:0:
64,192,56065,1,0,0:0:0:0:
448,192,56065,1,0,0:0:0:0:
192,192,56152,1,0,0:0:0:0:
320,192,56238,1,0,0:0:0:0:
192,192,56324,1,0,0:0:0:0:
448,192,56324,1,0,0:0:0:0:
64,192,56496,1,0,0:0:0:0:
448,192,56496,1,0,0:0:0:0:
320,192,56496,1,0,0:0:0:0:
192,192,56669,1,0,0:0:0:0:
64,192,56755,1,0,0:0:0:0:
320,192,56841,1,0,0:0:0:0:
192,192,56841,1,0,0:0:0:0:
448,192,56927,1,0,0:0:0:0:
64,192,57014,1,0,0:0:0:0:
320,192,57100,1,0,0:0:0:0:
192,192,57186,1,0,0:0:0:0:
448,192,57186,1,0,0:0:0:0:
64,192,57186,1,0,0:0:0:0:
320,192,57358,1,0,0:0:0:0:
64,192,57445,1,0,0:0:0:0:
448,192,57445,1,0,0:0:0:0:
192,192,57531,1,0,0:0:0:0:
64,192,57617,1,0,0:0:0:0:
320,192,57703,1,0,0:0:0:0:
448,192,57703,1,0,0:0:0:0:
64,192,57790,1,0,0:0:0:0:
192,192,57876,1,0,0:0:0:0:
448,192,57876,1,0,0:0:0:0:
320,192,57876,1,0,0:0:0:0:
64,192,58048,1,0,0:0:0:0:
448,192,58134,1,0,0:0:0:0:
192,192,58221,1,0,0:0:0:0:
320,192,58221,1,0,0:0:0:0:
448,192,58307,1,0,0:0:0:0:
320,192,58393,1,0,0:0:0:0:
192,192,58479,1,0,0:0:0:0:
320,192,58565,1,0,0:0:0:0:
64,192,58565,1,0,0:0:0:0:
448,192,58565,1,0,0:0:0:0:
192,192,58738,1,0,0:0:0:0:
448,192,58824,1,0,0:0:0:0:
64,192,58824,1,0,0:0:0:0:
320,192,58910,1,0,0:0:0:0:
192,192,58996,1,0,0:0:0:0:
320,192,59083,1,0,0:0:0:0:
64,192,59083,1,0,0:0:0:0:
448,192,59255,1,0,0:0:0:0:
64,192,59255,1,0,0:0:0:0:
192,192,59255,1,0,0:0:0:0:
320,192,59427,1,0,0:0:0:0:
448,192,59514,1,0,0:0:0:0:
192,192,59600,1,0,0:0:0:0:
320,192,59600,1,0,0:0:0:0:
64,192,59686,1,0,0:0:0:0:
448,192,59772,1,0,0:0:0:0:
192,192,59858,1,0,0:0:0:0:
320,192,59945,1,0,0:0:0:0:
64,192,59945,1,0,0:0:0:0:
448,192,59945,1,0,0:0:0:0:
192,192,60117,1,0,0:0:0:0:
448,192,60203,1,0,0:0:0:0:
64,192,60203,1,0,0:0:0:0:
320,192,60290,1,0,0:0:0:0:
448,192,60376,1,0,0:0:0:0:
192,192,60462,1,0,0:0:0:0:
64,192,60462,1,0,0:0:0:0:
320,192,60462,1,0,0:0:0:0:
448,192,60548,1,0,0:0:0:0:
192,192,60634,1,0,0:0:0:0:
448,192,60807,1,0,0:0:0:0:
64,192,60893,1,0,0:0:0:0:
192,192,60979,1,0,0:0:0:0:
320,192,60979,1,0,0:0:0:0:
64,192,61065,1,0,0:0:0:0:
320,192,61152,1,0,0:0:0:0:
192,192,61238,1,0,0:0:0:0:
320,192,61324,1,0,0:0:0:0:
448,192,61324,1,0,0:0:0:0:
64,192,61324,1,0,0:0:0:0:
192,192,61496,1,0,0:0:0:0:
64,192,61583,1,0,0:0:0:0:
448,192,61583,1,0,0:0:0:0:
320,192,61669,1,0,0:0:0:0:
192,192,61755,1,0,0:0:0:0:
320,192,61841,1,0,0:0:0:0:
448,192,61841,1,0,0:0:0:0:
64,192,62014,1,0,0:0:0:0:
448,192,62014,1,0,0:0:0:0:
192,192,62014,1,0,0:0:0:0:
320,192,62186,1,0,0:0:0:0:
64,192,62272,1,0,0:0:0:0:
192,192,62358,1,0,0:0:0:0:
320,192,62358,1,0,0:0:0:0:
448,192,62445,1,0,0:0:0:0:
64,192,62531,1,0,0:0:0:0:
192,192,62617,1,0,0:0:0:0:
320,192,62703,1,0,0:0:0:0:
448,192,62703,1,0,0:0:0:0:
64,192,62703,1,0,0:0:0:0:
192,192,62876,1,0,0:0:0:0:
64,192,62962,1,0,0:0:0:0:
448,192,62962,1,0,0:0:0:0:
320,192,63048,1,0,0:0:0:0:
64,192,63134,1,0,0:0:0:0:
192,192,63221,1,0,0:0:0:0:
448,192,63221,1,0,0:0:0:0:
64,192,63307,1,0,0:0:0:0:
320,192,63393,1,0,0:0:0:0:
448,192,63393,1,0,0:0:0:0:
192,192,63393,1,0,0:0:0:0:
64,192,63565,1,0,0:0:0:0:
448,192,63652,1,0,0:0:0:0:
320,192,63738,1,0,0:0:0:0:
192,192,63738,1,0,0:0:0:0:
448,192,63824,1,0,0:0:0:0:
192,192,63910,1,0,0:0:0:0:
320,192,63996,1,0,0:0:0:0:
192,192,64083,1,0,0:0:0:0:
64,192,64083,1,0,0:0:0:0:
448,192,64083,1,0,0:0:0:0:
320,192,64255,1,0,0:0:0:0:
448,192,64341,1,0,0:0:0:0:
64,192,64341,1,0,0:0:0:0:
192,192,64427,1,0,0:0:0:0:
320,192,64514,1,0,0:0:0:0:
192,192,64600,1,0,0:0:0:0:
64,192,64600,1,0,0:0:0:0:
448,192,64772,1,0,0:0:0:0:
64,192,64772,1,0,0:0:0:0:
320,192,64772,1,0,0:0:0:0:
192,192,64945,1,0,0:0:0:0:
448,192,65031,1,0,0:0:0:0:
192,192,65117,128,0,65203:0:0:0:0:
64,192,65290,1,0,0:0:0:0:
192,192,65318,1,0,0:0:0:0:
320,192,65347,1,0,0:0:0:0:
448,192,65376,1,0,0:0:0:0:
64,192,65404,1,0,0:0:0:0:
192,192,65433,1,0,0:0:0:0:
320,192,65462,128,0,65548:0:0:0:0:
448,192,65634,128,0,65721:0:0:0:0:
192,192,65807,128,0,65893:0:0:0:0:
64,192,65979,128,0,66065:0:0:0:0:
320,192,66152,128,0,66238:0:0:0:0:
192,192,66324,128,0,66410:0:0:0:0:
64,192,66496,1,0,0:0:0:0:
448,192,66496,1,0,0:0:0:0:
320,192,66583,1,0,0:0:0:0:
448,192,66669,1,0,0:0:0:0:
64,192,66755,1,0,0:0:0:0:
448,192,66841,1,0,0:0:0:0:
192,192,66841,1,0,0:0:0:0:
320,192,66841,1,0,0:0:0:0:
64,192,67014,1,0,0:0:0:0:
320,192,67100,1,0,0:0:0:0:
192,192,67100,1,0,0:0:0:0:
448,192,67186,1,0,0:0:0:0:
64,192,67272,1,0,0:0:0:0:
448,192,67358,1,0,0:0:0:0:
192,192,67358,1,0,0:0:0:0:
320,192,67531,1,0,0:0:0:0:
192,192,67531,1,0,0:0:0:0:
64,192,67531,1,0,0:0:0:0:
448,192,67703,1,0,0:0:0:0:
320,192,67790,1,0,0:0:0:0:
64,192,67876,1,0,0:0:0:0:
448,192,67876,1,0,0:0:0:0:
192,192,67962,1,0,0:0:0:0:
320,192,68048,1,0,0:0:0:0:
64,192,68134,1,0,0:0:0:0:
448,192,68221,1,0,0:0:0:0:
192,192,68221,1,0,0:0:0:0:
320,192,68221,1,0,0:0:0:0:
64,192,68393,1,0,0:0:0:0:
320,192,68479,1,0,0:0:0:0:
192,192,68479,1,0,0:0:0:0:
448,192,68565,1,0,0:0:0:0:
320,192,68652,1,0,0:0:0:0:
64,192,68738,1,0,0:0:0:0:
192,192,68738,1,0,0:0:0:0:
320,192,68824,1,0,0:0:0:0:
448,192,68910,1,0,0:0:0:0:
192,192,68910,1,0,0:0:0:0:
64,192,68910,1,0,0:0:0:0:
320,192,69083,1,0,0:0:0:0:
192,192,69169,1,0,0:0:0:0:
448,192,69255,1,0,0:0:0:0:
64,192,69255,1,0,0:0:0:0:
192,192,69341,1,0,0:0:0:0:
64,192,69427,1,0,0:0:0:0:
448,192,69514,1,0,0:0:0:0:
64,192,69600,1,0,0:0:0:0:
320,192,69600,1,0,0:0:0:0:
192,192,69600,1,0,0:0:0:0:
448,192,69772,1,0,0:0:0:0:
192,192,69858,1,0,0:0:0:0:
320,192,69858,1,0,0:0:0:0:
64,192,69945,1,0,0:0:0:0:
448,192,70031,1,0,0:0:0:0:
64,192,70117,1,0,0:0:0:0:
320,192,70117,1,0,0:0:0:0:
192,192,70290,1,0,0:0:0:0:
320,192,70290,1,0,0:0:0:0:
448,192,70290,1,0,0:0:0:0:
64,192,70462,1,0,0:0:0:0:
192,192,70548,1,0,0:0:0:0:
448,192,70634,1,0,0:0:0:0:
64,192,70634,1,0,0:0:0:0:
320,192,70721,1,0,0:0:0:0:
192,192,70807,1,0,0:0:0:0:
448,192,70893,1,0,0:0:0:0:
64,192,70979,1,0,0:0:0:0:
320,192,70979,1,0,0:0:0:0:
192,192,70979,1,0,0:0:0:0:
448,192,71152,1,0,0:0:0:0:
192,192,71238,1,0,0:0:0:0:
320,192,71238,1,0,0:0:0:0:
64,192,71324,1,0,0:0:0:0:
192,192,71410,1,0,0:0:0:0:
448,192,71496,1,0,0:0:0:0:
320,192,71496,1,0,0:0:0:0:
64,192,71496,1,0,0:0:0:0:
192,192,71583,1,0,0:0:0:0:
448,192,71669,1,0,0:0:0:0:
192,192,71841,1,0,0:0:0:0:
320,192,71927,1,0,0:0:0:0:
448,192,72014,1,0,0:0:0:0:
64,192,72014,1,0,0:0:0:0:
320,192,72100,1,0,0:0:0:0:
64,192,72186,1,0,0:0:0:0:
448,192,72272,1,0,0:0:0:0:
64,192,72358,1,0,0:0:0:0:
192,192,72358,1,0,0:0:0:0:
320,192,72358,1,0,0:0:0:0:
448,192,72531,1,0,0:0:0:0:
320,192,72617,1,0,0:0:0:0:
192,192,72617,1,0,0:0:0:0:
64,192,72703,1,0,0:0:0:0:
448,192,72790,1,0,0:0:0:0:
64,192,72876,1,0,0:0:0:0:
192,192,72876,1,0,0:0:0:0:
320,192,73048,1,0,0:0:0:0:
192,192,73048,1,0,0:0:0:0:
448,192,73048,1,0,0:0:0:0:
64,192,73221,1,0,0:0:0:0:
320,192,73307,1,0,0:0:0:0:
448,192,73393,1,0,0:0:0:0:
64,192,73393,1,0,0:0:0:0:
192,192,73479,1,0,0:0:0:0:
320,192,73565,1,0,0:0:0:0:
448,192,73652,1,0,0:0:0:0:
64,192,73738,1,0,0:0:0:0:
192,192,73738,1,0,0:0:0:0:
320,192,73738,1,0,0:0:0:0:
448,192,73910,1,0,0:0:0:0:
320,192,73996,1,0,0:0:0:0:
192,192,73996,1,0,0:0:0:0:
64,192,74083,1,0,0:0:0:0:
320,192,74169,1,0,0:0:0:0:
448,192,74255,1,0,0:0:0:0:
192,192,74255,1,0,0:0:0:0:
320,192,74341,1,0,0:0:0:0:
64,192,74427,1,0,0:0:0:0:
192,192,74427,1,0,0:0:0:0:
448,192,74427,1,0,0:0:0:0:
320,192,74600,1,0,0:0:0:0:
192,192,74686,1,0,0:0:0:0:
64,192,74772,1,0,0:0:0:0:
448,192,74772,1,0,0:0:0:0:
192,192,74858,1,0,0:0:0:0:
448,192,74945,1,0,0:0:0:0:
64,192,75031,1,0,0:0:0:0:
448,192,75117,1,0,0:0:0:0:
192,192,75117,1,0,0:0:0:0:
320,192,75117,1,0,0:0:0:0:
64,192,75290,1,0,0:0:0:0:
192,192,75376,1,0,0:0:0:0:
320,192,75376,1,0,0:0:0:0:
448,192,75462,1,0,0:0:0:0:
64,192,75548,1,0,0:0:0:0:
448,192,75634,1,0,0:0:0:0:
320,192,75634,1,0,0:0:0:0:
192,192,75807,1,0,0:0:0:0:
320,192,75807,1,0,0:0:0:0:
64,192,75807,1,0,0:0:0:0:
448,192,75979,1,0,0:0:0:0:
192,192,76065,1,0,0:0:0:0:
320,192,76152,1,0,0:0:0:0:
448,192,76152,1,0,0:0:0:0:
320,192,76324,1,0,0:0:0:0:
448,192,76324,1,0,0:0:0:0:
192,192,76410,1,0,0:0:0:0:
64,192,76496,1,0,0:0:0:0:
320,192,76583,1,0,0:0:0:0:
192,192,76669,1,0,0:0:0:0:
448,192,76669,1,0,0:0:0:0:
64,192,76669,1,0,0:0:0:0:
320,192,76841,1,0,0:0:0:0:
448,192,76927,1,0,0:0:0:0:
192,192,76927,1,0,0:0:0:0:
64,192,77014,1,0,0:0:0:0:
192,192,77100,1,0,0:0:0:0:
448,192,77186,1,0,0:0:0:0:
64,192,77186,1,0,0:0:0:0:
64,192,77358,1,0,0:0:0:0:
192,192,77358,1,0,0:0:0:0:
320,192,77358,1,0,0:0:0:0:
192,192,77445,1,0,0:0:0:0:
448,192,77531,1,0,0:0:0:0:
320,192,77703,1,0,0:0:0:0:
64,192,77876,1,0,0:0:0:0:
192,192,78048,1,0,0:0:0:0:
448,192,78221,1,0,0:0:0:0:
320,192,78393,1,0,0:0:0:0:
64,192,78565,1,0,0:0:0:0:
192,192,78738,1,0,0:0:0:0:
448,192,78910,1,0,0:0:0:0:
320,192,79083,1,0,0:0:0:0:
64,192,79255,1,0,0:0:0:0:
192,192,79427,1,0,0:0:0:0:
448,192,79600,1,0,0:0:0:0:
320,192,79772,1,0,0:0:0:0:
64,192,79945,1,0,0:0:0:0:
192,192,80117,1,0,0:0:0:0:
448,192,80290,1,0,0:0:0:0:
64,192,80290,1,0,0:0:0:0:
320,192,80462,1,0,0:0:0:0:
64,192,80634,1,0,0:0:0:0:
448,192,80634,1,0,0:0:0:0:
192,192,80807,1,0,0:0:0:0:
448,192,80979,1,0,0:0:0:0:
64,192,80979,1,0,0:0:0:0:
192,192,81152,1,0,0:0:0:0:
448,192,81324,1,0,0:0:0:0:
64,192,81324,1,0,0:0:0:0:
320,192,81496,1,0,0:0:0:0:
64,192,81669,5,0,0:0:0:0:
192,192,81669,1,0,0:0:0:0:
320,192,81899,1,0,0:0:0:0:
448,192,81899,1,0,0:0:0:0:
192,192,81956,1,0,0:0:0:0:
64,192,81956,1,0,0:0:0:0:
320,192,82014,1,0,0:0:0:0:
448,192,82014,1,0,0:0:0:0:
64,192,82186,1,0,0:0:0:0:
192,192,82186,1,0,0:0:0:0:
64,192,82358,128,0,82416:0:0:0:0:
192,192,82358,128,0,82473:0:0:0:0:
320,192,82358,128,0,82531:0:0:0:0:
448,192,82358,128,0,82531:0:0:0:0:
64,192,82703,128,0,82876:0:0:0:0:
192,192,82703,128,0,82876:0:0:0:0:
320,192,82703,128,0,82876:0:0:0:0:
448,192,82703,128,0,82876:0:0:0:0:
320,192,83048,1,0,0:0:0:0:
192,192,83048,1,0,0:0:0:0:
64,192,83134,1,0,0:0:0:0:
192,192,83221,1,0,0:0:0:0:
320,192,83307,1,0,0:0:0:0:
192,192,83393,1,0,0:0:0:0:
448,192,83393,1,0,0:0:0:0:
64,192,83393,1,0,0:0:0:0:
320,192,83565,1,0,0:0:0:0:
64,192,83652,1,0,0:0:0:0:
448,192,83652,1,0,0:0:0:0:
192,192,83738,1,0,0:0:0:0:
320,192,83824,1,0,0:0:0:0:
192,192,83910,1,0,0:0:0:0:
448,192,83910,1,0,0:0:0:0:
64,192,84083,1,0,0:0:0:0:
448,192,84083,1,0,0:0:0:0:
320,192,84083,1,0,0:0:0:0:
192,192,84255,1,0,0:0:0:0:
64,192,84341,1,0,0:0:0:0:
320,192,84427,1,0,0:0:0:0:
192,192,84427,1,0,0:0:0:0:
448,192,84514,1,0,0:0:0:0:
64,192,84600,1,0,0:0:0:0:
192,192,84686,1,0,0:0:0:0:
448,192,84772,1,0,0:0:0:0:
64,192,84772,1,0,0:0:0:0:
448,192,84887,1,0,0:0:0:0:
320,192,84945,1,0,0:0:0:0:
448,192,85002,1,0,0:0:0:0:
64,192,85031,1,0,0:0:0:0:
192,192,85031,1,0,0:0:0:0:
320,192,85117,1,0,0:0:0:0:
64,192,85203,1,0,0:0:0:0:
320,192,85290,1,0,0:0:0:0:
448,192,85290,1,0,0:0:0:0:
192,192,85290,1,0,0:0:0:0:
64,192,85376,1,0,0:0:0:0:
320,192,85462,1,0,0:0:0:0:
192,192,85462,1,0,0:0:0:0:
64,192,85634,1,0,0:0:0:0:
448,192,85721,1,0,0:0:0:0:
192,192,85807,1,0,0:0:0:0:
320,192,85807,1,0,0:0:0:0:
448,192,85893,1,0,0:0:0:0:
320,192,85979,1,0,0:0:0:0:
192,192,86065,1,0,0:0:0:0:
320,192,86152,1,0,0:0:0:0:
64,192,86152,1,0,0:0:0:0:
448,192,86152,1,0,0:0:0:0:
192,192,86324,1,0,0:0:0:0:
448,192,86410,1,0,0:0:0:0:
64,192,86410,1,0,0:0:0:0:
320,192,86496,1,0,0:0:0:0:
192,192,86583,1,0,0:0:0:0:
320,192,86669,1,0,0:0:0:0:
64,192,86669,1,0,0:0:0:0:
448,192,86841,1,0,0:0:0:0:
64,192,86841,1,0,0:0:0:0:
192,192,86841,1,0,0:0:0:0:
320,192,87014,1,0,0:0:0:0:
448,192,87100,1,0,0:0:0:0:
192,192,87186,1,0,0:0:0:0:
320,192,87186,1,0,0:0:0:0:
64,192,87272,1,0,0:0:0:0:
448,192,87358,1,0,0:0:0:0:
320,192,87445,1,0,0:0:0:0:
64,192,87531,1,0,0:0:0:0:
448,192,87531,1,0,0:0:0:0:
64,192,87646,1,0,0:0:0:0:
192,192,87703,1,0,0:0:0:0:
64,192,87761,1,0,0:0:0:0:
448,192,87790,1,0,0:0:0:0:
320,192,87790,1,0,0:0:0:0:
192,192,87876,1,0,0:0:0:0:
448,192,87962,1,0,0:0:0:0:
192,192,88048,1,0,0:0:0:0:
64,192,88048,1,0,0:0:0:0:
320,192,88048,1,0,0:0:0:0:
448,192,88134,1,0,0:0:0:0:
192,192,88221,1,0,0:0:0:0:
320,192,88221,1,0,0:0:0:0:
448,192,88393,1,0,0:0:0:0:
64,192,88479,1,0,0:0:0:0:
448,192,88565,1,0,0:0:0:0:
192,192,88565,1,0,0:0:0:0:
64,192,88652,1,0,0:0:0:0:
192,192,88738,1,0,0:0:0:0:
448,192,88824,1,0,0:0:0:0:
192,192,88910,1,0,0:0:0:0:
320,192,88910,1,0,0:0:0:0:
64,192,88910,1,0,0:0:0:0:
448,192,89083,1,0,0:0:0:0:
64,192,89169,1,0,0:0:0:0:
320,192,89169,1,0,0:0:0:0:
192,192,89255,1,0,0:0:0:0:
448,192,89341,1,0,0:0:0:0:
192,192,89427,1,0,0:0:0:0:
320,192,89427,1,0,0:0:0:0:
64,192,89600,1,0,0:0:0:0:
320,192,89600,1,0,0:0:0:0:
448,192,89600,1,0,0:0:0:0:
192,192,89772,1,0,0:0:0:0:
64,192,89858,1,0,0:0:0:0:
448,192,89945,1,0,0:0:0:0:
192,192,89945,1,0,0:0:0:0:
320,192,90031,1,0,0:0:0:0:
64,192,90117,1,0,0:0:0:0:
448,192,90203,1,0,0:0:0:0:
192,192,90290,1,0,0:0:0:0:
64,192,90290,1,0,0:0:0:0:
320,192,90404,1,0,0:0:0:0:
64,192,90462,1,0,0:0:0:0:
192,192,90519,1,0,0:0:0:0:
320,192,90548,1,0,0:0:0:0:
448,192,90548,1,0,0:0:0:0:
192,192,90634,1,0,0:0:0:0:
64,192,90721,1,0,0:0:0:0:
448,192,90807,1,0,0:0:0:0:
320,192,90807,1,0,0:0:0:0:
192,192,90807,1,0,0:0:0:0:
64,192,90893,1,0,0:0:0:0:
448,192,90979,1,0,0:0:0:0:
64,192,91152,1,0,0:0:0:0:
320,192,91238,1,0,0:0:0:0:
192,192,91324,1,0,0:0:0:0:
448,192,91324,1,0,0:0:0:0:
320,192,91410,1,0,0:0:0:0:
448,192,91496,1,0,0:0:0:0:
192,192,91583,1,0,0:0:0:0:
448,192,91669,1,0,0:0:0:0:
64,192,91669,1,0,0:0:0:0:
320,192,91669,1,0,0:0:0:0:
192,192,91841,1,0,0:0:0:0:
320,192,91927,1,0,0:0:0:0:
64,192,91927,1,0,0:0:0:0:
448,192,92014,1,0,0:0:0:0:
192,192,92100,1,0,0:0:0:0:
448,192,92186,1,0,0:0:0:0:
64,192,92186,1,0,0:0:0:0:
320,192,92358,1,0,0:0:0:0:
64,192,92358,1,0,0:0:0:0:
192,192,92358,1,0,0:0:0:0:
448,192,92531,1,0,0:0:0:0:
320,192,92617,1,0,0:0:0:0:
448,192,92703,128,0,93996:0:0:0:0:
64,192,92703,128,0,93996:0:0:0:0:
320,192,94083,128,0,94255:0:0:0:0:
192,192,94083,1,0,0:0:0:0:
448,192,94255,128,0,94600:0:0:0:0:
64,192,94255,1,0,0:0:0:0:
64,192,94427,1,0,0:0:0:0:
320,192,94427,1,0,0:0:0:0:
192,192,94600,128,0,94772:0:0:0:0:
64,192,94600,1,0,0:0:0:0:
320,192,94686,1,0,0:0:0:0:
64,192,94772,128,0,95117:0:0:0:0:
448,192,94772,1,0,0:0:0:0:
192,192,94858,1,0,0:0:0:0:
320,192,94945,1,0,0:0:0:0:
320,192,95117,128,0,95290:0:0:0:0:
448,192,95117,1,0,0:0:0:0:
192,192,95117,1,0,0:0:0:0:
448,192,95290,128,0,95462:0:0:0:0:
192,192,95290,1,0,0:0:0:0:
64,192,95376,1,0,0:0:0:0:
192,192,95462,128,0,95634:0:0:0:0:
320,192,95462,1,0,0:0:0:0:
64,192,95634,128,0,95807:0:0:0:0:
448,192,95634,1,0,0:0:0:0:
448,192,95807,1,0,0:0:0:0:
320,192,95807,1,0,0:0:0:0:
192,192,95807,1,0,0:0:0:0:
448,192,95922,1,0,0:0:0:0:
192,192,95922,1,0,0:0:0:0:
448,192,96037,1,0,0:0:0:0:
192,192,96037,1,0,0:0:0:0:
448,192,96152,128,0,96324:0:0:0:0:
64,192,96152,1,0,0:0:0:0:
320,192,96324,128,0,96496:0:0:0:0:
64,192,96324,1,0,0:0:0:0:
192,192,96324,1,0,0:0:0:0:
64,192,96496,128,0,96841:0:0:0:0:
192,192,96496,1,0,0:0:0:0:
320,192,96669,1,0,0:0:0:0:
448,192,96755,1,0,0:0:0:0:
192,192,96841,128,0,97014:0:0:0:0:
320,192,96841,1,0,0:0:0:0:
64,192,97014,128,0,97358:0:0:0:0:
448,192,97014,1,0,0:0:0:0:
448,192,97186,1,0,0:0:0:0:
192,192,97186,1,0,0:0:0:0:
320,192,97358,128,0,97531:0:0:0:0:
448,192,97358,1,0,0:0:0:0:
192,192,97445,1,0,0:0:0:0:
448,192,97531,128,0,97876:0:0:0:0:
64,192,97531,1,0,0:0:0:0:
320,192,97617,1,0,0:0:0:0:
192,192,97703,1,0,0:0:0:0:
192,192,97876,128,0,98048:0:0:0:0:
64,192,97876,1,0,0:0:0:0:
320,192,97876,1,0,0:0:0:0:
64,192,98048,128,0,98221:0:0:0:0:
320,192,98048,1,0,0:0:0:0:
448,192,98134,1,0,0:0:0:0:
320,192,98221,128,0,98393:0:0:0:0:
192,192,98221,1,0,0:0:0:0:
448,192,98393,128,0,98565:0:0:0:0:
64,192,98393,1,0,0:0:0:0:
64,192,98565,1,0,0:0:0:0:
192,192,98565,1,0,0:0:0:0:
320,192,98565,1,0,0:0:0:0:
64,192,98680,1,0,0:0:0:0:
320,192,98680,1,0,0:0:0:0:
64,192,98795,1,0,0:0:0:0:
320,192,98795,1,0,0:0:0:0:
64,192,98910,128,0,99083:0:0:0:0:
448,192,98910,1,0,0:0:0:0:
192,192,99083,128,0,99255:0:0:0:0:
448,192,99083,1,0,0:0:0:0:
320,192,99083,1,0,0:0:0:0:
448,192,99255,128,0,99600:0:0:0:0:
320,192,99255,1,0,0:0:0:0:
64,192,99341,1,0,0:0:0:0:
192,192,99427,1,0,0:0:0:0:
64,192,99514,1,0,0:0:0:0:
192,192,99600,128,0,99772:0:0:0:0:
320,192,99600,1,0,0:0:0:0:
448,192,99772,128,0,100117:0:0:0:0:
64,192,99772,1,0,0:0:0:0:
64,192,99945,1,0,0:0:0:0:
192,192,99945,1,0,0:0:0:0:
320,192,100117,128,0,100290:0:0:0:0:
64,192,100117,1,0,0:0:0:0:
192,192,100203,1,0,0:0:0:0:
64,192,100290,128,0,100634:0:0:0:0:
448,192,100290,1,0,0:0:0:0:
320,192,100376,1,0,0:0:0:0:
192,192,100462,1,0,0:0:0:0:
192,192,100634,128,0,100807:0:0:0:0:
448,192,100634,1,0,0:0:0:0:
320,192,100634,1,0,0:0:0:0:
448,192,100807,128,0,100979:0:0:0:0:
64,192,100807,1,0,0:0:0:0:
192,192,100893,1,0,0:0:0:0:
320,192,100979,128,0,101152:0:0:0:0:
64,192,100979,1,0,0:0:0:0:
64,192,101152,128,0,101324:0:0:0:0:
448,192,101152,1,0,0:0:0:0:
448,192,101324,1,0,0:0:0:0:
192,192,101324,1,0,0:0:0:0:
320,192,101324,1,0,0:0:0:0:
192,192,101439,1,0,0:0:0:0:
320,192,101439,1,0,0:0:0:0:
192,192,101554,1,0,0:0:0:0:
320,192,101554,1,0,0:0:0:0:
448,192,101669,128,0,101841:0:0:0:0:
64,192,101669,1,0,0:0:0:0:
192,192,101841,128,0,102014:0:0:0:0:
64,192,101841,1,0,0:0:0:0:
320,192,101841,1,0,0:0:0:0:
64,192,102014,128,0,102358:0:0:0:0:
320,192,102014,1,0,0:0:0:0:
448,192,102100,1,0,0:0:0:0:
320,192,102186,1,0,0:0:0:0:
192,192,102272,1,0,0:0:0:0:
320,192,102358,128,0,102531:0:0:0:0:
448,192,102531,1,0,0:0:0:0:
192,192,102531,128,0,102703:0:0:0:0:
320,192,102703,128,0,102876:0:0:0:0:
192,192,102876,128,0,103048:0:0:0:0:
64,192,102876,1,0,0:0:0:0:
320,192,103048,128,0,103221:0:0:0:0:
192,192,103221,128,0,103393:0:0:0:0:
64,192,103221,1,0,0:0:0:0:
320,192,103393,128,0,103565:0:0:0:0:
192,192,103565,128,0,103738:0:0:0:0:
448,192,103565,1,0,0:0:0:0:
448,192,103738,128,0,104083:0:0:0:0:
320,192,103910,128,0,104083:0:0:0:0:
64,192,104083,128,0,104140:0:0:0:0:
192,192,104083,128,0,104140:0:0:0:0:
64,192,104198,128,0,104255:0:0:0:0:
192,192,104198,128,0,104255:0:0:0:0:
64,192,104312,128,0,104370:0:0:0:0:
192,192,104312,128,0,104370:0:0:0:0:
64,192,104427,128,0,104485:0:0:0:0:
192,192,104427,128,0,104485:0:0:0:0:
320,192,104542,128,0,104600:0:0:0:0:
448,192,104542,128,0,104600:0:0:0:0:
192,192,104600,128,0,104657:0:0:0:0:
64,192,104600,128,0,104657:0:0:0:0:
320,192,104657,128,0,104715:0:0:0:0:
448,192,104657,128,0,104715:0:0:0:0:
320,192,104772,128,0,104830:0:0:0:0:
448,192,104772,128,0,104830:0:0:0:0:
320,192,104887,128,0,104945:0:0:0:0:
448,192,104887,128,0,104945:0:0:0:0:
448,192,105031,128,0,105088:0:0:0:0:
320,192,105031,128,0,105088:0:0:0:0:
64,192,105117,1,0,0:0:0:0:
192,192,105117,1,0,0:0:0:0:
448,192,105290,1,0,0:0:0:0:
320,192,105376,1,0,0:0:0:0:
64,192,105376,1,0,0:0:0:0:
192,192,105462,1,0,0:0:0:0:
448,192,105462,1,0,0:0:0:0:
64,192,105634,1,0,0:0:0:0:
448,192,105634,1,0,0:0:0:0:
320,192,105721,1,0,0:0:0:0:
192,192,105721,1,0,0:0:0:0:
448,192,105807,1,0,0:0:0:0:
64,192,105807,1,0,0:0:0:0:
320,192,105979,1,0,0:0:0:0:
64,192,105979,1,0,0:0:0:0:
448,192,105979,1,0,0:0:0:0:
192,192,106152,1,0,0:0:0:0:
448,192,106152,1,0,0:0:0:0:
320,192,106152,1,0,0:0:0:0:
192,192,106324,1,0,0:0:0:0:
320,192,106324,1,0,0:0:0:0:
448,192,106410,1,0,0:0:0:0:
320,192,106496,1,0,0:0:0:0:
64,192,106496,1,0,0:0:0:0:
320,192,106669,128,0,106841:0:0:0:0:
448,192,106669,1,0,0:0:0:0:
192,192,106841,1,0,0:0:0:0:
448,192,106841,1,0,0:0:0:0:
64,192,106841,1,0,0:0:0:0:
320,192,107014,1,0,0:0:0:0:
192,192,107014,1,0,0:0:0:0:
448,192,107014,1,0,0:0:0:0:
448,192,107186,1,0,0:0:0:0:
192,192,107186,1,0,0:0:0:0:
320,192,107358,1,0,0:0:0:0:
64,192,107358,1,0,0:0:0:0:
448,192,107445,1,0,0:0:0:0:
64,192,107531,1,0,0:0:0:0:
192,192,107531,1,0,0:0:0:0:
320,192,107531,1,0,0:0:0:0:
448,192,107617,1,0,0:0:0:0:
192,192,107703,1,0,0:0:0:0:
320,192,107703,1,0,0:0:0:0:
64,192,107790,1,0,0:0:0:0:
448,192,107876,1,0,0:0:0:0:
320,192,107876,1,0,0:0:0:0:
64,192,108048,1,0,0:0:0:0:
192,192,108134,1,0,0:0:0:0:
448,192,108134,1,0,0:0:0:0:
320,192,108221,1,0,0:0:0:0:
64,192,108221,1,0,0:0:0:0:
448,192,108393,1,0,0:0:0:0:
64,192,108393,1,0,0:0:0:0:
192,192,108479,1,0,0:0:0:0:
320,192,108479,1,0,0:0:0:0:
64,192,108565,1,0,0:0:0:0:
448,192,108565,1,0,0:0:0:0:
192,192,108738,1,0,0:0:0:0:
448,192,108738,1,0,0:0:0:0:
64,192,108738,1,0,0:0:0:0:
320,192,108910,1,0,0:0:0:0:
64,192,108910,1,0,0:0:0:0:
192,192,108910,1,0,0:0:0:0:
320,192,109083,1,0,0:0:0:0:
192,192,109083,1,0,0:0:0:0:
64,192,109169,1,0,0:0:0:0:
192,192,109255,1,0,0:0:0:0:
448,192,109255,1,0,0:0:0:0:
192,192,109427,128,0,109600:0:0:0:0:
64,192,109427,1,0,0:0:0:0:
320,192,109600,1,0,0:0:0:0:
64,192,109600,1,0,0:0:0:0:
448,192,109600,1,0,0:0:0:0:
192,192,109772,1,0,0:0:0:0:
320,192,109772,1,0,0:0:0:0:
64,192,109772,1,0,0:0:0:0:
64,192,109945,1,0,0:0:0:0:
320,192,109945,1,0,0:0:0:0:
192,192,110117,1,0,0:0:0:0:
448,192,110117,1,0,0:0:0:0:
64,192,110203,1,0,0:0:0:0:
448,192,110290,1,0,0:0:0:0:
320,192,110290,1,0,0:0:0:0:
192,192,110290,1,0,0:0:0:0:
64,192,110376,1,0,0:0:0:0:
320,192,110462,1,0,0:0:0:0:
192,192,110462,1,0,0:0:0:0:
448,192,110548,1,0,0:0:0:0:
320,192,110634,1,0,0:0:0:0:
64,192,110634,1,0,0:0:0:0:
448,192,110807,1,0,0:0:0:0:
64,192,110893,1,0,0:0:0:0:
192,192,110893,1,0,0:0:0:0:
448,192,110979,1,0,0:0:0:0:
320,192,110979,1,0,0:0:0:0:
448,192,111152,1,0,0:0:0:0:
64,192,111152,1,0,0:0:0:0:
320,192,111238,1,0,0:0:0:0:
192,192,111238,1,0,0:0:0:0:
64,192,111324,1,0,0:0:0:0:
448,192,111324,1,0,0:0:0:0:
448,192,111496,1,0,0:0:0:0:
64,192,111496,1,0,0:0:0:0:
192,192,111496,1,0,0:0:0:0:
192,192,111669,1,0,0:0:0:0:
320,192,111669,1,0,0:0:0:0:
64,192,111669,1,0,0:0:0:0:
192,192,111841,1,0,0:0:0:0:
320,192,111841,1,0,0:0:0:0:
448,192,111927,1,0,0:0:0:0:
64,192,112014,1,0,0:0:0:0:
192,192,112014,1,0,0:0:0:0:
448,192,112186,1,0,0:0:0:0:
192,192,112186,128,0,112358:0:0:0:0:
64,192,112358,1,0,0:0:0:0:
448,192,112358,1,0,0:0:0:0:
320,192,112358,1,0,0:0:0:0:
448,192,112531,1,0,0:0:0:0:
320,192,112531,1,0,0:0:0:0:
192,192,112531,1,0,0:0:0:0:
320,192,112703,1,0,0:0:0:0:
448,192,112703,1,0,0:0:0:0:
64,192,112876,1,0,0:0:0:0:
192,192,112876,1,0,0:0:0:0:
448,192,112962,1,0,0:0:0:0:
192,192,113048,1,0,0:0:0:0:
320,192,113048,1,0,0:0:0:0:
64,192,113048,1,0,0:0:0:0:
448,192,113134,1,0,0:0:0:0:
192,192,113221,1,0,0:0:0:0:
320,192,113221,1,0,0:0:0:0:
64,192,113307,1,0,0:0:0:0:
192,192,113393,1,0,0:0:0:0:
448,192,113393,1,0,0:0:0:0:
64,192,113565,1,0,0:0:0:0:
448,192,113652,1,0,0:0:0:0:
320,192,113652,1,0,0:0:0:0:
64,192,113738,1,0,0:0:0:0:
192,192,113738,1,0,0:0:0:0:
64,192,113910,1,0,0:0:0:0:
448,192,113910,1,0,0:0:0:0:
192,192,113996,1,0,0:0:0:0:
320,192,113996,1,0,0:0:0:0:
448,192,114083,1,0,0:0:0:0:
64,192,114083,1,0,0:0:0:0:
64,192,114255,1,0,0:0:0:0:
448,192,114255,1,0,0:0:0:0:
320,192,114255,1,0,0:0:0:0:
320,192,114427,1,0,0:0:0:0:
192,192,114427,1,0,0:0:0:0:
448,192,114427,1,0,0:0:0:0:
320,192,114600,1,0,0:0:0:0:
192,192,114600,1,0,0:0:0:0:
64,192,114686,1,0,0:0:0:0:
448,192,114772,1,0,0:0:0:0:
320,192,114772,1,0,0:0:0:0:
64,192,114945,1,0,0:0:0:0:
320,192,114945,128,0,115117:0:0:0:0:
448,192,115117,1,0,0:0:0:0:
64,192,115117,1,0,0:0:0:0:
192,192,115117,1,0,0:0:0:0:
64,192,115290,1,0,0:0:0:0:
192,192,115290,1,0,0:0:0:0:
320,192,115462,1,0,0:0:0:0:
192,192,115462,1,0,0:0:0:0:
448,192,115634,1,0,0:0:0:0:
320,192,115634,1,0,0:0:0:0:
64,192,115721,1,0,0:0:0:0:
320,192,115807,1,0,0:0:0:0:
192,192,115807,1,0,0:0:0:0:
448,192,115807,1,0,0:0:0:0:
64,192,115893,1,0,0:0:0:0:
320,192,115979,1,0,0:0:0:0:
192,192,115979,1,0,0:0:0:0:
448,192,116065,1,0,0:0:0:0:
320,192,116152,1,0,0:0:0:0:
192,192,116152,1,0,0:0:0:0:
448,192,116324,1,0,0:0:0:0:
64,192,116410,1,0,0:0:0:0:
320,192,116410,1,0,0:0:0:0:
192,192,116496,1,0,0:0:0:0:
448,192,116496,1,0,0:0:0:0:
320,192,116669,1,0,0:0:0:0:
448,192,116669,1,0,0:0:0:0:
64,192,116755,1,0,0:0:0:0:
192,192,116755,1,0,0:0:0:0:
448,192,116841,1,0,0:0:0:0:
320,192,116841,1,0,0:0:0:0:
64,192,117014,1,0,0:0:0:0:
320,192,117014,1,0,0:0:0:0:
448,192,117014,1,0,0:0:0:0:
192,192,117186,1,0,0:0:0:0:
448,192,117186,1,0,0:0:0:0:
64,192,117186,1,0,0:0:0:0:
192,192,117358,1,0,0:0:0:0:
64,192,117358,1,0,0:0:0:0:
448,192,117445,1,0,0:0:0:0:
64,192,117531,1,0,0:0:0:0:
320,192,117531,1,0,0:0:0:0:
64,192,117703,128,0,117876:0:0:0:0:
448,192,117703,1,0,0:0:0:0:
192,192,117876,1,0,0:0:0:0:
448,192,117876,1,0,0:0:0:0:
320,192,117876,1,0,0:0:0:0:
64,192,118048,1,0,0:0:0:0:
192,192,118048,1,0,0:0:0:0:
448,192,118048,1,0,0:0:0:0:
448,192,118221,1,0,0:0:0:0:
192,192,118221,1,0,0:0:0:0:
64,192,118393,1,0,0:0:0:0:
320,192,118393,1,0,0:0:0:0:
448,192,118479,1,0,0:0:0:0:
320,192,118565,1,0,0:0:0:0:
192,192,118565,1,0,0:0:0:0:
64,192,118565,1,0,0:0:0:0:
448,192,118652,1,0,0:0:0:0:
192,192,118738,1,0,0:0:0:0:
64,192,118738,1,0,0:0:0:0:
320,192,118824,1,0,0:0:0:0:
448,192,118910,1,0,0:0:0:0:
64,192,118910,1,0,0:0:0:0:
320,192,119083,1,0,0:0:0:0:
192,192,119169,1,0,0:0:0:0:
448,192,119169,1,0,0:0:0:0:
64,192,119255,1,0,0:0:0:0:
320,192,119255,1,0,0:0:0:0:
448,192,119427,1,0,0:0:0:0:
320,192,119427,1,0,0:0:0:0:
192,192,119514,1,0,0:0:0:0:
64,192,119514,1,0,0:0:0:0:
320,192,119600,1,0,0:0:0:0:
448,192,119600,1,0,0:0:0:0:
192,192,119772,1,0,0:0:0:0:
448,192,119772,1,0,0:0:0:0:
320,192,119772,1,0,0:0:0:0:
448,192,119945,1,0,0:0:0:0:
320,192,119945,1,0,0:0:0:0:
64,192,119945,1,0,0:0:0:0:
64,192,120117,1,0,0:0:0:0:
192,192,120117,1,0,0:0:0:0:
320,192,120203,1,0,0:0:0:0:
192,192,120290,1,0,0:0:0:0:
448,192,120290,1,0,0:0:0:0:
192,192,120462,128,0,120634:0:0:0:0:
320,192,120462,1,0,0:0:0:0:
64,192,120634,1,0,0:0:0:0:
320,192,120634,1,0,0:0:0:0:
448,192,120634,1,0,0:0:0:0:
192,192,120807,1,0,0:0:0:0:
64,192,120807,1,0,0:0:0:0:
320,192,120807,1,0,0:0:0:0:
320,192,120979,1,0,0:0:0:0:
64,192,120979,1,0,0:0:0:0:
192,192,121152,1,0,0:0:0:0:
448,192,121152,1,0,0:0:0:0:
320,192,121238,1,0,0:0:0:0:
448,192,121324,1,0,0:0:0:0:
64,192,121324,1,0,0:0:0:0:
192,192,121324,1,0,0:0:0:0:
320,192,121410,1,0,0:0:0:0:
64,192,121496,1,0,0:0:0:0:
192,192,121496,1,0,0:0:0:0:
448,192,121583,1,0,0:0:0:0:
192,192,121669,1,0,0:0:0:0:
320,192,121669,1,0,0:0:0:0:
64,192,121841,1,0,0:0:0:0:
448,192,121927,1,0,0:0:0:0:
192,192,121927,1,0,0:0:0:0:
320,192,122014,1,0,0:0:0:0:
64,192,122014,1,0,0:0:0:0:
192,192,122186,1,0,0:0:0:0:
64,192,122186,1,0,0:0:0:0:
448,192,122272,1,0,0:0:0:0:
320,192,122272,1,0,0:0:0:0:
64,192,122358,1,0,0:0:0:0:
192,192,122358,1,0,0:0:0:0:
448,192,122531,1,0,0:0:0:0:
192,192,122531,1,0,0:0:0:0:
64,192,122531,1,0,0:0:0:0:
320,192,122703,1,0,0:0:0:0:
64,192,122703,1,0,0:0:0:0:
448,192,122703,1,0,0:0:0:0:
320,192,122876,1,0,0:0:0:0:
448,192,122876,1,0,0:0:0:0:
64,192,122962,1,0,0:0:0:0:
448,192,123048,1,0,0:0:0:0:
192,192,123048,1,0,0:0:0:0:
448,192,123221,128,0,123393:0:0:0:0:
64,192,123221,1,0,0:0:0:0:
320,192,123393,1,0,0:0:0:0:
64,192,123393,1,0,0:0:0:0:
192,192,123393,1,0,0:0:0:0:
448,192,123565,1,0,0:0:0:0:
320,192,123565,1,0,0:0:0:0:
64,192,123565,1,0,0:0:0:0:
64,192,123738,1,0,0:0:0:0:
320,192,123738,1,0,0:0:0:0:
448,192,123910,1,0,0:0:0:0:
192,192,123910,1,0,0:0:0:0:
64,192,123996,1,0,0:0:0:0:
192,192,124083,1,0,0:0:0:0:
320,192,124083,1,0,0:0:0:0:
448,192,124083,1,0,0:0:0:0:
64,192,124169,1,0,0:0:0:0:
320,192,124255,1,0,0:0:0:0:
448,192,124255,1,0,0:0:0:0:
192,192,124341,1,0,0:0:0:0:
64,192,124427,1,0,0:0:0:0:
448,192,124427,1,0,0:0:0:0:
192,192,124600,1,0,0:0:0:0:
320,192,124686,1,0,0:0:0:0:
64,192,124686,1,0,0:0:0:0:
448,192,124772,1,0,0:0:0:0:
192,192,124772,1,0,0:0:0:0:
64,192,124945,1,0,0:0:0:0:
192,192,124945,1,0,0:0:0:0:
320,192,125031,1,0,0:0:0:0:
448,192,125031,1,0,0:0:0:0:
192,192,125117,1,0,0:0:0:0:
64,192,125117,1,0,0:0:0:0:
320,192,125290,1,0,0:0:0:0:
64,192,125290,1,0,0:0:0:0:
192,192,125290,1,0,0:0:0:0:
64,192,125462,1,0,0:0:0:0:
192,192,125462,1,0,0:0:0:0:
448,192,125462,1,0,0:0:0:0:
448,192,125634,1,0,0:0:0:0:
320,192,125634,1,0,0:0:0:0:
192,192,125721,1,0,0:0:0:0:
320,192,125807,1,0,0:0:0:0:
64,192,125807,1,0,0:0:0:0:
320,192,125979,128,0,126152:0:0:0:0:
192,192,125979,1,0,0:0:0:0:
448,192,126152,5,0,0:0:0:0:
192,192,126152,1,0,0:0:0:0:
64,192,126152,1,0,0:0:0:0:
320,192,126324,1,0,0:0:0:0:
448,192,126324,1,0,0:0:0:0:
192,192,126496,1,0,0:0:0:0:
448,192,126496,1,0,0:0:0:0:
320,192,126669,1,0,0:0:0:0:
64,192,126669,1,0,0:0:0:0:
192,192,126755,1,0,0:0:0:0:
64,192,126841,1,0,0:0:0:0:
448,192,126841,1,0,0:0:0:0:
320,192,126841,1,0,0:0:0:0:
192,192,126927,1,0,0:0:0:0:
448,192,127014,1,0,0:0:0:0:
320,192,127014,1,0,0:0:0:0:
64,192,127100,1,0,0:0:0:0:
320,192,127186,128,0,127358:0:0:0:0:
320,192,127531,128,0,127703:0:0:0:0:
320,192,127876,128,0,128048:0:0:0:0:
448,192,128221,128,0,128393:0:0:0:0:
448,192,128565,128,0,128738:0:0:0:0:
448,192,128910,128,0,129083:0:0:0:0:
64,192,128910,128,0,129169:0:0:0:0:
448,192,129255,128,0,129427:0:0:0:0:
64,192,129255,128,0,129514:0:0:0:0:
448,192,129600,128,0,129772:0:0:0:0:
192,192,129600,128,0,129858:0:0:0:0:
320,192,129945,1,0,0:0:0:0:
64,192,129945,128,0,130117:0:0:0:0:
448,192,129945,128,0,131324:0:0:0:0:
192,192,130117,1,0,0:0:0:0:
64,192,130203,1,0,0:0:0:0:
320,192,130290,1,0,0:0:0:0:
192,192,130376,1,0,0:0:0:0:
64,192,130462,1,0,0:0:0:0:
192,192,130634,1,0,0:0:0:0:
320,192,130721,1,0,0:0:0:0:
64,192,130807,1,0,0:0:0:0:
192,192,130893,1,0,0:0:0:0:
320,192,130979,1,0,0:0:0:0:
192,192,131152,1,0,0:0:0:0:
192,192,131324,1,0,0:0:0:0:
64,192,131324,1,0,0:0:0:0:
448,192,131410,1,0,0:0:0:0:
320,192,131410,1,0,0:0:0:0:
64,192,131496,1,0,0:0:0:0:
192,192,131496,1,0,0:0:0:0:
448,192,131583,1,0,0:0:0:0:
192,192,131669,1,0,0:0:0:0:
320,192,131755,1,0,0:0:0:0:
64,192,131841,1,0,0:0:0:0:
192,192,131841,1,0,0:0:0:0:
448,192,131927,1,0,0:0:0:0:
320,192,131927,1,0,0:0:0:0:
192,192,132014,1,0,0:0:0:0:
64,192,132014,1,0,0:0:0:0:
320,192,132071,1,0,0:0:0:0:
192,192,132129,1,0,0:0:0:0:
64,192,132186,1,0,0:0:0:0:
448,192,132186,1,0,0:0:0:0:
320,192,132272,1,0,0:0:0:0:
448,192,132358,1,0,0:0:0:0:
192,192,132358,1,0,0:0:0:0:
320,192,132445,1,0,0:0:0:0:
64,192,132445,1,0,0:0:0:0:
448,192,132531,1,0,0:0:0:0:
192,192,132531,1,0,0:0:0:0:
320,192,132617,1,0,0:0:0:0:
64,192,132617,1,0,0:0:0:0:
64,192,132703,128,0,132876:0:0:0:0:
192,192,132703,128,0,132876:0:0:0:0:
320,192,132703,128,0,132790:0:0:0:0:
448,192,132703,128,0,132790:0:0:0:0:
320,192,132876,128,0,132962:0:0:0:0:
448,192,132876,128,0,132962:0:0:0:0:
192,192,132962,128,0,133134:0:0:0:0:
64,192,132962,128,0,133134:0:0:0:0:
320,192,133048,128,0,133134:0:0:0:0:
448,192,133048,128,0,133134:0:0:0:0:
64,192,133221,1,0,0:0:0:0:
192,192,133221,1,0,0:0:0:0:
448,192,133221,1,0,0:0:0:0:
320,192,133221,1,0,0:0:0:0:
448,192,133393,128,0,133652:0:0:0:0:
320,192,133393,128,0,133652:0:0:0:0:
64,192,133393,128,0,133479:0:0:0:0:
192,192,133393,128,0,133479:0:0:0:0:
64,192,133565,1,0,0:0:0:0:
192,192,133565,1,0,0:0:0:0:
64,192,133738,128,0,133910:0:0:0:0:
192,192,133738,128,0,133910:0:0:0:0:
320,192,133738,1,0,0:0:0:0:
448,192,133738,1,0,0:0:0:0:
320,192,133910,128,0,133996:0:0:0:0:
448,192,133910,128,0,133996:0:0:0:0:
320,192,134083,128,0,134341:0:0:0:0:
448,192,134083,128,0,134341:0:0:0:0:
64,192,134083,128,0,134169:0:0:0:0:
192,192,134083,128,0,134169:0:0:0:0:
64,192,134255,1,0,0:0:0:0:
192,192,134255,1,0,0:0:0:0:
64,192,134427,128,0,134772:0:0:0:0:
448,192,134427,128,0,134600:0:0:0:0:
320,192,134427,128,0,134600:0:0:0:0:
192,192,134427,1,0,0:0:0:0:
192,192,134600,1,0,0:0:0:0:
320,192,134772,128,0,135117:0:0:0:0:
448,192,134772,128,0,135117:0:0:0:0:
192,192,134772,1,0,0:0:0:0:
192,192,134945,1,0,0:0:0:0:
192,192,135117,128,0,135290:0:0:0:0:
64,192,135117,128,0,135290:0:0:0:0:
448,192,135290,128,0,135376:0:0:0:0:
320,192,135290,128,0,135376:0:0:0:0:
64,192,135462,1,0,0:0:0:0:
192,192,135462,1,0,0:0:0:0:
320,192,135519,1,0,0:0:0:0:
448,192,135519,1,0,0:0:0:0:
64,192,135577,1,0,0:0:0:0:
192,192,135577,1,0,0:0:0:0:
320,192,135634,1,0,0:0:0:0:
448,192,135634,1,0,0:0:0:0:
192,192,135692,1,0,0:0:0:0:
64,192,135692,1,0,0:0:0:0:
320,192,135749,1,0,0:0:0:0:
448,192,135749,1,0,0:0:0:0:
192,192,135807,128,0,135979:0:0:0:0:
64,192,135807,128,0,135979:0:0:0:0:
320,192,135979,128,0,136152:0:0:0:0:
448,192,135979,1,0,0:0:0:0:
192,192,136152,128,0,136324:0:0:0:0:
64,192,136152,128,0,136324:0:0:0:0:
448,192,136152,1,0,0:0:0:0:
320,192,136324,128,0,136410:0:0:0:0:
448,192,136324,1,0,0:0:0:0:
64,192,136496,128,0,136841:0:0:0:0:
448,192,136496,128,0,136755:0:0:0:0:
192,192,136496,128,0,136583:0:0:0:0:
320,192,136496,128,0,136583:0:0:0:0:
192,192,136669,1,0,0:0:0:0:
320,192,136669,1,0,0:0:0:0:
448,192,136841,128,0,137186:0:0:0:0:
320,192,136841,128,0,137100:0:0:0:0:
192,192,136841,128,0,137100:0:0:0:0:
64,192,137014,1,0,0:0:0:0:
192,192,137186,128,0,137358:0:0:0:0:
320,192,137186,128,0,137445:0:0:0:0:
64,192,137186,1,0,0:0:0:0:
448,192,137358,128,0,137531:0:0:0:0:
64,192,137358,1,0,0:0:0:0:
192,192,137531,128,0,137703:0:0:0:0:
320,192,137531,128,0,137703:0:0:0:0:
64,192,137531,1,0,0:0:0:0:
64,192,137703,128,0,137876:0:0:0:0:
448,192,137703,1,0,0:0:0:0:
192,192,137876,128,0,138048:0:0:0:0:
320,192,137876,128,0,138048:0:0:0:0:
448,192,137876,128,0,138048:0:0:0:0:
64,192,138048,1,0,0:0:0:0:
320,192,138221,128,0,138393:0:0:0:0:
448,192,138221,128,0,138393:0:0:0:0:
64,192,138221,128,0,138307:0:0:0:0:
192,192,138221,128,0,138307:0:0:0:0:
64,192,138393,128,0,138479:0:0:0:0:
192,192,138393,128,0,138479:0:0:0:0:
320,192,138479,128,0,138652:0:0:0:0:
448,192,138479,128,0,138652:0:0:0:0:
192,192,138565,128,0,138652:0:0:0:0:
64,192,138565,128,0,138652:0:0:0:0:
448,192,138738,1,0,0:0:0:0:
320,192,138738,1,0,0:0:0:0:
64,192,138738,1,0,0:0:0:0:
192,192,138738,1,0,0:0:0:0:
64,192,138910,128,0,139169:0:0:0:0:
192,192,138910,128,0,139169:0:0:0:0:
320,192,138910,128,0,138996:0:0:0:0:
448,192,138910,128,0,138996:0:0:0:0:
320,192,139083,1,0,0:0:0:0:
448,192,139083,1,0,0:0:0:0:
448,192,139255,128,0,139427:0:0:0:0:
320,192,139255,128,0,139427:0:0:0:0:
192,192,139255,1,0,0:0:0:0:
64,192,139255,1,0,0:0:0:0:
192,192,139427,128,0,139514:0:0:0:0:
64,192,139427,128,0,139514:0:0:0:0:
192,192,139600,128,0,139858:0:0:0:0:
64,192,139600,128,0,139858:0:0:0:0:
320,192,139600,128,0,139686:0:0:0:0:
448,192,139600,128,0,139686:0:0:0:0:
320,192,139772,1,0,0:0:0:0:
448,192,139772,1,0,0:0:0:0:
448,192,139945,128,0,140290:0:0:0:0:
320,192,139945,1,0,0:0:0:0:
192,192,139945,128,0,140031:0:0:0:0:
64,192,139945,128,0,140031:0:0:0:0:
320,192,140117,1,0,0:0:0:0:
64,192,140117,1,0,0:0:0:0:
192,192,140117,1,0,0:0:0:0:
192,192,140290,128,0,140634:0:0:0:0:
64,192,140290,128,0,140634:0:0:0:0:
320,192,140290,1,0,0:0:0:0:
320,192,140462,1,0,0:0:0:0:
320,192,140634,128,0,140807:0:0:0:0:
448,192,140634,128,0,140807:0:0:0:0:
64,192,140807,128,0,140893:0:0:0:0:
192,192,140807,128,0,140893:0:0:0:0:
448,192,140979,1,0,0:0:0:0:
320,192,140979,1,0,0:0:0:0:
192,192,141037,1,0,0:0:0:0:
64,192,141037,1,0,0:0:0:0:
448,192,141094,1,0,0:0:0:0:
320,192,141094,1,0,0:0:0:0:
192,192,141152,1,0,0:0:0:0:
64,192,141152,1,0,0:0:0:0:
320,192,141209,1,0,0:0:0:0:
448,192,141209,1,0,0:0:0:0:
192,192,141267,1,0,0:0:0:0:
64,192,141267,1,0,0:0:0:0:
320,192,141324,128,0,141496:0:0:0:0:
448,192,141324,128,0,141496:0:0:0:0:
192,192,141496,128,0,141669:0:0:0:0:
64,192,141496,1,0,0:0:0:0:
320,192,141669,128,0,141841:0:0:0:0:
448,192,141669,128,0,141841:0:0:0:0:
64,192,141669,1,0,0:0:0:0:
192,192,141841,128,0,141927:0:0:0:0:
64,192,141841,1,0,0:0:0:0:
448,192,142014,128,0,142358:0:0:0:0:
64,192,142014,128,0,142272:0:0:0:0:
192,192,142014,128,0,142100:0:0:0:0:
320,192,142014,128,0,142100:0:0:0:0:
192,192,142186,1,0,0:0:0:0:
320,192,142186,1,0,0:0:0:0:
64,192,142358,128,0,142703:0:0:0:0:
192,192,142358,128,0,142617:0:0:0:0:
320,192,142358,128,0,142617:0:0:0:0:
448,192,142531,1,0,0:0:0:0:
320,192,142703,128,0,142876:0:0:0:0:
192,192,142703,128,0,142962:0:0:0:0:
448,192,142703,1,0,0:0:0:0:
64,192,142876,128,0,143048:0:0:0:0:
448,192,142876,1,0,0:0:0:0:
320,192,143048,128,0,143221:0:0:0:0:
192,192,143048,128,0,143221:0:0:0:0:
448,192,143221,128,0,143393:0:0:0:0:
64,192,143221,1,0,0:0:0:0:
320,192,143393,128,0,143565:0:0:0:0:
192,192,143393,128,0,143565:0:0:0:0:
64,192,143393,128,0,143565:0:0:0:0:
448,192,143565,1,0,0:0:0:0:
64,192,143738,1,0,0:0:0:0:
192,192,143738,1,0,0:0:0:0:
320,192,143738,1,0,0:0:0:0:
448,192,143738,1,0,0:0:0:0:
64,192,143910,1,0,0:0:0:0:
192,192,143996,1,0,0:0:0:0:
448,192,143996,1,0,0:0:0:0:
64,192,144083,1,0,0:0:0:0:
320,192,144083,1,0,0:0:0:0:
448,192,144083,1,0,0:0:0:0:
192,192,144083,1,0,0:0:0:0:
192,192,144255,1,0,0:0:0:0:
448,192,144255,1,0,0:0:0:0:
64,192,144255,128,0,144341:0:0:0:0:
448,192,144427,1,0,0:0:0:0:
192,192,144427,1,0,0:0:0:0:
64,192,144427,1,0,0:0:0:0:
320,192,144427,1,0,0:0:0:0:
192,192,144600,1,0,0:0:0:0:
320,192,144600,1,0,0:0:0:0:
448,192,144600,128,0,144686:0:0:0:0:
64,192,144772,1,0,0:0:0:0:
320,192,144772,1,0,0:0:0:0:
448,192,144772,1,0,0:0:0:0:
192,192,144772,1,0,0:0:0:0:
64,192,144945,1,0,0:0:0:0:
192,192,144945,1,0,0:0:0:0:
320,192,144945,128,0,145031:0:0:0:0:
448,192,145117,1,0,0:0:0:0:
192,192,145117,1,0,0:0:0:0:
64,192,145117,1,0,0:0:0:0:
320,192,145117,1,0,0:0:0:0:
320,192,145290,1,0,0:0:0:0:
448,192,145290,1,0,0:0:0:0:
64,192,145290,128,0,145376:0:0:0:0:
64,192,145462,1,0,0:0:0:0:
320,192,145462,1,0,0:0:0:0:
448,192,145462,1,0,0:0:0:0:
192,192,145462,1,0,0:0:0:0:
192,192,145634,1,0,0:0:0:0:
320,192,145634,1,0,0:0:0:0:
448,192,145634,128,0,145721:0:0:0:0:
448,192,145807,1,0,0:0:0:0:
192,192,145807,1,0,0:0:0:0:
64,192,145807,1,0,0:0:0:0:
320,192,145807,1,0,0:0:0:0:
64,192,145979,1,0,0:0:0:0:
192,192,145979,1,0,0:0:0:0:
320,192,145979,128,0,146065:0:0:0:0:
64,192,146152,1,0,0:0:0:0:
320,192,146152,1,0,0:0:0:0:
448,192,146152,1,0,0:0:0:0:
192,192,146152,1,0,0:0:0:0:
64,192,146324,1,0,0:0:0:0:
448,192,146324,1,0,0:0:0:0:
192,192,146324,128,0,146410:0:0:0:0:
448,192,146496,1,0,0:0:0:0:
64,192,146496,1,0,0:0:0:0:
320,192,146554,1,0,0:0:0:0:
192,192,146554,1,0,0:0:0:0:
448,192,146611,1,0,0:0:0:0:
64,192,146611,1,0,0:0:0:0:
320,192,146669,1,0,0:0:0:0:
192,192,146669,1,0,0:0:0:0:
448,192,146726,1,0,0:0:0:0:
64,192,146726,1,0,0:0:0:0:
320,192,146784,1,0,0:0:0:0:
192,192,146784,1,0,0:0:0:0:
448,192,146841,1,0,0:0:0:0:
64,192,146841,1,0,0:0:0:0:
64,192,147014,1,0,0:0:0:0:
320,192,147014,1,0,0:0:0:0:
448,192,147014,128,0,147100:0:0:0:0:
448,192,147186,1,0,0:0:0:0:
192,192,147186,1,0,0:0:0:0:
64,192,147186,1,0,0:0:0:0:
320,192,147186,1,0,0:0:0:0:
64,192,147358,1,0,0:0:0:0:
448,192,147358,1,0,0:0:0:0:
192,192,147358,128,0,147445:0:0:0:0:
64,192,147531,1,0,0:0:0:0:
320,192,147531,1,0,0:0:0:0:
448,192,147531,1,0,0:0:0:0:
192,192,147531,1,0,0:0:0:0:
192,192,147703,1,0,0:0:0:0:
320,192,147703,1,0,0:0:0:0:
64,192,147703,128,0,147790:0:0:0:0:
448,192,147876,1,0,0:0:0:0:
192,192,147876,1,0,0:0:0:0:
64,192,147876,1,0,0:0:0:0:
320,192,147876,1,0,0:0:0:0:
320,192,148048,1,0,0:0:0:0:
448,192,148048,1,0,0:0:0:0:
192,192,148048,128,0,148134:0:0:0:0:
64,192,148221,1,0,0:0:0:0:
320,192,148221,1,0,0:0:0:0:
448,192,148221,1,0,0:0:0:0:
192,192,148221,1,0,0:0:0:0:
192,192,148393,1,0,0:0:0:0:
64,192,148393,1,0,0:0:0:0:
448,192,148393,128,0,148479:0:0:0:0:
448,192,148565,1,0,0:0:0:0:
192,192,148565,1,0,0:0:0:0:
64,192,148565,1,0,0:0:0:0:
320,192,148565,1,0,0:0:0:0:
320,192,148738,1,0,0:0:0:0:
448,192,148738,1,0,0:0:0:0:
64,192,148738,128,0,148824:0:0:0:0:
64,192,148910,1,0,0:0:0:0:
320,192,148910,1,0,0:0:0:0:
448,192,148910,1,0,0:0:0:0:
192,192,148910,1,0,0:0:0:0:
64,192,149083,1,0,0:0:0:0:
192,192,149083,1,0,0:0:0:0:
448,192,149083,128,0,149169:0:0:0:0:
448,192,149255,1,0,0:0:0:0:
320,192,149255,1,0,0:0:0:0:
192,192,149255,1,0,0:0:0:0:
64,192,149255,1,0,0:0:0:0:
448,192,149427,1,0,0:0:0:0:
320,192,149514,1,0,0:0:0:0:
64,192,149514,1,0,0:0:0:0:
448,192,149600,1,0,0:0:0:0:
192,192,149600,1,0,0:0:0:0:
64,192,149600,1,0,0:0:0:0:
320,192,149600,1,0,0:0:0:0:
320,192,149772,1,0,0:0:0:0:
64,192,149772,1,0,0:0:0:0:
448,192,149772,128,0,149858:0:0:0:0:
64,192,149945,1,0,0:0:0:0:
320,192,149945,1,0,0:0:0:0:
448,192,149945,1,0,0:0:0:0:
192,192,149945,1,0,0:0:0:0:
320,192,150117,1,0,0:0:0:0:
192,192,150117,1,0,0:0:0:0:
64,192,150117,128,0,150203:0:0:0:0:
448,192,150290,1,0,0:0:0:0:
192,192,150290,1,0,0:0:0:0:
64,192,150290,1,0,0:0:0:0:
320,192,150290,1,0,0:0:0:0:
448,192,150462,1,0,0:0:0:0:
320,192,150462,1,0,0:0:0:0:
192,192,150462,128,0,150548:0:0:0:0:
64,192,150634,1,0,0:0:0:0:
320,192,150634,1,0,0:0:0:0:
448,192,150634,1,0,0:0:0:0:
192,192,150634,1,0,0:0:0:0:
192,192,150807,1,0,0:0:0:0:
64,192,150807,1,0,0:0:0:0:
448,192,150807,128,0,150893:0:0:0:0:
448,192,150979,1,0,0:0:0:0:
192,192,150979,1,0,0:0:0:0:
64,192,150979,1,0,0:0:0:0:
320,192,150979,1,0,0:0:0:0:
320,192,151152,1,0,0:0:0:0:
192,192,151152,1,0,0:0:0:0:
64,192,151152,128,0,151238:0:0:0:0:
64,192,151324,1,0,0:0:0:0:
320,192,151324,1,0,0:0:0:0:
448,192,151324,1,0,0:0:0:0:
192,192,151324,1,0,0:0:0:0:
448,192,151496,1,0,0:0:0:0:
320,192,151496,1,0,0:0:0:0:
192,192,151496,128,0,151583:0:0:0:0:
448,192,151669,1,0,0:0:0:0:
192,192,151669,1,0,0:0:0:0:
64,192,151669,1,0,0:0:0:0:
320,192,151669,1,0,0:0:0:0:
448,192,151841,1,0,0:0:0:0:
64,192,151841,1,0,0:0:0:0:
320,192,151841,128,0,151927:0:0:0:0:
448,192,152014,1,0,0:0:0:0:
64,192,152014,1,0,0:0:0:0:
192,192,152071,1,0,0:0:0:0:
320,192,152071,1,0,0:0:0:0:
448,192,152129,1,0,0:0:0:0:
64,192,152129,1,0,0:0:0:0:
320,192,152186,1,0,0:0:0:0:
192,192,152186,1,0,0:0:0:0:
448,192,152244,1,0,0:0:0:0:
64,192,152244,1,0,0:0:0:0:
192,192,152301,1,0,0:0:0:0:
320,192,152301,1,0,0:0:0:0:
64,192,152358,1,0,0:0:0:0:
448,192,152358,1,0,0:0:0:0:
448,192,152531,1,0,0:0:0:0:
192,192,152531,1,0,0:0:0:0:
64,192,152531,128,0,152617:0:0:0:0:
64,192,152703,1,0,0:0:0:0:
448,192,152703,1,0,0:0:0:0:
320,192,152703,1,0,0:0:0:0:
192,192,152790,1,0,0:0:0:0:
448,192,152876,1,0,0:0:0:0:
64,192,152876,1,0,0:0:0:0:
320,192,152876,128,0,152962:0:0:0:0:
448,192,153048,1,0,0:0:0:0:
192,192,153048,1,0,0:0:0:0:
64,192,153048,1,0,0:0:0:0:
320,192,153048,1,0,0:0:0:0:
320,192,153221,1,0,0:0:0:0:
192,192,153221,1,0,0:0:0:0:
448,192,153221,128,0,153307:0:0:0:0:
64,192,153393,1,0,0:0:0:0:
320,192,153393,1,0,0:0:0:0:
192,192,153393,1,0,0:0:0:0:
192,192,153565,1,0,0:0:0:0:
64,192,153565,1,0,0:0:0:0:
320,192,153565,1,0,0:0:0:0:
448,192,153738,1,0,0:0:0:0:
192,192,153738,1,0,0:0:0:0:
320,192,153738,1,0,0:0:0:0:
320,192,153910,1,0,0:0:0:0:
448,192,153910,1,0,0:0:0:0:
192,192,153910,1,0,0:0:0:0:
64,192,154083,1,0,0:0:0:0:
192,192,154083,1,0,0:0:0:0:
448,192,154169,1,0,0:0:0:0:
320,192,154169,1,0,0:0:0:0:
192,192,154255,1,0,0:0:0:0:
64,192,154255,1,0,0:0:0:0:
64,192,154341,1,0,0:0:0:0:
192,192,154341,1,0,0:0:0:0:
320,192,154427,1,0,0:0:0:0:
448,192,154427,1,0,0:0:0:0:
64,192,154514,1,0,0:0:0:0:
192,192,154514,1,0,0:0:0:0:
320,192,154600,1,0,0:0:0:0:
192,192,154600,1,0,0:0:0:0:
320,192,154686,1,0,0:0:0:0:
448,192,154686,1,0,0:0:0:0:
448,192,154772,128,0,155290:0:0:0:0:
64,192,154772,1,0,0:0:0:0:
192,192,154772,1,0,0:0:0:0:
320,192,154945,1,0,0:0:0:0:
192,192,154945,1,0,0:0:0:0:
64,192,155031,1,0,0:0:0:0:
192,192,155117,1,0,0:0:0:0:
320,192,155117,1,0,0:0:0:0:
320,192,155290,128,0,155634:0:0:0:0:
64,192,155290,1,0,0:0:0:0:
192,192,155290,1,0,0:0:0:0:
448,192,155462,1,0,0:0:0:0:
64,192,155462,1,0,0:0:0:0:
192,192,155634,128,0,156152:0:0:0:0:
64,192,155634,1,0,0:0:0:0:
448,192,155634,1,0,0:0:0:0:
320,192,155721,1,0,0:0:0:0:
64,192,155807,1,0,0:0:0:0:
448,192,155807,1,0,0:0:0:0:
448,192,155979,1,0,0:0:0:0:
320,192,155979,1,0,0:0:0:0:
64,192,156152,128,0,156669:0:0:0:0:
320,192,156152,1,0,0:0:0:0:
448,192,156152,1,0,0:0:0:0:
192,192,156324,1,0,0:0:0:0:
320,192,156324,1,0,0:0:0:0:
448,192,156410,1,0,0:0:0:0:
320,192,156496,1,0,0:0:0:0:
192,192,156496,1,0,0:0:0:0:
192,192,156669,128,0,157014:0:0:0:0:
448,192,156669,1,0,0:0:0:0:
320,192,156669,1,0,0:0:0:0:
64,192,156841,1,0,0:0:0:0:
448,192,156841,1,0,0:0:0:0:
320,192,157014,128,0,157531:0:0:0:0:
448,192,157014,1,0,0:0:0:0:
64,192,157014,1,0,0:0:0:0:
192,192,157100,1,0,0:0:0:0:
64,192,157186,1,0,0:0:0:0:
448,192,157186,1,0,0:0:0:0:
64,192,157358,1,0,0:0:0:0:
192,192,157358,1,0,0:0:0:0:
448,192,157531,128,0,158221:0:0:0:0:
192,192,157531,1,0,0:0:0:0:
64,192,157531,1,0,0:0:0:0:
192,192,157703,1,0,0:0:0:0:
320,192,157790,1,0,0:0:0:0:
64,192,157876,1,0,0:0:0:0:
192,192,158048,1,0,0:0:0:0:
64,192,158221,1,0,0:0:0:0:
448,192,158393,1,0,0:0:0:0:
320,192,158479,1,0,0:0:0:0:
64,192,158565,1,0,0:0:0:0:
192,192,158738,1,0,0:0:0:0:
320,192,158910,128,0,159600:0:0:0:0:
64,192,158910,1,0,0:0:0:0:
448,192,158910,1,0,0:0:0:0:
192,192,159255,1,0,0:0:0:0:
448,192,159255,1,0,0:0:0:0:
192,192,159600,128,0,160290:0:0:0:0:
64,192,159600,1,0,0:0:0:0:
448,192,159600,1,0,0:0:0:0:
64,192,159945,1,0,0:0:0:0:
320,192,159945,1,0,0:0:0:0:
64,192,160290,1,0,0:0:0:0:
320,192,160290,1,0,0:0:0:0:
448,192,160290,1,0,0:0:0:0:
448,192,160462,1,0,0:0:0:0:
192,192,160462,1,0,0:0:0:0:
320,192,160634,1,0,0:0:0:0:
64,192,160634,1,0,0:0:0:0:
192,192,160634,1,0,0:0:0:0:
448,192,160634,1,0,0:0:0:0:
192,192,160807,1,0,0:0:0:0:
320,192,160807,1,0,0:0:0:0:
64,192,160979,1,0,0:0:0:0:
448,192,160979,1,0,0:0:0:0:
320,192,161152,1,0,0:0:0:0:
192,192,161152,1,0,0:0:0:0:
448,192,161152,1,0,0:0:0:0:
448,192,161324,1,0,0:0:0:0:
64,192,161324,1,0,0:0:0:0:
320,192,161324,1,0,0:0:0:0:
192,192,161324,1,0,0:0:0:0:
64,192,161496,1,0,0:0:0:0:
448,192,161496,1,0,0:0:0:0:
192,192,161669,1,0,0:0:0:0:
320,192,161669,1,0,0:0:0:0:
448,192,161841,1,0,0:0:0:0:
64,192,161841,1,0,0:0:0:0:
192,192,161841,1,0,0:0:0:0:
320,192,162014,1,0,0:0:0:0:
448,192,162014,1,0,0:0:0:0:
192,192,162014,1,0,0:0:0:0:
64,192,162014,1,0,0:0:0:0:
64,192,162186,1,0,0:0:0:0:
320,192,162186,1,0,0:0:0:0:
192,192,162358,1,0,0:0:0:0:
448,192,162358,1,0,0:0:0:0:
448,192,162531,1,0,0:0:0:0:
320,192,162531,1,0,0:0:0:0:
64,192,162531,1,0,0:0:0:0:
64,192,162703,1,0,0:0:0:0:
192,192,162703,1,0,0:0:0:0:
448,192,162703,1,0,0:0:0:0:
320,192,162703,1,0,0:0:0:0:
320,192,162876,1,0,0:0:0:0:
64,192,162876,1,0,0:0:0:0:
448,192,163048,128,0,164083:0:0:0:0:
192,192,163048,1,0,0:0:0:0:
64,192,163221,1,0,0:0:0:0:
320,192,163221,1,0,0:0:0:0:
192,192,163393,1,0,0:0:0:0:
320,192,163393,1,0,0:0:0:0:
64,192,163393,1,0,0:0:0:0:
64,192,163565,1,0,0:0:0:0:
192,192,163738,1,0,0:0:0:0:
320,192,163910,1,0,0:0:0:0:
64,192,163910,1,0,0:0:0:0:
64,192,164083,1,0,0:0:0:0:
192,192,164083,1,0,0:0:0:0:
320,192,164083,1,0,0:0:0:0:
448,192,164255,1,0,0:0:0:0:
192,192,164427,128,0,164600:0:0:0:0:
64,192,164427,1,0,0:0:0:0:
320,192,164600,1,0,0:0:0:0:
448,192,164600,1,0,0:0:0:0:
192,192,164772,128,0,164945:0:0:0:0:
448,192,164772,1,0,0:0:0:0:
64,192,164772,1,0,0:0:0:0:
320,192,164772,1,0,0:0:0:0:
320,192,164945,1,0,0:0:0:0:
448,192,165117,128,0,165462:0:0:0:0:
64,192,165117,1,0,0:0:0:0:
192,192,165290,1,0,0:0:0:0:
64,192,165290,1,0,0:0:0:0:
320,192,165462,128,0,165807:0:0:0:0:
64,192,165462,1,0,0:0:0:0:
192,192,165462,1,0,0:0:0:0:
192,192,165634,1,0,0:0:0:0:
448,192,165807,1,0,0:0:0:0:
192,192,165807,1,0,0:0:0:0:
64,192,165807,1,0,0:0:0:0:
64,192,165979,1,0,0:0:0:0:
448,192,165979,1,0,0:0:0:0:
320,192,166152,1,0,0:0:0:0:
448,192,166152,1,0,0:0:0:0:
192,192,166152,1,0,0:0:0:0:
64,192,166152,1,0,0:0:0:0:
192,192,166324,1,0,0:0:0:0:
320,192,166324,1,0,0:0:0:0:
448,192,166496,1,0,0:0:0:0:
64,192,166496,1,0,0:0:0:0:
320,192,166669,1,0,0:0:0:0:
192,192,166669,1,0,0:0:0:0:
64,192,166669,1,0,0:0:0:0:
64,192,166841,1,0,0:0:0:0:
448,192,166841,1,0,0:0:0:0:
320,192,166841,1,0,0:0:0:0:
192,192,166841,1,0,0:0:0:0:
448,192,167014,1,0,0:0:0:0:
64,192,167014,1,0,0:0:0:0:
192,192,167186,1,0,0:0:0:0:
320,192,167186,1,0,0:0:0:0:
64,192,167358,1,0,0:0:0:0:
448,192,167358,1,0,0:0:0:0:
320,192,167358,1,0,0:0:0:0:
320,192,167531,1,0,0:0:0:0:
64,192,167531,1,0,0:0:0:0:
192,192,167531,1,0,0:0:0:0:
448,192,167531,1,0,0:0:0:0:
448,192,167703,1,0,0:0:0:0:
320,192,167703,1,0,0:0:0:0:
192,192,167876,1,0,0:0:0:0:
64,192,167876,1,0,0:0:0:0:
64,192,168048,1,0,0:0:0:0:
320,192,168048,1,0,0:0:0:0:
448,192,168048,1,0,0:0:0:0:
448,192,168221,1,0,0:0:0:0:
192,192,168221,1,0,0:0:0:0:
64,192,168221,1,0,0:0:0:0:
320,192,168221,1,0,0:0:0:0:
320,192,168393,1,0,0:0:0:0:
192,192,168393,1,0,0:0:0:0:
192,192,168565,1,0,0:0:0:0:
64,192,168565,128,0,169255:0:0:0:0:
448,192,168738,1,0,0:0:0:0:
320,192,168738,1,0,0:0:0:0:
192,192,168910,1,0,0:0:0:0:
320,192,168910,1,0,0:0:0:0:
448,192,168910,1,0,0:0:0:0:
448,192,169083,1,0,0:0:0:0:
192,192,169255,1,0,0:0:0:0:
320,192,169427,1,0,0:0:0:0:
192,192,169427,1,0,0:0:0:0:
448,192,169600,1,0,0:0:0:0:
192,192,169600,1,0,0:0:0:0:
64,192,169600,1,0,0:0:0:0:
64,192,169772,1,0,0:0:0:0:
192,192,169945,128,0,170117:0:0:0:0:
448,192,169945,1,0,0:0:0:0:
320,192,170117,1,0,0:0:0:0:
64,192,170117,1,0,0:0:0:0:
192,192,170290,128,0,170462:0:0:0:0:
64,192,170290,1,0,0:0:0:0:
448,192,170290,1,0,0:0:0:0:
320,192,170290,1,0,0:0:0:0:
320,192,170462,1,0,0:0:0:0:
64,192,170634,128,0,170979:0:0:0:0:
448,192,170634,1,0,0:0:0:0:
192,192,170807,1,0,0:0:0:0:
320,192,170807,1,0,0:0:0:0:
192,192,170979,128,0,171324:0:0:0:0:
448,192,170979,1,0,0:0:0:0:
320,192,170979,1,0,0:0:0:0:
448,192,171152,1,0,0:0:0:0:
64,192,171324,1,0,0:0:0:0:
320,192,171324,1,0,0:0:0:0:
448,192,171324,1,0,0:0:0:0:
320,192,171496,1,0,0:0:0:0:
192,192,171496,1,0,0:0:0:0:
320,192,171669,1,0,0:0:0:0:
64,192,171669,1,0,0:0:0:0:
192,192,171669,1,0,0:0:0:0:
448,192,171669,1,0,0:0:0:0:
320,192,171841,1,0,0:0:0:0:
64,192,171841,1,0,0:0:0:0:
64,192,172014,1,0,0:0:0:0:
448,192,172014,1,0,0:0:0:0:
320,192,172186,1,0,0:0:0:0:
192,192,172186,1,0,0:0:0:0:
448,192,172186,1,0,0:0:0:0:
192,192,172358,1,0,0:0:0:0:
320,192,172358,1,0,0:0:0:0:
64,192,172358,1,0,0:0:0:0:
448,192,172358,1,0,0:0:0:0:
448,192,172531,1,0,0:0:0:0:
64,192,172531,1,0,0:0:0:0:
192,192,172703,1,0,0:0:0:0:
320,192,172703,1,0,0:0:0:0:
448,192,172876,1,0,0:0:0:0:
64,192,172876,1,0,0:0:0:0:
192,192,172876,1,0,0:0:0:0:
320,192,173048,1,0,0:0:0:0:
448,192,173048,1,0,0:0:0:0:
192,192,173048,1,0,0:0:0:0:
64,192,173048,1,0,0:0:0:0:
448,192,173221,1,0,0:0:0:0:
320,192,173221,1,0,0:0:0:0:
64,192,173393,1,0,0:0:0:0:
320,192,173393,1,0,0:0:0:0:
192,192,173565,1,0,0:0:0:0:
448,192,173565,1,0,0:0:0:0:
64,192,173565,1,0,0:0:0:0:
64,192,173738,1,0,0:0:0:0:
192,192,173738,1,0,0:0:0:0:
448,192,173738,1,0,0:0:0:0:
320,192,173738,1,0,0:0:0:0:
192,192,173910,1,0,0:0:0:0:
448,192,173910,1,0,0:0:0:0:
320,192,174083,1,0,0:0:0:0:
64,192,174083,128,0,175117:0:0:0:0:
448,192,174255,1,0,0:0:0:0:
192,192,174255,1,0,0:0:0:0:
448,192,174427,1,0,0:0:0:0:
192,192,174427,1,0,0:0:0:0:
320,192,174427,1,0,0:0:0:0:
448,192,174600,1,0,0:0:0:0:
320,192,174772,1,0,0:0:0:0:
192,192,174945,1,0,0:0:0:0:
448,192,174945,1,0,0:0:0:0:
192,192,175117,1,0,0:0:0:0:
320,192,175117,1,0,0:0:0:0:
448,192,175117,1,0,0:0:0:0:
192,192,175290,1,0,0:0:0:0:
448,192,175462,1,0,0:0:0:0:
320,192,175462,128,0,175634:0:0:0:0:
192,192,175634,1,0,0:0:0:0:
64,192,175634,1,0,0:0:0:0:
448,192,175807,1,0,0:0:0:0:
192,192,175807,1,0,0:0:0:0:
320,192,175807,128,0,175979:0:0:0:0:
64,192,175807,1,0,0:0:0:0:
448,192,175979,1,0,0:0:0:0:
448,192,176152,1,0,0:0:0:0:
64,192,176152,128,0,176496:0:0:0:0:
320,192,176324,1,0,0:0:0:0:
192,192,176324,1,0,0:0:0:0:
192,192,176496,128,0,176841:0:0:0:0:
320,192,176496,1,0,0:0:0:0:
448,192,176496,1,0,0:0:0:0:
448,192,176669,1,0,0:0:0:0:
448,192,176841,1,0,0:0:0:0:
64,192,176841,1,0,0:0:0:0:
320,192,176841,1,0,0:0:0:0:
448,192,177014,1,0,0:0:0:0:
192,192,177186,1,0,0:0:0:0:
320,192,177186,1,0,0:0:0:0:
64,192,177186,1,0,0:0:0:0:
192,192,177358,1,0,0:0:0:0:
64,192,177358,1,0,0:0:0:0:
320,192,177445,1,0,0:0:0:0:
448,192,177531,1,0,0:0:0:0:
192,192,177617,1,0,0:0:0:0:
64,192,177703,1,0,0:0:0:0:
320,192,177703,1,0,0:0:0:0:
448,192,177703,1,0,0:0:0:0:
192,192,177876,1,0,0:0:0:0:
320,192,177876,1,0,0:0:0:0:
448,192,177876,1,0,0:0:0:0:
64,192,178048,1,0,0:0:0:0:
320,192,178134,1,0,0:0:0:0:
448,192,178221,1,0,0:0:0:0:
192,192,178221,1,0,0:0:0:0:
64,192,178393,1,0,0:0:0:0:
320,192,178393,1,0,0:0:0:0:
192,192,178479,1,0,0:0:0:0:
448,192,178565,1,0,0:0:0:0:
320,192,178565,1,0,0:0:0:0:
64,192,178565,1,0,0:0:0:0:
192,192,178738,1,0,0:0:0:0:
64,192,178738,1,0,0:0:0:0:
320,192,178824,1,0,0:0:0:0:
448,192,178910,1,0,0:0:0:0:
192,192,178996,1,0,0:0:0:0:
320,192,179083,1,0,0:0:0:0:
64,192,179083,1,0,0:0:0:0:
448,192,179083,1,0,0:0:0:0:
192,192,179255,1,0,0:0:0:0:
448,192,179255,1,0,0:0:0:0:
64,192,179255,1,0,0:0:0:0:
320,192,179427,1,0,0:0:0:0:
192,192,179514,1,0,0:0:0:0:
448,192,179600,1,0,0:0:0:0:
64,192,179600,1,0,0:0:0:0:
192,192,179772,1,0,0:0:0:0:
320,192,179772,1,0,0:0:0:0:
448,192,179945,1,0,0:0:0:0:
320,192,179945,1,0,0:0:0:0:
64,192,179945,1,0,0:0:0:0:
192,192,180117,1,0,0:0:0:0:
320,192,180117,1,0,0:0:0:0:
448,192,180203,1,0,0:0:0:0:
64,192,180290,1,0,0:0:0:0:
192,192,180376,1,0,0:0:0:0:
320,192,180462,1,0,0:0:0:0:
448,192,180462,1,0,0:0:0:0:
64,192,180462,1,0,0:0:0:0:
64,192,180634,1,0,0:0:0:0:
192,192,180634,1,0,0:0:0:0:
320,192,180634,1,0,0:0:0:0:
448,192,180807,1,0,0:0:0:0:
320,192,180893,1,0,0:0:0:0:
192,192,180979,1,0,0:0:0:0:
64,192,180979,1,0,0:0:0:0:
448,192,181152,1,0,0:0:0:0:
320,192,181152,1,0,0:0:0:0:
192,192,181238,1,0,0:0:0:0:
64,192,181324,1,0,0:0:0:0:
320,192,181324,1,0,0:0:0:0:
448,192,181324,1,0,0:0:0:0:
448,192,181496,1,0,0:0:0:0:
192,192,181496,1,0,0:0:0:0:
320,192,181583,1,0,0:0:0:0:
64,192,181669,1,0,0:0:0:0:
320,192,181755,1,0,0:0:0:0:
192,192,181841,1,0,0:0:0:0:
448,192,181841,1,0,0:0:0:0:
320,192,182014,1,0,0:0:0:0:
448,192,182014,1,0,0:0:0:0:
64,192,182014,1,0,0:0:0:0:
192,192,182186,1,0,0:0:0:0:
320,192,182272,1,0,0:0:0:0:
64,192,182358,1,0,0:0:0:0:
192,192,182358,1,0,0:0:0:0:
448,192,182358,1,0,0:0:0:0:
64,192,182531,1,0,0:0:0:0:
320,192,182531,1,0,0:0:0:0:
320,192,182703,1,0,0:0:0:0:
448,192,182703,1,0,0:0:0:0:
192,192,182703,1,0,0:0:0:0:
320,192,182876,1,0,0:0:0:0:
192,192,182876,1,0,0:0:0:0:
448,192,182962,1,0,0:0:0:0:
64,192,183048,1,0,0:0:0:0:
320,192,183134,1,0,0:0:0:0:
192,192,183221,1,0,0:0:0:0:
448,192,183221,1,0,0:0:0:0:
64,192,183221,1,0,0:0:0:0:
320,192,183393,1,0,0:0:0:0:
448,192,183393,1,0,0:0:0:0:
64,192,183393,1,0,0:0:0:0:
192,192,183565,1,0,0:0:0:0:
64,192,183565,1,0,0:0:0:0:
448,192,183652,1,0,0:0:0:0:
320,192,183738,1,0,0:0:0:0:
192,192,183910,1,0,0:0:0:0:
448,192,183910,1,0,0:0:0:0:
64,192,183910,1,0,0:0:0:0:
320,192,183996,1,0,0:0:0:0:
64,192,184083,1,0,0:0:0:0:
448,192,184083,1,0,0:0:0:0:
192,192,184083,1,0,0:0:0:0:
320,192,184255,1,0,0:0:0:0:
192,192,184255,1,0,0:0:0:0:
448,192,184341,1,0,0:0:0:0:
64,192,184427,1,0,0:0:0:0:
320,192,184514,1,0,0:0:0:0:
448,192,184600,1,0,0:0:0:0:
192,192,184600,1,0,0:0:0:0:
64,192,184600,1,0,0:0:0:0:
320,192,184772,1,0,0:0:0:0:
64,192,184772,1,0,0:0:0:0:
192,192,184772,1,0,0:0:0:0:
448,192,184945,1,0,0:0:0:0:
192,192,184945,1,0,0:0:0:0:
320,192,185031,1,0,0:0:0:0:
64,192,185117,1,0,0:0:0:0:
64,192,185290,1,0,0:0:0:0:
192,192,185290,1,0,0:0:0:0:
448,192,185290,1,0,0:0:0:0:
320,192,185462,1,0,0:0:0:0:
192,192,185462,1,0,0:0:0:0:
448,192,185462,1,0,0:0:0:0:
64,192,185634,1,0,0:0:0:0:
192,192,185634,1,0,0:0:0:0:
320,192,185721,1,0,0:0:0:0:
448,192,185807,1,0,0:0:0:0:
64,192,185893,1,0,0:0:0:0:
192,192,185979,1,0,0:0:0:0:
320,192,185979,1,0,0:0:0:0:
448,192,185979,1,0,0:0:0:0:
448,192,186152,1,0,0:0:0:0:
64,192,186152,1,0,0:0:0:0:
192,192,186152,1,0,0:0:0:0:
320,192,186324,1,0,0:0:0:0:
64,192,186324,1,0,0:0:0:0:
192,192,186410,1,0,0:0:0:0:
64,192,186496,1,0,0:0:0:0:
320,192,186669,1,0,0:0:0:0:
192,192,186669,1,0,0:0:0:0:
448,192,186669,1,0,0:0:0:0:
64,192,186755,1,0,0:0:0:0:
448,192,186841,1,0,0:0:0:0:
192,192,186841,1,0,0:0:0:0:
320,192,186841,1,0,0:0:0:0:
320,192,187014,1,0,0:0:0:0:
64,192,187014,1,0,0:0:0:0:
192,192,187100,1,0,0:0:0:0:
448,192,187186,1,0,0:0:0:0:
192,192,187272,1,0,0:0:0:0:
64,192,187358,1,0,0:0:0:0:
320,192,187358,1,0,0:0:0:0:
448,192,187358,1,0,0:0:0:0:
192,192,187531,1,0,0:0:0:0:
320,192,187531,1,0,0:0:0:0:
448,192,187531,1,0,0:0:0:0:
64,192,187703,1,0,0:0:0:0:
320,192,187703,1,0,0:0:0:0:
192,192,187790,1,0,0:0:0:0:
64,192,187876,1,0,0:0:0:0:
448,192,187876,1,0,0:0:0:0:
320,192,187876,1,0,0:0:0:0:
448,192,188048,1,0,0:0:0:0:
320,192,188221,1,0,0:0:0:0:
192,192,188221,1,0,0:0:0:0:
64,192,188221,1,0,0:0:0:0:
320,192,188393,1,0,0:0:0:0:
448,192,188393,1,0,0:0:0:0:
192,192,188479,1,0,0:0:0:0:
448,192,188565,1,0,0:0:0:0:
320,192,188652,1,0,0:0:0:0:
64,192,188738,1,0,0:0:0:0:
192,192,188738,1,0,0:0:0:0:
448,192,188738,1,0,0:0:0:0:
320,192,188910,1,0,0:0:0:0:
192,192,188910,1,0,0:0:0:0:
448,192,188910,1,0,0:0:0:0:
64,192,189083,1,0,0:0:0:0:
192,192,189169,1,0,0:0:0:0:
448,192,189255,1,0,0:0:0:0:
320,192,189255,1,0,0:0:0:0:
64,192,189427,1,0,0:0:0:0:
192,192,189427,1,0,0:0:0:0:
320,192,189514,1,0,0:0:0:0:
448,192,189600,1,0,0:0:0:0:
192,192,189600,1,0,0:0:0:0:
64,192,189600,1,0,0:0:0:0:
320,192,189772,1,0,0:0:0:0:
64,192,189772,1,0,0:0:0:0:
192,192,189858,1,0,0:0:0:0:
448,192,189945,1,0,0:0:0:0:
320,192,190031,1,0,0:0:0:0:
192,192,190117,1,0,0:0:0:0:
64,192,190117,1,0,0:0:0:0:
448,192,190117,1,0,0:0:0:0:
320,192,190290,1,0,0:0:0:0:
448,192,190290,1,0,0:0:0:0:
64,192,190290,1,0,0:0:0:0:
192,192,190462,1,0,0:0:0:0:
320,192,190548,1,0,0:0:0:0:
448,192,190634,1,0,0:0:0:0:
64,192,190634,1,0,0:0:0:0:
320,192,190807,1,0,0:0:0:0:
192,192,190807,1,0,0:0:0:0:
448,192,190979,1,0,0:0:0:0:
192,192,190979,1,0,0:0:0:0:
64,192,190979,1,0,0:0:0:0:
320,192,191152,1,0,0:0:0:0:
192,192,191152,1,0,0:0:0:0:
448,192,191238,1,0,0:0:0:0:
64,192,191324,1,0,0:0:0:0:
320,192,191410,1,0,0:0:0:0:
192,192,191496,1,0,0:0:0:0:
448,192,191496,1,0,0:0:0:0:
64,192,191496,1,0,0:0:0:0:
64,192,191669,1,0,0:0:0:0:
320,192,191669,1,0,0:0:0:0:
192,192,191669,1,0,0:0:0:0:
448,192,191841,1,0,0:0:0:0:
192,192,191927,1,0,0:0:0:0:
320,192,192014,1,0,0:0:0:0:
64,192,192014,1,0,0:0:0:0:
448,192,192186,1,0,0:0:0:0:
192,192,192186,1,0,0:0:0:0:
320,192,192272,1,0,0:0:0:0:
64,192,192358,1,0,0:0:0:0:
192,192,192358,1,0,0:0:0:0:
448,192,192358,1,0,0:0:0:0:
448,192,192531,1,0,0:0:0:0:
320,192,192531,1,0,0:0:0:0:
192,192,192617,1,0,0:0:0:0:
64,192,192703,1,0,0:0:0:0:
192,192,192790,1,0,0:0:0:0:
320,192,192876,1,0,0:0:0:0:
448,192,192876,1,0,0:0:0:0:
64,192,192876,1,0,0:0:0:0:
192,192,193048,1,0,0:0:0:0:
448,192,193048,1,0,0:0:0:0:
64,192,193048,1,0,0:0:0:0:
320,192,193221,1,0,0:0:0:0:
192,192,193307,1,0,0:0:0:0:
64,192,193393,1,0,0:0:0:0:
448,192,193393,1,0,0:0:0:0:
320,192,193393,1,0,0:0:0:0:
64,192,193565,1,0,0:0:0:0:
448,192,193565,1,0,0:0:0:0:
192,192,193738,1,0,0:0:0:0:
320,192,193738,1,0,0:0:0:0:
448,192,193738,1,0,0:0:0:0:
192,192,193910,1,0,0:0:0:0:
64,192,193910,1,0,0:0:0:0:
320,192,193996,1,0,0:0:0:0:
64,192,194083,1,0,0:0:0:0:
192,192,194169,1,0,0:0:0:0:
448,192,194255,1,0,0:0:0:0:
320,192,194255,1,0,0:0:0:0:
64,192,194255,1,0,0:0:0:0:
192,192,194427,1,0,0:0:0:0:
320,192,194427,1,0,0:0:0:0:
64,192,194427,1,0,0:0:0:0:
448,192,194600,1,0,0:0:0:0:
192,192,194600,1,0,0:0:0:0:
320,192,194686,1,0,0:0:0:0:
64,192,194772,1,0,0:0:0:0:
448,192,194945,1,0,0:0:0:0:
320,192,194945,1,0,0:0:0:0:
64,192,194945,1,0,0:0:0:0:
192,192,195031,1,0,0:0:0:0:
64,192,195117,1,0,0:0:0:0:
320,192,195117,1,0,0:0:0:0:
448,192,195117,1,0,0:0:0:0:
192,192,195290,1,0,0:0:0:0:
448,192,195290,1,0,0:0:0:0:
320,192,195376,1,0,0:0:0:0:
64,192,195462,1,0,0:0:0:0:
192,192,195548,1,0,0:0:0:0:
320,192,195634,1,0,0:0:0:0:
448,192,195634,1,0,0:0:0:0:
64,192,195634,1,0,0:0:0:0:
192,192,195807,1,0,0:0:0:0:
64,192,195807,1,0,0:0:0:0:
448,192,195807,1,0,0:0:0:0:
320,192,195979,1,0,0:0:0:0:
448,192,195979,1,0,0:0:0:0:
192,192,196065,1,0,0:0:0:0:
64,192,196152,1,0,0:0:0:0:
192,192,196324,1,0,0:0:0:0:
320,192,196324,1,0,0:0:0:0:
448,192,196324,1,0,0:0:0:0:
64,192,196496,1,0,0:0:0:0:
320,192,196496,1,0,0:0:0:0:
448,192,196496,1,0,0:0:0:0:
192,192,196669,1,0,0:0:0:0:
320,192,196669,1,0,0:0:0:0:
64,192,196755,1,0,0:0:0:0:
448,192,196841,1,0,0:0:0:0:
192,192,196927,1,0,0:0:0:0:
320,192,197014,1,0,0:0:0:0:
64,192,197014,1,0,0:0:0:0:
448,192,197014,1,0,0:0:0:0:
448,192,197186,1,0,0:0:0:0:
192,192,197186,1,0,0:0:0:0:
320,192,197186,1,0,0:0:0:0:
64,192,197358,1,0,0:0:0:0:
192,192,197358,1,0,0:0:0:0:
320,192,197445,1,0,0:0:0:0:
192,192,197531,1,0,0:0:0:0:
448,192,197531,1,0,0:0:0:0:
64,192,197703,1,0,0:0:0:0:
448,192,197703,1,0,0:0:0:0:
192,192,197790,1,0,0:0:0:0:
320,192,197790,1,0,0:0:0:0:
448,192,197876,1,0,0:0:0:0:
64,192,198048,1,0,0:0:0:0:
192,192,198048,1,0,0:0:0:0:
448,192,198048,1,0,0:0:0:0:
320,192,198134,1,0,0:0:0:0:
448,192,198221,1,0,0:0:0:0:
320,192,198307,1,0,0:0:0:0:
192,192,198393,1,0,0:0:0:0:
64,192,198393,1,0,0:0:0:0:
320,192,198565,1,0,0:0:0:0:
64,192,198565,1,0,0:0:0:0:
448,192,198565,1,0,0:0:0:0:
192,192,198738,1,0,0:0:0:0:
448,192,198738,1,0,0:0:0:0:
320,192,198824,1,0,0:0:0:0:
64,192,198910,128,0,199025:0:0:0:0:
192,192,198910,1,0,0:0:0:0:
448,192,198910,1,0,0:0:0:0:
320,192,199083,1,0,0:0:0:0:
448,192,199255,1,0,0:0:0:0:
192,192,199255,1,0,0:0:0:0:
64,192,199370,128,0,199485:0:0:0:0:
320,192,199427,1,0,0:0:0:0:
192,192,199427,1,0,0:0:0:0:
448,192,199600,1,0,0:0:0:0:
192,192,199772,1,0,0:0:0:0:
448,192,199772,1,0,0:0:0:0:
320,192,199830,128,0,199945:0:0:0:0:
64,192,199945,1,0,0:0:0:0:
448,192,199945,1,0,0:0:0:0:
192,192,200117,1,0,0:0:0:0:
320,192,200117,1,0,0:0:0:0:
448,192,200290,128,0,200404:0:0:0:0:
64,192,200290,1,0,0:0:0:0:
192,192,200290,1,0,0:0:0:0:
320,192,200462,1,0,0:0:0:0:
192,192,200634,1,0,0:0:0:0:
64,192,200634,1,0,0:0:0:0:
448,192,200749,128,0,200864:0:0:0:0:
320,192,200807,1,0,0:0:0:0:
64,192,200807,1,0,0:0:0:0:
192,192,200979,1,0,0:0:0:0:
320,192,201152,1,0,0:0:0:0:
64,192,201152,1,0,0:0:0:0:
192,192,201209,128,0,201324:0:0:0:0:
448,192,201324,1,0,0:0:0:0:
320,192,201324,1,0,0:0:0:0:
64,192,201496,1,0,0:0:0:0:
192,192,201496,1,0,0:0:0:0:
320,192,201669,128,0,201784:0:0:0:0:
448,192,201669,1,0,0:0:0:0:
64,192,201669,1,0,0:0:0:0:
192,192,201841,1,0,0:0:0:0:
64,192,202014,1,0,0:0:0:0:
448,192,202014,1,0,0:0:0:0:
320,192,202129,128,0,202244:0:0:0:0:
192,192,202186,1,0,0:0:0:0:
448,192,202186,1,0,0:0:0:0:
64,192,202358,1,0,0:0:0:0:
448,192,202531,1,0,0:0:0:0:
192,192,202531,1,0,0:0:0:0:
64,192,202588,128,0,202703:0:0:0:0:
320,192,202703,1,0,0:0:0:0:
320,192,202876,1,0,0:0:0:0:
448,192,202876,1,0,0:0:0:0:
192,192,203048,128,0,203163:0:0:0:0:
64,192,203048,1,0,0:0:0:0:
448,192,203221,1,0,0:0:0:0:
64,192,203393,1,0,0:0:0:0:
320,192,203393,1,0,0:0:0:0:
192,192,203508,128,0,203623:0:0:0:0:
448,192,203565,1,0,0:0:0:0:
320,192,203565,1,0,0:0:0:0:
64,192,203738,1,0,0:0:0:0:
192,192,203910,1,0,0:0:0:0:
320,192,203910,1,0,0:0:0:0:
448,192,203968,128,0,204083:0:0:0:0:
192,192,204083,1,0,0:0:0:0:
64,192,204255,1,0,0:0:0:0:
320,192,204255,1,0,0:0:0:0:
320,192,204427,128,0,204600:0:0:0:0:
448,192,204427,1,0,0:0:0:0:
192,192,204600,128,0,204945:0:0:0:0:
64,192,204600,1,0,0:0:0:0:
320,192,204772,1,0,0:0:0:0:
448,192,204945,128,0,205117:0:0:0:0:
64,192,204945,1,0,0:0:0:0:
320,192,205117,128,0,205290:0:0:0:0:
192,192,205117,1,0,0:0:0:0:
64,192,205290,128,0,205634:0:0:0:0:
448,192,205290,1,0,0:0:0:0:
320,192,205462,1,0,0:0:0:0:
192,192,205634,128,0,205721:0:0:0:0:
448,192,205634,1,0,0:0:0:0:
320,192,205721,128,0,205807:0:0:0:0:
448,192,205807,128,0,205979:0:0:0:0:
64,192,205807,1,0,0:0:0:0:
192,192,205979,128,0,206324:0:0:0:0:
320,192,206152,1,0,0:0:0:0:
64,192,206324,128,0,206496:0:0:0:0:
448,192,206324,1,0,0:0:0:0:
320,192,206496,128,0,206669:0:0:0:0:
192,192,206496,1,0,0:0:0:0:
448,192,206669,128,0,207014:0:0:0:0:
64,192,206669,1,0,0:0:0:0:
192,192,206841,1,0,0:0:0:0:
320,192,207014,128,0,207186:0:0:0:0:
64,192,207014,1,0,0:0:0:0:
192,192,207186,128,0,208221:0:0:0:0:
448,192,207186,1,0,0:0:0:0:
64,192,207531,1,0,0:0:0:0:
320,192,207703,1,0,0:0:0:0:
448,192,207876,1,0,0:0:0:0:
320,192,208048,1,0,0:0:0:0:
64,192,208221,1,0,0:0:0:0:
192,192,208393,1,0,0:0:0:0:
320,192,208565,1,0,0:0:0:0:
448,192,208565,1,0,0:0:0:0:
64,192,208565,1,0,0:0:0:0:
320,192,208824,1,0,0:0:0:0:
448,192,208824,1,0,0:0:0:0:
64,192,208910,1,0,0:0:0:0:
320,192,209083,1,0,0:0:0:0:
448,192,209083,1,0,0:0:0:0:
192,192,209083,1,0,0:0:0:0:
64,192,209255,1,0,0:0:0:0:
192,192,209341,128,0,209514:0:0:0:0:
448,192,209427,1,0,0:0:0:0:
64,192,209600,1,0,0:0:0:0:
192,192,209600,1,0,0:0:0:0:
320,192,209600,1,0,0:0:0:0:
448,192,209600,1,0,0:0:0:0:
320,192,209772,1,0,0:0:0:0:
448,192,209945,128,0,210290:0:0:0:0:
64,192,209945,128,0,210117:0:0:0:0:
320,192,210290,128,0,210979:0:0:0:0:
64,192,210290,128,0,210462:0:0:0:0:
192,192,210634,128,0,210807:0:0:0:0:
192,192,210979,128,0,211152:0:0:0:0:
320,192,211324,128,0,211496:0:0:0:0:
64,192,211669,128,0,211841:0:0:0:0:
320,192,211669,128,0,211841:0:0:0:0:
192,192,211841,128,0,212186:0:0:0:0:
448,192,212014,128,0,212186:0:0:0:0:
320,192,212186,128,0,212703:0:0:0:0:
448,192,212358,128,0,212531:0:0:0:0:
64,192,212703,128,0,212876:0:0:0:0:
192,192,213048,128,0,213221:0:0:0:0:
64,192,213048,128,0,213221:0:0:0:0:
320,192,213221,128,0,213565:0:0:0:0:
192,192,213393,128,0,213565:0:0:0:0:
448,192,213565,128,0,214083:0:0:0:0:
192,192,213738,128,0,213910:0:0:0:0:
320,192,214083,128,0,214255:0:0:0:0:
64,192,214427,128,0,214600:0:0:0:0:
320,192,214427,128,0,214600:0:0:0:0:
192,192,214600,128,0,214945:0:0:0:0:
448,192,214772,128,0,214945:0:0:0:0:
64,192,214945,128,0,215117:0:0:0:0:
192,192,215117,128,0,215290:0:0:0:0:
448,192,215117,128,0,215290:0:0:0:0:
320,192,215290,128,0,215634:0:0:0:0:
64,192,215462,128,0,215634:0:0:0:0:
448,192,215634,128,0,216324:0:0:0:0:
192,192,215807,128,0,215979:0:0:0:0:
320,192,216152,128,0,216324:0:0:0:0:
64,192,216324,128,0,216669:0:0:0:0:
448,192,216496,128,0,216669:0:0:0:0:
192,192,216669,128,0,217014:0:0:0:0:
64,192,216841,128,0,217014:0:0:0:0:
320,192,217014,128,0,217703:0:0:0:0:
448,192,217186,128,0,217358:0:0:0:0:
64,192,217531,128,0,217703:0:0:0:0:
192,192,217703,128,0,218048:0:0:0:0:
448,192,217876,128,0,218048:0:0:0:0:
64,192,218048,128,0,218393:0:0:0:0:
192,192,218221,128,0,218393:0:0:0:0:
448,192,218393,128,0,218565:0:0:0:0:
64,192,218565,128,0,218738:0:0:0:0:
320,192,218738,128,0,218910:0:0:0:0:
448,192,218910,128,0,219083:0:0:0:0:
192,192,219083,128,0,219255:0:0:0:0:
320,192,219255,128,0,219427:0:0:0:0:
64,192,219427,128,0,220290:0:0:0:0:
448,192,219600,128,0,219772:0:0:0:0:
448,192,219945,128,0,220117:0:0:0:0:
192,192,220290,128,0,220462:0:0:0:0:
320,192,220462,128,0,220893:0:0:0:0:
192,192,220634,128,0,220893:0:0:0:0:
64,192,220979,1,0,0:0:0:0:
448,192,220979,1,0,0:0:0:0:
320,192,221065,1,0,0:0:0:0:
192,192,221152,1,0,0:0:0:0:
64,192,221238,1,0,0:0:0:0:
192,192,221324,1,0,0:0:0:0:
448,192,221324,1,0,0:0:0:0:
320,192,221324,1,0,0:0:0:0:
64,192,221496,1,0,0:0:0:0:
320,192,221583,1,0,0:0:0:0:
448,192,221583,1,0,0:0:0:0:
64,192,221669,1,0,0:0:0:0:
320,192,221755,1,0,0:0:0:0:
192,192,221841,1,0,0:0:0:0:
448,192,221841,1,0,0:0:0:0:
64,192,222014,1,0,0:0:0:0:
448,192,222014,1,0,0:0:0:0:
192,192,222014,1,0,0:0:0:0:
320,192,222186,1,0,0:0:0:0:
192,192,222272,1,0,0:0:0:0:
320,192,222358,1,0,0:0:0:0:
64,192,222358,1,0,0:0:0:0:
448,192,222445,1,0,0:0:0:0:
320,192,222531,1,0,0:0:0:0:
64,192,222617,1,0,0:0:0:0:
192,192,222703,1,0,0:0:0:0:
448,192,222703,1,0,0:0:0:0:
320,192,222703,1,0,0:0:0:0:
64,192,222876,1,0,0:0:0:0:
320,192,222962,1,0,0:0:0:0:
192,192,222962,1,0,0:0:0:0:
448,192,223048,1,0,0:0:0:0:
320,192,223134,1,0,0:0:0:0:
192,192,223221,1,0,0:0:0:0:
64,192,223221,1,0,0:0:0:0:
448,192,223221,1,0,0:0:0:0:
448,192,223393,1,0,0:0:0:0:
320,192,223393,1,0,0:0:0:0:
64,192,223479,1,0,0:0:0:0:
192,192,223565,1,0,0:0:0:0:
320,192,223652,1,0,0:0:0:0:
448,192,223738,1,0,0:0:0:0:
64,192,223738,1,0,0:0:0:0:
192,192,223824,1,0,0:0:0:0:
320,192,223910,1,0,0:0:0:0:
448,192,223996,1,0,0:0:0:0:
320,192,224083,1,0,0:0:0:0:
64,192,224083,1,0,0:0:0:0:
192,192,224083,1,0,0:0:0:0:
448,192,224255,1,0,0:0:0:0:
192,192,224341,1,0,0:0:0:0:
64,192,224341,1,0,0:0:0:0:
448,192,224427,1,0,0:0:0:0:
192,192,224514,1,0,0:0:0:0:
320,192,224600,1,0,0:0:0:0:
64,192,224600,1,0,0:0:0:0:
448,192,224772,1,0,0:0:0:0:
64,192,224772,1,0,0:0:0:0:
320,192,224772,1,0,0:0:0:0:
192,192,224945,1,0,0:0:0:0:
320,192,225031,1,0,0:0:0:0:
192,192,225117,1,0,0:0:0:0:
448,192,225117,1,0,0:0:0:0:
64,192,225203,1,0,0:0:0:0:
192,192,225290,1,0,0:0:0:0:
448,192,225376,1,0,0:0:0:0:
320,192,225462,1,0,0:0:0:0:
64,192,225462,1,0,0:0:0:0:
192,192,225462,1,0,0:0:0:0:
448,192,225634,1,0,0:0:0:0:
192,192,225721,1,0,0:0:0:0:
320,192,225721,1,0,0:0:0:0:
64,192,225807,1,0,0:0:0:0:
192,192,225893,1,0,0:0:0:0:
320,192,225979,1,0,0:0:0:0:
448,192,225979,1,0,0:0:0:0:
64,192,225979,1,0,0:0:0:0:
64,192,226152,1,0,0:0:0:0:
192,192,226152,1,0,0:0:0:0:
448,192,226238,1,0,0:0:0:0:
320,192,226324,1,0,0:0:0:0:
192,192,226410,1,0,0:0:0:0:
64,192,226496,1,0,0:0:0:0:
448,192,226496,1,0,0:0:0:0:
192,192,226583,1,0,0:0:0:0:
320,192,226669,1,0,0:0:0:0:
64,192,226755,1,0,0:0:0:0:
320,192,226841,1,0,0:0:0:0:
448,192,226841,1,0,0:0:0:0:
192,192,226841,1,0,0:0:0:0:
64,192,227014,1,0,0:0:0:0:
192,192,227100,1,0,0:0:0:0:
448,192,227100,1,0,0:0:0:0:
64,192,227186,1,0,0:0:0:0:
192,192,227272,1,0,0:0:0:0:
320,192,227358,1,0,0:0:0:0:
448,192,227358,1,0,0:0:0:0:
64,192,227531,1,0,0:0:0:0:
448,192,227531,1,0,0:0:0:0:
320,192,227531,1,0,0:0:0:0:
192,192,227703,1,0,0:0:0:0:
320,192,227790,1,0,0:0:0:0:
192,192,227876,1,0,0:0:0:0:
64,192,227876,1,0,0:0:0:0:
448,192,227962,1,0,0:0:0:0:
192,192,228048,1,0,0:0:0:0:
64,192,228134,1,0,0:0:0:0:
320,192,228221,1,0,0:0:0:0:
448,192,228221,1,0,0:0:0:0:
192,192,228221,1,0,0:0:0:0:
64,192,228393,1,0,0:0:0:0:
192,192,228479,1,0,0:0:0:0:
320,192,228479,1,0,0:0:0:0:
448,192,228565,1,0,0:0:0:0:
192,192,228652,1,0,0:0:0:0:
320,192,228738,1,0,0:0:0:0:
64,192,228738,1,0,0:0:0:0:
448,192,228738,1,0,0:0:0:0:
448,192,228910,1,0,0:0:0:0:
192,192,228910,1,0,0:0:0:0:
64,192,228996,1,0,0:0:0:0:
320,192,229083,1,0,0:0:0:0:
192,192,229169,1,0,0:0:0:0:
448,192,229255,1,0,0:0:0:0:
64,192,229255,1,0,0:0:0:0:
320,192,229341,1,0,0:0:0:0:
192,192,229427,1,0,0:0:0:0:
448,192,229514,1,0,0:0:0:0:
192,192,229600,1,0,0:0:0:0:
64,192,229600,1,0,0:0:0:0:
320,192,229600,1,0,0:0:0:0:
448,192,229772,1,0,0:0:0:0:
320,192,229858,1,0,0:0:0:0:
64,192,229858,1,0,0:0:0:0:
448,192,229945,1,0,0:0:0:0:
320,192,230031,1,0,0:0:0:0:
192,192,230117,1,0,0:0:0:0:
64,192,230117,1,0,0:0:0:0:
448,192,230290,1,0,0:0:0:0:
64,192,230290,1,0,0:0:0:0:
192,192,230290,1,0,0:0:0:0:
320,192,230462,1,0,0:0:0:0:
192,192,230548,1,0,0:0:0:0:
320,192,230634,1,0,0:0:0:0:
448,192,230634,1,0,0:0:0:0:
64,192,230721,1,0,0:0:0:0:
320,192,230807,1,0,0:0:0:0:
448,192,230893,1,0,0:0:0:0:
192,192,230979,1,0,0:0:0:0:
64,192,230979,1,0,0:0:0:0:
320,192,230979,1,0,0:0:0:0:
448,192,231152,1,0,0:0:0:0:
320,192,231238,1,0,0:0:0:0:
192,192,231238,1,0,0:0:0:0:
64,192,231324,1,0,0:0:0:0:
320,192,231410,1,0,0:0:0:0:
192,192,231496,1,0,0:0:0:0:
448,192,231496,1,0,0:0:0:0:
64,192,231496,1,0,0:0:0:0:
64,192,231669,1,0,0:0:0:0:
320,192,231669,1,0,0:0:0:0:
448,192,231755,1,0,0:0:0:0:
192,192,231841,1,0,0:0:0:0:
448,192,231927,1,0,0:0:0:0:
192,192,232014,1,0,0:0:0:0:
320,192,232014,1,0,0:0:0:0:
64,192,232100,1,0,0:0:0:0:
448,192,232186,1,0,0:0:0:0:
320,192,232272,1,0,0:0:0:0:
64,192,232358,1,0,0:0:0:0:
192,192,232358,1,0,0:0:0:0:
448,192,232358,1,0,0:0:0:0:
320,192,232531,1,0,0:0:0:0:
192,192,232617,1,0,0:0:0:0:
64,192,232617,1,0,0:0:0:0:
320,192,232703,1,0,0:0:0:0:
64,192,232790,1,0,0:0:0:0:
192,192,232876,1,0,0:0:0:0:
448,192,232876,1,0,0:0:0:0:
448,192,233048,1,0,0:0:0:0:
192,192,233048,1,0,0:0:0:0:
320,192,233048,1,0,0:0:0:0:
64,192,233221,1,0,0:0:0:0:
448,192,233307,1,0,0:0:0:0:
320,192,233393,1,0,0:0:0:0:
64,192,233393,1,0,0:0:0:0:
192,192,233479,1,0,0:0:0:0:
64,192,233565,1,0,0:0:0:0:
320,192,233652,1,0,0:0:0:0:
64,192,233738,1,0,0:0:0:0:
192,192,233738,1,0,0:0:0:0:
448,192,233738,1,0,0:0:0:0:
320,192,233910,1,0,0:0:0:0:
448,192,233996,1,0,0:0:0:0:
64,192,233996,1,0,0:0:0:0:
192,192,234083,1,0,0:0:0:0:
64,192,234169,1,0,0:0:0:0:
192,192,234255,1,0,0:0:0:0:
320,192,234255,1,0,0:0:0:0:
448,192,234255,1,0,0:0:0:0:
64,192,234427,1,0,0:0:0:0:
192,192,234427,1,0,0:0:0:0:
320,192,234514,1,0,0:0:0:0:
448,192,234600,1,0,0:0:0:0:
64,192,234686,1,0,0:0:0:0:
320,192,234772,1,0,0:0:0:0:
192,192,234772,1,0,0:0:0:0:
448,192,234858,1,0,0:0:0:0:
64,192,234945,1,0,0:0:0:0:
192,192,235031,1,0,0:0:0:0:
448,192,235117,1,0,0:0:0:0:
320,192,235117,1,0,0:0:0:0:
64,192,235117,1,0,0:0:0:0:
192,192,235290,1,0,0:0:0:0:
320,192,235376,1,0,0:0:0:0:
448,192,235376,1,0,0:0:0:0:
192,192,235462,1,0,0:0:0:0:
448,192,235548,1,0,0:0:0:0:
320,192,235634,1,0,0:0:0:0:
64,192,235634,1,0,0:0:0:0:
64,192,235807,1,0,0:0:0:0:
320,192,235807,1,0,0:0:0:0:
192,192,235807,1,0,0:0:0:0:
448,192,235979,1,0,0:0:0:0:
64,192,236065,1,0,0:0:0:0:
192,192,236152,1,0,0:0:0:0:
448,192,236152,1,0,0:0:0:0:
320,192,236238,1,0,0:0:0:0:
448,192,236324,1,0,0:0:0:0:
192,192,236410,1,0,0:0:0:0:
448,192,236496,1,0,0:0:0:0:
320,192,236496,1,0,0:0:0:0:
64,192,236496,1,0,0:0:0:0:
192,192,236669,1,0,0:0:0:0:
64,192,236755,1,0,0:0:0:0:
448,192,236755,1,0,0:0:0:0:
320,192,236841,1,0,0:0:0:0:
448,192,236927,1,0,0:0:0:0:
320,192,237014,1,0,0:0:0:0:
192,192,237014,1,0,0:0:0:0:
64,192,237014,1,0,0:0:0:0:
448,192,237186,1,0,0:0:0:0:
320,192,237186,1,0,0:0:0:0:
192,192,237272,1,0,0:0:0:0:
64,192,237358,1,0,0:0:0:0:
448,192,237445,1,0,0:0:0:0:
192,192,237531,1,0,0:0:0:0:
320,192,237531,1,0,0:0:0:0:
448,192,237617,1,0,0:0:0:0:
64,192,237703,1,0,0:0:0:0:
320,192,237790,1,0,0:0:0:0:
448,192,237876,1,0,0:0:0:0:
192,192,237876,1,0,0:0:0:0:
64,192,237876,1,0,0:0:0:0:
320,192,238048,1,0,0:0:0:0:
192,192,238134,1,0,0:0:0:0:
448,192,238134,1,0,0:0:0:0:
320,192,238221,1,0,0:0:0:0:
448,192,238307,1,0,0:0:0:0:
192,192,238393,1,0,0:0:0:0:
64,192,238393,1,0,0:0:0:0:
64,192,238565,1,0,0:0:0:0:
192,192,238565,1,0,0:0:0:0:
320,192,238565,1,0,0:0:0:0:
448,192,238738,1,0,0:0:0:0:
64,192,238824,1,0,0:0:0:0:
320,192,238910,1,0,0:0:0:0:
448,192,238910,1,0,0:0:0:0:
192,192,238996,1,0,0:0:0:0:
448,192,239083,1,0,0:0:0:0:
320,192,239169,1,0,0:0:0:0:
448,192,239255,1,0,0:0:0:0:
192,192,239255,1,0,0:0:0:0:
64,192,239255,1,0,0:0:0:0:
320,192,239427,1,0,0:0:0:0:
64,192,239514,1,0,0:0:0:0:
448,192,239514,1,0,0:0:0:0:
192,192,239600,1,0,0:0:0:0:
448,192,239686,1,0,0:0:0:0:
192,192,239772,1,0,0:0:0:0:
320,192,239772,1,0,0:0:0:0:
64,192,239772,1,0,0:0:0:0:
448,192,239945,1,0,0:0:0:0:
192,192,239945,1,0,0:0:0:0:
320,192,240031,1,0,0:0:0:0:
64,192,240117,1,0,0:0:0:0:
448,192,240203,1,0,0:0:0:0:
192,192,240290,128,0,241324:0:0:0:0:
320,192,240290,128,0,240376:0:0:0:0:
320,192,240462,128,0,240548:0:0:0:0:
320,192,240634,128,0,240721:0:0:0:0:
320,192,240807,128,0,240893:0:0:0:0:
320,192,240979,128,0,241065:0:0:0:0:
320,192,241152,128,0,241238:0:0:0:0:
320,192,241324,128,0,241410:0:0:0:0:
320,192,241496,128,0,241583:0:0:0:0:
192,192,241669,1,0,0:0:0:0:
64,192,241669,1,0,0:0:0:0:
448,192,241755,1,0,0:0:0:0:
320,192,241755,1,0,0:0:0:0:
192,192,241841,1,0,0:0:0:0:
64,192,241841,1,0,0:0:0:0:
320,192,241927,1,0,0:0:0:0:
448,192,241927,1,0,0:0:0:0:
192,192,242014,1,0,0:0:0:0:
64,192,242014,1,0,0:0:0:0:
320,192,242100,1,0,0:0:0:0:
448,192,242100,1,0,0:0:0:0:
448,192,242186,1,0,0:0:0:0:
192,192,242186,1,0,0:0:0:0:
64,192,242186,1,0,0:0:0:0:
320,192,242358,1,0,0:0:0:0:
448,192,242531,1,0,0:0:0:0:
320,192,242531,1,0,0:0:0:0:
192,192,242617,1,0,0:0:0:0:
64,192,242617,1,0,0:0:0:0:
448,192,242703,1,0,0:0:0:0:
320,192,242703,1,0,0:0:0:0:
64,192,242790,1,0,0:0:0:0:
192,192,242790,1,0,0:0:0:0:
448,192,242876,1,0,0:0:0:0:
320,192,242876,1,0,0:0:0:0:
64,192,242962,1,0,0:0:0:0:
192,192,242962,1,0,0:0:0:0:
448,192,243048,128,0,243221:0:0:0:0:
192,192,243048,1,0,0:0:0:0:
320,192,243048,1,0,0:0:0:0:
192,192,243221,128,0,243565:0:0:0:0:
64,192,243221,1,0,0:0:0:0:
64,192,243393,1,0,0:0:0:0:
448,192,243393,1,0,0:0:0:0:
64,192,243565,128,0,243738:0:0:0:0:
320,192,243565,1,0,0:0:0:0:
448,192,243652,1,0,0:0:0:0:
192,192,243652,1,0,0:0:0:0:
320,192,243738,128,0,244083:0:0:0:0:
64,192,243824,1,0,0:0:0:0:
448,192,243910,1,0,0:0:0:0:
192,192,243910,1,0,0:0:0:0:
448,192,244083,128,0,244255:0:0:0:0:
192,192,244083,1,0,0:0:0:0:
64,192,244083,1,0,0:0:0:0:
192,192,244255,128,0,244427:0:0:0:0:
64,192,244255,1,0,0:0:0:0:
320,192,244341,1,0,0:0:0:0:
64,192,244427,128,0,244600:0:0:0:0:
448,192,244427,1,0,0:0:0:0:
320,192,244600,128,0,244772:0:0:0:0:
192,192,244600,1,0,0:0:0:0:
64,192,244772,1,0,0:0:0:0:
192,192,244772,128,0,244830:0:0:0:0:
448,192,244772,128,0,244830:0:0:0:0:
192,192,244887,128,0,244945:0:0:0:0:
448,192,244887,128,0,244945:0:0:0:0:
192,192,245002,128,0,245060:0:0:0:0:
448,192,245002,128,0,245060:0:0:0:0:
192,192,245117,128,0,245290:0:0:0:0:
320,192,245117,1,0,0:0:0:0:
448,192,245290,128,0,245462:0:0:0:0:
320,192,245290,1,0,0:0:0:0:
64,192,245290,1,0,0:0:0:0:
64,192,245462,128,0,245807:0:0:0:0:
320,192,245462,1,0,0:0:0:0:
448,192,245548,1,0,0:0:0:0:
192,192,245634,1,0,0:0:0:0:
448,192,245721,1,0,0:0:0:0:
320,192,245807,128,0,245979:0:0:0:0:
192,192,245807,1,0,0:0:0:0:
64,192,245979,128,0,246324:0:0:0:0:
448,192,245979,1,0,0:0:0:0:
448,192,246152,1,0,0:0:0:0:
320,192,246152,1,0,0:0:0:0:
192,192,246324,128,0,246496:0:0:0:0:
448,192,246324,1,0,0:0:0:0:
320,192,246410,1,0,0:0:0:0:
64,192,246410,1,0,0:0:0:0:
448,192,246496,128,0,246841:0:0:0:0:
192,192,246583,1,0,0:0:0:0:
320,192,246669,1,0,0:0:0:0:
64,192,246669,1,0,0:0:0:0:
320,192,246841,128,0,247014:0:0:0:0:
64,192,246841,1,0,0:0:0:0:
192,192,246841,1,0,0:0:0:0:
64,192,247014,128,0,247186:0:0:0:0:
192,192,247014,1,0,0:0:0:0:
448,192,247100,1,0,0:0:0:0:
192,192,247186,128,0,247358:0:0:0:0:
320,192,247186,1,0,0:0:0:0:
448,192,247358,128,0,247531:0:0:0:0:
64,192,247358,1,0,0:0:0:0:
192,192,247531,1,0,0:0:0:0:
320,192,247531,128,0,247588:0:0:0:0:
64,192,247531,128,0,247588:0:0:0:0:
64,192,247646,128,0,247703:0:0:0:0:
320,192,247646,128,0,247703:0:0:0:0:
64,192,247761,128,0,247818:0:0:0:0:
320,192,247761,128,0,247818:0:0:0:0:
64,192,247876,128,0,248048:0:0:0:0:
448,192,247876,1,0,0:0:0:0:
320,192,248048,128,0,248221:0:0:0:0:
448,192,248048,1,0,0:0:0:0:
192,192,248048,1,0,0:0:0:0:
448,192,248221,1,0,0:0:0:0:
192,192,248221,128,0,248565:0:0:0:0:
64,192,248393,1,0,0:0:0:0:
320,192,248479,1,0,0:0:0:0:
64,192,248565,128,0,248738:0:0:0:0:
448,192,248565,1,0,0:0:0:0:
320,192,248738,128,0,249083:0:0:0:0:
448,192,248738,1,0,0:0:0:0:
448,192,248910,1,0,0:0:0:0:
64,192,248910,1,0,0:0:0:0:
448,192,249083,128,0,249255:0:0:0:0:
192,192,249083,1,0,0:0:0:0:
64,192,249169,1,0,0:0:0:0:
320,192,249169,1,0,0:0:0:0:
192,192,249255,128,0,249600:0:0:0:0:
448,192,249341,1,0,0:0:0:0:
64,192,249427,1,0,0:0:0:0:
320,192,249427,1,0,0:0:0:0:
64,192,249600,128,0,249772:0:0:0:0:
320,192,249600,1,0,0:0:0:0:
448,192,249600,1,0,0:0:0:0:
320,192,249772,128,0,249945:0:0:0:0:
448,192,249772,1,0,0:0:0:0:
192,192,249858,1,0,0:0:0:0:
448,192,249945,128,0,250117:0:0:0:0:
64,192,249945,1,0,0:0:0:0:
192,192,250117,128,0,250290:0:0:0:0:
320,192,250117,1,0,0:0:0:0:
448,192,250290,1,0,0:0:0:0:
64,192,250290,128,0,250347:0:0:0:0:
320,192,250290,128,0,250347:0:0:0:0:
64,192,250404,128,0,250462:0:0:0:0:
320,192,250404,128,0,250462:0:0:0:0:
64,192,250519,128,0,250577:0:0:0:0:
320,192,250519,128,0,250577:0:0:0:0:
320,192,250634,128,0,250807:0:0:0:0:
192,192,250634,1,0,0:0:0:0:
64,192,250807,128,0,250979:0:0:0:0:
192,192,250807,1,0,0:0:0:0:
448,192,250807,1,0,0:0:0:0:
448,192,250979,128,0,251324:0:0:0:0:
192,192,250979,1,0,0:0:0:0:
64,192,251065,1,0,0:0:0:0:
320,192,251152,1,0,0:0:0:0:
64,192,251238,1,0,0:0:0:0:
192,192,251324,128,0,251496:0:0:0:0:
320,192,251324,1,0,0:0:0:0:
448,192,251496,128,0,251841:0:0:0:0:
64,192,251496,1,0,0:0:0:0:
64,192,251669,1,0,0:0:0:0:
192,192,251669,1,0,0:0:0:0:
320,192,251841,128,0,252014:0:0:0:0:
64,192,251841,1,0,0:0:0:0:
192,192,251927,1,0,0:0:0:0:
448,192,251927,1,0,0:0:0:0:
64,192,252014,128,0,252358:0:0:0:0:
320,192,252100,1,0,0:0:0:0:
192,192,252186,1,0,0:0:0:0:
448,192,252186,1,0,0:0:0:0:
192,192,252358,128,0,252531:0:0:0:0:
448,192,252358,1,0,0:0:0:0:
320,192,252358,1,0,0:0:0:0:
448,192,252531,128,0,252703:0:0:0:0:
320,192,252531,1,0,0:0:0:0:
64,192,252617,1,0,0:0:0:0:
320,192,252703,128,0,252876:0:0:0:0:
192,192,252703,1,0,0:0:0:0:
64,192,252876,128,0,253048:0:0:0:0:
448,192,252876,1,0,0:0:0:0:
320,192,253048,1,0,0:0:0:0:
192,192,253048,128,0,253106:0:0:0:0:
448,192,253048,128,0,253106:0:0:0:0:
192,192,253163,128,0,253221:0:0:0:0:
448,192,253163,128,0,253221:0:0:0:0:
192,192,253278,128,0,253335:0:0:0:0:
448,192,253278,128,0,253335:0:0:0:0:
448,192,253393,128,0,253565:0:0:0:0:
64,192,253393,1,0,0:0:0:0:
192,192,253565,128,0,253738:0:0:0:0:
64,192,253565,1,0,0:0:0:0:
320,192,253565,1,0,0:0:0:0:
320,192,253738,128,0,254083:0:0:0:0:
64,192,253738,1,0,0:0:0:0:
448,192,253824,1,0,0:0:0:0:
192,192,253910,1,0,0:0:0:0:
448,192,253996,1,0,0:0:0:0:
192,192,254083,1,0,0:0:0:0:
64,192,254083,128,0,254255:0:0:0:0:
448,192,254255,1,0,0:0:0:0:
320,192,254255,128,0,254600:0:0:0:0:
64,192,254427,1,0,0:0:0:0:
448,192,254427,1,0,0:0:0:0:
448,192,254600,1,0,0:0:0:0:
192,192,254600,128,0,254772:0:0:0:0:
320,192,254686,1,0,0:0:0:0:
64,192,254686,1,0,0:0:0:0:
448,192,254772,128,0,255117:0:0:0:0:
192,192,254858,1,0,0:0:0:0:
320,192,254945,1,0,0:0:0:0:
64,192,254945,1,0,0:0:0:0:
192,192,255117,1,0,0:0:0:0:
320,192,255117,1,0,0:0:0:0:
64,192,255117,128,0,255290:0:0:0:0:
320,192,255290,128,0,255462:0:0:0:0:
192,192,255290,1,0,0:0:0:0:
448,192,255376,1,0,0:0:0:0:
64,192,255462,1,0,0:0:0:0:
192,192,255462,128,0,255634:0:0:0:0:
320,192,255634,1,0,0:0:0:0:
448,192,255634,128,0,255807:0:0:0:0:
320,192,255807,128,0,255864:0:0:0:0:
192,192,255807,1,0,0:0:0:0:
64,192,255807,128,0,255864:0:0:0:0:
64,192,255922,128,0,255979:0:0:0:0:
320,192,255922,128,0,255979:0:0:0:0:
64,192,256037,128,0,256094:0:0:0:0:
320,192,256037,128,0,256094:0:0:0:0:
448,192,256152,1,0,0:0:0:0:
320,192,256152,128,0,256324:0:0:0:0:
192,192,256324,1,0,0:0:0:0:
448,192,256324,1,0,0:0:0:0:
64,192,256324,128,0,256496:0:0:0:0:
448,192,256496,1,0,0:0:0:0:
192,192,256496,128,0,256841:0:0:0:0:
64,192,256583,1,0,0:0:0:0:
320,192,256669,1,0,0:0:0:0:
64,192,256755,1,0,0:0:0:0:
320,192,256841,1,0,0:0:0:0:
448,192,256841,128,0,257014:0:0:0:0:
64,192,257014,1,0,0:0:0:0:
192,192,257014,128,0,257358:0:0:0:0:
448,192,257186,1,0,0:0:0:0:
64,192,257186,1,0,0:0:0:0:
64,192,257358,1,0,0:0:0:0:
320,192,257358,128,0,257531:0:0:0:0:
192,192,257445,1,0,0:0:0:0:
448,192,257445,1,0,0:0:0:0:
64,192,257531,128,0,257876:0:0:0:0:
320,192,257617,1,0,0:0:0:0:
192,192,257703,1,0,0:0:0:0:
448,192,257703,1,0,0:0:0:0:
320,192,257876,1,0,0:0:0:0:
192,192,257876,1,0,0:0:0:0:
448,192,257876,128,0,258048:0:0:0:0:
192,192,258048,128,0,258221:0:0:0:0:
320,192,258048,1,0,0:0:0:0:
64,192,258134,1,0,0:0:0:0:
448,192,258221,1,0,0:0:0:0:
320,192,258221,128,0,258393:0:0:0:0:
192,192,258393,1,0,0:0:0:0:
64,192,258393,128,0,258565:0:0:0:0:
320,192,258565,1,0,0:0:0:0:
192,192,258565,128,0,258623:0:0:0:0:
448,192,258565,128,0,258623:0:0:0:0:
192,192,258680,128,0,258738:0:0:0:0:
448,192,258680,128,0,258738:0:0:0:0:
448,192,258795,128,0,258853:0:0:0:0:
192,192,258795,128,0,258853:0:0:0:0:
64,192,258910,1,0,0:0:0:0:
192,192,258910,128,0,259083:0:0:0:0:
320,192,259083,1,0,0:0:0:0:
64,192,259083,1,0,0:0:0:0:
448,192,259083,128,0,259255:0:0:0:0:
64,192,259255,1,0,0:0:0:0:
320,192,259255,128,0,259600:0:0:0:0:
448,192,259341,1,0,0:0:0:0:
64,192,259427,1,0,0:0:0:0:
192,192,259514,1,0,0:0:0:0:
64,192,259600,1,0,0:0:0:0:
448,192,259600,128,0,259772:0:0:0:0:
192,192,259772,128,0,260117:0:0:0:0:
64,192,259772,1,0,0:0:0:0:
64,192,259945,1,0,0:0:0:0:
448,192,259945,1,0,0:0:0:0:
320,192,260117,128,0,260290:0:0:0:0:
64,192,260117,1,0,0:0:0:0:
448,192,260203,1,0,0:0:0:0:
192,192,260203,1,0,0:0:0:0:
64,192,260290,128,0,260634:0:0:0:0:
320,192,260376,1,0,0:0:0:0:
192,192,260462,1,0,0:0:0:0:
448,192,260462,1,0,0:0:0:0:
192,192,260634,1,0,0:0:0:0:
448,192,260634,128,0,260807:0:0:0:0:
320,192,260634,1,0,0:0:0:0:
192,192,260807,128,0,260979:0:0:0:0:
320,192,260807,1,0,0:0:0:0:
64,192,260893,1,0,0:0:0:0:
320,192,260979,128,0,261152:0:0:0:0:
448,192,260979,1,0,0:0:0:0:
64,192,261152,128,0,261324:0:0:0:0:
192,192,261152,1,0,0:0:0:0:
320,192,261324,1,0,0:0:0:0:
192,192,261324,128,0,261381:0:0:0:0:
448,192,261324,128,0,261381:0:0:0:0:
192,192,261439,128,0,261496:0:0:0:0:
448,192,261439,128,0,261496:0:0:0:0:
192,192,261554,128,0,261611:0:0:0:0:
448,192,261554,128,0,261611:0:0:0:0:
64,192,261669,1,0,0:0:0:0:
192,192,261669,128,0,261841:0:0:0:0:
448,192,261841,128,0,262014:0:0:0:0:
64,192,261841,1,0,0:0:0:0:
320,192,261841,1,0,0:0:0:0:
192,192,262014,128,0,262358:0:0:0:0:
64,192,262014,1,0,0:0:0:0:
448,192,262100,1,0,0:0:0:0:
320,192,262186,1,0,0:0:0:0:
64,192,262272,1,0,0:0:0:0:
448,192,262358,1,0,0:0:0:0:
64,192,262531,1,0,0:0:0:0:
320,192,262531,1,0,0:0:0:0:
448,192,262531,1,0,0:0:0:0:
192,192,262790,1,0,0:0:0:0:
64,192,262790,1,0,0:0:0:0:
448,192,262790,1,0,0:0:0:0:
64,192,263048,1,0,0:0:0:0:
320,192,263048,1,0,0:0:0:0:
192,192,263048,1,0,0:0:0:0:
448,192,263221,1,0,0:0:0:0:
64,192,263307,1,0,0:0:0:0:
448,192,263393,1,0,0:0:0:0:
192,192,263450,1,0,0:0:0:0:
448,192,263508,1,0,0:0:0:0:
64,192,263565,1,0,0:0:0:0:
320,192,263623,1,0,0:0:0:0:
64,192,263680,1,0,0:0:0:0:
192,192,263738,1,0,0:0:0:0:
448,192,263824,1,0,0:0:0:0:
64,192,263910,1,0,0:0:0:0:
320,192,263996,5,0,0:0:0:0:
192,192,264083,5,0,0:0:0:0:
192,192,264198,1,0,0:0:0:0:
64,192,264255,5,0,0:0:0:0:
448,192,264255,1,0,0:0:0:0:
320,192,264255,1,0,0:0:0:0:
192,192,264312,1,0,0:0:0:0:
320,192,264427,1,0,0:0:0:0:
448,192,264427,1,0,0:0:0:0:
320,192,264542,1,0,0:0:0:0:
448,192,264542,1,0,0:0:0:0:
192,192,264600,1,0,0:0:0:0:
64,192,264600,1,0,0:0:0:0:
320,192,264657,1,0,0:0:0:0:
448,192,264657,1,0,0:0:0:0:
192,192,264772,1,0,0:0:0:0:
64,192,264772,1,0,0:0:0:0:
192,192,264887,1,0,0:0:0:0:
64,192,264887,1,0,0:0:0:0:
320,192,264945,1,0,0:0:0:0:
448,192,264945,1,0,0:0:0:0:
64,192,265031,1,0,0:0:0:0:
192,192,265031,1,0,0:0:0:0:
448,192,265117,128,0,265203:0:0:0:0:
64,192,265117,1,0,0:0:0:0:
192,192,265117,1,0,0:0:0:0:
320,192,265117,1,0,0:0:0:0:
64,192,265462,128,0,265548:0:0:0:0:
448,192,265634,128,0,265721:0:0:0:0:
448,192,265979,128,0,266065:0:0:0:0:
64,192,266152,128,0,266238:0:0:0:0:
320,192,266496,128,0,266583:0:0:0:0:
320,192,266841,128,0,266927:0:0:0:0:
448,192,267014,128,0,267100:0:0:0:0:
192,192,267358,128,0,267445:0:0:0:0:
448,192,267358,128,0,267445:0:0:0:0:
64,192,267531,128,0,267617:0:0:0:0:
448,192,267876,128,0,267962:0:0:0:0:
64,192,268221,128,0,268307:0:0:0:0:
448,192,268393,128,0,268479:0:0:0:0:
448,192,268738,128,0,268824:0:0:0:0:
320,192,268910,128,0,268996:0:0:0:0:
64,192,269255,128,0,269341:0:0:0:0:
64,192,269600,128,0,269686:0:0:0:0:
448,192,269772,128,0,269858:0:0:0:0:
64,192,270117,128,0,270203:0:0:0:0:
448,192,270290,128,0,270376:0:0:0:0:
