osu file format v14

[General]
AudioFilename: audio.mp3
AudioLeadIn: 0
PreviewTime: 31960
Countdown: 0
SampleSet: Soft
StackLeniency: 0.7
Mode: 0
LetterboxInBreaks: 0
WidescreenStoryboard: 1

[Editor]
DistanceSpacing: 1
BeatDivisor: 8
GridSize: 4
TimelineZoom: 4.8

[Metadata]
Title:Novogodnyaya pesenka (TV Size)
TitleUnicode:Новогодняя песенка (TV Size)
Artist:Volk (CV: Anatoliy Papanov), Zayats (CV: Klara Rumyanova)
ArtistUnicode:Волк (CV: Анатолий Папанов), Заяц (CV: Клара Румянова)
Creator:defreeyay
Version:Insane
Source:Ну, погоди!
Tags:Well, Just You Wait! wolf hare rabbit В мире много сказок V mire mnogo skazok песня зайца и волка деда мороза снегурочки pesnya zaytsa i volka deda moroza snegurochki расскажи снегурочка где была rasskazhi snegurochka gde byla nu pogodi дед мороз ded moroz russian русский folk фолк поп pop Gennadiy Gladkov Yuriy Entin ussr soviet cartoon movie xmas christmas new year song Геннадий Гладков Юрий Энтин ссср советский мультфильм новый год рождество нг dopaminos aqilmanuar aranel
BeatmapID:4271582
BeatmapSetID:1995023

[Difficulty]
HPDrainRate:5
CircleSize:4
OverallDifficulty:8
ApproachRate:8.7
SliderMultiplier:1.72
SliderTickRate:1

[Events]
//Background and Video events
0,0,"bg.jpg",0,0
Video,90,"video.mp4"
//Break Periods
2,6899,9239
2,16548,18880
2,47006,49602
//Storyboard Layer 0 (Background)
//Storyboard Layer 1 (Fail)
//Storyboard Layer 2 (Pass)
//Storyboard Layer 3 (Foreground)
//Storyboard Layer 4 (Overlay)
//Storyboard Sound Samples

[TimingPoints]
310,404.721753794266,4,2,1,60,1,0
2738,380.952380952381,4,2,1,60,1,0
3499,402.684563758389,4,2,1,60,1,0
5109,400,4,2,1,60,1,0
5709,375,4,2,1,60,1,0
5896,381.558028616852,4,2,1,60,1,0
6277,422.535211267606,4,2,1,60,1,0
6699,405.405405405405,4,2,1,55,1,0
7509,393.700787401575,4,2,1,55,1,0
8296,405.405405405405,4,2,1,55,1,0
8904,392.156862745098,4,2,1,55,1,0
9100,392.156862745098,4,2,1,55,1,0
9884,404.040404040404,4,2,1,60,1,0
16348,-100,4,2,1,55,0,0
16752,396.039603960396,4,2,1,55,1,0
17940,401.33779264214,4,2,1,55,1,0
19344,363.636363636364,4,2,1,55,1,0
19525,404.040404040404,4,2,1,55,1,0
19525,-111.111111111111,4,2,1,55,0,0
25181,400,4,2,1,55,1,0
25181,-111.111111111111,4,2,1,55,0,0
25981,408.163265306122,4,2,1,55,1,0
25981,-111.111111111111,4,2,1,55,0,0
27613,397.350993377483,4,2,1,55,1,0
27613,-111.111111111111,4,2,1,55,0,0
30791,406.779661016949,4,2,1,55,1,0
30791,-111.111111111111,4,2,1,55,0,0
32418,405.405405405405,4,2,1,55,1,0
32418,-105.263157894737,4,2,1,55,0,0
34039,402.684563758389,4,2,1,55,1,0
34039,-105.263157894737,4,2,1,55,0,0
35649,406.779661016949,4,2,1,55,1,0
35649,-105.263157894737,4,2,1,55,0,0
37276,352.941176470588,4,2,1,55,1,0
37276,-105.263157894737,4,2,1,55,0,0
37628,400,4,2,1,55,1,0
37628,-185.185185185185,4,2,1,55,0,0
37928,356.083086053412,4,2,1,55,1,0
37928,-142.857142857143,4,2,1,55,0,0
38016,-142.857142857143,4,2,1,5,0,0
38106,387.096774193548,4,2,1,55,1,0
38106,-100,4,2,1,55,0,0
38493,413.793103448276,4,2,1,55,1,0
38906,405.405405405405,4,2,1,55,1,0
43770,410.25641025641,4,2,1,55,1,0
43770,-105.263157894737,4,2,1,55,0,0
44180,-100,4,2,1,60,0,0
45411,398.671096345515,4,2,1,60,1,0
47005,428.571428571429,4,2,1,60,1,0
47433,404.040404040404,4,2,1,60,1,0
48645,404.040404040404,4,2,1,60,1,0
49453,397.350993377483,4,2,1,60,1,0
50247,402.684563758389,4,2,1,55,1,0
50247,-111.111111111111,4,2,1,55,0,0
62327,385.852090032154,4,2,1,55,1,0
62327,-111.111111111111,4,2,1,55,0,0
63098,402.684563758389,4,2,1,55,1,0
63098,-105.263157894737,4,2,1,55,0,0
66319,406.779661016949,4,2,1,55,1,0
66319,-105.263157894737,4,2,1,55,0,0
68352,-142.857142857143,4,2,1,55,0,0
68657,-142.857142857143,4,2,1,5,0,0
68759,412.371134020619,4,2,1,55,1,0
68759,-100,4,2,1,55,0,0
69583,409.556313993174,4,2,1,55,1,0
71221,402.684563758389,4,2,1,55,1,0
72831,408.163265306122,4,2,1,55,1,0
74463,410.958904109589,4,2,1,55,1,0
75695,-100,4,2,1,60,0,0
76106,422.535211267606,4,2,1,60,1,0
76528,401.33779264214,4,2,1,60,1,0
77732,407.470288624788,4,2,1,60,1,0
79361,400.534045393858,4,2,1,60,1,0
80963,404.040404040404,4,2,1,60,1,0
81771,387.096774193548,4,2,1,60,1,0
82545,404.040404040404,4,2,1,60,1,0
86585,408.163265306122,4,2,1,60,1,0
87401,408.163265306122,4,2,1,60,1,0
87401,-105.263157894737,4,2,1,60,0,0
87809,-100,4,2,1,60,0,0
89033,418.118466898955,4,2,1,60,1,0
89346,-100,4,2,1,5,0,0
89451,428.571428571429,4,2,1,60,1,0
89451,-100,4,2,1,60,0,0
89986,-100,4,2,1,5,0,0
90093,-100,4,2,1,60,0,0

[Colours]
Combo1 : 220,72,72
Combo2 : 220,149,72
Combo3 : 179,220,72
Combo4 : 72,220,186

[HitObjects]
115,76,310,6,0,B|158:51|214:75|176:96|233:122|280:96,1,172,4|10,3:2|0:2,0:0:0:0:
133,232,917,2,0,P|139:186|147:133,1,86,2|0,3:2|0:0,0:0:0:0:
249,0,1321,1,2,3:2:0:0:
249,0,1524,1,8,0:2:0:0:
330,171,1726,6,0,P|287:177|244:183,1,86,2|0,3:2|3:2,0:0:0:0:
57,248,2131,1,2,0:2:0:0:
226,309,2333,1,8,0:2:0:0:
145,146,2535,1,2,3:2:0:0:
46,330,2738,2,0,P|67:327|89:323,3,43,10|8|8|8,0:2|0:2|0:2|0:2,0:0:0:0:
165,252,3118,1,10,0:2:0:0:
202,232,3214,1,8,0:2:0:0:
244,233,3309,1,10,0:2:0:0:
282,252,3404,1,8,0:2:0:0:
305,288,3499,6,0,B|374:279|374:279|406:286|406:286|477:278,1,172,4|10,3:2|0:2,0:0:0:0:
424,112,4103,2,0,P|417:153|411:206,1,86,2|0,3:2|0:0,0:0:0:0:
372,368,4505,1,2,3:2:0:0:
372,368,4707,1,8,0:2:0:0:
244,233,4908,6,0,P|201:238|158:244,1,86,2|0,3:2|3:2,0:0:0:0:
264,377,5309,1,2,0:2:0:0:
329,209,5509,1,8,0:2:0:0:
183,323,5709,1,2,3:2:0:0:
142,140,5896,2,0,P|136:97|130:54,1,86,10|2,0:2|3:2,0:0:0:0:
294,122,6277,1,10,0:3:0:0:
294,122,6382,1,8,0:3:0:0:
294,122,6488,1,10,0:3:0:0:
80,203,6699,5,4,3:2:0:0:
508,309,9884,6,0,B|424:319|424:319|422:325|422:325|337:336,1,172,4|10,3:2|0:2,0:0:0:0:
198,356,10490,1,0,3:2:0:0:
198,356,10692,2,0,P|193:308|188:262,1,86,2|0,0:2|3:2,0:0:0:0:
53,368,11096,2,0,P|48:320|43:274,1,86,10|0,0:2|0:2,0:0:0:0:
92,105,11500,5,2,3:2:0:0:
114,245,11702,1,2,3:2:0:0:
1,164,11904,1,10,0:2:0:0:
175,114,12106,2,0,B|279:102|235:166|349:172,1,172,2|2,3:2|3:2,0:0:0:0:
462,28,12712,1,8,0:2:0:0:
329,84,12914,1,2,3:2:0:0:
495,175,13116,6,0,P|476:236|455:358,1,172,2|10,3:2|0:2,0:0:0:0:
309,219,13722,1,0,3:2:0:0:
309,219,13924,2,0,P|351:227|393:235,1,86,2|0,0:2|3:2,0:0:0:0:
296,348,14328,2,0,P|253:354|211:361,1,86,10|0,0:2|0:2,0:0:0:0:
113,204,14732,5,2,3:2:0:0:
241,270,14934,1,2,3:2:0:0:
194,128,15136,1,10,0:2:0:0:
91,289,15338,2,0,P|76:204|52:121,1,172,2|2,3:2|3:2,0:0:0:0:
177,22,15944,1,10,0:2:0:0:
177,22,16146,1,2,0:2:0:0:
278,180,16348,5,2,3:2:0:0:
26,310,19525,6,0,P|97:325|179:358,1,154.799995275879,2|10,3:2|0:2,0:0:0:0:
50,230,20131,1,2,3:2:0:0:
50,230,20333,2,0,P|121:245|203:278,1,154.799995275879,2|10,0:2|0:2,0:0:0:0:
73,149,20939,1,2,0:2:0:0:
73,149,21141,6,0,P|113:156|161:170,1,77.3999976379395,2|0,3:2|3:2,0:0:0:0:
281,261,21545,1,10,0:2:0:0:
281,261,21747,2,0,P|210:276|128:309,1,154.799995275879,2|0,3:2|3:2,0:0:0:0:
238,376,22353,1,8,0:2:0:0:
238,376,22555,1,0,0:0:0:0:
369,283,22757,6,0,P|380:206|401:112,1,154.799995275879,2|10,3:2|0:2,0:0:0:0:
452,299,23363,1,2,3:2:0:0:
452,299,23565,2,0,P|463:222|484:128,1,154.799995275879,2|10,0:2|0:2,0:0:0:0:
508,2,24171,1,2,0:2:0:0:
390,105,24373,6,0,P|343:105|311:80,1,77.3999976379395,2|0,3:2|3:2,0:0:0:0:
193,10,24777,1,10,0:2:0:0:
193,10,24979,2,0,B|101:10|144:55|44:57,1,154.01826,2|0,3:2|3:2,0:0:0:0:
187,115,25581,1,8,0:2:0:0:
187,115,25781,1,0,3:2:0:0:
36,187,25981,6,0,P|43:227|54:280,1,77.3999976379395,2|2,3:2|3:2,0:0:0:0:
71,362,26389,1,10,0:2:0:0:
71,362,26593,1,2,3:2:0:0:
136,202,26797,2,0,P|143:242|154:295,1,77.3999976379395,2|0,0:2|3:2,0:0:0:0:
171,377,27205,1,10,0:2:0:0:
171,377,27409,1,2,0:2:0:0:
236,217,27613,6,0,P|243:257|254:310,1,77.3999976379395,2|0,3:2|0:0,0:0:0:0:
395,228,28010,2,0,P|357:235|318:242,1,77.3999976379395,10|0,0:2|3:2,0:0:0:0:
333,378,28407,2,0,P|416:363|498:346,1,154.799995275879,2|8,0:2|0:2,0:0:0:0:
395,228,29003,1,0,3:2:0:0:
512,125,29202,6,0,P|473:118|435:110,1,77.3999976379395,2|2,3:2|3:2,0:0:0:0:
338,89,29599,1,10,0:2:0:0:
338,89,29798,1,2,3:2:0:0:
253,234,29997,2,0,B|211:194|211:194|241:88,1,154.799995275879,2|10,0:2|0:2,0:0:0:0:
357,0,30593,1,2,0:2:0:0:
410,152,30791,6,0,P|403:190|395:227,1,77.3999976379395,2|0,3:2|0:2,0:0:0:0:
413,384,31197,2,0,P|375:375|337:369,1,77.3999976379395,10|0,0:2|3:2,0:0:0:0:
233,270,31604,2,0,P|194:276|157:284,1,77.3999976379395,2|0,0:2|3:2,0:0:0:0:
14,358,32011,1,10,0:2:0:0:
14,358,32418,6,0,P|8:319|0:278,1,81.6999978183747,2|0,3:2|3:2,0:0:0:0:
36,128,32823,1,10,0:2:0:0:
36,128,33026,2,0,B|77:107|132:123|97:146|153:165|189:150,1,163.399995636749,0|0,3:2|3:2,0:0:0:0:
329,18,33634,1,10,0:2:0:0:
170,59,33836,1,0,0:2:0:0:
353,117,34039,6,0,P|396:110|442:100,1,81.6999978183747,2|0,3:2|3:2,0:0:0:0:
512,231,34441,1,10,0:2:0:0:
512,231,34643,2,0,B|505:289|505:289|477:320|477:320|470:383,1,163.399995636749,0|0,3:2|3:2,0:0:0:0:
292,349,35247,1,10,0:2:0:0:
385,234,35448,1,2,0:2:0:0:
209,193,35649,6,0,P|166:200|120:210,1,81.6999978183747,2|0,3:2|3:2,0:0:0:0:
23,85,36055,1,10,0:2:0:0:
23,85,36259,2,0,B|65:102|118:79|83:59|135:38|174:50,1,163.399995636749,0|0,3:2|3:2,0:0:0:0:
338,73,36869,1,10,0:2:0:0:
156,132,37072,1,2,3:2:0:0:
306,252,37276,5,10,0:2:0:0:
306,252,37628,2,0,L|321:156,1,90.2999972442628,2|0,0:2|0:0,0:0:0:0:
352,72,38106,5,8,0:2:0:0:
352,72,38202,2,0,P|374:71|401:77,1,43,0|0,3:2|3:2,0:0:0:0:
494,126,38396,1,8,0:2:0:0:
487,164,38493,1,8,0:2:0:0:
479,204,38596,1,8,0:3:0:0:
472,244,38699,1,8,0:3:0:0:
463,284,38803,1,8,0:3:0:0:
454,323,38906,6,0,P|411:311|370:301,1,86,6|0,3:2|0:0,0:0:0:0:
180,228,39311,1,10,0:2:0:0:
303,363,39514,1,2,3:2:0:0:
280,163,39716,2,0,P|263:233|232:329,1,172,2|8,0:2|0:2,0:0:0:0:
91,279,40324,1,0,0:2:0:0:
201,145,40527,6,0,P|192:186|178:235,1,86,2|0,3:2|0:0,0:0:0:0:
0,312,40933,1,10,0:2:0:0:
162,369,41135,1,2,3:2:0:0:
63,189,41338,2,0,P|42:105|16:23,1,172,2|8,0:2|0:2,0:0:0:0:
128,104,41946,1,0,0:0:0:0:
239,5,42149,6,0,P|281:0|325:22,1,86,2|0,3:2|0:2,0:0:0:0:
413,163,42554,1,10,0:2:0:0:
266,86,42757,1,2,3:2:0:0:
456,2,42960,2,0,P|445:47|435:95,1,86,2|0,0:2|3:2,0:0:0:0:
297,198,43365,1,10,0:2:0:0:
297,198,43568,1,2,0:2:0:0:
469,286,43770,6,0,P|429:275|375:263,1,81.6999978183747,2|0,3:2|0:0,0:0:0:0:
196,172,44180,5,10,0:2:0:0:
323,338,44385,1,2,3:2:0:0:
360,110,44590,5,8,0:2:0:0:
225,269,44795,1,2,3:2:0:0:
152,59,45000,6,0,P|106:56|57:92,1,86,8|2,0:2|3:2,0:0:0:0:
108,304,45411,5,8,0:2:0:0:
225,269,45610,1,2,3:2:0:0:
125,131,45809,5,8,0:2:0:0:
153,239,46009,1,2,3:2:0:0:
290,147,46208,5,10,0:2:0:0:
290,147,46308,1,10,0:2:0:0:
290,147,46407,1,10,0:2:0:0:
72,201,46607,2,0,L|23:212,2,43,10|2|2,0:2|0:2|0:2,0:0:0:0:
504,42,50247,6,0,P|488:115|473:208,1,154.799995275879,6|10,3:2|0:2,0:0:0:0:
419,24,50851,1,2,3:2:0:0:
419,24,51052,2,0,P|403:97|388:190,1,154.799995275879,2|10,0:2|0:2,0:0:0:0:
334,8,51656,1,2,0:2:0:0:
334,8,51857,6,0,P|320:71|311:122,1,116.099996456909,2|2,3:2|0:2,0:0:0:0:
301,159,52260,1,10,0:2:0:0:
208,41,52461,2,0,P|137:15|75:67,1,154.799995275879,2|2,3:2|3:2,0:0:0:0:
154,162,53065,1,10,0:2:0:0:
154,162,53166,1,2,0:2:0:0:
154,162,53267,1,2,0:2:0:0:
36,279,53468,6,0,P|112:291|187:308,1,154.799995275879,0|10,3:2|0:2,0:0:0:0:
49,196,54072,1,2,3:2:0:0:
49,196,54273,2,0,P|133:209|217:229,1,154.799995275879,2|10,0:2|0:2,0:0:0:0:
67,113,54877,1,2,0:2:0:0:
249,71,55079,5,2,3:2:0:0:
127,11,55280,1,2,3:2:0:0:
266,162,55481,1,10,0:2:0:0:
301,148,55582,1,2,0:2:0:0:
328,123,55683,1,2,3:2:0:0:
341,86,55783,1,2,0:2:0:0:
336,48,55884,2,0,P|355:120|371:199,1,154.799995275879,2|8,0:2|0:2,0:0:0:0:
478,311,56488,1,0,0:2:0:0:
330,370,56689,6,0,P|287:369|254:345,1,77.3999976379395,2|2,3:2|3:2,0:0:0:0:
199,274,57092,1,10,0:2:0:0:
199,274,57293,1,2,3:2:0:0:
62,353,57495,2,0,P|105:352|138:328,1,77.3999976379395,2|0,0:2|3:2,0:0:0:0:
202,188,57898,1,10,0:2:0:0:
75,272,58099,1,2,0:2:0:0:
253,358,58300,6,0,P|291:363|351:374,1,77.3999976379395,2|0,3:2|0:2,0:0:0:0:
315,208,58703,2,0,P|308:246|303:284,1,77.3999976379395,10|0,0:2|0:2,0:0:0:0:
464,320,59106,2,0,P|474:250|493:139,1,154.799995275879,2|8,0:2|0:2,0:0:0:0:
445,30,59710,1,0,3:2:0:0:
314,122,59911,6,0,P|275:116|237:109,1,77.3999976379395,2|2,3:2|3:2,0:0:0:0:
65,59,60314,1,10,0:2:0:0:
204,4,60515,1,2,3:2:0:0:
120,158,60716,1,2,0:2:0:0:
120,158,60918,1,2,3:2:0:0:
299,201,61119,2,0,P|260:195|222:188,1,77.3999976379395,10|0,0:2|0:2,0:0:0:0:
194,349,61522,6,0,P|232:355|270:361,1,77.3999976379395,2|0,3:2|0:2,0:0:0:0:
124,257,61924,2,0,P|85:263|47:269,1,77.3999976379395,10|0,0:2|3:2,0:0:0:0:
97,380,62327,1,10,0:2:0:0:
97,380,62423,1,8,0:2:0:0:
97,380,62519,2,0,L|91:332,1,38.6999988189698,8|8,0:2|0:2,0:0:0:0:
48,190,62712,1,8,0:2:0:0:
26,153,62809,1,8,0:2:0:0:
25,110,62905,1,10,0:3:0:0:
45,73,63002,1,8,0:3:0:0:
81,51,63098,6,0,P|121:46|164:39,1,81.6999978183747,6|0,3:2|3:2,0:0:0:0:
272,129,63500,1,10,0:2:0:0:
403,10,63702,2,0,P|412:75|427:184,1,163.399995636749,0|0,3:2|3:2,0:0:0:0:
401,349,64306,1,10,0:2:0:0:
290,213,64507,1,0,0:2:0:0:
195,357,64708,6,0,P|150:358|113:339,1,81.6999978183747,2|0,3:2|3:2,0:0:0:0:
5,235,65111,1,10,0:2:0:0:
150,110,65312,2,0,P|161:190|172:271,1,163.399995636749,0|0,3:2|3:2,0:0:0:0:
383,303,65916,1,10,0:2:0:0:
260,200,66118,1,2,0:2:0:0:
422,124,66319,6,0,P|381:120|341:113,1,81.6999978183747,2|0,3:2|3:2,0:0:0:0:
205,40,66725,1,10,0:2:0:0:
97,177,66929,2,0,P|87:95|77:14,1,163.399995636749,0|0,3:2|3:2,0:0:0:0:
280,0,67539,1,10,0:2:0:0:
195,167,67742,1,2,0:2:0:0:
77,14,67946,5,10,0:2:0:0:
77,14,68352,2,0,L|89:111,1,90.2999972442628,2|0,0:2|0:0,0:0:0:0:
100,187,68759,5,8,0:2:0:0:
295,147,68965,2,0,P|316:140|336:132,2,43,8|8|8,0:3|0:3|0:2,0:0:0:0:
131,267,69377,1,0,3:2:0:0:
322,342,69583,6,0,P|367:344|407:313,1,86,6|0,3:2|0:2,0:0:0:0:
471,154,69992,1,10,0:2:0:0:
337,250,70197,1,2,3:2:0:0:
498,324,70402,2,0,L|471:153,1,172,2|8,0:2|0:2,0:0:0:0:
436,4,71016,1,0,0:2:0:0:
312,148,71221,6,0,P|267:150|223:122,1,86,2|0,3:2|0:2,0:0:0:0:
131,0,71623,1,10,0:2:0:0:
288,67,71825,1,2,3:2:0:0:
103,118,72026,2,0,B|70:173|70:173|114:286,1,172,2|8,0:2|0:2,0:0:0:0:
268,239,72630,1,0,0:2:0:0:
180,384,72831,6,0,L|195:283,1,86,2|0,3:2|0:2,0:0:0:0:
312,148,73239,1,10,0:2:0:0:
350,332,73443,1,2,3:2:0:0:
183,223,73647,2,0,L|281:241,1,86,2|0,0:2|0:2,0:0:0:0:
483,280,74055,1,10,0:2:0:0:
402,121,74259,1,2,0:2:0:0:
350,332,74463,5,10,0:2:0:0:
350,332,74873,1,8,0:2:0:0:
350,332,75284,1,12,0:2:0:0:
183,223,75695,6,0,P|180:253|176:280,1,43,2|0,0:2|0:0,0:0:0:0:
88,336,75901,2,0,P|85:314|83:293,1,43,2|0,0:2|0:0,0:0:0:0:
16,205,76106,6,0,B|26:129|26:129|25:116|25:116|39:7,1,172,6|8,3:2|0:2,0:0:0:0:
192,114,76728,2,0,P|143:113|104:93,1,86,2|0,3:2|0:0,0:0:0:0:
239,0,77130,1,0,3:2:0:0:
286,172,77330,2,0,P|334:171|370:149,1,86,10|0,0:2|0:2,0:0:0:0:
486,8,77732,6,0,P|501:88|512:177,1,172,2|8,3:2|0:2,0:0:0:0:
459,337,78343,2,0,P|413:332|358:320,1,86,2|0,3:2|0:0,0:0:0:0:
195,252,78750,1,0,3:2:0:0:
368,207,78954,1,10,0:2:0:0:
253,352,79158,1,0,0:2:0:0:
180,170,79361,6,0,P|169:84|152:0,1,172,2|8,3:2|0:2,0:0:0:0:
2,96,79961,2,0,P|45:90|87:83,1,86,2|0,3:2|0:0,0:0:0:0:
266,50,80362,1,0,3:2:0:0:
266,50,80462,1,2,0:2:0:0:
266,50,80562,1,10,0:2:0:0:
101,160,80762,1,2,0:2:0:0:
296,243,80963,6,0,B|401:230|356:296|481:289,1,172,2|8,3:2|0:2,0:0:0:0:
311,381,81569,1,0,3:2:0:0:
209,232,81771,1,10,0:2:0:0:
209,232,81867,1,8,0:2:0:0:
209,232,81964,2,0,L|203:280,1,43,8|8,0:2|0:2,0:0:0:0:
122,375,82158,1,8,0:2:0:0:
87,349,82254,1,8,0:2:0:0:
71,310,82351,1,8,0:2:0:0:
77,268,82448,1,8,0:2:0:0:
104,235,82545,6,0,L|122:127,1,86,6|0,3:2|3:2,0:0:0:0:
128,110,82848,1,0,3:2:0:0:
128,110,82949,1,8,0:2:0:0:
220,267,83151,2,0,B|320:285|278:214|405:249,1,172,2|0,3:2|3:2,0:0:0:0:
469,83,83757,1,8,0:2:0:0:
312,150,83959,1,0,0:2:0:0:
490,213,84161,6,0,P|482:275|472:391,1,172,2|8,3:2|0:2,0:0:0:0:
394,199,84767,1,2,3:2:0:0:
394,199,84969,2,0,P|386:261|376:377,1,172,2|8,0:2|0:2,0:0:0:0:
281,247,85575,1,0,3:2:0:0:
182,375,85777,6,0,P|137:375|102:347,1,86,2|0,3:2|0:0,0:0:0:0:
164,182,86181,2,0,P|186:220|179:265,1,86,10|0,0:2|3:2,0:0:0:0:
19,289,86585,2,0,P|-3:250|3:205,1,86,2|0,0:2|3:2,0:0:0:0:
155,97,86993,1,10,0:2:0:0:
80,231,87197,1,2,3:2:0:0:
226,310,87401,6,0,P|266:314|307:320,1,81.6999978183747,10|0,0:2|3:2,0:0:0:0:
479,220,87809,5,10,0:2:0:0:
372,383,88013,1,2,3:2:0:0:
325,174,88217,5,8,0:2:0:0:
445,335,88421,1,2,3:2:0:0:
511,141,88625,6,0,P|509:95|479:54,1,86,8|2,0:2|3:2,0:0:0:0:
281,12,89033,6,0,B|190:-1|233:53|122:39,1,129,6|0,3:2|0:0,0:0:0:0:
121,41,89451,1,10,0:2:0:0:
277,159,89665,2,0,P|283:220|289:297,1,129,6|0,3:2|0:0,0:0:0:0:
292,329,90093,1,8,0:2:0:0:
292,329,90201,1,8,0:2:0:0:
292,329,90308,1,10,0:2:0:0:
