osu file format v14

[General]
AudioFilename: audio.mp3
AudioLeadIn: 0
PreviewTime: 25365
Countdown: 0
SampleSet: Soft
StackLeniency: 0.7
Mode: 0
LetterboxInBreaks: 0
WidescreenStoryboard: 1

[Editor]
Bookmarks: 965,26365,52165,64965,77565,103365,130565,159365
DistanceSpacing: 1
BeatDivisor: 4
GridSize: 32
TimelineZoom: 0.6999999

[Metadata]
Title:Razgovory s samim soboy
TitleUnicode:Разговоры с самим собой
Artist:Vokrug fonarnogo stolba
ArtistUnicode:Вокруг фонарного столба
Creator:KeRLi_
Version:Normal
Source:
Tags:vfs вфс melwoine maruoko panty pantydev wenect unrankedmapper unranked mapper indierock индирок indie инди rock рок russian русский
BeatmapID:2167972
BeatmapSetID:1035684

[Difficulty]
HPDrainRate:3
CircleSize:3.5
OverallDifficulty:5
ApproachRate:6
SliderMultiplier:1
SliderTickRate:1

[Events]
//Background and Video events
0,0,"bg.jpg",0,0
//Break Periods
2,10765,12715
2,103365,108315
//Storyboard Layer 0 (Background)
//Storyboard Layer 1 (Fail)
//Storyboard Layer 2 (Pass)
//Storyboard Layer 3 (Foreground)
//Storyboard Layer 4 (Overlay)
//Storyboard Sound Samples

[TimingPoints]
965,400,4,2,1,20,1,0
2165,-100,4,2,1,5,0,0
2565,-100,4,2,1,20,0,0
3765,-100,4,2,1,5,0,0
4165,-100,4,2,1,20,0,0
5765,-100,4,2,1,5,0,0
6165,-100,4,2,1,20,0,0
7365,-100,4,2,1,20,0,0
8565,-100,4,2,1,5,0,0
8965,-100,4,2,1,20,0,0
10165,-100,4,2,1,5,0,0
10565,-100,4,2,1,20,0,0
13365,-100,4,2,1,20,0,0
13765,-100,4,2,1,60,0,0
25565,363.636363636364,4,2,1,60,1,0
26365,400,4,2,1,70,1,1
26365,-100,4,2,1,70,0,1
38565,-100,4,2,1,71,0,1
38765,-100,4,2,1,72,0,1
38965,-100,4,2,1,73,0,1
39165,-100,4,2,1,70,0,1
51365,-100,4,2,1,72,0,1
51565,-100,4,2,1,74,0,1
51765,-100,4,2,1,76,0,1
51965,-100,4,2,1,78,0,1
52165,400,4,2,1,60,1,0
52165,-100,4,2,1,60,0,0
64965,-100,4,2,1,65,0,0
77565,400,4,2,1,75,1,1
77565,-100,4,2,1,75,0,1
89765,-100,4,2,1,76,0,1
89965,-100,4,2,1,77,0,1
90165,-100,4,2,1,78,0,1
90365,-100,4,2,1,75,0,1
102565,-100,4,2,1,77,0,1
102765,-100,4,2,1,79,0,1
102965,-100,4,2,1,81,0,1
103165,-100,4,2,1,83,0,1
103365,400,4,2,1,20,1,0
103365,-100,4,2,1,20,0,0
109365,-100,4,2,1,40,0,0
109765,-100,4,2,1,70,0,0
111365,-100,4,2,1,70,0,1
114565,-100,4,2,1,70,0,0
116165,-100,4,2,1,70,0,1
119365,-100,4,2,1,70,0,0
120965,-100,4,2,1,70,0,1
124165,-100,4,2,1,70,0,0
125765,-100,4,2,1,60,0,0
129765,-100,4,2,1,62,0,0
129965,-100,4,2,1,64,0,0
130165,-100,4,2,1,66,0,0
130365,-100,4,2,1,68,0,0
130565,-100,4,2,1,70,0,0
132165,-100,4,2,1,40,0,0
133765,-100,4,2,1,25,0,0
136965,-100,4,2,1,35,0,0
138565,-100,4,2,1,45,0,0
140165,-100,4,2,1,30,0,0
142565,-100,4,2,1,60,0,0
143365,-100,4,2,1,80,0,1
152565,-100,4,2,1,50,0,0
153765,-100,4,2,1,30,0,0
154165,-100,4,2,1,20,0,0
154565,-100,4,2,1,17,0,0
155365,-100,4,2,1,14,0,0
156165,-100,4,2,1,11,0,0
156965,-100,4,2,1,8,0,0
157765,-100,4,2,1,5,0,0

[Colours]
Combo1 : 254,201,120
Combo2 : 94,118,255
Combo3 : 255,215,174
Combo4 : 0,98,170

[HitObjects]
109,48,965,6,0,P|194:28|359:169,1,300,2|0,0:0|0:0,0:0:0:0:
314,238,2565,2,0,P|229:258|64:117,1,300,2|0,0:0|0:0,0:0:0:0:
8,60,4165,2,0,L|404:223,1,400,2|0,0:0|0:0,0:0:0:0:
470,250,6165,1,0,0:0:0:0:
181,330,7365,6,0,P|158:249|173:30,1,300,2|0,0:0|0:0,0:0:0:0:
271,34,8965,2,0,P|301:180|280:328,1,300,2|0,0:0|0:0,0:0:0:0:
181,330,10565,1,2,0:0:0:0:
420,342,13765,5,4,3:2:0:0:
420,342,13965,2,0,P|455:324|478:268,1,100,0|0,3:0|0:0,0:0:0:0:
478,221,14565,5,8,0:0:0:0:
421,138,14965,1,0,0:0:0:0:
335,189,15365,1,0,0:0:0:0:
335,189,15565,2,0,L|327:80,1,100,0|0,0:0|0:0,0:0:0:0:
300,47,16165,5,8,0:0:0:0:
202,71,16565,2,0,P|167:71|145:68,1,50,0|0,0:0|0:0,0:0:0:0:
103,58,16965,1,0,3:0:0:0:
103,58,17165,2,0,P|110:115|111:176,1,100,0|0,3:0|0:0,0:0:0:0:
94,204,17765,5,8,0:0:0:0:
18,269,18165,1,0,0:0:0:0:
112,302,18565,1,0,0:0:0:0:
112,302,18765,2,0,L|220:285,1,100,0|0,0:0|0:0,0:0:0:0:
259,297,19365,5,8,0:0:0:0:
347,343,19765,2,0,P|354:306|352:286,1,50,0|0,0:0|0:0,0:0:0:0:
337,246,20165,1,4,3:2:0:0:
337,246,20365,2,0,P|334:191|340:140,1,100,0|0,3:0|0:0,0:0:0:0:
356,99,20965,5,8,0:0:0:0:
262,134,21365,2,0,P|212:137|163:128,2,100,0|0|0,0:0|0:0|0:0,0:0:0:0:
221,42,22565,5,8,0:0:0:0:
28,97,23365,1,0,3:0:0:0:
28,97,23565,2,0,L|34:214,1,100,0|0,3:0|0:0,0:0:0:0:
55,241,24165,5,8,0:0:0:0:
140,293,24565,2,0,P|169:282|195:279,1,50,0|0,0:0|0:0,0:0:0:0:
236,292,24965,1,0,3:0:0:0:
482,43,26365,6,0,B|459:21|459:21|379:32,1,100,6|6,3:1|3:1,0:0:0:0:
307,83,27165,1,0,3:0:0:0:
307,83,27365,2,0,P|269:73|250:72,1,50,8|0,0:0|3:0,0:0:0:0:
211,88,27765,5,6,3:1:0:0:
134,152,28165,2,0,L|143:206,1,50,0|0,0:0|3:0,0:0:0:0:
154,249,28565,2,0,P|124:240|88:240,1,50,0|0,3:0|0:0,0:0:0:0:
55,244,28965,2,0,L|-11:253,2,50,8|0|0,0:0|3:0|0:0,0:0:0:0:
79,200,29565,6,0,B|74:118|74:118|49:103,1,100,6|6,3:1|3:1,0:0:0:0:
134,43,30365,1,0,3:0:0:0:
134,43,30565,2,0,L|190:38,1,50,8|0,0:0|3:0,0:0:0:0:
232,51,30965,5,0,3:0:0:0:
331,58,31365,2,0,P|373:50|395:50,1,50,0|0,0:0|3:0,0:0:0:0:
405,92,31765,2,0,L|409:150,1,50,0|0,3:0|0:0,0:0:0:0:
427,188,32165,6,0,P|423:238|423:261,1,50,8|0,0:0|3:0,0:0:0:0:
434,287,32565,1,8,0:0:0:0:
434,287,32765,6,0,B|384:277|384:277|328:317,1,100,6|6,3:1|3:1,0:0:0:0:
263,365,33565,1,0,3:0:0:0:
263,365,33765,2,0,P|232:360|196:362,1,50,8|0,0:0|3:0,0:0:0:0:
165,374,34165,5,6,3:1:0:0:
184,275,34565,2,0,P|188:230|186:213,1,50,0|0,0:0|3:0,0:0:0:0:
156,186,34965,2,0,P|152:141|154:124,1,50,0|0,3:0|0:0,0:0:0:0:
189,102,35365,2,0,L|253:113,2,50,8|0|0,0:0|3:0|0:0,0:0:0:0:
140,90,35965,6,0,B|137:7|137:7|103:27,1,100,6|0,3:1|3:0,0:0:0:0:
41,74,36765,1,0,3:0:0:0:
41,74,36965,2,0,L|43:139,1,50,8|0,0:0|3:0,0:0:0:0:
47,173,37365,5,0,3:0:0:0:
16,268,37765,2,0,L|14:333,1,50,0|0,0:0|3:0,0:0:0:0:
53,349,38165,2,0,L|119:339,1,50,0|0,0:0|3:0,0:0:0:0:
151,349,38565,5,8,0:0:0:0:
197,367,38765,2,0,P|240:372|264:368,1,50,8|8,0:0|0:0,0:0:0:0:
288,344,39165,6,0,B|312:326|312:326|408:358,1,100,6|6,3:1|3:1,0:0:0:0:
473,378,39965,1,0,3:0:0:0:
473,378,40165,2,0,P|483:342|484:313,1,50,8|0,0:0|3:0,0:0:0:0:
468,282,40565,5,6,3:1:0:0:
404,204,40965,2,0,L|397:144,1,50,0|0,0:0|3:0,0:0:0:0:
433,119,41365,2,0,L|440:59,1,50,0|0,3:0|0:0,0:0:0:0:
463,25,41765,2,0,L|521:33,2,50,8|0|0,0:0|3:0|0:0,0:0:0:0:
413,20,42365,6,0,B|337:11|337:11|309:27,1,100,6|6,3:1|3:1,0:0:0:0:
232,76,43165,1,0,3:0:0:0:
232,76,43365,2,0,L|160:72,1,50,8|0,0:0|3:0,0:0:0:0:
137,94,43765,5,0,3:0:0:0:
56,153,44165,2,0,L|60:215,1,50,0|0,3:0|3:0,0:0:0:0:
87,244,44565,2,0,L|149:240,1,50,0|0,3:0|0:0,0:0:0:0:
173,274,44965,6,0,P|207:268|249:264,1,50,8|0,0:0|3:0,0:0:0:0:
270,281,45365,1,8,0:0:0:0:
270,281,45565,6,0,B|310:265|310:265|379:282,1,100,6|6,3:1|3:1,0:0:0:0:
461,312,46365,1,0,3:0:0:0:
461,312,46565,2,0,L|468:257,1,50,8|0,0:0|3:0,0:0:0:0:
449,215,46965,5,6,3:1:0:0:
486,122,47365,2,0,P|443:115|426:115,1,50,0|0,3:0|3:0,0:0:0:0:
391,135,47765,2,0,P|348:142|331:142,1,50,0|0,3:0|0:0,0:0:0:0:
293,127,48165,2,0,L|285:195,2,50,8|0|0,0:0|3:0|0:0,0:0:0:0:
254,94,48765,6,0,B|205:76|205:76|148:91,1,100,6|0,3:1|3:0,0:0:0:0:
68,131,49565,1,0,3:0:0:0:
68,131,49765,2,0,P|61:182|61:200,1,50,8|0,0:0|3:0,0:0:0:0:
90,220,50165,5,0,3:0:0:0:
61,315,50565,2,0,L|87:367,1,50,0|0,0:0|3:0,0:0:0:0:
133,361,50965,2,0,L|191:352,1,50,0|0,0:0|3:0,0:0:0:0:
231,362,51365,5,8,0:0:0:0:
278,345,51565,1,8,0:0:0:0:
321,319,51765,2,0,P|333:278|337:259,1,50,8|8,0:0|0:0,0:0:0:0:
318,225,52165,5,4,3:1:0:0:
318,225,52365,2,0,P|267:206|218:200,1,100,0|0,3:0|0:0,0:0:0:0:
176,221,52965,5,8,0:0:0:0:
32,359,53765,1,0,0:0:0:0:
229,325,54565,6,0,L|345:315,1,100,8|0,0:0|0:0,0:0:0:0:
417,270,55365,1,0,3:0:0:0:
417,270,55565,2,0,P|428:215|432:165,1,100,0|0,3:0|0:0,0:0:0:0:
421,122,56165,5,8,0:0:0:0:
253,13,56965,1,0,0:0:0:0:
59,62,57765,6,0,P|47:103|46:133,1,50,8|0,0:0|0:0,0:0:0:0:
74,151,58165,2,0,P|86:192|87:222,1,50,0|0,0:0|0:0,0:0:0:0:
62,242,58565,1,0,3:0:0:0:
62,242,58765,2,0,P|49:295|52:339,1,100,0|0,3:0|0:0,0:0:0:0:
81,380,59365,6,0,L|194:371,1,100,8|0,0:0|0:0,0:0:0:0:
262,314,60165,2,0,L|267:262,2,50
362,312,60965,6,0,L|368:361,2,50,8|0|0,0:0|0:0|0:0,0:0:0:0:
456,278,61765,1,0,3:0:0:0:
456,278,61965,2,0,P|457:223|438:166,1,100,0|0,3:0|0:0,0:0:0:0:
411,142,62565,6,0,L|299:134,1,100,8|0,0:0|0:0,0:0:0:0:
262,144,63165,1,0,0:0:0:0:
262,144,63365,2,0,L|206:148,1,50,0|0,0:0|0:0,0:0:0:0:
162,144,63765,1,0,0:0:0:0:
63,159,64165,5,8,0:0:0:0:
128,347,64965,6,0,B|236:324,1,100,4|0,3:2|0:0,0:0:0:0:
321,355,65765,1,8,0:0:0:0:
404,299,66165,1,0,0:0:0:0:
404,299,66365,6,0,P|398:265|398:239,1,50,2|0,3:0|0:0,0:0:0:0:
423,207,66765,2,0,P|429:173|429:147,1,50,2|0,3:0|0:0,0:0:0:0:
412,110,67165,1,0,3:0:0:0:
382,69,67365,2,0,L|314:63,1,50,8|0,0:0|0:0,0:0:0:0:
284,81,67765,2,0,L|216:87,1,50,0|0,0:0|0:0,0:0:0:0:
189,61,68165,6,0,P|141:47|90:62,1,100,2|0,3:0|0:0,0:0:0:0:
8,112,68965,1,8,0:0:0:0:
64,191,69365,1,0,0:0:0:0:
64,191,69565,6,0,P|53:227|49:254,1,50,2|0,3:0|0:0,0:0:0:0:
62,288,69965,2,0,P|98:299|125:303,1,50,2|0,3:0|0:0,0:0:0:0:
156,283,70365,1,0,3:0:0:0:
197,254,70565,2,0,L|207:181,2,50,8|0|0,0:0|0:0|0:0,0:0:0:0:
283,298,71365,6,0,P|341:295|380:275,1,100,4|0,3:2|0:0,0:0:0:0:
443,201,72165,1,8,0:0:0:0:
358,149,72565,1,0,0:0:0:0:
358,149,72765,6,0,P|326:137|290:131,1,50,2|0,3:0|0:0,0:0:0:0:
272,101,73165,2,0,P|240:113|204:119,1,50,2|0,3:0|0:0,0:0:0:0:
174,116,73565,1,0,3:0:0:0:
134,84,73765,2,0,L|142:17,2,50,8|0|0,0:0|0:0|0:0,0:0:0:0:
60,151,74565,6,0,L|66:266,1,100,2|0,3:0|0:0,0:0:0:0:
81,349,75365,1,8,0:0:0:0:
181,335,75765,1,0,0:0:0:0:
181,335,75965,6,0,P|217:336|244:331,1,50,2|0,3:0|0:0,0:0:0:0:
270,302,76365,2,0,P|306:301|333:306,1,50,2|0,3:0|0:0,0:0:0:0:
368,314,76765,5,0,3:0:0:0:
410,339,76965,1,8,0:0:0:0:
441,377,77165,1,0,3:0:0:0:
474,282,77565,6,0,L|469:174,1,100,6|6,3:1|3:1,0:0:0:0:
404,106,78365,1,0,3:0:0:0:
404,106,78565,2,0,P|371:103|346:108,1,50,8|0,0:0|3:0,0:0:0:0:
314,136,78965,2,0,L|213:128,1,100,6|0,3:1|0:0,0:0:0:0:
175,159,79565,1,0,3:0:0:0:
154,204,79765,2,0,L|159:262,1,50,0|0,3:0|0:0,0:0:0:0:
166,303,80165,2,0,P|198:305|225:315,2,50,8|0|0,0:0|3:0|0:0,0:0:0:0:
127,335,80765,6,0,B|78:352|78:352|25:326,1,100,6|6,3:1|3:1,0:0:0:0:
32,230,81565,1,0,3:0:0:0:
32,230,81765,2,0,L|31:168,1,50,8|0,0:0|3:0,0:0:0:0:
61,140,82165,2,0,P|87:130|163:149,1,100,0|0,3:0|0:0,0:0:0:0:
199,119,82765,2,0,L|206:68,1,50,0|0,3:0|3:0,0:0:0:0:
300,35,83365,2,0,P|320:24|361:31,2,50,8|0|8,0:0|3:0|0:0,0:0:0:0:
300,84,83965,6,0,L|311:199,1,100,6|6,3:1|3:1,0:0:0:0:
387,246,84765,1,0,3:0:0:0:
387,246,84965,2,0,L|448:245,1,50,8|0,0:0|3:0,0:0:0:0:
478,281,85365,2,0,P|477:304|461:348,1,50,6|0,3:1|0:0,0:0:0:0:
370,340,85965,1,0,3:0:0:0:
370,340,86165,2,0,P|282:321|259:333,1,100,0|8,3:0|0:0,0:0:0:0:
177,337,86965,1,0,0:0:0:0:
177,337,87165,6,0,L|169:221,1,100,6|0,3:1|3:0,0:0:0:0:
80,192,87965,2,0,L|88:76,1,100,0|0,3:0|3:0,0:0:0:0:
111,48,88565,2,0,B|170:40|174:100|257:97,1,150,0|0,3:0|3:0,0:0:0:0:
337,51,89565,2,0,P|369:45|398:47,1,50,0|8,3:0|0:0,0:0:0:0:
433,61,89965,2,0,L|428:121,1,50,8|8,0:0|0:0,0:0:0:0:
456,152,90365,6,0,L|467:257,1,100,6|6,3:1|3:1,0:0:0:0:
385,309,91165,1,0,3:0:0:0:
385,309,91365,2,0,L|328:302,1,50,8|0,0:0|3:0,0:0:0:0:
288,321,91765,2,0,P|245:326|190:361,1,100,6|0,3:1|0:0,0:0:0:0:
61,289,92765,1,0,0:0:0:0:
61,289,92965,2,0,L|72:237,1,50,8|0,0:0|3:0,0:0:0:0:
59,191,93365,1,0,0:0:0:0:
88,150,93565,6,0,P|138:134|188:156,1,100,6|6,3:1|3:1,0:0:0:0:
258,213,94365,1,0,3:0:0:0:
258,213,94565,2,0,L|313:222,1,50,8|0,0:0|3:0,0:0:0:0:
353,201,94965,2,0,P|396:177|399:119,1,100,0|0,3:0|0:0,0:0:0:0:
367,95,95565,2,0,L|309:81,1,50,0|0,3:0|3:0,0:0:0:0:
224,49,96165,2,0,L|234:-2,2,50,8|0|8,0:0|3:0|0:0,0:0:0:0:
182,76,96765,6,0,P|125:74|90:108,1,100,6|6,3:1|3:1,0:0:0:0:
50,190,97565,1,0,3:0:0:0:
50,190,97765,2,0,L|108:201,1,50,8|0,0:0|3:0,0:0:0:0:
140,227,98165,2,0,L|198:216,1,50,6|0,3:1|0:0,0:0:0:0:
253,294,98765,1,0,3:0:0:0:
253,294,98965,2,0,P|341:313|364:301,1,100,0|8,3:0|0:0,0:0:0:0:
429,255,99765,1,0,0:0:0:0:
429,255,99965,6,0,L|421:139,1,100,6|0,3:1|3:0,0:0:0:0:
322,144,100765,2,0,L|330:28,1,100,0|0,3:0|3:0,0:0:0:0:
281,26,101365,2,0,P|232:21|176:100,1,150,0|0,3:0|3:0,0:0:0:0:
96,154,102365,2,0,L|106:215,1,50,0|8,3:0|0:0,0:0:0:0:
139,239,102765,2,0,L|134:299,1,50,8|8,0:0|0:0,0:0:0:0:
108,331,103165,1,8,0:0:0:0:
4,307,109365,5,0,0:0:0:0:
74,383,109765,2,0,P|104:316|85:245,1,150,6|0,3:1|3:0,0:0:0:0:
50,210,110565,2,0,P|43:172|44:147,1,50,8|0,0:0|0:0,0:0:0:0:
57,112,110965,1,6,3:1:0:0:
150,76,111365,6,0,P|199:78|220:83,1,50,0|0,3:0|3:0,0:0:0:0:
236,112,111765,2,0,P|285:110|306:105,1,50
327,82,112165,5,8,0:0:0:0:
411,29,112565,1,0,0:0:0:0:
497,79,112965,6,0,P|493:115|492:161,1,50,0|0,3:0|3:0,0:0:0:0:
462,168,113365,2,0,P|466:204|467:250,1,50
462,267,113765,5,8,0:0:0:0:
378,321,114165,2,0,L|310:316,1,50,0|0,0:0|3:0,0:0:0:0:
284,292,114565,6,0,P|195:281|133:344,1,150,6|0,3:1|3:0,0:0:0:0:
115,351,115365,2,0,P|66:352|40:345,1,50,8|0,0:0|0:0,0:0:0:0:
20,328,115765,1,6,3:1:0:0:
52,233,116165,6,0,P|59:193|59:173,1,50,0|0,3:0|3:0,0:0:0:0:
78,137,116565,2,0,P|71:97|71:77,1,50
82,38,116965,5,8,0:0:0:0:
180,20,117365,1,0,0:0:0:0:
269,64,117765,6,0,P|269:110|270:132,1,50,0|0,3:0|3:0,0:0:0:0:
296,155,118165,2,0,P|296:186|294:215,1,50
268,247,118565,5,8,0:0:0:0:
254,346,118965,2,0,L|316:340,1,50,8|8,0:0|0:0,0:0:0:0:
350,357,119365,6,0,P|414:355|454:279,1,150,6|0,3:1|3:0,0:0:0:0:
432,241,120165,2,0,P|427:207|430:179,1,50,8|0,0:0|0:0,0:0:0:0:
444,144,120565,1,6,3:1:0:0:
497,59,120965,6,0,P|463:50|435:50,1,50,0|0,3:0|3:0,0:0:0:0:
400,63,121365,2,0,P|366:72|338:72,1,50
304,54,121765,5,8,0:0:0:0:
204,63,122165,1,0,0:0:0:0:
104,50,122565,6,0,P|91:80|85:117,1,50,0|0,3:0|3:0,0:0:0:0:
93,146,122965,2,0,P|106:176|112:213,1,50
105,242,123365,5,8,0:0:0:0:
107,341,123765,2,0,L|173:337,1,50,0|0,0:0|3:0,0:0:0:0:
204,354,124165,6,0,P|260:313|342:322,1,150,6|0,3:1|3:0,0:0:0:0:
377,348,124965,2,0,P|425:334|450:320,1,50,8|0,0:0|0:0,0:0:0:0:
467,307,125365,1,6,3:1:0:0:
500,212,125765,6,0,P|505:173|505:150,1,50,0|0,3:0|3:0,0:0:0:0:
490,114,126165,1,0,0:0:0:0:
398,154,126565,5,8,0:0:0:0:
300,176,126965,2,0,L|236:162,1,50
208,139,127365,6,0,L|144:153,1,50,0|0,3:0|3:0,0:0:0:0:
117,178,127765,1,0,0:0:0:0:
38,115,128165,5,8,0:0:0:0:
93,31,128565,2,0,P|134:25|157:25,1,50,0|0,0:0|3:0,0:0:0:0:
185,50,128965,5,8,0:0:0:0:
281,25,129365,1,0,3:0:0:0:
372,66,129765,2,0,L|433:71,1,50,4|4,3:1|3:1,0:0:0:0:
462,98,130165,5,4,3:1:0:0:
477,145,130365,1,4,3:1:0:0:
473,194,130565,1,6,3:2:0:0:
214,330,132165,5,2,0:0:0:0:
118,96,133765,5,2,0:0:0:0:
460,335,136965,5,2,0:0:0:0:
431,53,138565,5,2,0:0:0:0:
212,229,140165,5,2,0:0:0:0:
79,100,142365,6,0,L|136:92,1,50,0|8,0:0|0:0,0:0:0:0:
162,56,142765,2,0,L|280:66,1,100,0|0,3:0|0:0,0:0:0:0:
292,104,143365,5,6,3:1:0:0:
292,104,143565,2,0,L|291:162,1,50,6|0,3:1|0:0,0:0:0:0:
320,194,143965,1,0,3:0:0:0:
320,194,144165,2,0,P|391:192|422:209,1,100,8|0,0:0|0:0,0:0:0:0:
437,249,144765,2,0,L|429:353,1,100,0|0,3:0|3:0,0:0:0:0:
329,356,145565,1,0,3:0:0:0:
293,320,145765,2,0,L|227:307,2,50,8|0|0,0:0|3:0|0:0,0:0:0:0:
324,281,146365,6,0,P|338:244|320:189,1,100,0|0,3:0|3:0,0:0:0:0:
239,129,147165,1,0,3:0:0:0:
239,129,147365,2,0,L|176:143,1,50,8|0,0:0|3:0,0:0:0:0:
103,190,147965,2,0,P|52:168|39:111,1,100,0|0,3:0|3:0,0:0:0:0:
97,49,148765,1,0,3:0:0:0:
143,30,148965,2,0,L|206:37,1,50,8|0,0:0|3:0,0:0:0:0:
228,70,149365,1,0,0:0:0:0:
274,88,149565,6,0,L|391:76,1,100,0|6,3:0|3:1,0:0:0:0:
471,57,150365,2,0,P|486:88|470:157,1,100,0|0,3:0|3:0,0:0:0:0:
402,220,151165,1,0,3:0:0:0:
402,220,151365,2,0,L|343:218,1,50,0|0,3:0|3:0,0:0:0:0:
262,261,151965,2,0,P|206:264|170:298,1,100,0|0,3:0|0:0,0:0:0:0:
174,341,152565,1,2,3:2:0:0:
256,192,152965,12,0,159365,0:0:0:0:
