osu file format v14

[General]
AudioFilename: audio.mp3
AudioLeadIn: 0
PreviewTime: 60484
Countdown: 0
SampleSet: Soft
StackLeniency: 0.7
Mode: 0
LetterboxInBreaks: 0
WidescreenStoryboard: 0

[Editor]
Bookmarks: 9104,28584,88779
DistanceSpacing: 0.9
BeatDivisor: 4
GridSize: 32
TimelineZoom: 1.1

[Metadata]
Title:The Other Side of the Wall (TV Size)
TitleUnicode:The Other Side of the Wall (TV Size)
Artist:Void_Chords feat.MARU
ArtistUnicode:Void_Chords feat.MARU
Creator:DreaM117er
Version:Normal
Source:プリンセス・プリンシパル
Tags:Princess Principal 2017 summer season anime TV size OP opening fanzhen0019 m1223961117
BeatmapID:1411504
BeatmapSetID:667020

[Difficulty]
HPDrainRate:4
CircleSize:3
OverallDifficulty:3.5
ApproachRate:5
SliderMultiplier:1.1
SliderTickRate:1

[Events]
//Background and Video events
0,0,"BG.png",0,0
Video,0,"VDO.flv"
//Break Periods
//Storyboard Layer 0 (Background)
//Storyboard Layer 1 (Fail)
//Storyboard Layer 2 (Pass)
//Storyboard Layer 3 (Foreground)
//Storyboard Sound Samples

[TimingPoints]
533,389.61038961039,4,2,1,70,1,0
9883,-100,4,2,1,70,0,1
9981,-100,4,2,1,70,0,0
22156,-100,4,2,1,30,0,0
22351,-111.111111111111,4,2,1,40,0,0
34818,-100,4,2,1,50,0,0
47286,-111.111111111111,4,2,1,40,0,0
53520,-111.111111111111,4,2,1,50,0,0
56636,-111.111111111111,4,2,1,60,0,0
60533,-111.111111111111,4,2,1,30,0,0
61312,-100,4,2,1,70,0,1
67351,-100,4,2,1,70,0,0
67545,-100,4,2,1,70,0,1
79818,-100,4,2,1,70,0,0
80013,-100,4,2,1,70,0,1
86247,-100,4,2,1,60,0,0
88195,-100,4,2,1,40,0,0
88584,-100,4,2,1,60,0,0

[Colours]
Combo1 : 243,235,124
Combo2 : 192,142,39
Combo3 : 251,241,174
Combo4 : 177,115,88

[HitObjects]
43,287,9883,6,0,P|73:316|146:302,1,110,4|0,0:1|1:0,0:0:0:0:
192,227,10662,2,0,L|122:208,2,55,0|0|0,3:0|3:0|1:0,0:0:0:0:
238,244,11247,2,0,L|217:123,1,110,0|0,3:0|3:0,0:0:0:0:
209,86,11831,1,0,1:0:0:0:
306,68,12221,2,0,L|294:14,2,55,0|0|0,3:0|3:0|1:0,0:0:0:0:
316,116,12805,1,0,0:0:0:0:
316,116,13000,6,0,P|357:82|410:93,1,110,0|0,3:0|1:0,0:0:0:0:
463,176,13779,2,0,L|400:189,2,55,0|0|0,3:0|3:0|1:0,0:0:0:0:
512,167,14364,2,0,L|491:291,1,110,0|0,3:0|3:0,0:0:0:0:
485,324,14948,2,0,B|461:312|433:306|433:306|397:321|368:341,1,110,0|0,1:0|3:0,0:0:0:0:
346,363,15533,1,2,0:0:0:0:
346,363,15727,2,0,L|283:350,1,55,0|2,1:0|0:0,0:0:0:0:
243,342,16117,5,4,0:1:0:0:
147,369,16507,2,0,P|145:313|186:260,1,110,0|0,1:0|3:0,0:0:0:0:
218,249,17091,2,0,L|206:182,1,55,0|0,3:0|1:0,0:0:0:0:
198,145,17481,2,0,P|143:150|101:114,1,110,0|0,3:0|3:0,0:0:0:0:
85,70,18065,1,0,1:0:0:0:
165,12,18455,2,0,L|241:23,1,55,0|0,3:0|0:0,0:0:0:0:
262,44,18844,2,0,L|338:55,1,55,0|0,1:0|0:0,0:0:0:0:
359,77,19234,6,0,P|409:44|461:53,2,110,0|0|0,3:0|1:0|3:0,0:0:0:0:
331,119,20208,2,0,L|346:198,1,55,0|0,3:0|1:0,0:0:0:0:
332,221,20597,2,0,L|450:244,1,110,0|0,3:0|3:0,0:0:0:0:
488,254,21182,1,0,1:0:0:0:
470,351,21571,1,0,3:0:0:0:
470,351,21766,2,0,L|342:328,1,110,0|0,1:0|3:0,0:0:0:0:
313,321,22351,6,0,L|323:381,2,49.4999984893799,4|0|0,0:1|0:0|0:0,0:0:0:0:
207,177,23520,1,0,0:0:0:0:
207,177,23714,2,0,L|189:302,1,98.9999969787599,2|0,0:0|0:0,0:0:0:0:
186,319,24299,1,2,0:0:0:0:
3,123,25468,6,0,L|77:106,1,49.4999984893799,2|2,0:0|0:0,0:0:0:0:
263,45,26636,1,0,0:0:0:0:
263,45,26831,2,0,L|142:25,1,98.9999969787599,2|0,0:0|0:0,0:0:0:0:
121,19,27416,1,2,0:0:0:0:
47,275,28584,6,0,L|-1:286,2,49.4999984893799,2|0|2,0:0|0:0|0:0,0:0:0:0:
134,257,29364,2,0,L|122:341,1,49.4999984893799,0|2,0:0|0:0,0:0:0:0:
211,334,29948,2,0,L|226:228,1,98.9999969787599,2|0,0:0|0:0,0:0:0:0:
253,201,30533,1,2,0:0:0:0:
253,201,30727,2,0,P|241:149|233:82,1,98.9999969787599,0|2,0:0|0:0,0:0:0:0:
244,60,31312,1,2,0:0:0:0:
323,19,31701,5,0,0:0:0:0:
323,19,31896,2,0,B|365:50|411:65|411:65|485:48,1,148.49999546814,2|2,0:0|0:0,0:0:0:0:
503,130,32870,1,0,0:0:0:0:
503,130,33065,2,0,L|396:156,1,98.9999969787599,2|0,0:0|0:0,0:0:0:0:
380,189,33649,2,0,L|320:181,1,49.4999984893799,2|0,0:0|0:0,0:0:0:0:
250,220,34234,1,0,3:0:0:0:
250,220,34429,2,0,L|234:156,1,49.4999984893799,2|0,0:0|1:0,0:0:0:0:
194,147,34818,6,0,P|223:105|218:39,1,110,4|0,0:0|3:0,0:0:0:0:
127,18,35597,1,0,3:0:0:0:
127,18,35792,2,0,P|98:60|103:126,1,110,2|0,0:0|0:0,0:0:0:0:
127,158,36377,2,0,L|73:168,2,55,0|2|0,3:0|0:0|3:0,0:0:0:0:
170,181,36961,2,0,P|223:185|269:157,1,110,2|2,0:0|0:0,0:0:0:0:
294,114,37545,1,0,3:0:0:0:
323,19,37935,5,0,3:0:0:0:
323,19,38130,2,0,L|268:8,2,55,2|0|2,0:0|3:0|0:0,0:0:0:0:
359,52,38714,2,0,B|382:35|411:26|411:26|441:31|477:47,1,110,0|0,3:0|3:0,0:0:0:0:
498,72,39299,2,0,L|478:203,1,110,2|2,0:0|0:0,0:0:0:0:
473,229,39883,1,0,3:0:0:0:
511,317,40273,2,0,P|444:323|398:289,1,110,0|0,3:0|3:0,0:0:0:0:
377,264,40857,1,0,1:0:0:0:
377,264,41052,6,0,P|328:287|275:278,1,110,2|0,3:2|3:0,0:0:0:0:
236,247,41636,1,2,0:0:0:0:
148,292,42026,2,0,L|135:372,2,55,0|0|0,0:0|3:0|0:0,0:0:0:0:
118,252,42610,1,0,3:0:0:0:
118,252,42805,2,0,P|110:197|98:129,1,110,2|0,0:0|0:0,0:0:0:0:
88,95,43390,1,2,3:2:0:0:
149,17,43779,1,0,3:0:0:0:
242,48,44169,5,0,3:0:0:0:
242,48,44364,2,0,P|250:103|262:171,1,110,2|0,0:0|0:0,0:0:0:0:
271,204,44948,1,2,3:2:0:0:
310,294,45338,1,0,3:0:0:0:
310,294,45533,1,4,1:2:0:0:
401,331,45922,1,0,3:0:0:0:
401,331,46117,1,4,1:2:0:0:
496,305,46507,2,0,L|484:238,1,55,0|0,1:0|1:0,0:0:0:0:
446,221,46896,2,0,L|455:166,1,55,0|0,1:0|1:0,0:0:0:0:
467,118,47286,6,0,P|411:131|356:145,2,98.9999969787599,2|0|2,0:0|0:0|0:0,0:0:0:0:
509,105,48260,1,2,0:0:0:0:
488,18,48649,2,0,P|439:30|391:41,1,98.9999969787599,2|0,0:0|0:0,0:0:0:0:
309,76,49429,2,0,L|247:65,1,49.4999984893799,2|2,0:0|0:0,0:0:0:0:
224,93,49818,2,0,P|181:69|132:72,1,98.9999969787599
94,95,50403,6,0,L|105:143,1,49.4999984893799,2|2,0:0|0:0,0:0:0:0:
183,185,50987,1,0,0:0:0:0:
183,185,51182,2,0,L|173:233,1,49.4999984893799,2|2,0:0|0:0,0:0:0:0:
178,322,51766,1,0,0:0:0:0:
178,322,51961,2,0,P|126:310|70:298,1,98.9999969787599,2|0,0:0|0:0,0:0:0:0:
76,211,52740,2,0,P|128:223|184:235,1,98.9999969787599,2|0,0:0|0:0,0:0:0:0:
253,269,53520,5,0,3:0:0:0:
324,215,53909,1,0,3:0:0:0:
412,208,54299,1,2,3:2:0:0:
492,246,54688,2,0,L|481:306,1,49.4999984893799,0|2,3:0|0:0,0:0:0:0:
475,338,55078,5,0,3:0:0:0:
387,357,55468,1,0,3:0:0:0:
314,304,55857,1,2,3:2:0:0:
324,215,56247,2,0,L|331:154,1,49.4999984893799,0|2,3:0|0:0,0:0:0:0:
338,122,56636,6,0,B|281:143|239:123|204:79|132:114,1,197.99999395752,4|0,0:0|0:0,0:0:0:0:
101,114,57610,2,0,L|114:185,1,49.4999984893799,0|0,1:0|1:0,0:0:0:0:
120,206,58000,1,4,1:0:0:0:
256,192,58195,12,0,60533,0:0:0:0:
86,231,61312,6,0,L|106:339,2,110,4|0|0,0:0|1:0|3:0,0:0:0:0:
49,197,62286,2,0,L|63:127,1,55,0|0,0:0|1:0,0:0:0:0:
51,94,62675,2,0,P|92:63|155:76,1,110,2|2,0:0|0:0,0:0:0:0:
184,103,63260,1,2,1:2:0:0:
279,76,63649,2,0,L|292:20,2,55,0|0|0,3:0|0:0|1:0,0:0:0:0:
270,125,64234,6,0,L|384:108,1,110,2|0,0:0|0:0,0:0:0:0:
427,102,64818,1,2,1:2:0:0:
491,177,65208,2,0,L|478:256,1,55,2|2,3:2|0:0,0:0:0:0:
512,325,65792,2,0,P|461:332|408:299,1,110,2|2,0:0|0:0,0:0:0:0:
384,262,66377,2,0,L|314:279,1,55,2|0,1:2|0:0,0:0:0:0:
284,256,66766,2,0,L|271:328,2,55,0|0|0,3:0|0:0|1:0,0:0:0:0:
251,218,67351,1,0,0:0:0:0:
251,218,67545,6,0,P|242:163|230:97,1,110,4|0,0:0|1:0,0:0:0:0:
156,45,68325,1,0,3:0:0:0:
156,45,68520,2,0,L|91:35,1,55,0|0,0:0|1:0,0:0:0:0:
67,72,68909,2,0,P|75:126|88:193,1,110,2|2,0:0|0:0,0:0:0:0:
95,229,69494,1,0,1:0:0:0:
114,325,69883,2,0,L|54:338,2,55,0|0|0,3:0|0:0|1:0,0:0:0:0:
160,307,70468,6,0,P|191:334|276:323,1,110,2|0,0:0|0:0,0:0:0:0:
300,311,71052,1,2,1:2:0:0:
356,229,71442,2,0,L|343:158,1,55,2|2,3:2|0:0,0:0:0:0:
370,78,72026,2,0,P|312:67|242:48,1,110,2|2,0:0|0:0,0:0:0:0:
216,37,72610,2,0,L|230:105,1,55,2|0,1:2|0:0,0:0:0:0:
190,124,73000,2,0,L|180:192,1,55,0|0,1:0|0:0,0:0:0:0:
213,217,73390,2,0,L|226:293,1,55,0|0,1:0|1:0,0:0:0:0:
199,315,73779,5,4,0:0:0:0:
104,345,74169,2,0,P|98:294|148:232,1,110,0|0,1:0|3:0,0:0:0:0:
158,206,74753,2,0,L|227:219,1,55,0|0,0:0|1:0,0:0:0:0:
256,194,75143,2,0,P|314:187|361:225,1,110,2|2,0:0|0:0,0:0:0:0:
383,255,75727,1,0,1:0:0:0:
383,255,75922,2,0,L|399:141,1,110,2|2,0:0|0:0,0:0:0:0:
342,63,76701,5,2,0:0:0:0:
251,100,77091,1,2,0:0:0:0:
251,100,77286,2,0,P|183:86|131:74,1,110,2|0,1:2|3:0,0:0:0:0:
108,41,77870,2,0,L|51:55,1,55,0|0,0:0|1:0,0:0:0:0:
4,58,78260,2,0,P|20:119|34:185,1,110,2|2,0:0|0:0,0:0:0:0:
39,213,78844,1,2,1:2:0:0:
14,310,79234,2,0,L|81:329,1,55,0|0,3:0|0:0,0:0:0:0:
88,369,79623,2,0,L|150:355,1,55,0|0,1:0|1:0,0:0:0:0:
191,362,80013,6,0,P|175:301|161:235,1,110,4|0,0:0|1:0,0:0:0:0:
89,191,80792,1,0,3:0:0:0:
89,191,80987,2,0,L|103:118,1,55,0|0,0:0|1:0,0:0:0:0:
79,91,81377,2,0,L|187:70,1,110,2|2,0:0|0:0,0:0:0:0:
235,62,81960,1,0,1:0:0:0:
282,149,82351,2,0,L|212:163,2,55,0|0|0,3:0|0:0|1:0,0:0:0:0:
328,165,82935,6,0,P|296:231|312:281,1,110,2|0,0:0|0:0,0:0:0:0:
320,310,83520,1,2,1:2:0:0:
405,358,83909,2,0,P|413:330|417:282,1,55,2|2,3:2|0:0,0:0:0:0:
503,256,84494,2,0,P|492:200|482:126,1,110,2|2,0:0|0:0,0:0:0:0:
481,98,85078,1,2,1:2:0:0:
388,63,85468,2,0,P|382:33|372:-8,2,55,0|0|0,3:0|0:0|1:0,0:0:0:0:
365,159,86247,6,0,P|319:190|255:178,1,110,4|0,0:1|0:0,0:0:0:0:
241,142,86831,2,0,P|202:116|132:126,1,110,2|2,0:0|0:0,0:0:0:0:
57,173,87610,2,0,P|67:228|78:303,1,110,0|0,1:0|0:0,0:0:0:0:
60,328,88195,2,0,L|132:345,1,55,0|0,1:0|1:0,0:0:0:0:
154,369,88584,2,0,L|230:356,1,55,0|4,1:0|1:2,0:0:0:0:
