osu file format v14

[General]
AudioFilename: audio.mp3
AudioLeadIn: 0
PreviewTime: 60484
Countdown: 0
SampleSet: Soft
StackLeniency: 0.7
Mode: 0
LetterboxInBreaks: 0
WidescreenStoryboard: 0

[Editor]
Bookmarks: 9104,28584,38714,88779
DistanceSpacing: 1.5
BeatDivisor: 4
GridSize: 32
TimelineZoom: 1.1

[Metadata]
Title:The Other Side of the Wall (TV Size)
TitleUnicode:The Other Side of the Wall (TV Size)
Artist:Void_Chords feat.MARU
ArtistUnicode:Void_Chords feat.MARU
Creator:DreaM117er
Version:Hard
Source:プリンセス・プリンシパル
Tags:Princess Principal 2017 summer season anime TV size OP opening fanzhen0019 m1223961117
BeatmapID:1411503
BeatmapSetID:667020

[Difficulty]
HPDrainRate:5
CircleSize:4
OverallDifficulty:6
ApproachRate:7.7
SliderMultiplier:1.5
SliderTickRate:1

[Events]
//Background and Video events
0,0,"BG.png",0,0
Video,0,"VDO.flv"
//Break Periods
//Storyboard Layer 0 (Background)
//Storyboard Layer 1 (Fail)
//Storyboard Layer 2 (Pass)
//Storyboard Layer 3 (Foreground)
//Storyboard Sound Samples

[TimingPoints]
533,389.61038961039,4,2,1,70,1,0
9883,-100,4,2,1,70,0,1
9981,-100,4,2,1,30,0,0
10273,-100,4,2,1,70,0,0
13195,-100,4,2,1,30,0,0
13390,-100,4,2,1,70,0,0
16312,-100,4,2,1,30,0,0
16507,-100,4,2,1,70,0,0
19429,-100,4,2,1,30,0,0
19623,-100,4,2,1,70,0,0
22351,-133.333333333333,4,2,1,40,0,0
34818,-111.111111111111,4,2,1,50,0,0
47286,-133.333333333333,4,2,1,40,0,0
53520,-111.111111111111,4,2,1,50,0,0
56636,-166.666666666667,4,2,1,60,0,0
60533,-111.111111111111,4,2,1,30,0,0
60922,-111.111111111111,4,2,1,60,0,0
61312,-100,4,2,1,70,0,1
61507,-100,4,2,1,30,0,1
61701,-100,4,2,1,70,0,1
67351,-100,4,2,1,70,0,0
67545,-100,4,2,1,70,0,1
67740,-100,4,2,1,30,0,1
67935,-100,4,2,1,70,0,1
73974,-100,4,2,1,30,0,1
74169,-100,4,2,1,70,0,1
79818,-100,4,2,1,70,0,0
80013,-100,4,2,1,70,0,1
80208,-100,4,2,1,30,0,1
80403,-100,4,2,1,70,0,1
86247,-100,4,2,1,60,0,0
88195,-100,4,2,1,40,0,0
88584,-100,4,2,1,60,0,0

[Colours]
Combo1 : 243,235,124
Combo2 : 192,142,39
Combo3 : 251,241,174
Combo4 : 177,115,88

[HitObjects]
414,153,9883,6,0,P|451:144|488:138,1,75,4|0,0:1|0:0,0:0:0:0:
492,55,10273,2,0,P|433:66|373:81,1,112.5,0|0,1:0|1:0,0:0:0:0:
354,89,10662,1,0,3:0:0:0:
280,127,10857,1,0,3:0:0:0:
246,51,11052,1,0,1:0:0:0:
280,127,11247,6,0,B|297:176|311:226|311:226|294:283,1,150,0|0,3:0|3:0,0:0:0:0:
322,349,11831,2,0,P|270:353|221:308,1,112.5,0|0,1:0|3:0,0:0:0:0:
212,289,12221,2,0,P|176:303|124:306,1,75,0|0,3:0|3:0,0:0:0:0:
67,267,12610,1,0,1:0:0:0:
29,340,12805,1,0,0:0:0:0:
67,267,13000,6,0,P|66:228|47:178,1,75,0|0,3:0|0:0,0:0:0:0:
10,124,13390,2,0,P|0:67|50:22,1,112.5,0|0,1:0|1:0,0:0:0:0:
60,16,13779,2,0,P|97:23|141:32,1,75,0|0,3:0|3:0,0:0:0:0:
181,98,14169,1,0,1:0:0:0:
252,58,14364,6,0,P|325:54|378:105,1,150,0|0,3:0|3:0,0:0:0:0:
397,184,14948,2,0,P|360:191|316:200,1,75,0|0,1:0|0:0,0:0:0:0:
246,229,15338,2,0,L|229:285,3,37.5,0|0|2|0,3:0|0:0|0:0|0:0,0:0:0:0:
209,281,15727,2,0,L|216:317,3,37.5,2|2|2|2,1:2|0:0|0:0|0:0,0:0:0:0:
210,347,16117,6,0,P|244:364|285:367,1,75,4|0,0:1|0:0,0:0:0:0:
343,313,16507,2,0,P|385:291|464:301,1,112.5,0|0,1:0|1:0,0:0:0:0:
474,308,16896,2,0,P|479:269|489:223,1,75,0|0,3:0|3:0,0:0:0:0:
510,154,17286,1,0,1:0:0:0:
429,174,17481,6,0,P|359:170|307:99,1,150,0|0,3:0|3:0,0:0:0:0:
328,31,18065,1,0,1:0:0:0:
328,31,18260,1,0,0:0:0:0:
249,55,18455,2,0,P|207:48|172:40,2,75,0|0|0,3:0|0:0|1:0,0:0:0:0:
309,112,19039,1,0,0:0:0:0:
273,186,19234,6,0,P|262:226|256:280,1,75,0|0,3:0|0:0,0:0:0:0:
285,336,19623,2,0,P|248:303|178:304,1,112.5,0|0,1:0|1:0,0:0:0:0:
161,316,20013,2,0,P|155:274|145:223,2,75,0|0|0,3:0|3:0|1:0,0:0:0:0:
87,354,20597,6,0,P|75:279|63:205,1,150,0|0,3:0|3:0,0:0:0:0:
125,151,21182,2,0,P|134:108|140:69,1,75,0|0,1:0|0:0,0:0:0:0:
213,41,21571,1,0,3:0:0:0:
242,128,21766,1,0,1:0:0:0:
242,128,21864,1,0,1:0:0:0:
242,128,21961,2,0,L|234:181,2,37.5,0|0|0,1:0|1:0|1:0,0:0:0:0:
322,101,22351,6,0,P|316:72|306:23,1,56.2500021457673,4|0,0:1|0:0,0:0:0:0:
311,45,22740,1,0,0:0:0:0:
197,246,23520,5,0,0:0:0:0:
197,246,23714,2,0,P|185:301|174:356,1,112.500004291535,2|0,0:0|0:0,0:0:0:0:
174,356,24299,1,2,0:0:0:0:
494,210,25468,5,2,0:0:0:0:
494,210,25662,1,2,0:0:0:0:
21,314,26636,5,0,0:0:0:0:
21,314,26831,2,0,P|80:301|144:286,1,112.500004291535,2|0,0:0|0:0,0:0:0:0:
130,289,27416,1,2,0:0:0:0:
337,94,28584,6,0,P|346:67|349:39,1,56.2500021457673,2|0,0:0|0:0,0:0:0:0:
270,7,28974,1,2,0:0:0:0:
270,7,29364,1,0,0:0:0:0:
209,65,29558,2,0,P|200:91|197:119,1,56.2500021457673,2|0,0:0|0:0,0:0:0:0:
248,187,29948,6,0,P|276:234|273:289,1,112.500004291535,2|0,0:0|0:0,0:0:0:0:
226,361,30533,1,2,0:0:0:0:
143,349,30727,2,0,P|150:292|159:212,1,112.500004291535,0|2,0:0|0:0,0:0:0:0:
104,170,31312,2,0,P|137:156|174:157,1,56.2500021457673,2|0,0:0|0:0,0:0:0:0:
232,193,31701,5,0,0:0:0:0:
232,193,31896,2,0,P|279:226|351:208,1,112.500004291535,2|0,0:0|0:0,0:0:0:0:
409,186,32481,1,2,0:0:0:0:
409,186,32870,1,0,0:0:0:0:
445,109,33065,6,0,P|389:98|321:88,1,112.500004291535,2|0,0:0|0:0,0:0:0:0:
252,113,33649,2,0,B|221:121|197:124|197:124|164:106|141:81,1,112.500004291535,2|0,0:0|0:0,0:0:0:0:
94,28,34234,1,0,3:0:0:0:
21,70,34429,2,0,P|26:102|31:139,1,56.2500021457673,2|0,0:0|1:0,0:0:0:0:
25,153,34721,1,0,1:0:0:0:
20,182,34818,6,0,P|25:222|34:272,1,67.4999979400635,4|0,0:0|0:0,0:0:0:0:
0,328,35208,2,0,P|67:327|112:273,1,134.999995880127,0|0,3:0|3:0,0:0:0:0:
185,240,35792,2,0,P|222:257|262:258,2,67.4999979400635,2|0|0,0:0|0:0|0:0,0:0:0:0:
111,197,36377,6,0,L|121:124,1,67.4999979400635,0|2,3:0|0:0,0:0:0:0:
203,106,36766,1,0,3:0:0:0:
203,106,36961,2,0,L|180:269,1,134.999995880127,2|2,0:0|0:0,0:0:0:0:
204,321,37545,1,0,3:0:0:0:
285,298,37740,1,0,0:0:0:0:
285,298,37838,1,0,0:0:0:0:
285,298,37935,6,0,P|320:301|361:320,1,67.4999979400635,0|2,3:0|0:0,0:0:0:0:
410,372,38325,1,0,3:0:0:0:
484,332,38520,1,2,0:0:0:0:
410,372,38714,2,0,L|391:238,1,134.999995880127,0|0,3:0|3:0,0:0:0:0:
338,171,39299,2,0,L|290:161,2,33.7499989700318,2|0|0,0:0|0:0|0:0,0:0:0:0:
421,158,39688,5,2,0:0:0:0:
473,92,39883,2,0,P|437:75|397:77,1,67.4999979400635,0|0,3:0|0:0,0:0:0:0:
325,61,40273,2,0,P|270:100|205:93,1,134.999995880127,0|0,3:0|3:0,0:0:0:0:
158,23,40857,1,0,1:0:0:0:
158,23,40955,1,0,0:0:0:0:
158,23,41052,6,0,L|73:42,1,67.4999979400635,2|0,3:2|0:0,0:0:0:0:
73,121,41442,1,0,3:0:0:0:
73,121,41636,2,0,L|204:91,1,134.999995880127,2|0,0:0|0:0,0:0:0:0:
267,148,42221,2,0,P|283:185|278:228,1,67.4999979400635,0|0,3:0|0:0,0:0:0:0:
248,288,42610,5,0,3:0:0:0:
303,351,42805,2,0,L|378:364,1,67.4999979400635,2|0,0:0|0:0,0:0:0:0:
449,335,43195,1,0,0:0:0:0:
486,259,43390,2,0,P|435:221|359:230,1,134.999995880127,2|0,3:2|3:0,0:0:0:0:
290,262,43974,1,0,0:0:0:0:
290,262,44071,1,0,0:0:0:0:
290,262,44169,5,0,3:0:0:0:
226,206,44364,2,0,P|212:176|220:126,1,67.4999979400635,2|0,0:0|0:0,0:0:0:0:
252,67,44753,1,0,0:0:0:0:
180,22,44948,2,0,L|106:10,1,67.4999979400635,2|0,3:2|0:0,0:0:0:0:
36,47,45338,5,0,3:0:0:0:
2,124,45533,2,0,L|17:208,1,67.4999979400635,4|0,1:2|0:0,0:0:0:0:
31,273,45922,1,0,3:0:0:0:
112,251,46117,2,0,L|123:184,1,67.4999979400635,4|0,1:2|0:0,0:0:0:0:
114,100,46507,2,0,L|152:89,3,33.7499989700318,0|0|0|0,1:0|1:0|1:0|1:0,0:0:0:0:
164,66,46896,2,0,L|206:74,3,33.7499989700318,0|0|0|0,1:0|1:0|1:0|1:0,0:0:0:0:
227,80,47286,5,2,0:0:0:0:
303,45,47481,2,0,P|310:97|273:149,1,112.500004291535,2|0,0:0|0:0,0:0:0:0:
211,196,48065,1,2,0:0:0:0:
257,266,48260,2,0,P|312:253|386:241,1,112.500004291535,2|2,0:0|0:0,0:0:0:0:
443,279,48844,6,0,P|458:312|456:346,1,56.2500021457673
434,164,49429,1,2,0:0:0:0:
511,131,49623,1,2,0:0:0:0:
504,215,49818,2,0,P|449:202|375:190,1,112.500004291535,0|0,0:0|0:0,0:0:0:0:
312,217,50403,6,0,P|297:250|299:284,1,56.2500021457673,2|2,0:0|0:0,0:0:0:0:
321,102,50987,1,0,0:0:0:0:
244,69,51182,1,2,0:0:0:0:
251,153,51377,2,0,P|306:140|380:128,1,112.500004291535,2|0,0:0|0:0,0:0:0:0:
437,166,51961,5,2,0:0:0:0:
434,182,52351,5,0,0:0:0:0:
431,198,52740,5,2,0:0:0:0:
428,214,53130,5,0,0:0:0:0:
413,297,53325,1,0,0:0:0:0:
413,297,53422,1,0,0:0:0:0:
413,297,53520,5,0,3:0:0:0:
336,262,53909,1,0,3:0:0:0:
251,270,54299,1,2,3:2:0:0:
183,320,54688,2,0,L|113:308,1,67.4999979400635,0|2,3:0|0:0,0:0:0:0:
32,294,55078,5,0,3:0:0:0:
118,199,55468,1,0,3:0:0:0:
233,253,55857,1,2,3:2:0:0:
147,348,56247,2,0,L|131:268,1,67.4999979400635,0|2,3:0|0:0,0:0:0:0:
118,199,56636,6,0,B|85:166|85:166|179:178|179:178|224:157,1,179.999994506836,4|0,0:0|0:0,0:0:0:0:
292,123,57610,1,0,1:0:0:0:
290,37,57805,1,0,1:0:0:0:
215,79,58000,1,4,1:0:0:0:
256,192,58097,12,0,60533,1:0:0:0:
297,305,60922,5,0,1:0:0:0:
222,347,61117,1,0,1:0:0:0:
222,347,61214,1,0,1:0:0:0:
222,347,61312,6,0,L|143:336,1,75,4|0,0:0|0:0,0:0:0:0:
66,374,61701,2,0,P|63:304|101:262,1,112.5,0|0,1:0|3:0,0:0:0:0:
111,254,62091,2,0,P|104:217|95:170,1,75,0|0,3:0|0:0,0:0:0:0:
76,92,62481,1,0,1:0:0:0:
161,120,62675,6,0,P|221:126|290:47,1,150,2|2,0:0|0:0,0:0:0:0:
199,38,63260,2,0,P|209:94|220:151,1,112.5,0|0,1:0|3:0,0:0:0:0:
225,177,63649,1,0,3:0:0:0:
193,261,63844,1,0,0:0:0:0:
253,327,64039,1,0,1:0:0:0:
336,293,64234,6,0,P|373:284|422:276,1,75,2|0,0:0|3:0,0:0:0:0:
498,291,64623,1,2,0:0:0:0:
508,201,64818,2,0,P|445:191|383:178,1,112.5,2|0,0:0|1:0,0:0:0:0:
367,175,65208,2,0,P|381:229|376:257,1,75,2|2,3:2|0:0,0:0:0:0:
328,322,65597,1,0,1:0:0:0:
248,279,65792,6,0,B|236:238|236:238|246:195|261:133,1,150,2|2,0:0|0:0,0:0:0:0:
284,45,66377,2,0,P|225:57|201:62,1,75,2|0,1:2|0:0,0:0:0:0:
135,109,66766,1,0,3:0:0:0:
80,37,66961,1,0,1:2:0:0:
80,37,67058,1,0,1:0:0:0:
80,37,67156,2,0,L|24:28,3,37.5,0|0|0|0,1:0|1:0|1:2|1:0,0:0:0:0:
13,24,67545,6,0,P|27:65|25:106,1,75,4|0,0:0|0:0,0:0:0:0:
53,182,67935,2,0,P|19:232|31:293,1,112.5,0|0,1:0|1:0,0:0:0:0:
37,308,68325,2,0,P|73:300|110:292,1,75,0|0,3:0|0:0,0:0:0:0:
195,322,68714,1,0,1:0:0:0:
195,322,68909,6,0,P|206:248|217:174,1,150,2|2,0:0|0:0,0:0:0:0:
235,84,69494,1,0,1:0:0:0:
168,25,69688,1,2,0:0:0:0:
168,25,69786,1,2,0:0:0:0:
168,25,69883,1,0,3:0:0:0:
150,114,70078,1,2,0:0:0:0:
217,173,70273,1,0,1:0:0:0:
303,148,70468,6,0,P|337:134|396:139,1,75,2|0,0:0|3:0,0:0:0:0:
446,188,70857,1,2,0:0:0:0:
446,188,71052,2,0,L|426:326,1,112.5,2|0,1:2|1:0,0:0:0:0:
426,329,71442,2,0,P|390:323|342:313,1,75,2|2,3:2|0:0,0:0:0:0:
285,254,71831,1,0,1:0:0:0:
235,329,72026,6,0,P|176:368|95:352,1,150,2|2,0:0|0:0,0:0:0:0:
29,301,72610,2,0,P|35:261|41:212,1,75,0|0,1:0|0:0,0:0:0:0:
100,159,73000,1,0,3:0:0:0:
69,74,73195,1,0,1:0:0:0:
69,74,73292,1,0,1:0:0:0:
69,74,73390,2,0,L|60:21,3,37.5,0|0|0|0,1:0|1:0|1:0|1:0,0:0:0:0:
58,7,73779,6,0,P|115:17|145:22,1,75,4|0,0:0|0:0,0:0:0:0:
208,67,74169,2,0,B|261:52|289:47|289:47|347:61,1,112.5,0|0,1:0|1:0,0:0:0:0:
344,65,74558,1,0,3:0:0:0:
425,103,74753,1,0,0:0:0:0:
502,57,74948,1,0,1:0:0:0:
425,103,75143,6,0,P|384:166|404:256,1,150,2|2,0:0|0:0,0:0:0:0:
457,299,75727,2,0,P|384:283|293:268,1,150,0|0,1:0|3:2,0:0:0:0:
222,294,76312,1,2,0:0:0:0:
287,355,76507,1,0,1:0:0:0:
309,270,76701,6,0,P|304:236|294:180,1,75,2|0,0:0|3:0,0:0:0:0:
282,106,77091,1,2,0:0:0:0:
308,19,77286,2,0,P|254:19|201:62,1,112.5,2|0,1:2|1:0,0:0:0:0:
196,79,77675,2,0,P|154:64|111:69,1,75,0|0,3:0|0:0,0:0:0:0:
40,100,78065,1,0,1:0:0:0:
40,100,78260,6,0,B|49:158|57:197|57:197|40:267,1,150,2|2,0:0|0:0,0:0:0:0:
22,334,78844,2,0,P|59:334|93:320,1,75,0|0,1:0|0:0,0:0:0:0:
164,263,79234,1,0,3:0:0:0:
252,246,79429,1,0,1:0:0:0:
338,267,79623,2,0,L|328:323,3,37.5,0|0|0|0,1:2|1:2|1:2|1:2,0:0:0:0:
333,333,80013,6,0,P|367:346|404:346,1,75,4|0,0:0|0:0,0:0:0:0:
493,327,80403,2,0,L|474:189,1,112.5,0|0,1:0|1:0,0:0:0:0:
453,198,80792,2,0,P|458:160|464:117,1,75,0|0,3:0|0:0,0:0:0:0:
476,34,81182,2,0,P|429:40|391:70,1,75,0|0,1:0|0:0,0:0:0:0:
343,118,81571,6,0,P|296:113|269:99,1,75,0|0,3:0|0:0,0:0:0:0:
203,40,81961,1,0,1:0:0:0:
122,79,82156,1,2,0:0:0:0:
122,79,82253,1,2,0:0:0:0:
122,78,82351,2,0,P|129:119|135:152,2,75,0|2|0,3:0|0:0|1:0,0:0:0:0:
34,59,82935,6,0,P|48:132|63:218,1,150,2|2,0:0|0:0,0:0:0:0:
32,292,83520,2,0,P|87:292|132:261,1,112.5,0|0,1:0|1:0,0:0:0:0:
150,237,83909,2,0,P|183:253|233:251,1,75,0|2,3:0|0:0,0:0:0:0:
292,200,84299,1,0,1:0:0:0:
292,200,84494,6,0,B|346:185|389:177|389:177|459:200,1,150,2|2,0:0|0:0,0:0:0:0:
498,257,85078,1,0,1:0:0:0:
474,344,85273,1,2,0:0:0:0:
474,344,85370,1,2,0:0:0:0:
474,344,85468,2,0,P|438:360|397:353,1,75,0|0,3:0|0:0,0:0:0:0:
320,323,85857,1,0,1:0:0:0:
320,323,86052,1,0,1:2:0:0:
237,360,86247,6,0,P|196:327|100:331,1,150,4|0,0:1|0:0,0:0:0:0:
26,280,86831,1,2,0:0:0:0:
192,211,87221,1,2,0:0:0:0:
26,280,87610,6,0,B|38:205|42:178|42:178|21:110,1,150,0|0,1:0|0:0,0:0:0:0:
73,54,88195,1,0,1:0:0:0:
73,54,88390,1,0,1:0:0:0:
154,91,88584,2,0,P|145:137|138:182,1,75,0|4,1:0|0:0,0:0:0:0:
