osu file format v14

[General]
AudioFilename: audio.mp3
AudioLeadIn: 0
PreviewTime: 60484
Countdown: 0
SampleSet: Soft
StackLeniency: 0.7
Mode: 0
LetterboxInBreaks: 0
WidescreenStoryboard: 0

[Editor]
Bookmarks: 9104,28584,88779
DistanceSpacing: 1
BeatDivisor: 4
GridSize: 32
TimelineZoom: 1.1

[Metadata]
Title:The Other Side of the Wall (TV Size)
TitleUnicode:The Other Side of the Wall (TV Size)
Artist:Void_Chords feat.MARU
ArtistUnicode:Void_Chords feat.MARU
Creator:DreaM117er
Version:Fanzhen's Insane
Source:プリンセス・プリンシパル
Tags:Princess Principal 2017 summer season anime TV size OP opening fanzhen0019 m1223961117
BeatmapID:1414770
BeatmapSetID:667020

[Difficulty]
HPDrainRate:6
CircleSize:4
OverallDifficulty:8
ApproachRate:8.6
SliderMultiplier:1.92
SliderTickRate:1

[Events]
//Background and Video events
0,0,"BG.png",0,0
Video,0,"VDO.flv"
//Break Periods
//Storyboard Layer 0 (Background)
//Storyboard Layer 1 (Fail)
//Storyboard Layer 2 (Pass)
//Storyboard Layer 3 (Foreground)
//Storyboard Sound Samples

[TimingPoints]
533,389.61038961039,4,2,1,70,1,0
9883,-100,4,2,1,70,0,1
9981,-100,4,2,1,70,0,0
22351,-133.333333333333,4,2,1,40,0,0
34818,-111.111111111111,4,2,1,50,0,0
47286,-133.333333333333,4,2,1,40,0,0
53520,-111.111111111111,4,2,1,50,0,0
56636,-111.111111111111,4,2,1,60,0,0
57318,-111.111111111111,4,2,1,10,0,0
57416,-111.111111111111,4,2,1,60,0,0
60435,-111.111111111111,4,2,1,5,0,0
60533,-111.111111111111,4,2,1,30,0,0
61312,-100,4,2,1,70,0,1
67351,-100,4,2,1,70,0,0
67545,-100,4,2,1,70,0,1
79818,-100,4,2,1,70,0,0
80013,-100,4,2,1,70,0,1
86247,-100,4,2,1,60,0,0
88195,-100,4,2,1,40,0,0
88584,-100,4,2,1,60,0,0

[Colours]
Combo1 : 243,235,124
Combo2 : 192,142,39
Combo3 : 251,241,174
Combo4 : 177,115,88

[HitObjects]
28,304,9883,6,0,P|71:286|28:308,1,144,4|0,0:1|0:0,0:0:0:0:
128,232,10273,1,0,1:0:0:0:
128,232,10370,2,0,P|156:272|152:336,1,96,0|0,0:0|1:0,0:0:0:0:
236,296,10662,2,0,P|224:360|188:392,2,96,0|0|0,3:0|3:0|1:0,0:0:0:0:
496,224,11247,6,0,L|288:240,1,192,0|0,3:0|3:0,0:0:0:0:
136,172,11831,1,0,1:0:0:0:
136,172,11929,2,0,P|164:212|224:220,1,96,0|0,0:0|3:0,0:0:0:0:
88,100,12221,2,0,P|56:128|48:192,1,96,0|0,3:0|3:0,0:0:0:0:
208,224,12610,5,0,1:0:0:0:
168,80,12805,1,0,0:0:0:0:
44,180,13000,2,0,L|56:232,1,48,0|0,3:0|0:0,0:0:0:0:
232,304,13292,2,0,L|244:356,1,48,0|0,0:0|1:0,0:0:0:0:
408,220,13584,1,0,0:0:0:0:
420,252,13682,1,0,1:0:0:0:
432,284,13779,1,0,3:0:0:0:
300,228,13974,1,0,3:0:0:0:
512,216,14169,1,0,1:0:0:0:
432,284,14364,6,0,B|410:257|408:220|408:220|408:300|320:328,1,192,0|0,3:0|3:0,0:0:0:0:
208,220,14851,1,0,0:0:0:0:
208,220,14948,2,0,P|220:176|264:144,1,96,0|0,1:0|0:0,0:0:0:0:
300,228,15338,5,0,3:0:0:0:
300,228,15435,1,0,0:0:0:0:
300,228,15533,2,0,P|304:248|296:280,1,48,2|0,0:0|0:0,0:0:0:0:
152,364,15727,1,2,1:2:0:0:
120,348,15825,1,2,0:0:0:0:
100,320,15922,1,2,0:0:0:0:
96,288,16020,1,2,0:0:0:0:
104,256,16117,6,0,P|92:308|112:360,1,96,4|0,0:1|0:0,0:0:0:0:
152,52,16507,2,0,P|164:128|128:212,1,144,0|0,1:0|1:0,0:0:0:0:
82,87,16896,2,0,P|40:87|52:128,2,96,0|0|0,3:0|3:0|1:0,0:0:0:0:
244,144,17481,2,0,B|352:168|328:104|452:136,1,192,0|0,3:0|3:0,0:0:0:0:
224,64,18065,5,0,1:0:0:0:
224,64,18162,2,0,P|280:64|312:96,1,96,0|0,0:0|0:0,0:0:0:0:
392,216,18455,1,0,3:0:0:0:
208,312,18649,1,0,0:0:0:0:
432,332,18844,1,0,1:0:0:0:
268,204,19039,1,0,0:0:0:0:
320,320,19234,6,0,L|144:336,1,144,0|0,3:0|0:0,0:0:0:0:
0,308,19623,1,0,1:0:0:0:
0,308,19721,2,0,L|112:296,1,96,0|0,0:0|1:0,0:0:0:0:
163,251,20013,2,0,P|159:207|131:163,2,96,0|0|0,3:0|3:0|1:0,0:0:0:0:
12,64,20597,6,0,B|56:64|76:96|76:96|112:72|156:84,1,144,0|0,3:0|0:0,0:0:0:0:
132,164,20987,1,0,3:0:0:0:
304,116,21182,2,0,P|264:132|208:128,1,96,0|0,1:0|0:0,0:0:0:0:
224,44,21474,1,0,0:0:0:0:
224,44,21571,6,0,P|252:36|272:40,1,48,0|0,3:0|0:0,0:0:0:0:
284,212,21766,2,0,P|256:220|236:216,1,48,0|0,1:0|1:0,0:0:0:0:
400,168,21961,1,0,1:0:0:0:
396,200,22058,1,0,1:0:0:0:
392,232,22156,1,0,1:0:0:0:
388,264,22253,1,0,0:0:0:0:
384,292,22351,6,0,L|472:288,1,72.0000027465821,4|0,0:1|0:0,0:0:0:0:
236,240,23520,1,0,0:0:0:0:
312,297,23714,2,0,L|461:288,1,144.000005493164,2|0,0:0|0:0,0:0:0:0:
236,240,24299,1,2,0:0:0:0:
92,128,25468,6,0,L|4:124,1,72.0000027465821,2|2,0:0|0:0,0:0:0:0:
240,76,26636,1,0,0:0:0:0:
164,133,26831,2,0,L|15:124,1,144.000005493164,2|0,0:0|0:0,0:0:0:0:
240,76,27416,1,2,0:0:0:0:
448,160,28584,6,0,L|460:88,1,72.0000027465821,2|0,0:0|0:0,0:0:0:0:
392,32,28974,1,2,0:0:0:0:
392,32,29364,1,0,0:0:0:0:
344,104,29558,1,2,0:0:0:0:
364,188,29753,1,0,0:0:0:0:
448,160,29948,6,0,L|476:16,1,144.000005493164,2|0,0:0|0:0,0:0:0:0:
364,188,30533,1,2,0:0:0:0:
104,304,30922,2,0,P|144:308|180:292,1,72.0000027465821,0|2,0:0|0:0,0:0:0:0:
208,208,31312,2,0,P|168:204|132:220,1,72.0000027465821,2|0,0:0|0:0,0:0:0:0:
28,160,31701,6,0,L|24:88,1,72.0000027465821,0|2,0:0|0:0,0:0:0:0:
100,48,32091,1,0,0:0:0:0:
100,48,32481,1,2,0:0:0:0:
152,116,32675,1,0,0:0:0:0:
112,192,32870,1,0,0:0:0:0:
28,160,33065,6,0,L|20:12,1,144.000005493164,2|0,0:0|0:0,0:0:0:0:
112,192,33649,2,0,L|108:232,3,36.0000013732911,2|0|0|0,0:0|0:0|0:0|0:0,0:0:0:0:
76,256,34039,2,0,L|84:344,1,72.0000027465821,0|0,0:0|3:0,0:0:0:0:
196,280,34429,5,2,0:0:0:0:
236,296,34526,1,0,0:0:0:0:
280,288,34623,1,0,1:0:0:0:
320,304,34721,1,0,1:0:0:0:
364,296,34818,6,0,L|460:288,1,86.3999973632813,4|0,0:0|0:0,0:0:0:0:
244,216,35208,2,0,L|340:208,1,86.3999973632813,0|0,3:0|0:0,0:0:0:0:
372,300,35597,2,0,L|468:292,1,86.3999973632813,0|2,3:0|0:0,0:0:0:0:
512,192,35890,1,0,0:0:0:0:
512,192,35987,2,0,L|425:199,1,86.3999973632813,0|0,0:0|0:0,0:0:0:0:
268,136,36377,6,0,L|176:132,1,86.3999973632813,0|2,3:0|0:0,0:0:0:0:
112,40,36766,2,0,L|20:36,1,86.3999973632813,0|2,3:0|0:0,0:0:0:0:
264,140,37156,2,0,L|172:136,1,86.3999973632813,0|2,0:0|0:0,0:0:0:0:
40,208,37448,1,0,0:0:0:0:
40,208,37545,2,0,L|126:211,1,86.3999973632813,0|0,3:0|0:0,0:0:0:0:
152,352,37935,5,0,3:0:0:0:
316,316,38130,1,2,0:0:0:0:
408,324,38325,1,0,3:0:0:0:
238,358,38520,2,0,L|134:350,1,86.3999973632813,2|0,0:0|3:0,0:0:0:0:
224,168,38909,1,0,0:0:0:0:
0,272,39104,5,0,3:0:0:0:
164,236,39299,1,2,0:0:0:0:
256,244,39494,1,0,0:0:0:0:
86,278,39688,2,0,L|-18:270,1,86.3999973632813,2|0,0:0|3:0,0:0:0:0:
327,197,40078,1,0,0:0:0:0:
256,244,40273,1,0,3:0:0:0:
404,364,40468,5,0,0:0:0:0:
392,324,40565,1,0,0:0:0:0:
396,280,40662,1,0,3:0:0:0:
424,248,40760,1,0,0:0:0:0:
460,228,40857,1,0,1:0:0:0:
432,132,41052,6,0,P|384:140|352:124,1,86.3999973632813,2|0,3:2|0:0,0:0:0:0:
360,32,41442,2,0,P|408:24|440:40,1,86.3999973632813,0|2,3:0|0:0,0:0:0:0:
280,72,41734,1,0,0:0:0:0:
280,72,41831,2,0,L|176:76,1,86.3999973632813,0|0,0:0|0:0,0:0:0:0:
108,80,42221,2,0,L|8:84,1,86.3999973632813,0|0,3:0|0:0,0:0:0:0:
80,252,42610,6,0,P|128:244|160:260,1,86.3999973632813,0|2,3:0|0:0,0:0:0:0:
152,352,43000,2,0,P|104:360|72:344,1,86.3999973632813,0|0,0:0|0:0,0:0:0:0:
232,312,43292,1,0,0:0:0:0:
232,312,43390,2,0,L|336:308,1,86.3999973632813,2|0,3:2|0:0,0:0:0:0:
404,304,43779,2,0,L|504:300,1,86.3999973632813,0|0,3:0|0:0,0:0:0:0:
512,224,44169,5,0,3:0:0:0:
456,380,44364,1,2,0:0:0:0:
372,156,44558,5,0,0:0:0:0:
318,308,44753,1,0,0:0:0:0:
220,232,44948,5,2,3:2:0:0:
192,76,45143,1,0,0:0:0:0:
64,172,45338,5,0,3:0:0:0:
28,12,45533,1,4,1:2:0:0:
64,172,45727,2,0,L|40:264,1,86.3999973632813,0|0,0:0|3:0,0:0:0:0:
28,12,46117,2,0,L|4:104,1,86.3999973632813,4|0,1:2|0:0,0:0:0:0:
192,296,46507,5,0,1:0:0:0:
236,292,46604,1,0,1:0:0:0:
280,288,46701,1,0,1:0:0:0:
324,284,46799,1,0,1:0:0:0:
368,280,46896,1,0,1:0:0:0:
412,276,46994,1,0,1:0:0:0:
456,272,47091,1,0,1:0:0:0:
500,268,47188,1,0,1:0:0:0:
512,312,47286,6,0,P|508:356|500:384,1,72.0000027465821,2|2,0:0|0:0,0:0:0:0:
396,240,47870,2,0,P|404:280|400:320,2,72.0000027465821,0|2|2,0:0|0:0|0:0,0:0:0:0:
280,204,48649,1,2,0:0:0:0:
280,204,48844,6,0,P|236:216|204:216,1,72.0000027465821,0|0,0:0|0:0,0:0:0:0:
152,104,49429,2,0,P|116:120|76:128,2,72.0000027465821,2|2|0,0:0|0:0|0:0,0:0:0:0:
8,16,50208,1,0,0:0:0:0:
8,16,50403,6,0,L|8:92,1,72.0000027465821,2|2,0:0|0:0,0:0:0:0:
136,64,50987,2,0,L|164:132,2,72.0000027465821,0|2|2,0:0|0:0|0:0,0:0:0:0:
296,92,51766,1,0,0:0:0:0:
296,92,51961,6,0,P|300:52|288:16,1,72.0000027465821,2|0,0:0|0:0,0:0:0:0:
344,188,52351,2,0,P|372:160|384:120,1,72.0000027465821,0|0,0:0|0:0,0:0:0:0:
324,296,52740,2,0,P|368:284|412:248,1,72.0000027465821,2|0,0:0|0:0,0:0:0:0:
136,336,53130,2,0,P|180:352|256:344,1,108.000004119873,0|0,0:0|0:0,0:0:0:0:
256,344,53520,6,0,L|164:352,1,86.3999973632813,0|0,3:0|0:0,0:0:0:0:
176,256,53909,2,0,L|84:264,1,86.3999973632813,0|0,3:0|0:0,0:0:0:0:
352,324,54299,2,0,L|260:332,1,86.3999973632813,2|0,3:2|0:0,0:0:0:0:
272,236,54688,2,0,L|180:244,1,86.3999973632813,0|2,3:0|0:0,0:0:0:0:
344,152,55078,6,0,L|436:160,1,86.3999973632813,0|0,3:0|0:0,0:0:0:0:
424,64,55468,2,0,L|516:72,1,86.3999973632813,0|0,3:0|0:0,0:0:0:0:
176,104,55857,2,0,L|268:112,1,86.3999973632813,2|0,3:2|0:0,0:0:0:0:
256,16,56247,2,0,L|348:24,1,86.3999973632813,0|2,3:0|0:0,0:0:0:0:
80,200,56636,6,0,P|60:64|176:112,1,302.399990771485,4|0,0:0|0:0,0:0:0:0:
113,138,57416,1,0,0:0:0:0:
113,138,57610,1,0,1:0:0:0:
113,138,57805,1,0,1:0:0:0:
113,138,58000,1,4,1:0:0:0:
256,192,58097,12,0,60435,0:0:0:0:
256,192,60533,5,0,0:0:0:0:
280,352,60727,1,0,0:0:0:0:
232,32,60922,1,0,1:0:0:0:
160,108,61117,1,0,1:0:0:0:
160,108,61214,1,0,1:0:0:0:
160,108,61312,6,0,L|48:112,1,96,4|0,0:0|0:0,0:0:0:0:
360,96,61701,2,0,P|272:92|232:32,1,144,0|0,1:0|3:0,0:0:0:0:
232,32,62091,1,0,3:0:0:0:
376,172,62286,1,0,0:0:0:0:
496,8,62481,1,0,1:0:0:0:
371,287,62675,6,0,L|359:87,1,192,2|2,0:0|0:0,0:0:0:0:
359,95,63162,1,0,0:0:0:0:
359,95,63260,1,0,1:0:0:0:
512,324,63455,1,0,0:0:0:0:
512,324,63649,6,0,P|468:348|416:344,1,96,0|0,3:0|0:0,0:0:0:0:
300,232,64039,2,0,P|256:208|204:212,1,96,0|2,1:0|0:0,0:0:0:0:
52,348,64429,1,0,3:0:0:0:
52,348,64623,5,2,0:0:0:0:
52,348,64721,1,0,0:0:0:0:
52,348,64818,2,0,L|40:200,1,144,2|0,0:0|1:0,0:0:0:0:
40,188,65208,1,2,3:2:0:0:
200,256,65403,1,2,0:0:0:0:
52,348,65597,1,0,1:0:0:0:
200,256,65792,6,0,L|192:312,1,48,2|0,0:0|0:0,0:0:0:0:
180,384,65987,1,0,0:0:0:0:
344,356,66182,1,2,0:0:0:0:
300,176,66377,2,0,L|284:276,1,96,2|0,1:2|0:0,0:0:0:0:
384,104,66766,1,0,3:0:0:0:
384,104,66961,6,0,P|404:112|432:112,1,48,0|0,1:2|1:0,0:0:0:0:
280,72,67156,2,0,P|276:50|262:26,1,48,0|0,1:0|1:0,0:0:0:0:
300,176,67351,2,0,P|283:189|269:213,1,48,0|0,1:2|1:0,0:0:0:0:
380,328,67545,6,0,L|484:336,1,96,4|0,0:0|0:0,0:0:0:0:
144,240,67935,2,0,P|192:188|260:200,1,144,0|0,1:0|1:0,0:0:0:0:
269,211,68325,1,0,3:0:0:0:
164,368,68520,1,0,0:0:0:0:
20,240,68714,1,0,1:0:0:0:
155,48,68909,6,0,L|143:248,1,192,2|2,0:0|0:0,0:0:0:0:
143,239,69396,1,0,0:0:0:0:
143,239,69494,1,0,1:0:0:0:
48,124,69688,6,0,P|40:100|44:72,1,48,2|2,0:0|0:0,0:0:0:0:
236,16,69883,2,0,P|256:60|244:116,1,96,0|2,3:0|0:0,0:0:0:0:
24,152,70273,2,0,P|4:108|16:52,1,96,0|2,1:0|0:0,0:0:0:0:
144,280,70662,6,0,L|156:180,1,96,0|2,3:0|0:0,0:0:0:0:
155,184,70955,1,0,0:0:0:0:
155,184,71052,1,2,1:2:0:0:
24,228,71247,1,0,0:0:0:0:
268,336,71442,1,2,3:2:0:0:
132,375,71636,2,0,L|144:275,1,96,2|0,0:0|1:0,0:0:0:0:
352,88,72026,6,0,P|388:76|448:92,1,96,2|0,0:0|0:0,0:0:0:0:
272,160,72416,1,2,0:0:0:0:
252,116,72513,1,0,0:0:0:0:
252,68,72610,1,0,1:0:0:0:
376,192,72805,1,0,0:0:0:0:
280,328,73000,6,0,L|272:272,1,48,0|0,3:0|0:0,0:0:0:0:
196,288,73195,2,0,L|184:232,1,48,0|0,1:0|1:0,0:0:0:0:
112,264,73390,2,0,L|96:212,1,48,0|0,1:0|1:0,0:0:0:0:
24,256,73584,2,0,L|4:208,1,48,0|0,1:0|1:0,0:0:0:0:
72,376,73779,6,0,P|88:368|62:375,1,144,4|0,0:0|0:0,0:0:0:0:
160,303,74169,2,0,P|107:256|36:252,1,144,0|0,1:0|1:0,0:0:0:0:
24,256,74558,1,0,3:0:0:0:
236,344,74753,1,0,0:0:0:0:
336,160,74948,1,0,1:0:0:0:
236,344,75143,6,0,L|440:332,1,192,2|2,0:0|0:0,0:0:0:0:
427,332,75630,1,0,0:0:0:0:
427,332,75727,1,0,1:0:0:0:
184,140,75922,1,0,0:0:0:0:
184,140,76117,6,0,P|140:120|88:128,1,96,0|2,3:2|0:0,0:0:0:0:
392,228,76507,2,0,P|348:248|296:240,1,96,0|2,1:0|0:0,0:0:0:0:
504,60,76896,1,0,3:0:0:0:
504,60,77091,5,2,0:0:0:0:
504,60,77188,1,0,0:0:0:0:
504,60,77286,2,0,L|496:164,1,96,2|0,1:2|0:0,0:0:0:0:
488,248,77578,1,0,1:0:0:0:
488,248,77675,2,0,L|480:352,1,96,0|0,3:0|0:0,0:0:0:0:
400,192,78065,1,0,1:0:0:0:
336,384,78260,5,2,0:0:0:0:
134,144,78455,1,0,0:0:0:0:
204,248,78649,1,2,0:2:0:0:
86,259,78844,1,2,1:2:0:0:
300,240,79039,5,0,0:0:0:0:
252,244,79136,1,0,0:0:0:0:
204,248,79234,1,0,3:0:0:0:
352,160,79429,1,0,1:0:0:0:
352,320,79623,5,0,1:2:0:0:
304,324,79721,1,0,1:2:0:0:
256,328,79818,1,0,1:2:0:0:
208,332,79916,1,0,1:2:0:0:
160,336,80013,6,0,L|64:328,1,96,4|0,0:0|0:0,0:0:0:0:
352,320,80403,2,0,P|296:324|248:248,1,144,0|0,1:0|1:0,0:0:0:0:
252,244,80792,1,0,3:0:0:0:
456,360,80987,1,0,0:0:0:0:
508,152,81182,1,0,1:0:0:0:
456,360,81377,6,0,L|240:356,1,192,0|0,0:0|0:0,0:0:0:0:
264,356,81864,1,0,0:0:0:0:
264,356,81961,1,0,1:0:0:0:
48,272,82156,2,0,P|44:220|36:184,1,48,2|2,0:0|0:0,0:0:0:0:
32,148,82351,5,0,3:0:0:0:
172,180,82545,1,2,0:0:0:0:
268,68,82740,1,0,1:0:0:0:
408,100,82935,1,2,0:0:0:0:
408,100,83033,1,0,0:0:0:0:
408,100,83130,2,0,P|416:152|408:200,1,96,0|2,0:0|0:0,0:0:0:0:
304,224,83520,5,0,1:0:0:0:
508,168,83714,1,0,0:0:0:0:
264,352,83909,5,0,3:0:0:0:
468,296,84104,1,2,0:0:0:0:
264,352,84299,1,0,1:0:0:0:
372,376,84494,6,0,B|336:276|416:312|376:192,1,192,2|2,0:0|0:0,0:0:0:0:
488,92,85078,5,0,1:0:0:0:
448,116,85175,1,0,0:0:0:0:
400,116,85273,1,2,0:0:0:0:
360,92,85370,1,2,0:0:0:0:
344,48,85468,1,0,3:0:0:0:
240,12,85662,6,0,L|232:64,1,48,0|0,0:0|0:0,0:0:0:0:
80,140,85857,2,0,L|129:120,1,48,0|0,1:0|0:0,0:0:0:0:
272,212,86052,2,0,L|230:179,1,48,0|0,1:2|0:0,0:0:0:0:
192,264,86247,6,0,P|184:292|200:356,1,96,4|0,0:1|0:0,0:0:0:0:
368,336,86636,2,0,P|376:308|360:244,1,96,0|2,0:0|0:0,0:0:0:0:
192,264,87221,5,2,0:0:0:0:
368,336,87610,2,0,B|392:264|316:216|360:140,1,192,0|0,1:0|0:0,0:0:0:0:
425,191,88097,1,0,0:0:0:0:
425,191,88195,6,0,P|450:174|478:174,1,48,0|0,1:0|0:0,0:0:0:0:
232,76,88390,2,0,P|207:58|179:58,1,48,0|0,1:0|0:0,0:0:0:0:
96,48,88584,5,0,1:0:0:0:
40,256,88779,1,4,0:0:0:0:
