osu file format v14

[General]
AudioFilename: audio.mp3
AudioLeadIn: 0
PreviewTime: 60484
Countdown: 0
SampleSet: Soft
StackLeniency: 0.5
Mode: 0
LetterboxInBreaks: 0
WidescreenStoryboard: 0

[Editor]
DistanceSpacing: 0.9
BeatDivisor: 8
GridSize: 32
TimelineZoom: 1.8

[Metadata]
Title:The Other Side of the Wall (TV Size)
TitleUnicode:The Other Side of the Wall (TV Size)
Artist:Void_Chords feat.MARU
ArtistUnicode:Void_Chords feat.MARU
Creator:DreaM117er
Version:Princess
Source:プリンセス・プリンシパル
Tags:Princess Principal 2017 summer season anime TV size OP opening fanzhen0019 m1223961117
BeatmapID:1411501
BeatmapSetID:667020

[Difficulty]
HPDrainRate:6
CircleSize:4.5
OverallDifficulty:8
ApproachRate:8.8
SliderMultiplier:1.6
SliderTickRate:1

[Events]
//Background and Video events
0,0,"BG.png",0,0
Video,0,"VDO.flv"
//Break Periods
//Storyboard Layer 0 (Background)
//Storyboard Layer 1 (Fail)
//Storyboard Layer 2 (Pass)
//Storyboard Layer 3 (Foreground)
//Storyboard Sound Samples

[TimingPoints]
533,389.61038961039,4,2,1,40,1,0
1360,-100,4,2,1,25,0,0
1701,-100,4,2,1,40,0,0
2091,-100,4,2,1,50,0,0
4429,-90.9090909090909,4,2,1,60,0,0
7545,-100,4,2,1,70,0,0
8325,-100,4,2,1,40,0,0
9558,-100,4,2,1,5,0,0
9623,-100,4,2,1,40,0,0
9688,-100,4,2,1,5,0,0
9753,-100,4,2,1,40,0,0
9818,-100,4,2,1,5,0,0
9883,-90.9090909090909,4,2,1,70,0,1
9981,-90.9090909090909,4,2,1,70,0,0
13292,-90.9090909090909,4,2,1,10,0,0
13390,-90.9090909090909,4,2,1,70,0,0
19526,-90.9090909090909,4,2,1,10,0,0
19623,-90.9090909090909,4,2,1,70,0,0
22351,-133.333333333333,4,2,1,40,0,0
33065,-133.333333333333,4,2,1,60,0,0
34818,-111.111111111111,4,2,1,50,0,0
47286,-133.333333333333,4,2,1,40,0,0
53520,-111.111111111111,4,2,1,50,0,0
56636,-166.666666666667,4,2,1,60,0,0
57318,-166.666666666667,4,2,1,10,0,0
57416,-100,4,2,1,60,0,0
58097,-100,4,2,1,10,0,0
60338,-166.666666666667,4,2,1,5,0,0
60533,-100,4,2,1,60,0,0
61312,-90.9090909090909,4,2,1,70,0,1
67351,-90.9090909090909,4,2,1,70,0,0
67545,-90.9090909090909,4,2,1,70,0,1
79818,-90.9090909090909,4,2,1,70,0,0
80013,-90.9090909090909,4,2,1,70,0,1
86247,-100,4,2,1,60,0,0

[Colours]
Combo1 : 243,235,124
Combo2 : 192,142,39
Combo3 : 251,241,174
Combo4 : 177,115,88

[HitObjects]
103,310,533,5,2,0:0:0:0:
120,300,630,2,0,L|112:255,1,40,2|0,0:0|0:0,0:0:0:0:
201,192,825,6,0,L|190:262,1,60,2|0,0:0|0:0,0:0:0:0:
212,327,1068,5,2,0:0:0:0:
239,342,1166,1,0,0:0:0:0:
269,346,1263,1,2,0:0:0:0:
348,321,1360,6,0,L|354:291,6,20,0|0|0|0|0|0|0,3:0|3:0|3:0|3:0|3:0|3:0|3:0,0:0:0:0:
322,234,1701,5,0,3:0:0:0:
315,206,1799,1,0,3:0:0:0:
320,179,1896,1,0,3:0:0:0:
334,155,1994,1,0,3:0:0:0:
358,139,2091,6,0,B|416:153|416:153|463:141,1,80,4|0,0:0|0:0,0:0:0:0:
510,133,2383,2,0,P|470:138|442:175,1,80,2|0,0:0|0:0,0:0:0:0:
420,81,2675,2,0,P|435:72|465:62,1,40,2|0,0:0|0:0,0:0:0:0:
367,23,2870,1,2,0:0:0:0:
345,34,2968,2,0,P|307:23|262:14,1,80
192,32,3260,1,0,3:0:0:0:
169,41,3357,2,0,P|174:69|184:94,1,40,0|0,3:0|0:0,0:0:0:0:
101,140,3552,1,0,3:0:0:0:
128,146,3649,1,0,3:0:0:0:
154,156,3747,6,0,L|140:219,1,40,2|0,3:2|0:0,0:0:0:0:
231,183,3942,2,0,L|221:233,1,40,2|0,3:2|0:0,0:0:0:0:
294,315,4136,1,2,0:0:0:0:
306,289,4234,2,0,L|298:249,1,40,0|0,3:0|0:0,0:0:0:0:
319,170,4429,6,0,P|354:148|408:150,1,88.000002685547,6|0,0:0|0:0,0:0:0:0:
449,229,4721,1,0,3:0:0:0:
419,238,4818,2,0,P|392:229|364:216,1,44.0000013427735,0|0,3:0|0:0,0:0:0:0:
221,62,5013,2,0,P|229:108|241:155,1,88.000002685547,4|2,0:0|0:0,0:0:0:0:
181,205,5305,1,0,3:0:0:0:
152,183,5403,1,0,3:0:0:0:
117,176,5500,1,0,3:0:0:0:
82,182,5597,6,0,B|71:240|71:240|90:292,1,88.000002685547,4|0,0:0|0:0,0:0:0:0:
123,338,5890,1,0,3:0:0:0:
123,338,5987,2,0,L|178:328,1,44.0000013427735,4|0,0:3|0:0,0:0:0:0:
299,375,6182,2,0,P|319:337|312:283,1,88.000002685547,4|0,0:0|0:0,0:0:0:0:
256,240,6474,1,0,3:0:0:0:
256,240,6571,2,0,P|258:211|269:186,1,44.0000013427735,4|0,0:3|0:0,0:0:0:0:
355,120,6766,6,0,P|334:124|314:133,1,44.0000013427735,4|0,0:0|0:0,0:0:0:0:
238,96,6961,2,0,B|215:106|215:106|154:92,1,88.000002685547,2|0,0:0|0:0,0:0:0:0:
108,27,7253,1,0,3:0:0:0:
108,27,7351,2,0,P|117:47|121:68,1,44.0000013427735,4|0,0:0|0:0,0:0:0:0:
11,180,7545,6,0,P|8:116|47:72,2,120,4|4|4,1:2|1:2|1:2,0:0:0:0:
59,254,8325,6,0,L|96:246,5,26.6666666666667,0|0|0|0|0|0,3:0|3:0|3:0|3:0|3:0|3:0,0:0:0:0:
141,292,8714,2,0,L|180:299,5,26.6666666666667,0|0|0|0|0|0,3:0|3:0|3:0|3:0|3:0|3:0,0:0:0:0:
220,355,9104,5,0,3:0:0:0:
248,321,9201,1,0,3:0:0:0:
289,306,9299,1,0,3:0:0:0:
332,309,9396,1,0,3:0:0:0:
368,333,9494,6,0,L|359:374,1,26.6666666666667,0|0,3:0|0:0,0:0:0:0:
437,343,9623,6,0,L|450:378,1,26.6666666666667,0|0,3:0|0:0,0:0:0:0:
489,295,9753,6,0,L|527:317,1,26.6666666666667,0|0,3:0|0:0,0:0:0:0:
498,224,9883,6,0,L|401:203,1,88.000002685547,4|0,0:1|0:0,0:0:0:0:
268,188,10273,1,0,1:0:0:0:
268,188,10370,2,0,L|279:242,1,44.0000013427735,0|0,0:0|0:0,0:0:0:0:
228,303,10565,1,0,1:0:0:0:
228,303,10662,2,0,P|222:327|213:367,1,44.0000013427735,0|0,3:0|0:0,0:0:0:0:
339,292,10857,1,0,3:0:0:0:
182,225,11052,1,0,1:0:0:0:
354,310,11247,6,0,P|398:272|485:284,1,132.00000402832,0|0,3:0|0:0,0:0:0:0:
488,292,11636,2,0,P|462:304|426:309,1,44.0000013427735,0|0,3:0|0:0,0:0:0:0:
331,168,11831,2,0,P|374:176|429:188,1,88.000002685547,0|0,1:0|0:0,0:0:0:0:
479,141,12123,1,0,3:0:0:0:
479,141,12221,2,0,L|528:129,1,44.0000013427735,0|0,3:0|0:0,0:0:0:0:
420,33,12416,2,0,P|411:57|407:91,1,44.0000013427735,0|0,3:0|0:0,0:0:0:0:
435,236,12610,2,0,P|431:214|423:194,1,44.0000013427735,0|0,1:0|0:0,0:0:0:0:
320,84,12805,2,0,P|300:71|279:64,1,44.0000013427735,0|0,0:0|0:0,0:0:0:0:
178,180,13000,6,0,B|224:194|224:194|305:173,1,132.00000402832,0|0,3:0|0:0,0:0:0:0:
331,168,13390,2,0,P|316:221|309:269,1,88.000002685547,0|0,1:0|0:0,0:0:0:0:
247,299,13682,1,0,1:0:0:0:
247,299,13779,2,0,P|222:293|192:286,1,44.0000013427735,0|0,3:0|0:0,0:0:0:0:
93,257,13974,1,0,3:0:0:0:
200,372,14169,1,0,1:0:0:0:
206,207,14364,6,0,P|152:219|107:231,1,88.000002685547,0|0,3:0|0:0,0:0:0:0:
21,175,14753,1,0,3:0:0:0:
117,101,14948,2,0,L|98:161,1,44.0000013427735,0|0,1:0|0:0,0:0:0:0:
217,249,15143,2,0,P|211:228|206:207,1,44.0000013427735,2|0,0:0|0:0,0:0:0:0:
285,107,15338,5,0,3:0:0:0:
312,108,15435,1,0,0:0:0:0:
338,100,15533,1,2,0:0:0:0:
358,82,15630,1,2,0:0:0:0:
382,45,15727,5,2,1:2:0:0:
344,36,15825,1,2,0:0:0:0:
306,27,15922,1,2,0:0:0:0:
268,18,16020,1,2,0:0:0:0:
230,9,16117,6,0,L|253:120,1,88.000002685547,4|0,0:1|0:0,0:0:0:0:
295,249,16507,1,0,1:0:0:0:
295,249,16604,2,0,P|270:241|228:235,1,44.0000013427735,0|0,0:0|0:0,0:0:0:0:
170,193,16799,1,0,1:0:0:0:
170,193,16896,2,0,P|148:197|127:203,1,44.0000013427735,0|0,3:0|0:0,0:0:0:0:
180,282,17091,1,0,3:0:0:0:
257,128,17286,1,0,1:0:0:0:
93,277,17481,6,0,P|53:238|61:154,1,132.00000402832,0|0,3:0|0:0,0:0:0:0:
70,144,17870,2,0,P|81:170|85:197,1,44.0000013427735,0|0,3:0|0:0,0:0:0:0:
20,339,18065,1,0,1:0:0:0:
184,256,18260,1,2,0:0:0:0:
180,282,18357,1,2,0:0:0:0:
176,308,18455,1,2,3:2:0:0:
93,277,18649,1,2,0:0:0:0:
259,346,18844,1,0,1:0:0:0:
89,308,19039,2,0,P|77:281|74:255,1,44.0000013427735,2|0,0:0|0:0,0:0:0:0:
168,167,19234,6,0,P|181:102|194:37,1,132.00000402832,0|0,3:0|0:0,0:0:0:0:
185,13,19623,2,0,P|135:6|94:41,1,88.000002685547,0|0,1:0|0:0,0:0:0:0:
59,86,19916,1,0,1:0:0:0:
59,86,20013,2,0,P|81:97|104:100,1,44.0000013427735,0|0,3:0|0:0,0:0:0:0:
270,66,20208,1,0,3:0:0:0:
168,167,20403,1,0,1:0:0:0:
320,253,20597,6,0,P|276:240|215:224,1,88.000002685547,0|0,3:0|0:0,0:0:0:0:
75,186,20987,1,0,3:0:0:0:
254,146,21182,1,0,1:0:0:0:
118,297,21377,2,0,P|123:275|128:254,1,44.0000013427735,0|0,0:0|0:0,0:0:0:0:
296,134,21571,2,0,P|275:140|254:146,1,44.0000013427735,0|0,3:0|0:0,0:0:0:0:
65,60,21766,5,0,1:0:0:0:
94,79,21864,1,0,1:0:0:0:
123,101,21961,1,0,1:0:0:0:
150,126,22058,1,0,1:0:0:0:
180,107,22156,1,0,1:0:0:0:
212,90,22253,1,0,0:0:0:0:
244,77,22351,6,0,P|237:49|225:0,1,60.0000022888184,4|0,0:1|0:0,0:0:0:0:
229,18,22740,1,0,0:0:0:0:
477,327,23520,5,0,0:0:0:0:
510,256,23714,2,0,P|449:252|405:290,1,120.000004577637,2|0,0:0|0:0,0:0:0:0:
377,360,24299,1,2,0:0:0:0:
283,18,25468,5,2,0:0:0:0:
283,18,25662,1,2,0:0:0:0:
33,206,26636,5,0,0:0:0:0:
0,135,26831,2,0,P|61:131|105:169,1,120.000004577637,2|0,0:0|0:0,0:0:0:0:
133,239,27416,1,2,0:0:0:0:
484,24,28584,5,2,0:0:0:0:
465,106,28779,1,0,0:0:0:0:
446,188,28974,1,2,0:0:0:0:
446,188,29364,1,0,0:0:0:0:
400,117,29558,2,0,P|436:110|481:101,1,60.0000022888184,2|0,0:0|0:0,0:0:0:0:
329,163,29948,6,0,P|322:127|313:82,1,60.0000022888184,2|0,0:0|0:0,0:0:0:0:
446,188,30338,1,0,0:0:0:0:
373,239,30533,1,2,0:0:0:0:
246,165,30727,2,0,P|275:170|304:176,1,60.0000022888184,0|0,0:0|0:0,0:0:0:0:
450,271,31117,1,2,0:0:0:0:
501,337,31312,2,0,P|471:342|442:348,1,60.0000022888184,2|0,0:0|0:0,0:0:0:0:
253,242,31701,5,0,0:0:0:0:
305,176,31896,2,0,P|330:208|312:301,1,120.000004577637,2|0,0:0|0:0,0:0:0:0:
186,283,32481,2,0,P|175:256|175:226,1,60.0000022888184,2|0,0:0|0:0,0:0:0:0:
253,242,32870,1,0,0:0:0:0:
199,370,33065,5,2,0:0:0:0:
172,364,33162,1,0,0:0:0:0:
145,358,33260,1,0,0:0:0:0:
118,354,33357,1,0,0:0:0:0:
91,348,33455,2,0,L|102:300,1,30.0000011444092,0|0,0:0|0:0,0:0:0:0:
63,245,33649,5,2,0:0:0:0:
87,227,33747,1,0,0:0:0:0:
105,203,33844,1,0,0:0:0:0:
115,174,33942,1,0,0:0:0:0:
115,144,34039,5,0,0:0:0:0:
137,152,34136,1,0,0:0:0:0:
160,148,34234,1,0,3:0:0:0:
182,139,34331,1,0,0:0:0:0:
199,121,34429,2,0,L|189:78,1,30.0000011444092,2|0,0:0|0:0,0:0:0:0:
248,27,34623,1,0,1:0:0:0:
248,27,34721,1,0,1:0:0:0:
248,27,34818,6,0,P|211:20|166:9,1,71.9999978027344,4|0,0:0|0:0,0:0:0:0:
0,64,35208,2,0,P|37:71|82:82,1,71.9999978027344,0|0,3:0|0:0,0:0:0:0:
206,178,35597,1,0,3:0:0:0:
161,90,35792,1,2,0:0:0:0:
117,203,35987,2,0,P|106:242|95:290,1,71.9999978027344,0|0,0:0|0:0,0:0:0:0:
98,272,36279,1,0,0:0:0:0:
98,272,36377,5,0,3:0:0:0:
72,361,36571,1,2,0:0:0:0:
17,225,36766,1,0,3:0:0:0:
178,305,36961,1,2,0:0:0:0:
109,357,37156,2,0,P|94:324|95:282,1,71.9999978027344,0|2,0:0|0:0,0:0:0:0:
213,159,37545,1,0,3:0:0:0:
243,254,37740,1,0,0:0:0:0:
243,254,37838,1,0,0:0:0:0:
243,254,37935,5,0,3:0:0:0:
186,149,38130,1,2,0:0:0:0:
300,195,38325,1,0,3:0:0:0:
124,225,38520,1,2,0:0:0:0:
321,114,38714,1,0,3:0:0:0:
300,195,38909,1,0,0:0:0:0:
256,56,39104,1,0,3:0:0:0:
215,231,39299,1,2,0:0:0:0:
215,231,39396,1,0,0:0:0:0:
215,231,39494,6,0,L|292:246,1,71.9999978027344,0|2,0:0|0:0,0:0:0:0:
452,183,39883,2,0,L|382:170,1,71.9999978027344,0|0,3:0|0:0,0:0:0:0:
357,331,40273,2,0,P|365:298|370:260,1,71.9999978027344,0|0,3:0|0:0,0:0:0:0:
254,102,40662,1,0,3:0:0:0:
195,191,40857,1,0,1:0:0:0:
195,191,40955,1,0,0:0:0:0:
195,191,41052,6,0,P|200:226|208:261,1,71.9999978027344,2|0,3:2|0:0,0:0:0:0:
329,91,41442,1,0,3:0:0:0:
329,91,41636,2,0,P|323:55|315:20,1,71.9999978027344,2|0,0:0|0:0,0:0:0:0:
299,196,42026,1,0,0:0:0:0:
381,169,42221,1,0,3:0:0:0:
463,142,42416,1,0,0:0:0:0:
329,91,42610,5,0,3:0:0:0:
381,169,42805,2,0,P|399:212|395:257,1,71.9999978027344,2|0,0:0|0:0,0:0:0:0:
288,343,43195,1,0,0:0:0:0:
288,343,43390,2,0,L|303:253,1,71.9999978027344,2|0,3:2|0:0,0:0:0:0:
333,104,43779,1,0,3:0:0:0:
256,192,43974,1,0,0:0:0:0:
256,192,44071,1,0,0:0:0:0:
256,192,44169,5,0,3:0:0:0:
345,135,44364,1,2,0:0:0:0:
209,116,44558,1,0,0:0:0:0:
355,159,44753,1,0,0:0:0:0:
166,41,44948,1,2,3:2:0:0:
137,161,45143,1,0,0:0:0:0:
91,5,45338,1,0,3:0:0:0:
42,182,45533,6,0,P|78:173|129:161,1,71.9999978027344,4|0,1:2|0:0,0:0:0:0:
321,241,45922,1,0,3:0:0:0:
221,307,46117,2,0,P|184:298|134:286,1,71.9999978027344,4|0,1:2|0:0,0:0:0:0:
30,157,46507,5,0,1:0:0:0:
61,133,46604,1,0,1:0:0:0:
100,127,46701,1,0,1:0:0:0:
138,136,46799,1,0,1:0:0:0:
169,160,46896,1,0,1:0:0:0:
188,194,46994,1,0,1:0:0:0:
198,231,47091,2,0,L|189:278,1,35.9999989013672,0|0,1:0|1:0,0:0:0:0:
231,339,47286,5,2,0:0:0:0:
248,349,47383,1,0,0:0:0:0:
268,355,47481,1,2,0:0:0:0:
288,357,47578,1,0,0:0:0:0:
308,355,47675,1,0,0:0:0:0:
328,348,47773,1,0,0:0:0:0:
345,336,47870,1,0,0:0:0:0:
363,325,47968,1,0,0:0:0:0:
383,319,48065,1,2,0:0:0:0:
403,316,48162,1,0,0:0:0:0:
424,317,48260,1,2,0:0:0:0:
444,322,48357,1,0,0:0:0:0:
463,330,48455,1,0,0:0:0:0:
478,343,48552,1,0,0:0:0:0:
492,358,48649,2,0,L|497:328,1,30.0000011444092,2|0,0:0|0:0,0:0:0:0:
468,247,48844,6,0,L|458:198,1,30.0000011444092,0|0,0:0|0:0,0:0:0:0:
495,138,49039,1,0,0:0:0:0:
498,117,49136,2,0,L|504:70,2,30.0000011444092,0|0|0,0:0|0:0|0:0,0:0:0:0:
449,212,49429,2,0,P|430:205|403:199,1,30.0000011444092,2|0,0:0|0:0,0:0:0:0:
316,253,49623,2,0,P|331:240|350:219,1,30.0000011444092,2|0,0:0|0:0,0:0:0:0:
349,122,49818,2,0,P|352:141|360:168,1,30.0000011444092,0|0,0:0|0:0,0:0:0:0:
244,210,50013,1,0,0:0:0:0:
240,189,50110,1,0,0:0:0:0:
235,168,50208,1,0,0:0:0:0:
231,147,50305,1,0,0:0:0:0:
226,126,50403,6,0,P|228:96|237:67,1,60.0000022888184,2|2,0:0|0:0,0:0:0:0:
292,11,50695,2,0,P|251:34|220:36,1,60.0000022888184,0|0,0:0|0:0,0:0:0:0:
159,59,50987,5,0,0:0:0:0:
130,37,51084,1,0,0:0:0:0:
99,34,51182,1,2,0:0:0:0:
72,47,51279,1,0,0:0:0:0:
55,68,51377,1,2,0:0:0:0:
50,94,51474,1,0,0:0:0:0:
56,116,51571,1,0,0:0:0:0:
71,134,51669,1,0,0:0:0:0:
89,144,51766,1,0,0:0:0:0:
109,146,51864,1,0,0:0:0:0:
129,143,51961,6,0,P|161:136|209:126,1,60.0000022888184,2|0,0:0|0:0,0:0:0:0:
279,7,52351,2,0,P|270:36|263:69,1,60.0000022888184,0|0,0:0|0:0,0:0:0:0:
226,223,52740,1,2,0:0:0:0:
187,130,52935,1,0,0:0:0:0:
319,189,53130,1,0,0:0:0:0:
153,250,53325,1,0,0:0:0:0:
153,250,53422,1,0,0:0:0:0:
153,250,53520,6,0,P|144:215|137:177,1,71.9999978027344,0|0,3:0|0:0,0:0:0:0:
202,19,53909,1,0,3:0:0:0:
300,104,54104,2,0,P|293:139|284:174,1,71.9999978027344,0|2,0:0|3:2,0:0:0:0:
223,297,54494,2,0,P|239:303|256:310,1,35.9999989013672,0|0,0:0|0:0,0:0:0:0:
352,232,54688,2,0,P|336:241|321:250,1,35.9999989013672,0|0,3:0|0:0,0:0:0:0:
209,182,54883,2,0,P|215:206|223:232,1,35.9999989013672,2|0,0:0|0:0,0:0:0:0:
335,355,55078,5,0,3:0:0:0:
352,348,55175,1,0,0:0:0:0:
370,344,55273,1,0,0:0:0:0:
388,340,55370,1,0,0:0:0:0:
413,335,55468,5,0,3:0:0:0:
397,316,55565,1,0,0:0:0:0:
387,293,55662,1,0,0:0:0:0:
388,267,55760,1,0,0:0:0:0:
405,239,55857,5,2,3:2:0:0:
425,213,55955,1,0,0:0:0:0:
431,181,56052,1,0,0:0:0:0:
426,149,56149,1,0,0:0:0:0:
398,116,56247,5,0,3:0:0:0:
367,145,56344,1,0,0:0:0:0:
327,160,56442,1,2,0:0:0:0:
285,156,56539,1,0,0:0:0:0:
245,142,56636,6,0,P|181:197|92:184,1,167.999994873047,4|0,0:0|0:0,0:0:0:0:
77,176,57416,1,0,0:0:0:0:
173,45,57610,2,0,P|183:67|188:97,1,40,0|0,1:0|0:0,0:0:0:0:
328,144,57805,2,0,P|322:163|314:181,1,40,0|0,1:0|0:0,0:0:0:0:
256,282,58000,5,4,1:0:0:0:
256,192,58097,12,0,60338,0:0:0:0:
256,282,60533,5,0,0:0:0:0:
215,177,60727,1,0,0:0:0:0:
156,337,60922,2,0,L|207:326,1,40,0|0,1:0|0:0,0:0:0:0:
305,278,61117,1,0,1:0:0:0:
274,271,61214,1,0,1:0:0:0:
243,265,61312,6,0,P|222:232|225:179,1,88.000002685547,4|0,0:0|0:0,0:0:0:0:
332,88,61701,1,0,1:0:0:0:
332,88,61799,2,0,P|329:67|323:44,1,44.0000013427735,0|0,0:0|0:0,0:0:0:0:
425,164,61994,1,0,3:0:0:0:
425,164,62091,2,0,P|432:144|436:121,1,44.0000013427735,0|0,3:0|0:0,0:0:0:0:
303,206,62286,1,0,0:0:0:0:
469,254,62481,1,0,1:0:0:0:
264,340,62675,6,0,L|80:306,1,176.000005371094,2|2,0:0|0:0,0:0:0:0:
33,358,63162,1,2,0:0:0:0:
33,358,63260,2,0,P|81:348|136:336,1,88.000002685547,0|0,1:0|0:0,0:0:0:0:
231,260,63649,2,0,L|219:217,1,44.0000013427735,0|0,3:0|0:0,0:0:0:0:
275,91,63844,2,0,L|243:123,1,44.0000013427735,0|0,0:0|0:0,0:0:0:0:
107,135,64039,2,0,L|149:146,1,44.0000013427735,0|0,1:0|0:0,0:0:0:0:
339,201,64234,2,0,L|296:189,1,44.0000013427735,2|0,0:0|0:0,0:0:0:0:
190,111,64429,5,0,3:0:0:0:
107,260,64623,2,0,L|138:228,1,44.0000013427735,2|0,0:0|0:0,0:0:0:0:
167,27,64818,2,0,L|194:124,1,88.000002685547,2|0,0:0|0:0,0:0:0:0:
214,189,65110,1,0,1:0:0:0:
214,189,65208,2,0,P|237:179|264:174,1,44.0000013427735,2|0,3:2|0:0,0:0:0:0:
401,251,65403,2,0,P|379:245|359:236,1,44.0000013427735,2|0,0:0|0:0,0:0:0:0:
306,108,65597,1,0,1:0:0:0:
309,351,65792,6,0,P|321:287|336:206,1,132.00000402832,2|0,0:0|0:0,0:0:0:0:
338,193,66182,1,2,0:0:0:0:
362,66,66377,1,2,1:2:0:0:
401,251,66571,1,0,0:0:0:0:
480,113,66766,2,0,L|436:103,1,44.0000013427735,0|0,3:0|0:0,0:0:0:0:
270,179,66961,2,0,L|313:169,1,44.0000013427735,0|0,1:2|0:0,0:0:0:0:
472,16,67156,1,0,1:0:0:0:
425,8,67253,1,0,1:0:0:0:
386,17,67351,1,0,1:2:0:0:
357,44,67448,1,0,1:0:0:0:
339,79,67545,6,0,L|244:58,1,88.000002685547,4|0,0:0|0:0,0:0:0:0:
85,84,67935,1,0,1:0:0:0:
85,84,68033,2,0,P|113:99|140:121,1,44.0000013427735,0|0,0:0|0:0,0:0:0:0:
248,137,68227,1,0,1:0:0:0:
248,137,68325,2,0,P|230:153|213:173,1,44.0000013427735,0|0,3:0|0:0,0:0:0:0:
140,236,68520,1,0,0:0:0:0:
195,58,68714,1,0,1:0:0:0:
70,168,68909,6,0,P|90:253|110:338,1,176.000005371094,2|2,0:0|0:0,0:0:0:0:
110,339,69396,1,2,0:0:0:0:
110,339,69494,1,0,1:0:0:0:
267,370,69688,1,2,0:0:0:0:
267,370,69786,1,2,0:0:0:0:
267,370,69883,2,0,L|277:314,1,44.0000013427735,0|0,3:0|0:0,0:0:0:0:
318,115,70078,2,0,L|307:170,1,44.0000013427735,2|0,0:0|0:0,0:0:0:0:
173,281,70273,2,0,L|226:262,1,44.0000013427735,0|0,1:0|0:0,0:0:0:0:
390,325,70468,2,0,L|347:288,1,44.0000013427735,2|0,0:0|0:0,0:0:0:0:
228,188,70662,5,0,3:0:0:0:
414,202,70857,2,0,L|370:217,1,44.0000013427735,2|0,0:0|0:0,0:0:0:0:
228,188,71052,2,0,P|204:147|208:96,1,88.000002685547,2|0,1:2|0:0,0:0:0:0:
254,46,71344,1,0,1:0:0:0:
254,46,71442,2,0,L|240:112,1,44.0000013427735,2|0,3:2|0:0,0:0:0:0:
146,223,71636,2,0,L|136:179,1,44.0000013427735,2|0,0:0|0:0,0:0:0:0:
66,95,71831,1,0,1:0:0:0:
0,330,72026,6,0,P|34:296|130:307,1,132.00000402832,2|0,0:0|0:0,0:0:0:0:
138,315,72416,1,2,0:0:0:0:
317,253,72610,2,0,L|214:274,1,88.000002685547,0|0,1:0|0:0,0:0:0:0:
196,373,73000,1,0,3:0:0:0:
103,168,73195,1,0,1:0:0:0:
141,175,73292,1,0,1:0:0:0:
180,182,73390,1,0,1:0:0:0:
219,191,73487,1,0,1:0:0:0:
257,200,73584,1,0,1:0:0:0:
296,210,73682,1,0,1:0:0:0:
334,220,73779,6,0,P|356:182|354:139,1,88.000002685547,4|0,0:0|0:0,0:0:0:0:
187,67,74169,1,0,1:0:0:0:
187,67,74266,2,0,P|191:41|197:16,1,44.0000013427735,0|0,0:0|0:0,0:0:0:0:
276,163,74461,1,0,1:0:0:0:
276,163,74558,2,0,P|267:137|258:100,1,44.0000013427735,0|0,3:0|0:0,0:0:0:0:
144,235,74753,1,0,0:0:0:0:
314,304,74948,1,0,1:0:0:0:
113,365,75143,6,0,B|99:310|99:310|136:186,1,176.000005371094,2|2,0:0|0:0,0:0:0:0:
133,195,75630,1,2,0:0:0:0:
133,195,75727,2,0,P|85:216|43:216,1,88.000002685547,0|0,1:0|0:0,0:0:0:0:
145,84,76117,2,0,P|157:101|174:116,1,44.0000013427735,0|0,3:2|0:0,0:0:0:0:
356,45,76312,2,0,P|334:46|313:53,1,44.0000013427735,2|0,0:0|0:0,0:0:0:0:
286,241,76507,2,0,P|295:221|299:199,1,44.0000013427735,0|0,1:0|0:0,0:0:0:0:
242,10,76701,2,0,P|232:29|228:51,1,44.0000013427735,2|0,0:0|0:0,0:0:0:0:
348,128,76896,5,0,3:0:0:0:
169,200,77091,2,0,P|190:198|211:191,1,44.0000013427735,2|0,0:0|0:0,0:0:0:0:
434,148,77286,2,0,P|390:139|348:128,1,88.000002685547,2|0,1:2|0:0,0:0:0:0:
268,119,77578,1,0,1:0:0:0:
268,119,77675,2,0,L|282:175,1,44.0000013427735,0|0,3:0|0:0,0:0:0:0:
346,338,77870,2,0,L|356:279,1,44.0000013427735,0|0,0:0|0:0,0:0:0:0:
371,209,78065,1,0,1:0:0:0:
225,299,78260,6,0,P|268:308|310:319,1,88.000002685547,2|0,0:0|3:0,0:0:0:0:
481,180,78649,1,2,0:0:0:0:
383,130,78844,1,0,1:0:0:0:
322,294,79039,1,0,0:0:0:0:
417,220,79234,2,0,L|406:166,1,44.0000013427735,0|0,3:0|0:0,0:0:0:0:
284,49,79429,2,0,L|295:103,1,44.0000013427735,0|0,1:0|0:0,0:0:0:0:
186,263,79623,1,0,1:2:0:0:
223,252,79721,1,0,1:2:0:0:
261,244,79818,1,0,1:2:0:0:
294,266,79916,1,0,1:2:0:0:
322,294,80013,6,0,P|314:337|308:384,1,88.000002685547,4|0,0:0|0:0,0:0:0:0:
191,179,80403,1,0,1:0:0:0:
191,179,80500,2,0,P|198:135|205:89,1,88.000002685547,0|0,0:0|1:0,0:0:0:0:
235,66,80792,2,0,P|232:44|225:14,1,44.0000013427735,0|0,3:0|0:0,0:0:0:0:
108,144,80987,1,0,0:0:0:0:
270,218,81182,1,0,1:0:0:0:
84,61,81377,6,0,P|32:105|62:216,1,176.000005371094
47,204,81864,1,0,0:0:0:0:
47,204,81961,1,0,1:0:0:0:
178,278,82156,1,2,0:0:0:0:
178,278,82253,1,2,0:0:0:0:
178,278,82351,2,0,L|241:260,1,44.0000013427735,0|0,3:0|0:0,0:0:0:0:
415,210,82545,2,0,L|351:228,1,44.0000013427735,2|0,0:0|0:0,0:0:0:0:
210,160,82740,2,0,L|241:190,1,44.0000013427735,0|0,1:0|0:0,0:0:0:0:
266,364,82935,2,0,L|276:321,1,44.0000013427735,2|0,0:0|0:0,0:0:0:0:
314,169,83130,5,0,0:0:0:0:
386,332,83325,2,0,L|354:301,1,44.0000013427735,2|0,0:0|0:0,0:0:0:0:
314,169,83520,2,0,L|336:79,1,88.000002685547,0|0,1:0|0:0,0:0:0:0:
338,8,83812,1,0,1:0:0:0:
338,8,83909,2,0,P|308:12|279:28,1,44.0000013427735,0|0,3:0|0:0,0:0:0:0:
192,161,84104,2,0,P|213:158|234:151,1,44.0000013427735,2|0,0:0|0:0,0:0:0:0:
335,84,84299,1,0,1:0:0:0:
203,22,84494,6,0,L|234:151,1,132.00000402832,2|0,0:0|0:0,0:0:0:0:
241,177,84883,1,2,0:0:0:0:
276,307,85078,1,0,1:0:0:0:
325,129,85273,1,2,0:0:0:0:
325,129,85370,1,2,0:0:0:0:
325,129,85468,1,0,3:0:0:0:
161,210,85662,1,0,0:0:0:0:
383,296,85857,2,0,P|379:273|369:242,1,44.0000013427735,0|0,1:0|0:0,0:0:0:0:
189,150,86052,2,0,P|183:171|180:193,1,44.0000013427735,0|0,1:2|0:0,0:0:0:0:
215,318,86247,5,4,0:1:0:0:
307,293,86442,1,0,0:0:0:0:
154,374,86636,1,0,0:0:0:0:
318,282,86831,2,0,P|357:274|396:268,1,80,2|0,0:0|0:0,0:0:0:0:
512,167,87221,2,0,B|472:172|472:172|425:152,1,80,2|0,0:0|0:0,0:0:0:0:
194,171,87610,6,0,B|236:159|274:152|274:152|312:169|331:179,1,120,0|0,1:0|0:0,0:0:0:0:
334,186,88000,2,0,L|343:137,1,40,0|0,0:0|0:0,0:0:0:0:
364,40,88195,1,0,1:0:0:0:
404,242,88390,1,0,1:0:0:0:
361,26,88584,1,0,1:0:0:0:
307,294,88779,1,4,0:0:0:0:
