osu file format v14

[General]
AudioFilename: audio.mp3
AudioLeadIn: 0
PreviewTime: 60484
Countdown: 0
SampleSet: Soft
StackLeniency: 0.7
Mode: 0
LetterboxInBreaks: 0
WidescreenStoryboard: 0

[Editor]
Bookmarks: 9104,28584,34818,88779
DistanceSpacing: 1
BeatDivisor: 4
GridSize: 32
TimelineZoom: 1.1

[Metadata]
Title:The Other Side of the Wall (TV Size)
TitleUnicode:The Other Side of the Wall (TV Size)
Artist:Void_Chords feat.MARU
ArtistUnicode:Void_Chords feat.MARU
Creator:DreaM117er
Version:Easy
Source:プリンセス・プリンシパル
Tags:Princess Principal 2017 summer season anime TV size OP opening fanzhen0019 m1223961117
BeatmapID:1411502
BeatmapSetID:667020

[Difficulty]
HPDrainRate:3
CircleSize:2.5
OverallDifficulty:2
ApproachRate:3
SliderMultiplier:0.9
SliderTickRate:1

[Events]
//Background and Video events
0,0,"BG.png",0,0
Video,0,"VDO.flv"
//Break Periods
2,22740,27144
//Storyboard Layer 0 (Background)
//Storyboard Layer 1 (Fail)
//Storyboard Layer 2 (Pass)
//Storyboard Layer 3 (Foreground)
//Storyboard Sound Samples

[TimingPoints]
533,389.61038961039,4,2,1,70,1,0
9883,-100,4,2,1,70,0,1
9981,-100,4,2,1,70,0,0
22351,-100,4,2,1,40,0,0
34818,-100,4,2,1,50,0,0
47286,-100,4,2,1,40,0,0
53520,-100,4,2,1,50,0,0
56636,-100,4,2,1,60,0,0
60533,-100,4,2,1,30,0,0
61312,-100,4,2,1,70,0,1
67351,-100,4,2,1,70,0,0
67545,-100,4,2,1,70,0,1
79818,-100,4,2,1,70,0,0
80013,-100,4,2,1,70,0,1
86247,-100,4,2,1,60,0,0
88195,-100,4,2,1,40,0,0
88584,-100,4,2,1,60,0,0

[Colours]
Combo1 : 243,235,124
Combo2 : 192,142,39
Combo3 : 251,241,174
Combo4 : 177,115,88

[HitObjects]
132,318,9883,5,4,0:1:0:0:
59,264,10273,2,0,P|100:233|182:241,1,135,0|2,1:0|3:2,0:0:0:0:
248,298,11247,2,0,L|226:152,1,135,2|0,3:2|1:0,0:0:0:0:
312,133,12221,2,0,L|328:236,1,90,0|0,3:0|1:0,0:0:0:0:
378,295,13000,5,0,3:0:0:0:
432,366,13390,2,0,P|465:310|428:222,1,135,0|2,1:0|3:2,0:0:0:0:
369,204,14364,2,0,L|214:231,1,135,2|0,3:2|1:0,0:0:0:0:
165,282,15338,1,0,3:0:0:0:
79,254,15727,1,0,1:0:0:0:
62,165,16117,5,4,0:1:0:0:
128,104,16507,2,0,P|194:104|247:64,1,135,0|2,1:0|3:2,0:0:0:0:
322,14,17481,2,0,P|365:54|456:55,1,135,2|0,3:2|1:0,0:0:0:0:
508,117,18455,2,0,L|496:216,1,90,0|0,3:0|1:0,0:0:0:0:
483,295,19234,5,0,3:0:0:0:
410,348,19623,2,0,P|362:333|261:325,1,135,0|2,1:0|3:2,0:0:0:0:
209,265,20597,2,0,P|131:263|85:308,1,135,2|0,3:2|1:0,0:0:0:0:
167,345,21571,2,0,L|140:156,1,180,0|4,3:0|0:1,0:0:0:0:
364,58,28584,6,0,L|374:-5,2,45,2|0|2,0:0|0:0|0:0,0:0:0:0:
304,126,29364,2,0,L|317:190,1,45,0|2,0:0|0:0,0:0:0:0:
374,235,29948,2,0,P|330:257|280:252,1,90,2|0,0:0|0:0,0:0:0:0:
217,308,30727,2,0,P|173:286|123:291,1,90,2|0,0:0|0:0,0:0:0:0:
64,346,31507,6,0,L|81:198,1,135,2|2,0:0|0:0,0:0:0:0:
92,122,32481,1,2,0:0:0:0:
196,36,33065,2,0,P|231:91|222:166,1,135,2|2,0:0|0:0,0:0:0:0:
168,226,34039,2,0,L|52:207,1,90,0|2,0:0|0:0,0:0:0:0:
12,271,34818,5,4,0:0:0:0:
38,357,35208,2,0,P|93:338|192:335,1,135,0|2,3:0|0:0,0:0:0:0:
255,306,36182,2,0,P|295:324|357:319,1,90,0|2,0:0|0:0,0:0:0:0:
427,348,36961,2,0,L|449:209,1,135,2|0,0:0|3:0,0:0:0:0:
507,146,37935,6,0,P|460:124|404:136,1,90,2|0,3:2|3:0,0:0:0:0:
333,137,38714,2,0,P|299:88|311:10,2,135,0|2|0,3:0|0:0|3:0,0:0:0:0:
357,223,40273,2,0,P|310:245|254:233,1,90,0|0,3:0|3:0,0:0:0:0:
184,223,41052,6,0,L|162:377,2,135,2|2|0,3:2|0:0|3:0,0:0:0:0:
192,133,42610,2,0,P|160:89|22:108,1,180,2|2,3:2|3:2,0:0:0:0:
0,166,43779,1,2,3:2:0:0:
42,245,44169,6,0,P|81:268|139:261,1,90,0|2,3:0|3:2,0:0:0:0:
205,227,44948,1,2,3:2:0:0:
287,189,45338,2,0,L|342:179,1,45,0|4,3:0|1:2,0:0:0:0:
395,243,45922,2,0,L|450:253,1,45,0|4,3:0|1:2,0:0:0:0:
508,192,46507,2,0,P|497:145|489:94,1,90,0|0,1:0|1:0,0:0:0:0:
435,31,47286,5,2,0:0:0:0:
350,62,47675,2,0,P|367:135|380:211,1,135,0|2,0:0|0:0,0:0:0:0:
405,280,48649,2,0,P|360:283|321:264,1,90,2|0,0:0|0:0,0:0:0:0:
245,214,49429,2,0,P|188:256|112:241,1,135,2|0,0:0|0:0,0:0:0:0:
60,189,50403,6,0,L|40:371,2,180,2|2|2,0:0|0:0|0:0,0:0:0:0:
80,101,52351,1,0,0:0:0:0:
18,35,52740,2,0,P|62:12|113:21,1,90,2|0,0:0|0:0,0:0:0:0:
186,43,53520,6,0,L|202:141,1,90,0|0,3:0|3:0,0:0:0:0:
238,213,54299,1,2,3:2:0:0:
183,284,54688,2,0,L|131:276,2,45,0|2|0,3:0|0:0|3:0,0:0:0:0:
250,344,55468,1,0,3:0:0:0:
328,300,55857,2,0,P|370:287|438:282,1,90,2|0,3:2|3:0,0:0:0:0:
482,220,56636,6,0,P|442:98|366:201,1,315,4|4,0:0|1:0,0:0:0:0:
170,92,60533,6,0,P|128:105|60:110,1,90,0|0,1:0|0:0,0:0:0:0:
12,167,61312,5,4,0:0:0:0:
67,237,61701,2,0,P|126:217|203:207,1,135,0|2,1:0|0:0,0:0:0:0:
286,224,62675,2,0,B|265:357,1,135,2|0,0:0|1:0,0:0:0:0:
178,340,63649,2,0,L|200:186,1,135,0|2,3:0|0:0,0:0:0:0:
195,117,64623,6,0,L|237:102,1,45,0|2,0:0|1:2,0:0:0:0:
295,32,65208,2,0,L|346:45,1,45,2|2,3:2|0:0,0:0:0:0:
428,48,65792,2,0,L|447:181,1,135,2|2,0:0|1:2,0:0:0:0:
462,270,66766,1,0,3:0:0:0:
383,313,67156,1,0,1:0:0:0:
309,262,67545,5,4,0:0:0:0:
232,310,67935,2,0,P|172:331|92:311,1,135,0|2,1:0|0:0,0:0:0:0:
26,274,68909,2,0,L|48:129,1,135,2|0,0:0|1:0,0:0:0:0:
10,59,69883,2,0,P|76:58|127:99,1,135,0|2,3:0|0:0,0:0:0:0:
201,150,70857,6,0,L|188:213,1,45,0|2,0:0|1:2,0:0:0:0:
122,252,71442,2,0,L|136:312,1,45,2|2,3:2|0:0,0:0:0:0:
182,370,72026,2,0,P|250:355|334:347,1,135,2|2,0:0|1:2,0:0:0:0:
401,374,73000,2,0,P|403:329|383:289,1,90,0|0,1:0|1:0,0:0:0:0:
313,233,73779,5,4,0:0:0:0:
333,145,74169,2,0,P|420:124|472:115,1,135,0|2,1:0|0:0,0:0:0:0:
472,26,75143,2,0,P|400:38|321:55,1,135,2|0,0:0|1:0,0:0:0:0:
260,93,76117,2,0,P|214:59|129:70,1,135,0|2,0:0|0:0,0:0:0:0:
87,137,77091,6,0,L|99:200,1,45,2|2,0:0|1:2,0:0:0:0:
183,206,77675,2,0,L|169:271,1,45,0|2,3:0|0:0,0:0:0:0:
231,319,78260,2,0,P|168:308|71:297,1,135,2|2,0:0|1:2,0:0:0:0:
14,333,79234,1,0,3:0:0:0:
26,244,79623,1,0,1:0:0:0:
18,155,80013,5,4,0:0:0:0:
101,189,80403,2,0,P|169:198|238:162,1,135,0|2,1:0|0:0,0:0:0:0:
316,155,81377,2,0,L|291:11,1,135,2|0,0:0|1:0,0:0:0:0:
205,38,82351,2,0,L|229:178,1,135,0|2,3:0|0:0,0:0:0:0:
247,258,83325,6,0,L|301:273,1,45,0|2,0:0|1:2,0:0:0:0:
351,336,83909,2,0,L|419:322,1,45,2|2,3:2|0:0,0:0:0:0:
477,367,84494,2,0,L|500:234,1,135,2|2,0:0|1:2,0:0:0:0:
479,146,85468,1,0,3:0:0:0:
406,92,85857,1,0,1:0:0:0:
316,100,86247,6,0,B|285:120|257:135|257:135|220:128|170:118,1,135,4|2,0:1|0:0,0:0:0:0:
108,87,87221,1,2,0:0:0:0:
35,140,87610,2,0,P|7:196|23:270,1,135,0|0,1:0|1:0,0:0:0:0:
87,324,88584,2,0,L|147:314,1,45,0|4,1:0|1:2,0:0:0:0:
