osu file format v14

[General]
AudioFilename: audio.mp3
AudioLeadIn: 0
PreviewTime: 60529
Countdown: 0
SampleSet: Soft
StackLeniency: 0.7
Mode: 0
LetterboxInBreaks: 0
WidescreenStoryboard: 1

[Editor]
Bookmarks: 627,2185,9977,22445,34912,47380,61406,86341
DistanceSpacing: 1
BeatDivisor: 4
GridSize: 32
TimelineZoom: 2.5

[Metadata]
Title:The Other Side of the Wall
TitleUnicode:The Other Side of the Wall
Artist:Void_Chords feat.MARU
ArtistUnicode:Void_Chords feat.MARU
Creator:Mir
Version:Hard
Source:プリンセス・プリンシパル
Tags:Princess Principal opening sentai filmworks actas studio 3hz tv size lcfc lowcombofc naotoshi nao tomori
BeatmapID:1578803
BeatmapSetID:749343

[Difficulty]
HPDrainRate:4
CircleSize:3
OverallDifficulty:6
ApproachRate:7.5
SliderMultiplier:1.76
SliderTickRate:1

[Events]
//Background and Video events
0,0,"principal.jpg",0,0
//Break Periods
//Storyboard Layer 0 (Background)
//Storyboard Layer 1 (Fail)
//Storyboard Layer 2 (Pass)
//Storyboard Layer 3 (Foreground)
//Storyboard Sound Samples

[TimingPoints]
627,389.61038961039,4,2,1,70,1,0
2185,-125,4,2,1,50,0,0
9652,-125,4,2,1,10,0,0
9717,-125,4,2,1,50,0,0
9782,-125,4,2,1,10,0,0
9847,-125,4,2,1,50,0,0
9912,-125,4,2,1,10,0,0
9977,-100,4,2,1,70,0,0
10367,-100,4,2,1,70,0,0
10562,-100,4,2,1,70,0,0
16211,-100,4,2,1,70,0,0
16601,-100,4,2,1,70,0,0
16796,-100,4,2,1,70,0,0
22445,-125,4,2,1,40,0,0
34912,-111.111111111111,4,2,1,50,0,0
47380,-125,4,2,1,30,0,0
53614,-100,4,2,1,30,0,0
56730,-100,4,2,1,40,0,0
57120,-100,4,2,1,50,0,0
57510,-100,4,2,1,60,0,0
57899,-100,4,2,1,70,0,0
60627,-100,4,2,1,70,0,0
61406,-100,4,2,1,70,0,0
61795,-83.3333333333333,4,2,1,70,0,1
62185,-83.3333333333333,4,2,1,70,0,1
67639,-83.3333333333333,4,2,1,70,0,0
68029,-83.3333333333333,4,2,1,70,0,1
68419,-83.3333333333333,4,2,1,70,0,1
73873,-83.3333333333333,4,2,1,70,0,0
74263,-83.3333333333333,4,2,1,70,0,1
74653,-83.3333333333333,4,2,1,70,0,1
80107,-83.3333333333333,4,2,1,70,0,0
80497,-83.3333333333333,4,2,1,70,0,1
80887,-83.3333333333333,4,2,1,70,0,1
86341,-125,4,2,1,50,0,0

[Colours]
Combo1 : 236,209,164
Combo2 : 255,198,170
Combo3 : 249,169,155
Combo4 : 253,226,187

[HitObjects]
256,192,627,12,0,1795,0:2:0:0:
90,205,2185,6,0,L|77:75,2,105.6,6|2|2,0:2|0:2|0:2,0:0:0:0:
108,330,3062,1,2,0:2:0:0:
215,263,3354,6,0,P|294:253|340:270,1,105.6,2|2,0:2|0:2,0:0:0:0:
402,353,3938,2,0,P|453:361|504:349,1,105.6,2|2,0:2|0:2,0:0:0:0:
487,223,4523,2,0,L|471:90,2,105.6,2|2|2,0:2|0:2|0:2,0:0:0:0:
411,261,5302,6,0,P|361:250|293:229,1,105.6,2|2,0:2|0:2,0:0:0:0:
281,202,5691,1,4,0:2:0:0:
198,221,5886,2,0,L|208:318,1,70.4,2|0,0:2|0:2,0:0:0:0:
120,326,6276,1,4,0:2:0:0:
120,326,6471,2,0,L|112:255,1,70.4,2|0,0:2|0:2,0:0:0:0:
23,277,6860,1,6,0:2:0:0:
23,277,7055,2,0,L|30:206,1,70.4,2|0,0:2|0:2,0:0:0:0:
114,169,7445,1,4,0:2:0:0:
48,56,7639,5,2,0:2:0:0:
215,41,7932,1,2,0:2:0:0:
375,25,8224,6,0,L|416:21,13,23.4666666666667,2|0|0|0|0|0|0|0|0|0|0|0|0|0,0:2|0:2|0:2|0:2|0:2|0:2|0:2|0:2|0:2|0:2|0:2|0:2|0:2|0:2,0:0:0:0:
343,97,9198,6,0,L|307:100,3,35.2,0|0|0|0,0:2|0:2|0:2|0:2,0:0:0:0:
399,158,9588,6,0,L|460:155,2,46.9333333333333,0|0|0,0:2|0:2|0:2,0:0:0:0:
370,240,9977,5,0,3:2:0:0:
370,240,10367,2,0,L|214:232,1,132,4|0,0:2|3:2,0:0:0:0:
209,272,10756,1,0,3:2:0:0:
131,213,10951,1,0,3:2:0:0:
45,258,11146,1,8,0:2:0:0:
118,195,11341,6,0,B|124:2,1,176,0|0,3:2|3:2,0:0:0:0:
210,61,11925,2,0,P|261:56|306:39,1,88,8|0,0:2|3:2,0:0:0:0:
339,23,12217,1,0,3:2:0:0:
339,23,12315,1,0,3:2:0:0:
422,72,12510,1,0,3:2:0:0:
437,167,12704,2,0,P|435:225|433:263,1,88,8|0,0:2|0:2,0:0:0:0:
498,327,13094,6,0,P|436:294|328:343,1,176,0|8,3:2|0:2,0:0:0:0:
325,372,13581,1,0,3:0:0:0:
250,310,13776,1,8,0:2:0:0:
250,310,13873,2,0,L|266:202,2,88,0|0|8,3:2|3:2|0:2,0:0:0:0:
155,334,14458,6,0,B|68:288|75:376|-40:323,1,176,0|0,3:2|3:2,0:0:0:0:
26,245,15042,1,8,0:2:0:0:
93,175,15237,2,0,P|156:181|198:188,1,88,8|0,0:2|3:2,0:0:0:0:
245,111,15627,1,8,0:2:0:0:
319,172,15821,1,8,0:2:0:0:
319,172,15919,1,8,0:2:0:0:
319,172,16016,1,8,0:2:0:0:
256,232,16211,5,0,3:2:0:0:
256,232,16601,2,0,L|407:224,1,132,12|0,0:2|3:2,0:0:0:0:
412,266,16990,1,0,3:2:0:0:
482,199,17185,1,0,3:2:0:0:
416,127,17380,1,8,0:2:0:0:
468,45,17575,6,0,P|391:33|319:129,1,176,0|0,3:2|3:2,0:0:0:0:
302,190,18159,2,0,P|246:190|196:184,1,88,8|0,0:2|3:2,0:0:0:0:
148,124,18549,1,0,3:2:0:0:
148,124,18743,1,0,3:2:0:0:
68,179,18938,2,0,L|78:287,1,88,8|0,0:2|0:2,0:0:0:0:
131,346,19328,6,0,P|210:324|327:334,1,176,0|8,3:2|0:2,0:0:0:0:
328,369,19815,1,0,3:2:0:0:
416,330,20010,1,0,3:2:0:0:
416,330,20107,2,0,L|428:242,2,88,0|0|8,3:2|3:2|0:2,0:0:0:0:
507,318,20691,6,0,B|522:203|522:203|470:146,1,176,0|0,3:2|3:2,0:0:0:0:
410,92,21276,1,8,0:2:0:0:
410,92,21471,1,8,0:2:0:0:
331,147,21665,2,0,B|289:160|289:160|219:152,1,88,0|8,3:2|0:2,0:0:0:0:
148,143,22055,1,8,0:2:0:0:
148,143,22152,1,8,0:2:0:0:
148,143,22250,1,8,0:2:0:0:
181,233,22445,5,12,3:2:0:0:
216,42,22834,5,0,3:2:0:0:
216,42,23614,1,2,0:2:0:0:
306,74,23808,6,0,P|384:81|406:82,1,70.4,2|0,0:2|0:0,0:0:0:0:
449,24,24198,1,2,0:2:0:0:
501,98,24393,1,2,0:2:0:0:
135,219,25562,5,2,0:2:0:0:
135,219,25756,1,2,0:2:0:0:
346,333,26730,5,2,0:2:0:0:
271,280,26925,6,0,P|209:284|174:289,1,70.4,2|0,0:2|0:0,0:0:0:0:
135,219,27315,1,2,0:2:0:0:
169,134,27510,1,2,0:2:0:0:
403,68,28678,5,2,0:2:0:0:
403,68,28873,1,2,0:2:0:0:
375,155,29068,1,2,0:2:0:0:
211,71,29458,1,2,0:2:0:0:
131,114,29652,2,0,P|72:112|46:108,1,70.4,2|0,0:2|0:2,0:0:0:0:
5,37,30042,6,0,L|12:208,1,140.8,2|2,0:2|0:2,0:0:0:0:
18,269,30627,1,0,0:0:0:0:
237,107,31795,5,2,0:2:0:0:
237,107,31990,1,2,0:2:0:0:
290,319,32964,5,2,0:2:0:0:
237,243,33159,1,2,0:2:0:0:
237,243,33256,1,0,0:2:0:0:
237,243,33354,2,0,L|177:255,3,35.2,2|2|2|0,0:2|0:2|0:2|0:2,0:0:0:0:
165,174,33743,2,0,L|130:167,3,35.2,0|0|0|2,0:2|0:2|0:2|0:2,0:0:0:0:
56,212,34133,6,0,P|10:197|-21:174,1,70.4,2|0,0:0|3:0,0:0:0:0:
98,302,34523,1,0,3:2:0:0:
98,302,34620,1,0,3:2:0:0:
98,302,34717,2,0,L|92:349,1,35.2,8|8,0:2|0:2,0:0:0:0:
53,370,34912,6,0,P|122:345|226:376,1,158.399995166016,4|0,3:2|3:2,0:0:0:0:
235,262,35497,1,0,0:2:0:0:
312,328,35691,2,0,P|370:333|403:323,2,79.1999975830079,0|0|0,3:2|0:2|3:2,0:0:0:0:
235,262,36276,6,0,L|249:174,1,79.1999975830079,0|0,0:2|3:2,0:0:0:0:
153,142,36665,2,0,L|139:54,1,79.1999975830079,0|0,0:2|3:2,0:0:0:0:
232,16,37055,2,0,P|288:12|336:16,1,79.1999975830079,0|0,0:2|3:2,0:0:0:0:
373,95,37445,2,0,P|412:95|451:92,1,79.1999975830079,0|0,0:2|3:2,0:0:0:0:
503,181,37834,1,0,0:2:0:0:
503,181,38029,6,0,L|491:284,2,79.1999975830079,0|0|0,3:2|0:2|3:2,0:0:0:0:
451,92,38614,2,0,P|412:95|373:94,1,79.1999975830079,0|0,0:2|0:0,0:0:0:0:
306,173,39003,1,0,0:2:0:0:
306,173,39198,1,0,3:2:0:0:
222,112,39393,6,0,P|182:111|143:114,1,79.1999975830079,8|0,0:2|3:2,0:0:0:0:
72,190,39782,1,0,0:2:0:0:
72,190,39977,1,0,3:2:0:0:
108,286,40172,2,0,L|91:388,1,79.1999975830079,8|0,0:2|3:2,0:0:0:0:
203,353,40562,1,8,0:2:0:0:
203,353,40659,1,8,0:2:0:0:
203,353,40756,1,0,3:2:0:0:
280,285,40951,1,8,0:2:0:0:
280,285,41146,6,0,L|457:276,1,158.399995166016,0|0,3:2|3:2,0:0:0:0:
500,195,41730,2,0,P|501:132|482:86,1,79.1999975830079,0|0,0:2|3:2,0:0:0:0:
408,63,42120,2,0,L|328:67,1,79.1999975830079,0|0,0:2|3:2,0:0:0:0:
250,134,42510,6,0,B|171:88|182:178|66:115,1,158.399995166016,0|0,0:2|0:2,0:0:0:0:
0,105,43094,2,0,L|11:210,1,79.1999975830079,0|0,3:2|0:2,0:0:0:0:
102,227,43484,1,0,3:2:0:0:
102,227,43678,2,0,L|91:332,2,79.1999975830079,0|0|0,0:2|3:2|0:2,0:0:0:0:
204,243,44263,6,0,P|268:232|381:264,1,158.399995166016,0|0,3:2|3:2,0:0:0:0:
433,321,44847,2,0,L|458:209,1,79.1999975830079,0|0,0:2|3:2,0:0:0:0:
394,156,45237,1,0,0:2:0:0:
394,156,45432,1,0,3:2:0:0:
461,77,45627,1,12,0:2:0:0:
359,60,45821,1,0,3:0:0:0:
359,60,46211,5,12,3:2:0:0:
153,78,46601,1,8,0:2:0:0:
153,78,46698,1,8,0:2:0:0:
153,78,46795,2,0,L|161:142,1,39.5999987915039,8|8,0:2|0:2,0:0:0:0:
166,168,46990,2,0,L|170:207,3,39.5999987915039,8|8|8|8,0:2|0:2|0:2|0:2,0:0:0:0:
177,264,47380,6,0,P|94:259|38:199,2,140.8,6|2|2,3:2|0:2|0:2,0:0:0:0:
261,228,48354,2,0,P|265:285|263:324,1,70.4,0|2,0:2|0:2,0:0:0:0:
192,354,48743,1,0,0:2:0:0:
140,178,49133,1,0,0:2:0:0:
279,59,49523,2,0,P|349:46|439:45,2,140.8,0|2|2,0:2|0:2|0:2,0:0:0:0:
199,103,50497,6,0,B|169:94|129:100|129:100|107:95|79:66,2,105.6,2|2|2,0:2|0:2|0:2,0:0:0:0:
372,160,51471,2,0,L|354:300,1,140.8,0|2,0:0|0:2,0:0:0:0:
283,358,52055,1,2,0:2:0:0:
283,358,53029,5,2,0:2:0:0:
223,288,53224,1,2,0:2:0:0:
131,298,53419,6,0,P|86:295|40:283,2,70.4,2|0|0,0:2|3:2|0:2,0:0:0:0:
185,197,54003,2,0,P|181:137|170:82,1,88,0|0,3:2|0:2,0:0:0:0:
284,36,54393,2,0,P|277:79|275:123,1,88,0|0,3:2|0:2,0:0:0:0:
375,202,54782,2,0,P|372:158|366:114,1,88,0|0,3:2|0:2,0:0:0:0:
284,36,55172,6,0,L|170:46,1,88,0|0,3:2|0:2,0:0:0:0:
113,123,55562,2,0,L|227:133,1,88,0|0,3:2|0:2,0:0:0:0:
281,211,55951,2,0,L|167:221,1,88,0|0,3:2|0:2,0:0:0:0:
110,298,56341,2,0,L|224:308,1,88,0|0,3:2|0:2,0:0:0:0:
310,324,56730,5,4,3:2:0:0:
310,324,57120,5,0,3:2:0:0:
360,294,57315,1,0,3:2:0:0:
406,202,57510,1,0,3:2:0:0:
344,91,57704,1,0,3:2:0:0:
191,98,57899,1,0,3:2:0:0:
279,196,58094,5,4,3:2:0:0:
256,192,58191,12,0,60237,0:2:0:0:
256,192,60627,5,8,0:2:0:0:
143,177,60821,1,0,3:2:0:0:
126,290,61016,1,8,0:2:0:0:
237,317,61211,1,8,0:2:0:0:
259,324,61309,1,8,0:2:0:0:
281,330,61406,1,0,3:2:0:0:
87,369,61795,6,0,L|67:192,1,158.399995166016,12|8,0:2|0:2,0:0:0:0:
34,171,62185,1,0,3:2:0:0:
69,71,62380,1,2,3:2:0:0:
69,71,62575,1,10,0:2:0:0:
153,133,62769,6,0,B|234:141|234:141|274:119|274:119|381:130,1,211.199993554688,2|0,0:2|0:2,0:0:0:0:
440,190,63354,2,0,P|435:250|420:303,1,105.599996777344,8|0,3:2|0:2,0:0:0:0:
324,330,63743,2,0,B|257:321|257:321|196:345,2,105.599996777344,2|2|10,3:2|0:2|3:2,0:0:0:0:
424,295,64328,6,0,L|537:313,2,105.599996777344,2|0|2,0:2|3:2|0:2,0:0:0:0:
357,212,64912,2,0,P|262:199|171:206,1,158.399995166016,10|8,3:2|0:2,0:0:0:0:
150,221,65302,1,0,3:2:0:0:
184,321,65497,1,0,0:2:0:0:
96,378,65691,1,8,3:2:0:0:
8,318,65886,6,0,B|-16:250|-16:250|11:96,1,211.199993554688,2|2,3:2|0:2,0:0:0:0:
69,26,66471,2,0,P|131:39|204:51,1,105.599996777344,10|0,3:2|0:0,0:0:0:0:
224,57,66763,1,8,0:2:0:0:
224,57,66860,1,2,3:2:0:0:
320,14,67055,1,2,3:2:0:0:
379,101,67250,2,0,L|361:165,3,52.7999983886719,10|8|10|8,3:2|0:2|3:2|0:2,0:0:0:0:
350,202,67639,5,2,3:2:0:0:
350,202,68029,2,0,P|266:195|191:261,1,158.399995166016,12|8,0:2|0:2,0:0:0:0:
194,286,68419,1,0,3:2:0:0:
246,377,68614,1,2,0:2:0:0:
351,377,68808,1,10,3:2:0:0:
456,372,69003,6,0,B|484:313|484:313|430:155,1,211.199993554688,2|0,0:2|0:2,0:0:0:0:
411,71,69588,2,0,P|352:70|292:78,1,105.599996777344,8|2,3:2|0:2,0:0:0:0:
254,62,69880,1,0,3:2:0:0:
254,62,69977,1,2,3:2:0:0:
160,12,70172,1,2,0:2:0:0:
80,82,70367,1,10,3:2:0:0:
125,177,70562,6,0,P|92:262|74:407,1,211.199993554688,2|2,0:2|0:2,0:0:0:0:
169,333,71146,2,0,P|236:318|337:352,1,158.399995166016,10|8,3:2|0:2,0:0:0:0:
362,377,71536,1,0,3:2:0:0:
370,272,71730,1,0,0:2:0:0:
375,166,71925,1,10,0:2:0:0:
462,224,72120,6,0,L|459:342,1,105.599996777344,2|0,0:2|0:0,0:0:0:0:
362,377,72510,1,2,0:2:0:0:
284,305,72704,2,0,B|201:269|234:344|92:289,1,158.399995166016,10|0,3:2|0:2,0:0:0:0:
99,258,73094,5,10,3:2:0:0:
155,168,73289,1,10,3:2:0:0:
155,168,73386,1,8,0:2:0:0:
155,168,73484,1,10,3:2:0:0:
89,85,73678,1,10,3:2:0:0:
89,85,73776,1,8,0:2:0:0:
89,85,73873,5,2,3:2:0:0:
155,168,74263,6,0,B|211:175|211:175|348:152,1,158.399995166016,14|8,0:2|0:2,0:0:0:0:
363,150,74652,1,0,3:2:0:0:
424,64,74847,1,2,0:2:0:0:
331,13,75042,1,10,3:2:0:0:
363,150,75237,6,0,L|394:270,1,105.599996777344,2|0,0:2|3:2,0:0:0:0:
263,368,75627,2,0,L|289:265,1,105.599996777344,2|8,0:2|3:2,0:0:0:0:
166,133,76016,2,0,L|197:253,1,105.599996777344,2|0,0:2|3:2,0:0:0:0:
66,351,76406,2,0,L|92:248,1,105.599996777344,2|8,0:2|3:2,0:0:0:0:
65,146,76795,6,0,P|107:54|208:41,1,211.199993554688,2|2,0:2|0:2,0:0:0:0:
312,23,77380,2,0,P|317:79|308:164,1,105.599996777344,10|0,3:2|0:2,0:0:0:0:
303,180,77672,1,8,0:2:0:0:
303,180,77769,1,0,3:2:0:0:
380,252,77964,1,0,0:2:0:0:
328,344,78159,1,8,3:2:0:0:
226,313,78354,6,0,P|120:302|82:310,1,105.599996777344,0|0,0:2|3:2,0:0:0:0:
23,339,78743,1,0,0:2:0:0:
50,236,78938,2,0,L|72:109,1,105.599996777344,8|2,3:2|3:2,0:0:0:0:
94,29,79328,1,10,3:2:0:0:
198,44,79523,1,10,3:2:0:0:
300,69,79717,1,10,0:2:0:0:
300,69,79815,1,8,0:2:0:0:
300,69,79912,2,0,L|286:151,1,52.7999983886719,10|8,0:2|0:2,0:0:0:0:
280,173,80107,5,2,3:2:0:0:
280,173,80497,2,0,P|371:159|439:236,1,158.399995166016,12|8,0:2|0:2,0:0:0:0:
443,242,80886,1,0,3:2:0:0:
367,316,81081,1,2,0:2:0:0:
267,280,81276,1,10,3:2:0:0:
280,173,81471,6,0,B|159:117|204:217|78:161,1,211.199993554688,2|0,0:2|0:2,0:0:0:0:
0,214,82055,2,0,L|27:332,1,105.599996777344,8|0,3:2|0:2,0:0:0:0:
37,368,82347,1,8,0:2:0:0:
37,368,82445,1,2,3:2:0:0:
116,299,82639,1,2,0:2:0:0:
220,316,82834,1,10,3:2:0:0:
184,216,83029,6,0,P|181:157|191:80,2,105.599996777344,2|0|0,0:2|3:2|0:2,0:0:0:0:
220,316,83614,2,0,L|401:320,1,158.399995166016,8|8,0:2|0:2,0:0:0:0:
430,321,84003,1,0,3:2:0:0:
383,225,84198,1,0,0:2:0:0:
433,132,84393,1,8,3:2:0:0:
369,216,84588,6,0,P|296:219|238:168,1,105.599996777344,0|0,0:2|3:2,0:0:0:0:
199,124,84977,1,0,0:2:0:0:
105,173,85172,2,0,L|122:309,1,105.599996777344,8|2,3:2|3:2,0:0:0:0:
149,320,85464,1,0,0:2:0:0:
149,320,85562,1,8,0:2:0:0:
254,323,85756,1,2,0:2:0:0:
314,236,85951,5,10,0:2:0:0:
340,233,86049,1,8,0:2:0:0:
366,230,86146,1,10,0:2:0:0:
392,227,86243,1,8,0:2:0:0:
416,224,86341,6,0,L|502:215,2,70.4,0|0|0,3:2|3:2|3:2,0:0:0:0:
402,316,86925,5,0,3:2:0:0:
402,316,87315,1,0,3:2:0:0:
180,309,87704,5,0,3:2:0:0:
279,121,88094,1,0,3:2:0:0:
279,121,88191,1,0,0:2:0:0:
279,121,88289,6,0,L|273:173,1,35.2,2|2,3:2|0:2,0:0:0:0:
270,198,88484,2,0,L|264:250,1,35.2,2|2,3:2|0:2,0:0:0:0:
280,271,88678,6,0,L|274:323,1,35.2,2|2,3:2|0:2,0:0:0:0:
272,340,88873,1,4,3:2:0:0:
