osu file format v14

[General]
AudioFilename: The Other Side of the Wall.mp3
AudioLeadIn: 0
PreviewTime: 79754
Countdown: 0
SampleSet: Normal
StackLeniency: 0.7
Mode: 0
LetterboxInBreaks: 0
WidescreenStoryboard: 1

[Editor]
DistanceSpacing: 1
BeatDivisor: 4
GridSize: 8
TimelineZoom: 1.8

[Metadata]
Title:The Other Side of the Wall
TitleUnicode:The Other Side of the Wall
Artist:Void_Chords feat.MARU
ArtistUnicode:Void_Chords feat.MARU
Creator:Boruma
Version:Insane
Source:プリンセス・プリンシパル
Tags:princess principal anime full opening maru
BeatmapID:1375094
BeatmapSetID:649026

[Difficulty]
HPDrainRate:6
CircleSize:4
OverallDifficulty:7
ApproachRate:9
SliderMultiplier:1.9
SliderTickRate:1

[Events]
//Background and Video events
0,0,"571957294aa42c908_m.jpg",0,0
//Break Periods
//Storyboard Layer 0 (Background)
//Storyboard Layer 1 (Fail)
//Storyboard Layer 2 (Pass)
//Storyboard Layer 3 (Foreground)
//Storyboard Sound Samples

[TimingPoints]
1027,389.61038961039,4,1,0,60,1,0
41767,-133.333333333333,4,1,0,60,0,0
54040,-100,4,1,0,60,0,0
66507,-125,4,1,0,60,0,0
72156,-100,4,1,0,60,0,0
117936,-125,4,1,0,60,0,0
124267,-100,4,1,0,60,0,0
130403,-125,4,1,0,60,0,0
142871,-100,4,1,0,60,0,0
181832,-166.666666666667,4,1,0,60,0,0
188065,-100,4,1,0,60,0,0

[HitObjects]
256,192,1027,12,0,2390,0:0:0:0:
48,168,2585,6,0,L|112:184,1,47.5
128,216,2780,2,0,L|176:176,1,47.5
208,160,2975,1,0,0:0:0:0:
216,256,3169,2,0,P|240:232|320:232,1,95
384,272,3559,2,0,B|368:224|392:192|424:176,1,95
448,168,3851,1,0,0:0:0:0:
424,128,3949,2,0,P|416:112|400:88,1,47.5
360,64,4143,2,0,P|312:64|272:120,2,95
256,192,4728,12,0,6481,0:0:0:0:
224,248,6871,6,0,B|160:224|176:152,1,95
200,88,7260,1,0,0:0:0:0:
288,48,7455,2,0,L|264:152,1,95
256,232,7845,1,0,0:0:0:0:
296,248,7942,2,0,L|400:248,1,95
424,216,8234,2,0,L|464:184,1,47.5
440,144,8429,2,0,L|392:128,1,47.5
352,112,8624,1,0,0:0:0:0:
256,128,8819,6,0,L|272:184,1,47.5
264,224,9014,1,0,0:0:0:0:
208,304,9208,1,0,0:0:0:0:
144,232,9403,2,0,L|128:176,1,47.5
128,136,9598,1,0,0:0:0:0:
168,104,9695,1,0,0:0:0:0:
216,120,9793,2,0,L|272:88,1,47.5
256,192,9988,12,0,13104,0:0:0:0:
88,264,13299,5,0,0:0:0:0:
88,264,13397,2,0,L|72:208,1,47.5
160,176,13689,1,0,0:0:0:0:
160,176,13786,2,0,L|152:112,1,47.5
232,40,14078,1,0,0:0:0:0:
280,56,14176,1,0,0:0:0:0:
320,80,14273,1,0,0:0:0:0:
352,112,14371,1,0,0:0:0:0:
384,152,14468,2,0,L|304:208,1,95
272,240,14760,1,0,0:0:0:0:
272,240,14858,1,0,0:0:0:0:
200,296,15052,6,0,B|160:232|160:232|200:160,1,142.5
328,136,15637,2,0,P|304:72|208:64,1,142.5
176,56,16027,1,0,0:0:0:0:
96,104,16221,2,0,L|200:112,1,95
224,152,16514,2,0,P|208:192|144:224,1,95
136,256,16806,2,0,L|192:288,1,47.5
224,296,17001,1,0,0:0:0:0:
224,296,17098,1,0,0:0:0:0:
320,304,17293,2,0,L|344:208,1,95
296,128,17682,1,0,0:0:0:0:
296,128,17877,1,0,0:0:0:0:
192,224,18169,6,0,L|144:176,1,47.5
128,152,18364,1,0,0:0:0:0:
88,176,18462,1,0,0:0:0:0:
64,136,18559,1,0,0:0:0:0:
32,168,18656,1,0,0:0:0:0:
16,216,18754,1,0,0:0:0:0:
56,240,18851,1,0,0:0:0:0:
32,280,18949,1,0,0:0:0:0:
72,312,19046,1,0,0:0:0:0:
120,320,19143,2,0,P|136:296|136:264,1,47.5
184,280,19338,2,0,P|216:232|232:232,1,47.5
240,264,19533,2,0,L|272:312,1,47.5
288,344,19728,6,0,L|328:296,1,47.5
336,264,19923,1,0,0:0:0:0:
344,216,20020,1,0,0:0:0:0:
336,168,20117,1,0,0:0:0:0:
352,120,20215,1,0,0:0:0:0:
392,96,20312,1,0,0:0:0:0:
432,128,20410,1,0,0:0:0:0:
464,160,20507,2,0,L|456:296,2,95
424,72,21091,1,0,0:0:0:0:
336,96,21286,6,0,L|400:168,1,95
360,256,21676,2,0,L|304:256,1,47.5
264,256,21871,2,0,L|200:160,1,95
128,136,22260,1,0,0:0:0:0:
192,64,22455,2,0,L|264:72,1,47.5
336,72,22747,5,0,0:0:0:0:
336,72,22845,2,0,L|312:128,1,47.5
272,200,23137,1,0,0:0:0:0:
360,160,23332,1,0,0:0:0:0:
360,160,23429,2,0,L|360:272,1,95
304,336,23819,2,0,L|240:240,1,95
168,208,24208,2,0,L|216:112,1,95
296,80,24598,5,0,0:0:0:0:
384,120,24793,1,0,0:0:0:0:
304,168,24988,2,0,L|240:256,1,95
184,320,25377,1,0,0:0:0:0:
184,224,25572,2,0,L|216:160,1,47.5
184,136,25767,2,0,L|144:160,1,47.5
104,192,25962,1,0,0:0:0:0:
64,280,26156,1,0,0:0:0:0:
64,280,26254,1,0,0:0:0:0:
64,280,26351,2,0,P|128:272|184:224,1,95
232,200,26741,5,0,0:0:0:0:
272,64,27033,1,0,0:0:0:0:
136,96,27325,2,0,P|120:160|152:184,1,95
160,200,27617,1,0,0:0:0:0:
200,208,27715,1,0,0:0:0:0:
240,200,27812,1,0,0:0:0:0:
280,192,27910,1,0,0:0:0:0:
320,216,28007,1,0,0:0:0:0:
336,264,28104,1,0,0:0:0:0:
384,280,28202,1,0,0:0:0:0:
424,248,28299,1,0,0:0:0:0:
448,208,28397,1,0,0:0:0:0:
440,160,28494,1,0,0:0:0:0:
416,120,28591,1,0,0:0:0:0:
376,96,28689,1,0,0:0:0:0:
328,88,28786,1,0,0:0:0:0:
280,96,28884,2,0,P|232:120|216:128,1,47.5
192,136,29078,5,0,0:0:0:0:
320,272,29468,1,0,0:0:0:0:
464,144,29858,2,0,P|488:200|456:264,1,95
424,312,30247,1,0,0:0:0:0:
336,280,30442,1,0,0:0:0:0:
328,232,30539,1,0,0:0:0:0:
320,184,30637,1,0,0:0:0:0:
392,120,30832,1,0,0:0:0:0:
296,112,31027,2,0,L|264:16,1,95
184,72,31416,2,0,L|168:168,1,95
128,256,31806,6,0,L|168:216,1,47.5
200,248,32001,2,0,L|208:296,1,47.5
216,328,32195,1,0,0:0:0:0:
272,248,32390,2,0,P|320:240|376:280,1,95
392,296,32682,1,0,0:0:0:0:
432,272,32780,2,0,P|456:208|432:176,1,95
352,160,33169,1,0,0:0:0:0:
432,104,33364,1,0,0:0:0:0:
352,56,33559,2,0,P|304:48|248:88,1,95
200,136,33949,2,0,L|240:168,1,47.5
248,208,34143,2,0,L|200:264,1,47.5
184,280,34338,5,0,0:0:0:0:
152,248,34436,1,0,0:0:0:0:
128,208,34533,2,0,P|120:160|72:120,1,95
56,96,34825,1,0,0:0:0:0:
24,136,34923,1,0,0:0:0:0:
24,184,35020,1,0,0:0:0:0:
24,232,35117,6,0,P|72:312|176:344,1,190
336,272,35897,2,0,P|256:288|200:200,1,190
296,200,36481,2,0,P|328:144|264:48,1,190
232,136,37065,2,0,P|176:152|144:272,1,190
216,336,37650,1,0,0:0:0:0:
296,288,37845,1,0,0:0:0:0:
224,232,38039,2,0,L|320:208,1,95
400,256,38429,2,0,L|440:152,1,95
400,80,38819,2,0,L|304:80,1,95
216,48,39208,2,0,L|192:144,1,95
232,224,39598,2,0,L|296:144,1,95
384,160,39988,5,0,0:0:0:0:
384,160,40182,1,0,0:0:0:0:
344,248,40377,1,0,0:0:0:0:
344,248,40572,1,0,0:0:0:0:
336,344,40767,2,0,P|280:312|272:256,2,95
400,272,41351,1,0,0:0:0:0:
432,184,41546,1,0,0:0:0:0:
384,104,41741,2,0,B|304:112|304:112|272:168,1,142.5
216,208,42325,6,0,B|176:192|152:160|152:160|168:112|200:104,1,142.500005435944
256,88,42910,2,0,L|288:160,1,71.2500027179719
312,216,43299,2,0,P|360:224|392:200,1,71.2500027179719
448,216,43689,2,0,L|440:288,1,71.2500027179719
384,336,44078,2,0,L|344:264,1,71.2500027179719
280,248,44468,2,0,P|248:304|168:320,1,142.500005435944
112,288,45052,2,0,P|136:240|88:168,1,142.500005435944
64,104,45637,1,0,0:0:0:0:
128,80,45832,5,0,0:0:0:0:
200,72,46027,2,0,L|264:112,1,71.2500027179719
304,168,46416,1,0,0:0:0:0:
304,240,46611,1,0,0:0:0:0:
336,304,46806,2,0,L|384:240,1,71.2500027179719
448,224,47195,2,0,P|416:192|360:200,1,71.2500027179719
328,152,47585,6,0,L|288:88,1,71.2500027179719
272,64,47877,1,0,0:0:0:0:
240,64,47975,2,0,L|184:128,1,71.2500027179719
192,192,48364,2,0,P|240:200|272:176,1,71.2500027179719
312,144,48754,2,0,P|360:144|392:176,1,71.2500027179719
416,216,49143,2,0,P|400:256|416:296,1,71.2500027179719
376,344,49533,2,0,P|344:344|296:320,1,71.2500027179719
240,304,49923,2,0,L|288:224,1,71.2500027179719
280,168,50312,2,0,L|192:200,1,71.2500027179719
144,216,50702,1,0,0:0:0:0:
184,272,50897,1,0,0:0:0:0:
128,320,51091,2,0,B|104:296|80:272|80:272|112:184,1,142.500005435944
144,144,51676,1,0,0:0:0:0:
208,120,51871,1,0,0:0:0:0:
248,184,52065,6,0,L|248:288,1,95
272,328,52358,1,0,0:0:0:0:
304,328,52455,1,0,0:0:0:0:
336,328,52552,1,0,0:0:0:0:
368,312,52650,1,0,0:0:0:0:
392,280,52747,1,0,0:0:0:0:
408,248,52845,6,0,L|392:192,1,47.5
384,176,53039,1,0,0:0:0:0:
384,176,53137,1,0,0:0:0:0:
352,160,53234,2,0,L|336:88,1,47.5
328,96,53429,1,0,0:0:0:0:
328,96,53527,1,0,0:0:0:0:
328,96,53624,2,0,L|256:104,1,47.5
264,112,53819,2,0,L|288:176,1,47.5
288,192,54014,5,0,0:0:0:0:
216,256,54208,2,0,L|336:288,1,95
400,288,54598,1,0,0:0:0:0:
456,208,54793,2,0,L|392:128,1,95
304,112,55182,1,0,0:0:0:0:
272,200,55377,1,0,0:0:0:0:
184,176,55572,2,0,P|160:208|168:264,1,95
256,296,55962,2,0,P|232:352|176:360,1,95
112,344,56351,5,0,0:0:0:0:
32,288,56546,1,0,0:0:0:0:
32,192,56741,2,0,P|48:152|104:120,1,95
176,168,57130,1,0,0:0:0:0:
272,160,57325,2,0,L|272:48,1,95
176,56,57715,1,0,0:0:0:0:
176,56,57910,1,0,0:0:0:0:
104,112,58104,1,0,0:0:0:0:
104,112,58299,1,0,0:0:0:0:
160,184,58494,2,0,L|232:248,1,95
320,216,58884,2,0,L|312:120,1,95
400,88,59273,2,0,L|480:168,1,95
472,248,59663,5,0,0:0:0:0:
440,336,59858,2,0,L|352:288,1,95
272,248,60247,1,0,0:0:0:0:
272,200,60345,2,0,L|264:136,1,47.5
200,88,60637,1,0,0:0:0:0:
200,88,60832,1,0,0:0:0:0:
152,168,61027,1,0,0:0:0:0:
128,256,61221,2,0,P|184:232|240:248,1,95
304,272,61611,5,0,0:0:0:0:
304,272,61806,1,0,0:0:0:0:
352,192,62001,1,0,0:0:0:0:
352,192,62195,1,0,0:0:0:0:
448,216,62390,2,0,L|448:104,1,95
368,72,62780,6,0,P|328:120|296:112,1,95
208,136,63169,2,0,P|208:184|248:216,1,95
240,312,63559,2,0,B|176:328|128:304|112:176,1,190
168,128,64143,1,0,0:0:0:0:
168,128,64338,1,0,0:0:0:0:
240,192,64533,1,0,0:0:0:0:
240,192,64728,1,0,0:0:0:0:
328,152,64923,6,0,L|384:200,1,47.5
344,224,65117,2,0,L|272:208,1,47.5
304,264,65312,2,0,L|352:312,1,47.5
304,336,65507,2,0,L|256:304,1,47.5
224,280,65702,1,0,0:0:0:0:
184,256,65799,1,0,0:0:0:0:
152,224,65897,1,0,0:0:0:0:
88,160,66091,2,0,L|88:56,1,95
184,56,66481,5,0,0:0:0:0:
224,120,66676,2,0,P|232:176|320:224,1,152
384,216,67260,1,0,0:0:0:0:
352,288,67455,1,0,0:0:0:0:
224,200,67845,2,0,L|264:128,1,76
264,56,68234,1,0,0:0:0:0:
264,56,68332,1,0,0:0:0:0:
264,56,68429,2,0,P|304:64|328:104,1,76
392,224,69014,1,0,0:0:0:0:
328,264,69208,2,0,P|296:272|240:264,1,76
280,200,69598,1,0,0:0:0:0:
328,56,69988,1,0,0:0:0:0:
328,56,70182,1,0,0:0:0:0:
248,56,70377,2,0,B|240:112|240:112|208:152,1,76
184,192,70767,1,0,0:0:0:0:
256,216,70962,1,0,0:0:0:0:
208,272,71156,6,0,P|144:256|144:208,1,114
144,176,71546,2,0,P|152:104|128:80,1,76
88,64,71936,1,0,0:0:0:0:
160,32,72130,2,0,P|240:48|264:96,1,95
288,112,72520,2,0,P|344:104|376:72,1,95
504,24,73007,1,0,0:0:0:0:
416,280,73494,1,0,0:0:0:0:
264,152,73689,1,0,0:0:0:0:
240,240,73884,2,0,L|216:336,1,95
136,264,74273,1,0,0:0:0:0:
232,160,74565,1,0,0:0:0:0:
376,280,74955,1,0,0:0:0:0:
232,296,75247,6,0,P|184:264|184:216,1,95
208,136,75637,1,0,0:0:0:0:
296,160,75832,2,0,B|360:136|344:32|264:24,1,190
176,56,76416,2,0,P|168:128|200:168,1,95
216,232,76806,2,0,B|240:280|256:320|328:272,1,142.5
360,248,77195,1,0,0:0:0:0:
392,216,77293,1,0,0:0:0:0:
400,168,77390,1,0,0:0:0:0:
400,120,77488,1,0,0:0:0:0:
376,80,77585,1,0,0:0:0:0:
336,48,77682,1,0,0:0:0:0:
288,56,77780,1,0,0:0:0:0:
248,88,77877,1,0,0:0:0:0:
216,128,77975,1,0,0:0:0:0:
208,176,78072,1,0,0:0:0:0:
200,224,78169,1,0,0:0:0:0:
200,272,78267,1,0,0:0:0:0:
200,320,78364,2,0,P|144:344|24:272,1,190
56,200,78949,6,0,P|112:168|176:176,1,95
184,192,79241,1,0,0:0:0:0:
224,208,79338,1,0,0:0:0:0:
264,184,79436,1,0,0:0:0:0:
296,152,79533,1,0,0:0:0:0:
336,128,79630,1,0,0:0:0:0:
384,136,79728,6,0,L|376:240,1,95
336,320,80117,2,0,P|320:280|280:240,1,95
192,216,80507,1,0,0:0:0:0:
224,128,80702,1,0,0:0:0:0:
224,128,80897,1,0,0:0:0:0:
184,216,81091,2,0,P|240:240|296:224,1,95
368,232,81481,5,0,0:0:0:0:
296,176,81676,1,0,0:0:0:0:
384,128,81871,2,0,L|368:32,1,95
272,32,82260,1,0,0:0:0:0:
312,120,82455,1,0,0:0:0:0:
216,144,82650,6,0,L|104:144,1,95
56,216,83039,2,0,P|116:226|152:256,1,95
208,320,83429,1,0,0:0:0:0:
256,328,83527,2,0,L|320:280,1,47.5
344,216,83819,1,0,0:0:0:0:
248,200,84014,2,0,L|208:104,1,95
272,40,84403,1,0,0:0:0:0:
368,48,84598,1,0,0:0:0:0:
320,128,84793,6,0,P|384:160|392:192,1,95
360,272,85182,1,0,0:0:0:0:
320,248,85280,2,0,L|248:200,1,47.5
192,192,85572,1,0,0:0:0:0:
176,240,85669,2,0,L|152:296,1,47.5
64,312,85962,5,0,0:0:0:0:
72,216,86156,1,0,0:0:0:0:
112,128,86351,2,0,P|136:72|184:56,1,95
232,120,86741,2,0,P|344:104|352:24,1,190
264,24,87325,1,0,0:0:0:0:
184,72,87520,6,0,P|160:136|192:176,1,95
232,232,87910,1,0,0:0:0:0:
264,264,88007,2,0,L|336:264,1,47.5
360,264,88202,2,0,L|336:192,1,47.5
352,176,88397,1,0,0:0:0:0:
360,176,88494,1,0,0:0:0:0:
416,104,88689,1,0,0:0:0:0:
328,56,88884,6,0,P|264:64|224:96,1,95
256,176,89273,2,0,P|208:192|136:160,1,95
88,128,89663,1,0,0:0:0:0:
64,168,89760,2,0,L|56:224,1,47.5
120,288,90052,1,0,0:0:0:0:
200,240,90247,1,0,0:0:0:0:
192,336,90442,2,0,L|296:320,1,95
360,256,90832,5,0,0:0:0:0:
272,216,91027,2,0,P|320:176|328:120,1,95
304,56,91416,1,0,0:0:0:0:
256,136,91611,2,0,P|216:168|152:160,1,95
80,168,92001,1,0,0:0:0:0:
72,216,92098,2,0,L|56:272,1,47.5
104,272,92293,2,0,L|152:232,1,47.5
184,256,92488,2,0,L|152:304,1,47.5
88,360,92780,1,0,0:0:0:0:
184,360,92975,6,0,P|264:344|328:240,1,190
288,176,93559,1,0,0:0:0:0:
376,208,93754,1,0,0:0:0:0:
432,128,93949,2,0,P|384:120|360:56,1,95
272,40,94338,2,0,P|232:64|248:120,1,95
288,184,94728,1,0,0:0:0:0:
200,224,94923,1,0,0:0:0:0:
272,288,95117,2,0,P|224:328|160:320,1,95
120,272,95507,2,0,P|136:208|96:168,1,95
32,152,95897,5,0,0:0:0:0:
104,88,96091,1,0,0:0:0:0:
24,32,96286,2,0,L|128:24,1,95
208,64,96676,2,0,L|336:56,1,95
392,96,97065,1,0,0:0:0:0:
384,192,97260,1,0,0:0:0:0:
296,224,97455,1,0,0:0:0:0:
200,216,97650,2,0,P|220:164|208:128,1,95
112,112,98039,2,0,P|80:152|104:208,1,95
144,272,98429,5,0,0:0:0:0:
144,272,98527,2,0,L|184:232,1,47.5
224,240,98721,1,0,0:0:0:0:
224,240,98819,2,0,L|272:296,1,47.5
392,248,99208,2,0,P|440:224|456:168,1,95
384,120,99598,2,0,P|360:144|280:120,1,95
208,112,99988,5,0,0:0:0:0:
224,208,100182,1,0,0:0:0:0:
136,184,100377,2,0,L|184:304,1,95
248,336,100767,2,0,L|280:240,1,95
344,176,101156,1,0,0:0:0:0:
256,136,101351,1,0,0:0:0:0:
272,40,101546,6,0,L|328:72,1,47.5
352,88,101741,1,0,0:0:0:0:
376,128,101838,1,0,0:0:0:0:
368,176,101936,1,0,0:0:0:0:
344,264,102130,2,0,B|208:272|232:264,1,95
160,232,102520,2,0,L|256:192,1,95
336,152,102910,1,0,0:0:0:0:
256,96,103104,1,0,0:0:0:0:
184,160,103299,1,0,0:0:0:0:
280,176,103494,1,0,0:0:0:0:
208,120,103689,2,0,L|104:136,1,95
56,208,104078,5,0,0:0:0:0:
80,296,104273,1,0,0:0:0:0:
168,328,104468,2,0,P|168:272|208:232,1,95
280,216,104858,2,0,P|312:184|304:128,1,95
232,48,105247,1,0,0:0:0:0:
200,88,105345,1,0,0:0:0:0:
192,136,105442,1,0,0:0:0:0:
192,184,105539,1,0,0:0:0:0:
200,232,105637,1,0,0:0:0:0:
264,304,105832,6,0,L|312:192,1,95
384,168,106221,1,0,0:0:0:0:
360,80,106416,1,0,0:0:0:0:
272,120,106611,2,0,P|264:152|248:176,1,47.5
232,208,106806,1,0,0:0:0:0:
200,248,106903,1,0,0:0:0:0:
96,344,107195,2,0,L|48:248,1,95
104,176,107585,1,0,0:0:0:0:
168,104,107780,1,0,0:0:0:0:
256,152,107975,6,0,P|280:192|344:200,1,95
408,248,108364,2,0,P|368:264|336:312,1,95
256,352,108754,1,0,0:0:0:0:
200,272,108949,1,0,0:0:0:0:
264,208,109143,2,0,P|288:152|264:104,1,95
240,96,109436,1,0,0:0:0:0:
200,120,109533,1,0,0:0:0:0:
152,112,109630,1,0,0:0:0:0:
104,104,109728,2,0,P|104:152|144:208,1,95
208,232,110117,1,0,0:0:0:0:
136,296,110312,1,0,0:0:0:0:
224,328,110507,2,0,P|288:336|320:304,1,95
376,248,110897,5,0,0:0:0:0:
344,216,110994,1,0,0:0:0:0:
328,176,111091,1,0,0:0:0:0:
320,128,111189,1,0,0:0:0:0:
336,32,111384,1,0,0:0:0:0:
384,48,111481,1,0,0:0:0:0:
416,80,111578,1,0,0:0:0:0:
432,128,111676,6,0,L|424:248,1,95
264,320,112260,2,0,P|184:272|216:160,1,190
288,200,112845,2,0,P|352:168|360:144,1,95
416,72,113234,2,0,L|448:176,1,95
400,248,113624,1,0,0:0:0:0:
328,312,113819,1,0,0:0:0:0:
232,296,114014,2,0,P|224:224|240:192,1,95
272,120,114403,2,0,P|208:112|176:128,1,95
128,200,114793,6,0,L|152:256,1,47.5
160,288,114988,1,0,0:0:0:0:
88,344,115182,2,0,L|160:352,1,47.5
184,336,115377,1,0,0:0:0:0:
280,336,115572,2,0,P|280:288|312:240,1,95
400,256,115962,1,0,0:0:0:0:
456,184,116156,1,0,0:0:0:0:
416,152,116254,1,0,0:0:0:0:
368,136,116351,2,0,B|312:120|280:128|264:160,1,95
208,208,116741,1,0,0:0:0:0:
200,304,116936,1,0,0:0:0:0:
120,256,117130,1,0,0:0:0:0:
120,160,117325,1,0,0:0:0:0:
40,112,117520,2,0,P|40:176|80:216,1,95
152,216,117910,6,0,L|256:216,1,76
336,112,118494,1,0,0:0:0:0:
312,184,118689,2,0,B|296:224|304:264|352:280,1,95
376,304,119078,2,0,P|336:336|288:336,1,76
240,328,119468,1,0,0:0:0:0:
240,328,119663,1,0,0:0:0:0:
208,256,119858,2,0,L|176:296,1,38
152,304,120052,2,0,P|104:280|88:248,1,76
144,208,120442,1,0,0:0:0:0:
88,152,120637,2,0,B|152:128|164:132|240:176,1,152
272,248,121221,1,0,0:0:0:0:
344,232,121416,2,0,L|320:136,1,76
240,136,121806,6,0,P|208:168|96:160,1,152
40,136,122390,2,0,L|40:208,1,38
64,200,122585,2,0,L|48:264,1,38
32,272,122780,2,0,L|64:328,1,38
88,320,122975,1,0,0:0:0:0:
128,312,123072,1,0,0:0:0:0:
160,288,123169,1,0,0:0:0:0:
160,208,123364,2,0,L|144:152,1,38
176,144,123559,2,0,L|208:184,1,38
240,168,123754,2,0,L|232:120,1,38
248,96,123949,2,0,P|296:88|344:112,1,76
384,136,124338,1,0,0:0:0:0:
352,208,124533,6,0,L|264:144,1,95
184,168,124923,2,0,P|184:216|144:256,1,95
120,288,125215,1,0,0:0:0:0:
96,328,125312,2,0,P|168:336|208:304,1,95
272,288,125702,1,0,0:0:0:0:
336,216,125897,2,0,L|320:104,1,95
232,88,126286,2,0,L|224:192,1,95
176,264,126676,2,0,P|120:280|64:248,1,95
40,184,127065,1,0,0:0:0:0:
112,128,127260,2,0,P|64:96|72:48,1,95
96,32,127552,1,0,0:0:0:0:
144,32,127650,2,0,P|192:64|192:104,1,95
176,192,128039,1,0,0:0:0:0:
264,224,128234,6,0,L|304:136,1,95
336,96,128527,1,0,0:0:0:0:
376,64,128624,2,0,P|418:106|408:160,1,95
376,224,129014,2,0,L|320:264,1,47.5
328,296,129208,2,0,L|384:320,1,47.5
336,352,129403,2,0,L|248:336,1,47.5
256,312,129598,2,0,P|240:248|200:240,1,95
128,280,129988,2,0,L|152:168,1,95
224,128,130377,5,0,0:0:0:0:
256,200,130572,2,0,P|304:240|336:240,1,76
376,192,130962,2,0,P|440:256|408:328,1,152
280,344,131741,2,0,P|192:296|192:240,1,152
224,184,132325,1,0,0:0:0:0:
152,192,132520,2,0,P|80:192|64:112,1,152
176,32,133299,2,0,B|256:32,1,76
320,168,133884,2,0,P|320:224|408:280,1,152
488,160,134663,5,0,0:0:0:0:
464,232,134858,1,0,0:0:0:0:
376,112,135247,2,0,B|344:56|344:56|288:56,1,114
256,72,135637,1,0,0:0:0:0:
208,128,135832,2,0,P|216:176|256:208,1,76
296,240,136221,2,0,P|224:256|192:240,1,76
144,256,136611,1,0,0:0:0:0:
56,136,137001,1,0,0:0:0:0:
184,56,137390,5,0,0:0:0:0:
248,88,137585,2,0,L|248:256,1,152
216,312,138169,1,0,0:0:0:0:
360,272,138559,1,0,0:0:0:0:
240,360,138949,1,0,0:0:0:0:
168,336,139143,2,0,P|136:304|128:240,1,76
136,200,139533,2,0,P|184:192|224:152,1,76
264,128,139923,1,0,0:0:0:0:
312,184,140117,2,0,P|312:232|224:296,1,152
96,248,140897,1,0,0:0:0:0:
96,248,141091,1,0,0:0:0:0:
256,192,141286,12,0,142455,0:0:0:0:
224,128,142845,5,0,0:0:0:0:
392,216,143234,1,0,0:0:0:0:
208,272,143624,1,0,0:0:0:0:
392,312,144014,1,0,0:0:0:0:
232,216,144403,1,0,0:0:0:0:
392,112,144793,1,0,0:0:0:0:
208,80,145182,1,0,0:0:0:0:
104,240,145572,6,0,P|152:248|200:296,1,95
280,304,145962,2,0,P|320:272|304:144,1,190
232,96,146546,1,0,0:0:0:0:
88,216,146936,1,0,0:0:0:0:
216,352,147325,1,0,0:0:0:0:
312,352,147520,2,0,P|368:344|400:320,1,95
448,240,147910,2,0,P|408:248|360:224,1,95
312,144,148299,2,0,P|360:168|416:152,1,95
448,144,148591,1,0,0:0:0:0:
432,96,148689,1,0,0:0:0:0:
392,72,148786,1,0,0:0:0:0:
344,64,148884,2,0,P|280:56|224:64,1,95
72,136,149468,5,0,0:0:0:0:
208,168,149760,1,0,0:0:0:0:
80,232,150052,2,0,P|88:272|136:312,1,95
224,296,150442,2,0,P|248:240|304:224,1,95
464,224,151027,1,0,0:0:0:0:
280,176,151416,1,0,0:0:0:0:
432,104,151806,6,0,P|400:56|248:48,1,190
104,120,152585,1,0,0:0:0:0:
288,176,152975,1,0,0:0:0:0:
200,208,153169,2,0,L|256:288,1,95
344,328,153559,1,0,0:0:0:0:
376,296,153656,1,0,0:0:0:0:
392,248,153754,1,0,0:0:0:0:
400,200,153851,1,0,0:0:0:0:
392,152,153949,2,0,L|376:88,1,47.5
344,72,154143,2,0,L|304:120,1,47.5
264,120,154338,2,0,L|256:64,1,47.5
208,64,154533,2,0,L|168:104,1,47.5
128,96,154728,1,0,0:0:0:0:
96,128,154825,1,0,0:0:0:0:
88,176,154923,1,0,0:0:0:0:
96,224,155020,1,0,0:0:0:0:
128,256,155117,2,0,P|192:224|256:256,1,142.5
304,264,155507,1,0,0:0:0:0:
304,264,155604,1,0,0:0:0:0:
304,264,155702,2,0,L|296:160,1,95
328,80,156091,6,0,L|424:120,1,95
456,200,156481,2,0,L|352:256,1,95
328,248,156773,1,0,0:0:0:0:
328,248,156871,2,0,P|272:264|224:224,1,95
192,168,157260,1,0,0:0:0:0:
280,200,157455,1,0,0:0:0:0:
336,120,157650,6,0,L|264:48,1,95
176,32,158039,1,0,0:0:0:0:
104,88,158234,2,0,P|144:128|208:120,1,95
272,144,158624,1,0,0:0:0:0:
208,216,158819,5,0,0:0:0:0:
304,216,159014,2,0,L|280:312,1,95
248,344,159306,1,0,0:0:0:0:
248,344,159403,1,0,0:0:0:0:
160,296,159598,2,0,P|88:288|40:248,1,95
136,208,159988,1,0,0:0:0:0:
208,144,160182,2,0,P|160:128|128:80,1,95
200,32,160572,1,0,0:0:0:0:
248,48,160669,1,0,0:0:0:0:
296,64,160767,2,0,L|304:168,1,95
296,256,161156,6,0,B|368:240|368:240|400:176,1,142.5
432,144,161546,2,0,P|472:192|464:240,1,95
456,264,161838,1,0,0:0:0:0:
456,264,161936,1,0,0:0:0:0:
392,336,162130,2,0,L|304:280,1,95
216,288,162520,2,0,L|232:176,1,95
240,144,162812,1,0,0:0:0:0:
240,144,162910,1,0,0:0:0:0:
160,96,163104,6,0,P|104:128|80:176,1,95
104,248,163494,2,0,P|152:240|184:192,1,95
232,128,163884,2,0,B|288:144|288:144|352:120,1,95
368,120,164176,1,0,0:0:0:0:
408,144,164273,2,0,P|376:208|384:240,2,95
496,96,164858,1,0,0:0:0:0:
496,192,165052,5,0,0:0:0:0:
416,144,165247,2,0,B|336:208|416:304,1,142.5
408,312,165637,2,0,P|344:336|288:320,1,95
224,320,166027,1,0,0:0:0:0:
288,248,166221,2,0,L|288:152,1,95
360,88,166611,2,0,P|304:56|264:64,1,95
200,112,167001,1,0,0:0:0:0:
200,112,167195,1,0,0:0:0:0:
136,184,167390,6,0,P|208:200|232:184,1,95
264,168,167682,1,0,0:0:0:0:
264,168,167780,1,0,0:0:0:0:
344,216,167975,2,0,L|360:120,1,95
280,80,168364,1,0,0:0:0:0:
240,104,168462,1,0,0:0:0:0:
208,144,168559,1,0,0:0:0:0:
160,224,168754,1,0,0:0:0:0:
120,208,168851,1,0,0:0:0:0:
88,168,168949,1,0,0:0:0:0:
56,80,169143,6,0,B|144:72|144:72|240:128,1,190
304,184,169728,2,0,P|264:232|272:280,1,95
344,320,170117,2,0,P|392:288|392:224,1,95
360,168,170507,1,0,0:0:0:0:
272,128,170702,2,0,P|296:80|264:40,1,95
192,96,171091,2,0,P|152:120|136:176,1,95
232,160,171481,2,0,P|272:200|264:256,1,95
184,216,171871,2,0,B|128:232|128:296,1,95
208,344,172260,1,0,0:0:0:0:
208,344,172455,1,0,0:0:0:0:
256,264,172650,2,0,B|280:224|280:224|256:168,1,95
352,160,173039,2,0,B|320:200|320:200|336:256,1,95
352,288,173332,1,0,0:0:0:0:
352,288,173429,1,0,0:0:0:0:
280,352,173624,5,0,0:0:0:0:
184,344,173819,2,0,B|184:288|184:288|160:256,1,95
128,224,174111,1,0,0:0:0:0:
144,176,174208,2,0,P|200:184|240:160,1,95
280,152,174501,1,0,0:0:0:0:
280,152,174598,2,0,L|312:192,1,47.5
360,176,174793,2,0,L|400:232,1,47.5
424,248,174988,2,0,P|456:288|504:288,1,95
496,336,175280,1,0,0:0:0:0:
448,344,175377,1,0,0:0:0:0:
400,344,175475,1,0,0:0:0:0:
352,344,175572,2,0,L|304:232,1,95
248,184,175962,6,0,P|304:168|328:120,1,95
344,48,176351,1,0,0:0:0:0:
344,48,176546,1,0,0:0:0:0:
256,24,176741,2,0,B|192:56|192:56|176:112,1,95
152,168,177130,2,0,P|80:200|56:192,1,95
32,288,177520,1,0,0:0:0:0:
112,344,177715,1,0,0:0:0:0:
144,312,177812,2,0,L|176:256,1,47.5
136,232,178007,2,0,L|192:184,1,47.5
208,168,178202,1,0,0:0:0:0:
256,184,178299,6,0,P|328:168|344:136,2,95
192,112,178884,2,0,P|160:136|160:200,1,95
224,256,179273,1,0,0:0:0:0:
128,264,179468,2,0,B|138:313|138:313|200:336,1,95
184,232,179858,2,0,B|160:184|160:184|104:176,1,95
32,144,180247,2,0,P|56:80|88:80,1,95
168,104,180637,2,0,P|224:136|272:120,1,95
344,152,181027,5,0,0:0:0:0:
384,120,181124,1,0,0:0:0:0:
408,80,181221,2,0,L|328:64,1,47.5
312,72,181416,2,0,P|312:128|288:176,1,95
248,192,181806,1,0,0:0:0:0:
232,248,182001,1,0,0:0:0:0:
184,280,182195,6,0,P|152:240|152:184,1,85.4999973907472
208,144,182780,2,0,P|216:192|256:216,1,85.4999973907472
328,232,183364,2,0,L|336:152,1,56.9999982604981
320,88,183851,2,0,P|368:88|400:64,1,85.4999973907472
448,48,184338,1,0,0:0:0:0:
504,112,184630,2,0,P|504:144|480:176,1,56.9999982604981
464,184,184923,1,0,0:0:0:0:
432,184,185020,2,0,L|376:200,1,56.9999982604981
344,248,185410,2,0,L|416:280,1,56.9999982604981
448,352,185897,1,0,0:0:0:0:
360,352,186189,2,0,P|304:344|288:312,1,85.4999973907472
256,192,186871,12,0,187845,0:0:0:0:
120,256,188039,6,0,L|200:272,1,56.9999982604981
288,208,188429,2,0,L|176:176,1,95
120,120,188819,1,0,0:0:0:0:
168,128,188916,2,0,L|232:112,1,47.5
312,120,189208,2,0,P|352:152|360:200,1,95
296,264,189598,5,0,0:0:0:0:
216,208,189793,1,0,0:0:0:0:
232,112,189988,2,0,P|184:128|128:112,1,95
48,144,190377,1,0,0:0:0:0:
56,192,190475,1,0,0:0:0:0:
96,216,190572,1,0,0:0:0:0:
184,240,190767,2,0,P|200:192|264:152,1,95
328,168,191156,5,0,0:0:0:0:
288,256,191351,1,0,0:0:0:0:
360,320,191546,1,0,0:0:0:0:
264,336,191741,2,0,L|160:344,1,95
104,272,192130,1,0,0:0:0:0:
88,168,192325,2,0,P|176:160|200:136,1,95
272,144,192715,2,0,P|272:208|304:248,1,95
368,280,193104,6,0,L|384:152,1,95
376,88,193494,1,0,0:0:0:0:
296,40,193689,2,0,L|248:80,1,47.5
272,120,193884,2,0,L|336:120,1,47.5
344,160,194078,1,0,0:0:0:0:
304,248,194273,6,0,P|232:280|184:280,2,95
392,216,194858,1,0,0:0:0:0:
304,184,195052,1,0,0:0:0:0:
344,96,195247,1,0,0:0:0:0:
344,96,195442,1,0,0:0:0:0:
296,176,195637,2,0,P|256:256|224:272,1,95
160,224,196027,2,0,P|152:168|176:136,1,95
264,112,196416,1,0,0:0:0:0:
224,200,196611,1,0,0:0:0:0:
312,168,196806,2,0,L|360:80,1,95
272,40,197195,1,0,0:0:0:0:
176,24,197390,5,0,0:0:0:0:
176,24,197585,2,0,P|112:48|64:88,1,95
