osu file format v14

[General]
AudioFilename: audio.mp3
AudioLeadIn: 0
PreviewTime: 65802
Countdown: 0
SampleSet: None
StackLeniency: 0.7
Mode: 0
LetterboxInBreaks: 0
WidescreenStoryboard: 1

[Editor]
Bookmarks: 60,11031,22002,32974,43945,54917,65888,76860,87831,98802,108402,109774,120745,131717
DistanceSpacing: 1
BeatDivisor: 4
GridSize: 4
TimelineZoom: 2.5

[Metadata]
Title:Wolves
TitleUnicode:Wolves
Artist:Voicians
ArtistUnicode:Voicians
Creator:Mao
Version:Normal
Source:osu!
Tags:mbc monthly beatmapping contest judge screening winner fa featured artist mg mapper's guild electronic english altai undeadphoneguy
BeatmapID:2359704
BeatmapSetID:1129015

[Difficulty]
HPDrainRate:4
CircleSize:2.4
OverallDifficulty:4
ApproachRate:5
SliderMultiplier:1.2
SliderTickRate:1

[Events]
//Background and Video events
0,0,"koni-amandine-girard-amandine-girard-koni-the-sanctuary-of-the-arkh-witch-low.jpg",0,0
//Break Periods
2,44145,52345
//Storyboard Layer 0 (Background)
//Storyboard Layer 1 (Fail)
//Storyboard Layer 2 (Pass)
//Storyboard Layer 3 (Foreground)
//Storyboard Layer 4 (Overlay)
//Storyboard Sound Samples

[TimingPoints]
60,342.857142857143,4,2,1,50,1,0
22002,-111.111111111111,4,2,1,70,0,0
43945,-111.111111111111,4,2,1,40,0,0
54917,-111.111111111111,4,2,1,50,0,0
56288,-111.111111111111,4,2,1,55,0,0
57660,-111.111111111111,4,2,1,65,0,0
59031,-111.111111111111,4,2,1,70,0,0
60402,-100,4,2,1,75,0,0
63145,-100,4,2,1,80,0,0
64517,-100,4,2,1,80,0,0
64860,-100,4,2,1,75,0,0
65202,-100,4,2,1,70,0,0
65545,-100,4,2,1,65,0,0
65888,-100,4,2,1,90,0,0
67088,-100,4,2,1,90,0,1
67602,-100,4,2,1,90,0,1
67945,-100,4,2,1,90,0,0
68631,-100,4,2,1,90,0,0
69831,-100,4,2,1,90,0,1
70345,-100,4,2,1,90,0,1
70688,-100,4,2,1,90,0,0
71031,-100,4,2,1,90,0,0
72574,-100,4,2,1,90,0,1
73088,-100,4,2,1,90,0,1
73431,-100,4,2,1,90,0,0
74117,-100,4,2,1,90,0,0
75317,-100,4,2,1,90,0,1
75488,-100,4,2,1,90,0,1
75831,-100,4,2,1,90,0,1
76174,-100,4,2,1,90,0,0
76860,-100,4,2,1,90,0,0
78060,-100,4,2,1,90,0,1
78574,-100,4,2,1,90,0,1
78917,-100,4,2,1,90,0,0
79602,-100,4,2,1,90,0,0
80802,-100,4,2,1,90,0,1
81317,-100,4,2,1,90,0,1
81660,-100,4,2,1,90,0,0
82002,-100,4,2,1,90,0,0
83545,-100,4,2,1,90,0,1
84060,-100,4,2,1,90,0,1
84402,-100,4,2,1,90,0,0
85088,-100,4,2,1,90,0,0
86460,-100,4,2,1,90,0,0
87831,-100,4,2,1,90,0,1
87917,-100,4,2,1,90,0,0
88174,-100,4,2,1,90,0,0
89202,-100,4,2,1,90,0,0
89717,-100,4,2,1,90,0,0
90231,-100,4,2,1,90,0,0
90574,-100,4,2,1,90,0,0
91088,-100,4,2,1,90,0,0
91602,-100,4,2,1,90,0,0
91945,-100,4,2,1,90,0,0
92631,-100,4,2,1,90,0,0
93488,-100,4,2,1,90,0,0
93831,-100,4,2,1,90,0,0
94688,-100,4,2,1,90,0,0
95202,-100,4,2,1,90,0,0
95717,-100,4,2,1,90,0,0
96060,-100,4,2,1,90,0,0
96745,-100,4,2,1,90,0,0
97088,-100,4,2,1,90,0,0
97431,-100,4,2,1,90,0,0
98288,-100,4,2,1,90,0,0
98802,-100,4,2,1,90,0,1
98888,-100,4,2,1,90,0,0
99317,-100,4,2,1,90,0,0
100174,-100,4,2,1,90,0,0
100688,-100,4,2,1,90,0,0
101031,-100,4,2,1,90,0,0
101545,-100,4,2,1,90,0,0
103774,-100,4,2,1,90,0,0
104460,-100,4,2,1,90,0,0
104802,-100,4,2,1,90,0,0
105660,-100,4,2,1,90,0,0
106174,-100,4,2,1,90,0,0
107031,-100,4,2,1,90,0,0
108745,-100,4,2,1,70,0,0
109602,-111.111111111111,4,2,1,40,0,0
131717,-111.111111111111,4,2,1,40,0,0
131802,-111.111111111111,4,2,2,5,0,0

[Colours]
Combo1 : 215,215,215
Combo2 : 132,254,97
Combo3 : 151,149,121
Combo4 : 255,172,0

[HitObjects]
102,160,22002,6,0,P|88:112|22:21,2,161.999995056153,14|10|10,1:2|0:0|0:0,0:0:0:0:
63,249,23374,1,2,0:0:0:0:
63,249,23545,2,0,P|71:308|166:339,1,161.999995056153,10|2,0:3|0:0,0:0:0:0:
197,312,24231,1,8,0:3:0:0:
253,177,24745,6,0,L|230:55,2,107.999996704102,12|2|2,0:0|0:0|0:3,0:0:0:0:
268,273,25774,1,10,0:0:0:0:
339,338,26117,2,0,L|394:351,1,53.9999983520508,2|10,0:0|0:3,0:0:0:0:
466,288,26631,2,0,P|458:238|470:171,1,107.999996704102,2|10,0:0|0:0,0:0:0:0:
492,140,27145,1,2,3:0:0:0:
397,118,27488,6,0,P|361:152|311:253,2,161.999995056153,14|10|10,0:0|0:0|1:3,0:0:0:0:
374,28,28860,1,2,0:0:0:0:
374,28,29031,2,0,P|281:36|221:93,1,161.999995056153,10|2,0:3|0:0,0:0:0:0:
215,124,29717,1,8,0:3:0:0:
166,261,30231,6,0,L|186:367,2,107.999996704102,14|2|2,0:0|0:0|0:0,0:0:0:0:
68,270,31260,1,10,0:0:0:0:
68,270,31431,2,0,P|34:224|43:160,1,107.999996704102,2|10,1:3|0:3,0:0:0:0:
142,75,32288,2,0,P|133:51|113:19,2,53.9999983520508,2|10|2,0:0|0:3|0:0,0:0:0:0:
232,110,32974,6,0,P|280:96|371:30,2,161.999995056153,14|10|10,1:2|0:0|0:0,0:0:0:0:
178,191,34346,1,2,0:0:0:0:
178,191,34517,2,0,P|172:259|218:352,1,161.999995056153,10|2,0:3|0:0,0:0:0:0:
247,372,35203,1,8,0:3:0:0:
391,350,35717,6,0,L|513:327,2,107.999996704102,14|2|2,0:0|0:0|0:3,0:0:0:0:
349,261,36746,1,10,0:0:0:0:
420,195,37089,2,0,P|441:145|451:74,1,107.999996704102,6|0,0:0|0:0,0:0:0:0:
416,57,37602,2,0,P|364:73|303:111,1,107.999996704102,2|10,0:0|0:0,0:0:0:0:
293,142,38117,1,2,3:0:0:0:
244,226,38460,6,0,P|280:260|330:361,2,161.999995056153,14|10|10,0:0|0:0|0:0,0:0:0:0:
182,302,39832,1,2,0:0:0:0:
182,302,40003,2,0,P|89:310|28:250,1,161.999995056153,10|2,0:3|0:0,0:0:0:0:
32,221,40689,1,8,0:3:0:0:
124,108,41203,6,0,L|104:2,2,107.999996704102,14|2|2,0:0|0:0|3:0,0:0:0:0:
209,154,42232,1,10,0:0:0:0:
209,154,42403,2,0,P|243:108|234:44,1,107.999996704102,2|10,1:3|0:3,0:0:0:0:
386,47,43260,2,0,P|410:35|436:28,2,53.9999983520508,2|10|2,0:0|0:3|0:0,0:0:0:0:
350,149,43945,1,4,0:0:0:0:
211,91,53545,6,0,B|170:50|282:-58|397:98|256:180|256:244,1,323.999990112305,0|2,0:0|0:0,0:0:0:0:
220,320,54917,6,0,L|152:340,2,53.9999983520508,6|8|8,1:2|0:3|0:3,0:0:0:0:
305,365,55602,2,0,L|413:345,1,107.999996704102,0|10,0:0|0:0,0:0:0:0:
444,253,56288,2,0,L|496:235,2,53.9999983520508,6|8|8,0:0|0:0|0:3,0:0:0:0:
365,194,56974,2,0,L|344:64,1,107.999996704102,8|10,0:0|0:0,0:0:0:0:
243,118,57660,6,0,L|234:176,2,53.9999983520508,12|8|8,1:2|0:3|0:3,0:0:0:0:
180,29,58345,2,0,L|60:22,1,107.999996704102,8|10,0:3|0:0,0:0:0:0:
63,130,59031,2,0,L|5:177,2,53.9999983520508,6|8|8,0:0|0:0|0:3,0:0:0:0:
112,226,59717,2,0,L|97:353,1,107.999996704102,10|10,0:0|0:0,0:0:0:0:
202,364,60402,6,0,L|216:236,1,120,6|8,1:2|0:3,0:0:0:0:
304,182,61088,2,0,L|318:54,1,120,6|8,1:2|0:0,0:0:0:0:
422,38,61774,2,0,L|496:20,2,60,6|8|8,1:2|0:0|0:3,0:0:0:0:
465,137,62460,2,0,L|518:179,2,60,6|8|8,1:2|0:3|0:3,0:0:0:0:
438,254,63145,6,0,P|424:309|346:346,1,120,12|8,0:0|0:3,0:0:0:0:
313,337,63660,1,8,0:0:0:0:
313,337,63831,2,0,L|326:253,2,60,6|2|8,1:2|0:0|0:3,0:0:0:0:
198,373,64517,2,0,P|151:373|63:377,1,120,12|8,0:0|0:0,0:0:0:0:
15,273,65202,2,0,P|20:219|22:139,1,120,8|10,0:0|0:3,0:0:0:0:
142,160,65888,6,0,P|138:111|102:31,2,120,6|8|2,1:0|0:0|0:3,0:0:0:0:
64,324,67088,2,0,P|115:331|198:351,1,120,6|2,0:0|0:0,0:0:0:0:
243,369,67602,1,12,0:0:0:0:
243,369,67774,2,0,P|265:320|260:293,1,60,2|10,0:1|0:3,0:0:0:0:
233,199,68288,1,8,0:0:0:0:
317,113,68631,6,0,P|313:64|277:-16,2,120,6|8|2,1:0|0:0|3:0,0:0:0:0:
472,204,69831,2,0,P|465:255|463:351,1,120,4|2,0:0|0:0,0:0:0:0:
425,371,70345,1,12,0:0:0:0:
425,371,70517,2,0,P|388:335|363:321,1,60,2|2,0:1|0:0,0:0:0:0:
261,345,71031,1,10,0:0:0:0:
151,295,71374,6,0,P|103:306|56:376,2,120,6|8|2,1:0|0:0|0:0,0:0:0:0:
111,119,72574,2,0,P|156:99|216:52,1,120,4|2,0:0|0:0,0:0:0:0:
249,9,73088,1,10,0:0:0:0:
249,9,73260,2,0,P|299:41|316:59,1,60,2|10,0:1|0:3,0:0:0:0:
346,151,73774,1,8,0:0:0:0:
454,99,74117,6,0,B|369:187|369:187|468:256|468:256|384:356,1,360,6|10,1:0|0:0,0:0:0:0:
275,369,75488,2,0,P|266:321|234:252,1,120,10|10,0:3|0:0,0:0:0:0:
226,136,76174,2,0,P|263:120|292:129,2,60,4|8|10,0:0|0:3|0:0,0:0:0:0:
105,145,76860,6,0,P|73:99|94:21,2,120,6|8|2,1:0|0:0|0:0,0:0:0:0:
58,319,78060,2,0,P|117:330|190:367,1,120,6|2,0:0|0:0,0:0:0:0:
227,376,78574,1,10,0:0:0:0:
227,376,78746,2,0,P|246:325|268:310,1,60,2|10,0:1|0:3,0:0:0:0:
341,245,79260,1,8,0:0:0:0:
460,250,79603,6,0,P|483:304|490:364,2,120,6|8|2,1:0|0:0|0:0,0:0:0:0:
457,69,80803,2,0,P|406:62|310:60,1,120,6|2,0:0|0:0,0:0:0:0:
285,29,81317,1,10,0:0:0:0:
285,29,81489,2,0,P|248:65|223:79,1,60,2|2,0:1|0:0,0:0:0:0:
192,179,82003,1,8,0:0:0:0:
251,283,82346,6,0,P|299:294|346:364,2,120,6|8|2,1:0|0:0|0:0,0:0:0:0:
92,368,83546,2,0,P|74:322|65:246,1,120,6|2,0:0|0:0,0:0:0:0:
102,206,84060,1,10,0:0:0:0:
102,206,84232,2,0,P|52:174|35:156,1,60,2|10,0:1|0:3,0:0:0:0:
31,55,84746,1,8,0:0:0:0:
150,47,85089,6,0,B|258:95|258:95|353:18|353:18|468:60,1,360,6|2,1:0|0:0,0:0:0:0:
436,175,86460,6,0,P|461:229|474:287,1,120,8|8,0:0|0:3,0:0:0:0:
421,310,86974,1,10,0:0:0:0:
421,310,87145,2,0,P|418:347|420:387,2,60,8|8|10,0:3|0:3|0:0,0:0:0:0:
326,235,87831,5,6,1:0:0:0:
207,370,88345,2,0,B|114:297|114:297|50:287,1,180,2|12,0:1|0:0,0:0:0:0:
11,174,89202,1,10,1:3:0:0:
188,143,89717,2,0,B|280:70|280:70|344:60,1,180,2|14,0:1|0:0,0:0:0:0:
461,47,90574,5,4,1:0:0:0:
494,229,91088,1,2,0:1:0:0:
494,229,91260,2,0,L|507:309,2,60,4|10|10,0:0|0:3|0:0,0:0:0:0:
379,193,91945,2,0,P|339:237|340:305,1,120,6|8,1:2|0:0,0:0:0:0:
370,352,92460,1,2,0:2:0:0:
370,352,92631,2,0,L|433:365,2,60,2|10|10,3:0|0:3|0:0,0:0:0:0:
252,376,93317,5,4,1:0:0:0:
227,197,93831,2,0,B|213:80|213:80|175:28,1,180,2|12,0:1|0:0,0:0:0:0:
57,11,94688,1,10,1:3:0:0:
24,188,95203,2,0,B|38:305|38:305|76:357,1,180,2|12,0:1|0:0,0:0:0:0:
194,368,96060,5,4,1:0:0:0:
261,203,96574,1,0,3:2:0:0:
261,203,96746,2,0,L|251:139,2,60,2|8|10,0:0|0:3|0:0,0:0:0:0:
286,320,97431,2,0,P|344:333|393:366,1,120,6|8,1:2|0:0,0:0:0:0:
438,325,97946,1,2,3:2:0:0:
438,325,98117,2,0,L|503:309,2,60,2|10|10,3:0|0:3|0:0,0:0:0:0:
374,237,98802,5,6,1:0:0:0:
475,110,99316,2,0,B|382:37|382:37|318:27,1,180,2|6,0:1|1:2,0:0:0:0:
276,125,100173,1,10,1:3:0:0:
316,282,100688,2,0,B|224:355|224:355|160:365,1,180,2|10,0:1|0:0,0:0:0:0:
54,368,101545,5,6,1:0:0:0:
30,213,102059,1,2,0:1:0:0:
30,213,102231,2,0,L|17:133,2,60,2|10|10,0:3|0:3|0:0,0:0:0:0:
126,164,102917,2,0,P|141:101|145:33,1,120,8|10,0:3|0:0,0:0:0:0:
201,33,103431,1,2,3:2:0:0:
201,33,103602,2,0,L|263:21,2,60,2|10|10,3:0|0:3|0:0,0:0:0:0:
245,131,104288,5,6,1:0:0:0:
375,35,104802,2,0,B|389:152|389:152|427:204,1,180,2|6,0:1|0:0,0:0:0:0:
487,290,105659,1,10,1:3:0:0:
342,363,106174,2,0,B|328:246|328:246|290:194,1,180,2|10,0:1|0:0,0:0:0:0:
235,288,107031,5,6,1:0:0:0:
90,356,107545,1,2,0:0:0:0:
90,356,107717,2,0,L|17:347,2,60,2|10|6,0:3|0:3|0:0,0:0:0:0:
135,258,108402,2,0,P|122:200|89:151,1,120,4|10,1:0|0:3,0:0:0:0:
80,101,108917,1,0,0:0:0:0:
80,101,109088,2,0,L|15:85,2,60,0|0|0,0:0|0:0|0:0,0:0:0:0:
187,84,109774,5,2,0:0:0:0:
277,24,110117,1,2,0:0:0:0:
277,24,110288,2,0,P|362:34|448:62,1,161.999995056153,0|4,3:0|0:0,0:0:0:0:
470,158,111145,1,2,0:0:0:0:
470,158,111317,2,0,L|486:280,2,107.999996704102,0|2|0,3:0|0:0|0:0,0:0:0:0:
308,147,112517,5,4,0:0:0:0:
329,258,112860,1,2,0:0:0:0:
329,258,113031,2,0,P|244:268|158:296,1,161.999995056153,0|4,3:0|0:0,0:0:0:0:
71,267,113888,1,2,0:0:0:0:
71,267,114060,2,0,P|70:320|87:389,2,107.999996704102,0|2|0,3:0|0:0|0:0,0:0:0:0:
19,113,115260,5,4,0:0:0:0:
105,47,115603,1,2,0:0:0:0:
105,47,115774,2,0,P|190:37|276:9,1,161.999995056153,0|4,3:0|0:0,0:0:0:0:
371,46,116631,1,2,0:0:0:0:
371,46,116803,2,0,P|365:104|330:162,2,107.999996704102,0|2|0,3:0|0:0|0:0,0:0:0:0:
501,141,118003,5,4,0:0:0:0:
496,253,118346,1,2,0:0:0:0:
496,253,118517,2,0,P|411:263|325:291,1,161.999995056153,0|4,3:0|0:0,0:0:0:0:
239,257,119374,1,2,0:0:0:0:
239,257,119546,2,0,P|240:310|223:379,2,107.999996704102,0|2|0,3:0|0:0|0:0,0:0:0:0:
82,296,120745,5,4,0:0:0:0:
28,209,121088,1,2,0:0:0:0:
28,209,121259,2,0,P|38:124|66:38,1,161.999995056153,0|4,3:0|0:0,0:0:0:0:
166,18,122116,1,2,0:0:0:0:
166,18,122288,2,0,P|211:34|275:74,2,107.999996704102,0|2|0,3:0|0:0|0:0,0:0:0:0:
163,180,123488,5,4,0:0:0:0:
275,175,123831,1,2,0:0:0:0:
275,175,124002,2,0,P|285:260|313:346,1,161.999995056153,0|4,3:0|0:0,0:0:0:0:
416,365,124859,1,2,0:0:0:0:
416,365,125031,2,0,P|441:318|490:267,2,107.999996704102,0|2|0,3:0|0:0|0:0,0:0:0:0:
391,204,126231,5,4,0:0:0:0:
469,129,126574,1,2,0:0:0:0:
469,129,126745,2,0,P|401:75|321:34,1,161.999995056153,0|4,3:0|0:0,0:0:0:0:
271,128,127602,1,2,0:0:0:0:
271,128,127774,2,0,P|265:186|230:244,2,107.999996704102,0|2|0,3:0|0:0|0:0,0:0:0:0:
139,32,128974,5,4,0:0:0:0:
61,106,129317,1,2,0:0:0:0:
61,106,129488,2,0,P|71:191|99:277,1,161.999995056153,0|4,3:0|0:0,0:0:0:0:
136,369,130345,1,2,0:0:0:0:
136,369,130517,2,0,P|81:372|8:359,2,107.999996704102,0|2|2,3:0|0:0|0:0,0:0:0:0:
256,260,131717,5,4,0:0:0:0:
256,192,131802,12,0,134460,0:0:0:0:
