osu file format v14

[General]
AudioFilename: audio.mp3
AudioLeadIn: 0
PreviewTime: 65802
Countdown: 0
SampleSet: Soft
StackLeniency: 0.7
Mode: 0
LetterboxInBreaks: 0
WidescreenStoryboard: 1

[Editor]
Bookmarks: 60,11031,22002,32974,43945,54917,65888,76860,87831,98802,108402,109774,120745,131717
DistanceSpacing: 1.2
BeatDivisor: 4
GridSize: 4
TimelineZoom: 2.5

[Metadata]
Title:Wolves
TitleUnicode:Wolves
Artist:Voicians
ArtistUnicode:Voicians
Creator:Mao
Version:Hard
Source:osu!
Tags:mbc monthly beatmapping contest judge screening winner fa featured artist mg mapper's guild electronic english altai undeadphoneguy
BeatmapID:2359642
BeatmapSetID:1129015

[Difficulty]
HPDrainRate:5
CircleSize:3.3
OverallDifficulty:6.5
ApproachRate:7.5
SliderMultiplier:1.6
SliderTickRate:1

[Events]
//Background and Video events
0,0,"koni-amandine-girard-amandine-girard-koni-the-sanctuary-of-the-arkh-witch-low.jpg",0,0
//Break Periods
//Storyboard Layer 0 (Background)
//Storyboard Layer 1 (Fail)
//Storyboard Layer 2 (Pass)
//Storyboard Layer 3 (Foreground)
//Storyboard Layer 4 (Overlay)
//Storyboard Sound Samples

[TimingPoints]
60,342.857142857143,4,2,1,50,1,0
22002,-111.111111111111,4,2,1,70,0,0
43945,-133.333333333333,4,2,1,40,0,0
54917,-200,4,2,1,50,0,0
56288,-166.666666666667,4,2,1,55,0,0
57660,-142.857142857143,4,2,1,65,0,0
59031,-125,4,2,1,70,0,0
60402,-111.111111111111,4,2,1,75,0,0
63145,-100,4,2,1,80,0,0
64517,-100,4,2,1,80,0,0
64860,-100,4,2,1,75,0,0
65202,-100,4,2,1,70,0,0
65545,-100,4,2,1,65,0,0
65888,-100,4,2,1,90,0,0
67088,-83.3333333333333,4,2,1,90,0,1
67602,-83.3333333333333,4,2,1,90,0,1
67945,-100,4,2,1,90,0,0
68631,-100,4,2,1,90,0,0
69831,-83.3333333333333,4,2,1,90,0,1
70345,-83.3333333333333,4,2,1,90,0,1
70688,-100,4,2,1,90,0,0
71031,-100,4,2,1,90,0,0
72574,-83.3333333333333,4,2,1,90,0,1
73088,-83.3333333333333,4,2,1,90,0,1
73431,-100,4,2,1,90,0,0
74117,-100,4,2,1,90,0,0
75317,-100,4,2,1,90,0,1
75488,-83.3333333333333,4,2,1,90,0,1
75831,-100,4,2,1,90,0,1
76174,-100,4,2,1,90,0,0
76860,-100,4,2,1,90,0,0
78060,-83.3333333333333,4,2,1,90,0,1
78574,-83.3333333333333,4,2,1,90,0,1
78917,-100,4,2,1,90,0,0
79602,-100,4,2,1,90,0,0
80802,-83.3333333333333,4,2,1,90,0,1
81317,-83.3333333333333,4,2,1,90,0,1
81660,-100,4,2,1,90,0,0
82002,-100,4,2,1,90,0,0
83545,-83.3333333333333,4,2,1,90,0,1
84060,-83.3333333333333,4,2,1,90,0,1
84402,-100,4,2,1,90,0,0
85088,-100,4,2,1,90,0,0
86460,-83.3333333333333,4,2,1,90,0,0
87831,-100,4,2,1,90,0,1
87917,-100,4,2,1,90,0,0
88174,-100,4,2,1,90,0,0
89202,-100,4,2,1,90,0,0
89717,-100,4,2,1,90,0,0
90231,-100,4,2,1,90,0,0
90574,-100,4,2,1,90,0,0
91088,-100,4,2,1,90,0,0
91602,-100,4,2,1,90,0,0
91945,-100,4,2,1,90,0,0
92631,-100,4,2,1,90,0,0
93488,-100,4,2,1,90,0,0
93831,-100,4,2,1,90,0,0
94688,-100,4,2,1,90,0,0
95202,-100,4,2,1,90,0,0
95717,-100,4,2,1,90,0,0
96060,-100,4,2,1,90,0,0
96745,-100,4,2,1,90,0,0
97088,-100,4,2,1,90,0,0
97431,-100,4,2,1,90,0,0
98288,-100,4,2,1,90,0,0
98802,-100,4,2,1,90,0,1
98888,-100,4,2,1,90,0,0
99317,-100,4,2,1,90,0,0
100174,-100,4,2,1,90,0,0
100688,-100,4,2,1,90,0,0
101031,-100,4,2,1,90,0,0
101545,-100,4,2,1,90,0,0
103774,-100,4,2,1,90,0,0
104460,-100,4,2,1,90,0,0
104802,-100,4,2,1,90,0,0
105660,-100,4,2,1,90,0,0
106174,-100,4,2,1,90,0,0
107031,-100,4,2,1,90,0,0
108745,-100,4,2,1,70,0,0
109602,-125,4,2,1,40,0,0
131717,-125,4,2,1,40,0,0
131802,-125,4,2,2,5,0,0

[Colours]
Combo1 : 215,215,215
Combo2 : 132,254,97
Combo3 : 151,149,121
Combo4 : 255,172,0

[HitObjects]
55,39,22002,6,0,P|100:49|144:129,1,143.999995605469,14|2,1:2|0:3,0:0:0:0:
84,194,22517,2,0,P|76:251|74:345,1,143.999995605469,10|0,0:0|0:0,0:0:0:0:
153,371,23031,1,10,0:0:0:0:
244,224,23374,6,0,P|239:182|227:144,1,71.9999978027344,2|10,0:0|0:3,0:0:0:0:
185,78,23717,1,2,0:0:0:0:
185,78,23888,2,0,P|219:38|333:35,1,143.999995605469,0|8,0:0|0:3,0:0:0:0:
390,44,24402,1,0,0:0:0:0:
500,176,24745,6,0,B|457:184|438:260|477:281|445:341|400:354,1,215.999993408203,12|10,0:0|0:0,0:0:0:0:
317,371,25431,1,2,0:3:0:0:
321,198,25774,2,0,P|308:146|306:119,1,71.9999978027344,10|0,0:0|0:0,0:0:0:0:
274,46,26117,6,0,P|327:25|372:25,2,71.9999978027344,2|10|0,0:0|0:3|0:0,0:0:0:0:
219,114,26631,2,0,P|165:118|81:78,1,143.999995605469,2|10,0:0|0:0,0:0:0:0:
19,20,27145,1,2,3:0:0:0:
5,193,27488,6,0,P|50:203|94:283,1,143.999995605469,14|0,0:0|0:0,0:0:0:0:
32,345,28003,2,0,P|103:346|175:355,1,143.999995605469,10|2,0:0|0:0,0:0:0:0:
259,379,28517,1,10,1:3:0:0:
244,206,28860,6,0,P|249:164|262:126,1,71.9999978027344,2|10,0:0|0:3,0:0:0:0:
202,75,29203,1,2,0:0:0:0:
202,75,29374,2,0,P|236:35|350:32,1,143.999995605469,0|8,0:0|0:3,0:0:0:0:
362,98,29888,1,0,0:0:0:0:
498,6,30231,6,0,B|461:29|471:106|515:111|508:178|471:208,1,215.999993408203,14|10,0:0|0:0,0:0:0:0:
499,289,30917,2,0,P|461:302|427:328,1,71.9999978027344,2|0,0:0|0:0,0:0:0:0:
364,369,31260,1,10,0:0:0:0:
297,313,31431,1,2,1:3:0:0:
297,313,31603,6,0,P|341:282|390:276,2,71.9999978027344,0|10|2,0:0|0:3|0:0,0:0:0:0:
133,370,32288,2,0,L|98:298,1,71.9999978027344,2|10,0:0|0:3,0:0:0:0:
31,253,32631,2,0,L|41:139,1,107.999996704102,2|0,0:0|0:0,0:0:0:0:
33,101,32974,6,0,P|78:111|142:29,1,143.999995605469,14|0,1:2|0:0,0:0:0:0:
220,9,33489,2,0,P|200:64|189:156,1,143.999995605469,10|0,0:0|0:0,0:0:0:0:
188,236,34003,1,10,0:0:0:0:
315,354,34346,6,0,P|310:313|298:275,1,71.9999978027344,2|10,0:0|0:3,0:0:0:0:
349,211,34689,1,2,0:0:0:0:
349,211,34860,2,0,P|400:220|459:316,1,143.999995605469,0|8,0:0|0:3,0:0:0:0:
446,374,35374,1,0,0:0:0:0:
438,201,35717,6,0,B|416:161|436:96|478:108|518:42|493:6,1,215.999993408203,14|10,0:0|0:0,0:0:0:0:
407,3,36403,1,2,0:3:0:0:
275,115,36746,2,0,P|262:64|250:35,1,71.9999978027344,10|0,0:0|0:0,0:0:0:0:
173,15,37089,6,0,P|137:21|105:37,2,71.9999978027344,6|10|0,0:0|0:3|0:0,0:0:0:0:
183,101,37603,2,0,P|139:137|79:203,1,143.999995605469,2|10,0:0|0:0,0:0:0:0:
39,278,38117,1,2,3:0:0:0:
188,365,38460,6,0,P|164:299|232:257,1,143.999995605469,14|2,0:0|0:0,0:0:0:0:
270,323,38975,2,0,P|341:324|413:333,1,143.999995605469,10|0,0:0|0:0,0:0:0:0:
493,365,39489,1,10,0:0:0:0:
478,192,39832,6,0,P|483:150|495:112,1,71.9999978027344,2|10,0:0|0:3,0:0:0:0:
461,39,40175,1,2,0:0:0:0:
461,39,40346,2,0,P|436:94|343:105,1,143.999995605469,0|8,0:0|0:3,0:0:0:0:
322,33,40860,1,0,0:0:0:0:
179,132,41203,6,0,B|221:122|269:184|240:219|294:262|341:256,1,215.999993408203,14|10,0:0|0:0,0:0:0:0:
313,340,41889,6,0,P|275:353|240:379,1,71.9999978027344,2|0,3:0|0:0,0:0:0:0:
176,323,42232,1,10,0:0:0:0:
88,330,42403,1,2,1:3:0:0:
88,330,42575,6,0,P|44:361|-4:366,2,71.9999978027344,0|10|2,0:0|0:3|0:0,0:0:0:0:
184,185,43260,2,0,L|149:113,1,71.9999978027344,2|10,0:0|0:3,0:0:0:0:
77,163,43603,2,0,L|26:54,1,107.999996704102,2|0,0:0|0:0,0:0:0:0:
50,35,43945,6,0,P|145:30|228:4,1,180.000006866455,4|0,0:0|0:0,0:0:0:0:
318,30,44631,1,2,0:0:0:0:
318,30,44974,1,2,3:0:0:0:
482,209,45317,6,0,P|387:214|304:240,1,180.000006866455,2|0,0:0|0:0,0:0:0:0:
214,214,46003,1,2,0:0:0:0:
187,305,46174,2,0,P|158:318|95:383,1,120.000004577637,0|0,0:0|0:0,0:0:0:0:
33,299,46688,6,0,P|23:204|2:97,1,180.000006866455,6|0,0:0|0:0,0:0:0:0:
29,28,47374,1,2,0:0:0:0:
29,28,47717,1,2,3:0:0:0:
212,18,48060,6,0,P|228:106|237:196,1,180.000006866455,2|0,0:0|0:0,0:0:0:0:
213,288,48745,1,2,0:0:0:0:
282,351,48917,2,0,L|403:362,1,120.000004577637,0|0,0:0|0:0,0:0:0:0:
480,310,49431,6,0,P|440:315|405:190,1,180.000006866455,6|0,0:0|0:0,0:0:0:0:
472,158,50117,1,2,0:0:0:0:
472,158,50460,1,2,3:0:0:0:
316,21,50802,6,0,P|288:68|241:204,1,180.000006866455,2|0,0:0|0:0,0:0:0:0:
283,273,51488,1,2,0:0:0:0:
231,350,51660,2,0,P|189:365|111:327,1,120.000004577637,0|0,0:0|0:0,0:0:0:0:
112,242,52174,6,0,P|110:278|94:315,1,60.0000022888184,6|0,0:0|0:0,0:0:0:0:
21,254,52517,2,0,P|23:218|39:180,1,60.0000022888184,2|0,0:0|0:0,0:0:0:0:
99,122,52860,1,2,0:0:0:0:
99,122,53202,1,2,0:3:0:0:
256,192,53374,12,2,54574,0:0:0:0:
43,66,54917,6,0,L|39:120,2,40,6|8|8,1:2|0:3|0:3,0:0:0:0:
136,33,55431,1,8,0:0:0:0:
136,33,55602,2,0,L|131:116,1,80,0|10,0:0|0:0,0:0:0:0:
99,318,56288,6,0,L|95:264,2,47.9999985351563,6|8|8,0:0|0:0|0:3,0:0:0:0:
192,351,56802,1,8,0:3:0:0:
192,351,56974,2,0,L|182:251,1,95.9999970703126,8|10,0:0|0:0,0:0:0:0:
278,59,57660,6,0,L|276:124,2,55.9999982910157,12|8|8,1:2|0:3|0:3,0:0:0:0:
371,26,58174,1,8,0:0:0:0:
371,26,58345,2,0,L|368:148,1,111.999996582031,8|10,0:3|0:0,0:0:0:0:
370,344,59031,6,0,L|365:271,2,64,6|8|8,0:0|0:0|0:3,0:0:0:0:
463,377,59545,1,8,0:3:0:0:
463,377,59717,2,0,L|454:245,1,128,10|10,0:0|0:0,0:0:0:0:
497,157,60231,1,0,0:0:0:0:
497,157,60402,6,0,L|425:148,1,71.9999978027344,6|8,1:2|0:3,0:0:0:0:
412,89,60745,2,0,L|340:80,1,71.9999978027344,8|8,0:3|0:0,0:0:0:0:
301,159,61088,2,0,L|228:150,1,71.9999978027344,6|8,1:2|0:3,0:0:0:0:
215,91,61431,2,0,L|143:82,1,71.9999978027344,8|8,0:0|0:3,0:0:0:0:
39,48,61774,6,0,L|52:120,1,71.9999978027344,6|8,1:2|0:0,0:0:0:0:
129,187,62117,2,0,L|116:260,1,71.9999978027344,8|8,0:3|0:3,0:0:0:0:
44,337,62460,1,6,1:2:0:0:
44,337,62631,2,0,L|56:385,4,35.9999989013672,8|8|8|8|8,0:3|0:3|0:3|0:3|0:3,0:0:0:0:
123,282,63145,6,0,L|200:355,1,80,12|8,0:0|0:3,0:0:0:0:
267,284,63488,2,0,L|364:326,1,80,8|8,0:3|0:0,0:0:0:0:
403,231,63831,2,0,L|508:237,1,80,6|2,1:2|0:0,0:0:0:0:
473,125,64174,2,0,L|506:98,4,40,8|8|8|8|12,0:3|0:3|0:3|0:3|0:0,0:0:0:0:
256,192,64602,12,10,65545,0:3:0:0:
67,212,65888,6,0,P|58:146|30:40,1,160,6|8,1:0|0:0,0:0:0:0:
206,14,66574,2,0,L|257:89,1,80,2|0,0:3|0:0,0:0:0:0:
201,160,66917,1,8,0:0:0:0:
232,249,67088,6,0,P|232:286|233:358,2,95.9999970703126,6|10|2,0:0|0:3|0:0,0:0:0:0:
316,210,67602,2,0,P|330:268|370:376,1,143.999995605469,12|8,0:0|0:3,0:0:0:0:
400,359,67945,1,10,0:3:0:0:
499,272,68202,1,8,0:3:0:0:
499,272,68288,2,0,P|488:217|478:194,1,80,8|2,0:0|0:0,0:0:0:0:
499,108,68631,6,0,P|439:94|371:21,1,160,6|8,1:0|0:0,0:0:0:0:
222,119,69317,2,0,L|138:79,1,80,2|8,3:0|0:3,0:0:0:0:
58,50,69660,1,8,0:0:0:0:
76,143,69831,6,0,P|19:165|13:203,2,95.9999970703126,4|10|2,0:0|0:3|0:0,0:0:0:0:
99,234,70345,2,0,P|86:280|95:342,1,95.9999970703126,12|2,0:0|0:1,0:0:0:0:
174,375,70688,1,2,0:0:0:0:
174,375,70860,1,10,0:3:0:0:
224,297,71031,2,0,L|207:210,1,80,10|2,0:0|0:0,0:0:0:0:
151,149,71374,6,0,P|187:111|253:15,1,160,6|8,1:0|0:0,0:0:0:0:
426,15,72060,2,0,L|400:102,1,80,2|0,0:0|0:0,0:0:0:0:
472,150,72402,1,8,0:0:0:0:
466,239,72574,6,0,P|473:305|476:355,2,95.9999970703126,4|10|2,0:0|0:3|0:0,0:0:0:0:
377,222,73088,2,0,P|360:297|341:385,1,143.999995605469,10|8,0:0|0:3,0:0:0:0:
300,370,73431,1,10,0:3:0:0:
196,273,73688,1,8,0:3:0:0:
196,273,73774,1,8,0:0:0:0:
244,200,73945,1,2,0:0:0:0:
192,127,74117,6,0,B|211:92|211:92|205:42,3,80,6|2|10|2,1:0|0:0|0:0|0:0,0:0:0:0:
116,33,74802,2,0,B|97:68|97:68|102:108,3,80,2|10|10|6,0:0|0:3|0:0|0:0,0:0:0:0:
119,203,75488,6,0,P|70:216|31:249,2,95.9999970703126,10|2|10,0:3|0:0|0:0,0:0:0:0:
141,290,76002,1,2,3:1:0:0:
230,286,76174,2,0,L|244:371,1,80,4|8,0:0|0:3,0:0:0:0:
268,280,76517,2,0,L|253:195,1,80,10|2,0:0|0:0,0:0:0:0:
339,175,76860,6,0,P|330:110|302:4,1,160,6|8,1:0|0:0,0:0:0:0:
476,64,77545,2,0,P|466:111|466:149,1,80,2|0,0:0|0:0,0:0:0:0:
504,223,77889,1,8,0:0:0:0:
437,283,78060,6,0,P|439:321|438:392,2,95.9999970703126,6|10|2,0:0|0:3|0:0,0:0:0:0:
358,240,78574,2,0,P|300:254|221:319,1,143.999995605469,10|8,0:0|0:3,0:0:0:0:
221,339,78917,1,10,0:3:0:0:
95,366,79174,1,10,0:3:0:0:
95,366,79260,2,0,P|84:311|74:288,1,80,8|2,0:0|0:0,0:0:0:0:
4,236,79603,6,0,P|64:235|77:142,1,160,6|8,1:0|0:0,0:0:0:0:
221,41,80288,2,0,P|228:99|233:124,1,80,2|8,0:0|0:3,0:0:0:0:
295,182,80631,1,10,0:0:0:0:
236,251,80803,6,0,P|179:273|173:310,2,95.9999970703126,6|10|2,0:0|0:3|0:0,0:0:0:0:
286,322,81317,2,0,P|333:317|379:330,1,95.9999970703126,10|2,0:0|0:1,0:0:0:0:
463,373,81660,1,2,0:0:0:0:
463,373,81832,1,10,0:3:0:0:
494,290,82003,2,0,P|483:250|477:203,1,80,8|2,0:0|0:3,0:0:0:0:
479,122,82346,6,0,P|443:160|333:190,1,160,6|8,1:0|0:0,0:0:0:0:
247,41,83031,2,0,P|192:32|157:17,1,80,2|0,0:0|0:0,0:0:0:0:
85,50,83374,1,8,0:0:0:0:
150,110,83546,6,0,P|157:176|160:227,2,95.9999970703126,6|10|2,0:0|0:3|0:0,0:0:0:0:
64,137,84060,2,0,P|47:213|28:301,1,143.999995605469,10|8,0:0|0:3,0:0:0:0:
44,309,84403,1,10,0:3:0:0:
171,360,84660,1,8,0:3:0:0:
171,360,84746,1,8,0:0:0:0:
213,283,84917,1,2,0:0:0:0:
197,196,85089,6,0,B|178:160|178:160|184:110,3,80,6|2|10|0,1:0|0:0|0:0|0:0,0:0:0:0:
268,143,85774,2,0,B|287:178|287:178|282:219,3,80,2|8|2|6,0:0|0:3|0:0|0:0,0:0:0:0:
352,280,86460,6,0,L|363:378,2,95.9999970703126,8|10|8,0:0|0:3|0:3,0:0:0:0:
440,275,86974,2,0,L|451:373,2,95.9999970703126,10|8|8,0:0|0:3|0:3,0:0:0:0:
483,201,87488,2,0,L|494:102,1,95.9999970703126,10|6,0:0|1:2,0:0:0:0:
446,29,87831,5,6,1:0:0:0:
280,89,88174,1,8,0:0:0:0:
280,89,88345,2,0,B|284:138|284:138|316:177|316:177|323:245,1,160,2|8,0:1|0:3,0:0:0:0:
335,325,88860,2,0,P|280:339|242:353,1,80,12|0,0:0|0:0,0:0:0:0:
175,378,89202,5,10,1:3:0:0:
36,279,89545,1,8,0:0:0:0:
36,279,89717,2,0,B|40:230|40:230|72:190|72:190|79:123,1,160,2|10,0:1|0:3,0:0:0:0:
33,53,90231,2,0,P|70:40|109:31,1,80,14|0,0:0|0:0,0:0:0:0:
165,99,90574,5,4,1:0:0:0:
329,32,90917,1,8,0:0:0:0:
329,32,91088,2,0,B|310:71|310:71|322:125,1,80,2|4,0:1|0:0,0:0:0:0:
408,93,91431,1,10,0:3:0:0:
408,93,91602,2,0,B|427:132|427:132|415:186,1,80,10|0,0:0|0:0,0:0:0:0:
481,231,91945,5,6,1:2:0:0:
362,361,92288,1,8,0:0:0:0:
323,281,92460,2,0,B|315:245|315:245|334:206,2,80,2|2|10,0:2|3:0|0:3,0:0:0:0:
268,350,92974,2,0,P|221:335|176:330,1,80,10|0,0:0|0:0,0:0:0:0:
105,356,93317,5,4,1:0:0:0:
18,209,93660,1,8,0:0:0:0:
18,209,93831,2,0,B|67:205|67:205|106:172|106:172|173:165,1,160,2|10,0:1|0:3,0:0:0:0:
247,202,94346,2,0,P|251:161|260:122,1,80,12|0,0:0|0:0,0:0:0:0:
204,54,94688,5,10,1:3:0:0:
380,15,95031,1,8,0:0:0:0:
380,15,95202,2,0,B|411:52|411:52|416:102|416:102|459:155,1,160,2|10,0:1|0:3,0:0:0:0:
501,225,95717,2,0,P|462:233|424:247,1,80,12|0,0:0|0:0,0:0:0:0:
466,324,96060,5,4,1:0:0:0:
300,373,96403,1,8,0:0:0:0:
300,373,96574,2,0,B|281:334|281:334|293:280,1,80,0|2,3:2|0:0,0:0:0:0:
265,218,96917,1,8,0:3:0:0:
265,218,97088,2,0,B|245:178|245:178|258:124,1,80,10|0,0:0|0:0,0:0:0:0:
285,59,97431,5,6,1:2:0:0:
117,18,97774,1,8,0:0:0:0:
117,18,97945,2,0,P|69:54|79:95,1,80,2|2,3:2|3:0,0:0:0:0:
123,137,98288,2,0,L|202:117,2,80,10|10|2,0:3|0:0|0:0,0:0:0:0:
62,203,98803,5,6,1:0:0:0:
186,334,99145,1,10,0:0:0:0:
186,334,99317,2,0,B|235:338|235:338|275:370|275:370|342:377,1,160,2|10,0:1|0:3,0:0:0:0:
365,292,99831,2,0,P|402:279|441:270,1,80,6|0,1:2|0:0,0:0:0:0:
489,343,100173,5,10,1:3:0:0:
500,170,100516,1,8,0:0:0:0:
500,170,100688,2,0,B|458:144|458:144|407:147|407:147|349:113,1,160,2|6,0:1|0:0,0:0:0:0:
357,28,101202,2,0,P|318:36|271:37,1,80,10|4,0:0|0:0,0:0:0:0:
192,12,101545,5,6,1:0:0:0:
31,78,101888,1,8,0:0:0:0:
31,78,102059,2,0,B|12:117|12:117|24:171,1,80,2|2,0:1|0:3,0:0:0:0:
109,134,102402,1,10,0:3:0:0:
109,134,102573,2,0,B|128:173|128:173|116:228,1,80,10|0,0:0|0:0,0:0:0:0:
40,247,102916,5,8,0:3:0:0:
172,363,103259,1,10,0:0:0:0:
225,292,103431,2,0,B|217:256|217:256|236:217,2,80,2|2|10,3:2|3:0|0:3,0:0:0:0:
286,356,103945,2,0,P|332:341|377:336,1,80,10|2,0:0|0:1,0:0:0:0:
447,362,104288,5,6,1:0:0:0:
462,189,104631,1,10,0:0:0:0:
462,189,104802,2,0,B|466:140|466:140|498:101|498:101|505:34,1,160,2|10,0:1|0:3,0:0:0:0:
415,40,105317,2,0,P|396:75|375:109,1,80,6|0,0:0|0:0,0:0:0:0:
300,63,105659,5,10,1:3:0:0:
131,26,106002,1,8,0:0:0:0:
131,26,106174,2,0,B|162:63|162:63|167:113|167:113|210:166,1,160,2|6,0:1|0:0,0:0:0:0:
146,227,106688,2,0,L|93:162,1,80,10|4,0:0|0:0,0:0:0:0:
21,215,107031,5,6,1:0:0:0:
31,305,107202,1,2,0:3:0:0:
99,362,107374,2,0,B|138:343|138:343|192:355,3,80,12|2|2|10,0:0|0:0|0:3|0:3,0:0:0:0:
260,372,108060,1,6,0:0:0:0:
260,372,108231,1,2,0:0:0:0:
321,309,108402,5,4,1:0:0:0:
164,226,108745,2,0,B|217:165|217:165|298:157|298:157|356:99|356:99|436:87|436:87|511:10,1,400,10|8,0:3|0:3,0:0:0:0:
462,118,109774,6,0,P|473:164|493:262,1,128,2|2,0:0|0:0,0:0:0:0:
486,333,110288,1,0,3:0:0:0:
310,370,110631,1,0,0:0:0:0:
310,370,110802,2,0,L|237:359,1,64,4|0,0:0|0:0,0:0:0:0:
193,287,111145,5,2,0:0:0:0:
193,287,111317,2,0,P|131:313|74:354,1,128,0|2,3:0|0:0,0:0:0:0:
14,180,112002,1,0,0:0:0:0:
14,180,112174,1,0,3:0:0:0:
114,31,112517,6,0,P|125:77|145:174,1,128,4|2,0:0|0:0,0:0:0:0:
213,211,113031,1,0,3:0:0:0:
290,50,113374,1,0,0:0:0:0:
290,50,113545,2,0,L|362:39,1,64,4|0,0:0|0:0,0:0:0:0:
426,92,113888,5,2,0:0:0:0:
426,92,114060,2,0,P|470:72|479:35,2,64,0|0|2,3:0|0:0|0:0,0:0:0:0:
501,261,114745,1,0,0:0:0:0:
501,261,114917,1,0,3:0:0:0:
360,371,115260,6,0,P|347:308|327:244,1,128,4|2,0:0|0:0,0:0:0:0:
384,176,115774,1,0,3:0:0:0:
288,31,116117,1,0,0:0:0:0:
288,31,116288,2,0,L|218:50,1,64,4|0,0:0|0:0,0:0:0:0:
137,28,116631,5,2,0:0:0:0:
137,28,116803,2,0,P|100:80|76:139,1,128,0|2,3:0|0:0,0:0:0:0:
52,321,117488,1,0,0:0:0:0:
52,321,117660,1,0,3:0:0:0:
224,370,118003,6,0,P|211:307|159:262,1,128,4|2,0:0|0:0,0:0:0:0:
206,184,118517,1,0,3:0:0:0:
331,321,118860,1,0,0:0:0:0:
331,321,119031,2,0,L|403:310,1,64,4|0,0:0|0:0,0:0:0:0:
456,246,119374,5,2,0:0:0:0:
456,246,119546,2,0,P|486:271|509:308,2,64,0|0|2,3:0|0:0|0:0,0:0:0:0:
495,73,120231,1,0,0:0:0:0:
495,73,120402,2,0,P|462:63|380:53,1,96,0|0,3:0|3:0,0:0:0:0:
360,35,120745,6,0,P|371:81|391:178,1,128,4|2,0:0|0:0,0:0:0:0:
398,250,121259,1,0,3:0:0:0:
254,357,121602,1,0,0:0:0:0:
254,357,121773,2,0,L|266:285,1,64,4|0,0:0|0:0,0:0:0:0:
201,228,122116,5,2,0:0:0:0:
201,228,122288,2,0,P|226:164|237:95,1,128,0|2,3:0|0:0,0:0:0:0:
82,26,122973,1,0,0:0:0:0:
82,26,123145,1,0,3:0:0:0:
40,201,123488,6,0,P|51:247|71:344,1,128,4|2,0:0|0:0,0:0:0:0:
148,365,124002,1,0,3:0:0:0:
209,199,124345,1,0,0:0:0:0:
209,199,124516,2,0,L|282:187,1,64,4|0,0:0|0:0,0:0:0:0:
321,112,124859,5,2,0:0:0:0:
321,112,125031,2,0,P|301:68|264:59,2,64,0|0|2,3:0|0:0|0:0,0:0:0:0:
476,19,125716,1,0,0:0:0:0:
476,19,125888,1,0,3:0:0:0:
480,199,126231,6,0,P|498:260|511:322,1,128,4|2,0:0|0:0,0:0:0:0:
440,376,126745,1,0,3:0:0:0:
316,254,127088,1,0,0:0:0:0:
316,254,127259,2,0,P|309:229|304:179,1,64,4|0,0:0|0:0,0:0:0:0:
351,113,127602,5,2,0:0:0:0:
351,113,127774,2,0,P|308:62|249:35,1,128,0|2,3:0|0:0,0:0:0:0:
80,6,128459,1,0,0:0:0:0:
80,6,128631,1,0,3:0:0:0:
71,185,128974,6,0,P|49:241|24:312,1,128,4|2,0:0|0:0,0:0:0:0:
90,368,129488,1,0,3:0:0:0:
203,230,129831,1,0,0:0:0:0:
203,230,130002,2,0,L|192:157,1,64,4|0,0:0|0:0,0:0:0:0:
143,97,130345,5,2,0:0:0:0:
143,97,130517,2,0,P|104:93|61:103,2,64,0|0|2,3:0|0:0|0:0,0:0:0:0:
317,41,131202,1,2,0:0:0:0:
317,41,131373,2,0,P|350:51|431:60,1,96,0|0,0:0|0:0,0:0:0:0:
453,45,131717,5,4,0:0:0:0:
256,192,131802,12,0,134460,0:0:0:0:
