osu file format v14

[General]
AudioFilename: audio.mp3
AudioLeadIn: 0
PreviewTime: 176
Countdown: 0
SampleSet: Soft
StackLeniency: 0.6
Mode: 0
LetterboxInBreaks: 0
WidescreenStoryboard: 1

[Editor]
Bookmarks: 91755
DistanceSpacing: 1
BeatDivisor: 8
GridSize: 4
TimelineZoom: 2.1

[Metadata]
Title:Prayer (Cut Ver.)
TitleUnicode:Prayer (Cut Ver.)
Artist:Voicians
ArtistUnicode:Voicians
Creator:Acylica
Version:Sharu's Hard
Source:osu!
Tags:fa featured artist electronic vocal rock matter of time sharu mappers' guild down mbc monthly beatmapping contest judge screening mg english mbc#2 finalist short ver version cut
BeatmapID:2523479
BeatmapSetID:1129229

[Difficulty]
HPDrainRate:5
CircleSize:4
OverallDifficulty:6.5
ApproachRate:8
SliderMultiplier:1.6
SliderTickRate:1

[Events]
//Background and Video events
0,0,"8fed7ee3-7a9a-4ed8-a090-d4c490e709c3.png",0,0
//Break Periods
2,70244,75215
//Storyboard Layer 0 (Background)
//Storyboard Layer 1 (Fail)
//Storyboard Layer 2 (Pass)
//Storyboard Layer 3 (Foreground)
//Storyboard Layer 4 (Overlay)
//Storyboard Sound Samples

[TimingPoints]
176,394.736842105263,4,2,1,60,1,0
571,394.736842105263,4,2,1,60,1,0
571,-100,4,2,1,60,0,0
13202,-83.3333333333333,4,2,1,85,0,0
22676,-125,4,2,1,85,0,0
23465,-100,4,2,1,85,0,0
51097,-100,4,2,1,75,0,0
70044,-125,4,2,1,75,0,0
76360,-83.3333333333333,4,2,1,85,0,1
88992,-100,4,2,1,65,0,0
101623,-90.9090909090909,4,2,1,85,0,1
114255,-100,4,2,1,75,0,0
114847,-100,4,2,1,75,0,0
123728,-100,4,2,1,85,0,0
125307,-100,4,2,1,85,0,0
126097,-100,4,2,1,85,0,0
126197,-100,4,2,1,85,0,0
126886,-166.666666666667,4,2,1,85,0,0
127281,-166.666666666667,4,2,1,35,0,0

[Colours]
Combo1 : 168,209,215
Combo2 : 243,237,182
Combo3 : 209,184,222

[HitObjects]
0,0,176,6,0,P|18:12|23:32,3,40,2|2|8|8,0:3|0:3|0:3|0:3,0:0:0:0:
62,38,571,6,0,P|47:81|45:132,1,80,4|0,1:0|0:0,0:0:0:0:
105,166,965,2,0,P|188:185|208:217,1,120,10|0,0:0|0:0,0:0:0:0:
204,250,1360,2,0,L|250:231,2,40,2|0|2,1:2|1:0|1:2,0:0:0:0:
137,294,1755,2,0,P|54:313|34:345,1,120,8|0,0:0|1:2,0:0:0:0:
33,377,2149,102,0,P|84:370|129:381,1,80,2|0,1:2|1:0,0:0:0:0:
189,355,2544,2,0,P|241:376|311:380,1,120,8|0,0:0|1:0,0:0:0:0:
320,344,2939,2,0,L|310:301,2,40,0|0|0,1:2|1:0|1:2,0:0:0:0:
391,308,3334,2,0,P|443:287|513:283,1,120,10|0,0:2|1:2,0:0:0:0:
489,318,3728,5,0,1:2:0:0:
488,157,4123,2,0,B|474:121|428:116|428:116|448:131|456:158,1,120,10|0,0:0|0:0,0:0:0:0:
417,168,4518,2,0,L|429:213,2,40,2|0|2,1:2|1:0|1:2,0:0:0:0:
337,157,4913,2,0,P|296:195|222:205,1,120,8|0,0:0|1:2,0:0:0:0:
198,189,5307,6,0,L|210:144,2,40,2|0|0,1:2|0:0|1:0,0:0:0:0:
130,146,5702,2,0,L|125:123,4,20,8|0|0|0|0,3:2|1:0|1:0|1:0|1:0,0:0:0:0:
52,165,6097,2,0,P|65:196|114:223,2,80,0|0|10,1:2|1:2|0:2,0:0:0:0:
30,93,6689,1,0,1:2:0:0:
30,93,6788,1,0,1:2:0:0:
30,93,6886,6,0,P|73:94|116:127,1,80,0|0,1:2|0:0,0:0:0:0:
166,62,7281,2,0,P|189:110|258:134,1,120,10|0,0:0|0:0,0:0:0:0:
284,152,7676,2,0,L|280:98,2,40,2|0|2,1:2|1:0|1:2,0:0:0:0:
356,125,8070,2,0,P|379:77|448:53,1,120,8|0,0:0|1:2,0:0:0:0:
473,71,8465,102,0,L|447:153,1,80,2|0,1:2|1:0,0:0:0:0:
468,225,8860,2,0,P|424:234|342:271,1,120,8|0,0:0|1:0,0:0:0:0:
315,266,9255,2,0,L|330:319,2,40,0|0|0,1:2|1:0|1:2,0:0:0:0:
246,307,9649,2,0,P|202:298|120:261,1,120,10|0,0:2|1:2,0:0:0:0:
104,296,10044,5,0,1:2:0:0:
13,164,10439,2,0,P|40:120|118:122,1,120,10|0,0:0|0:0,0:0:0:0:
125,147,10834,2,0,L|137:105,2,40,2|0|2,1:2|1:0|1:2,0:0:0:0:
204,155,11228,2,0,P|231:199|309:197,1,120,8|0,0:0|1:0,0:0:0:0:
326,180,11623,102,0,L|317:86,1,80,10|0,1:2|1:0,0:0:0:0:
396,83,12018,2,0,L|405:177,1,80,10|0,1:2|1:0,0:0:0:0:
447,230,12413,1,10,1:2:0:0:
408,242,12511,1,8,0:0:0:0:
393,280,12610,1,8,0:0:0:0:
444,340,12807,1,2,3:0:0:0:
372,377,13005,2,0,L|324:362,1,40,8|8,3:0|3:0,0:0:0:0:
306,325,13202,6,0,L|204:344,2,95.9999970703126,4|0|8,3:1|3:0|1:0,0:0:0:0:
393,280,13794,1,2,3:2:0:0:
344,197,13992,2,0,P|349:148|384:108,2,95.9999970703126,2|2|8,1:2|3:2|1:0,0:0:0:0:
253,231,14584,1,0,3:0:0:0:
189,159,14781,102,0,P|194:110|229:70,2,95.9999970703126,2|0|8,1:2|3:0|1:0,0:0:0:0:
101,200,15373,1,2,3:2:0:0:
113,295,15570,2,0,L|215:314,2,95.9999970703126,0|0|8,1:0|1:0|1:0,0:0:0:0:
38,357,16163,1,0,3:0:0:0:
25,262,16360,6,0,P|51:219|103:203,2,95.9999970703126,2|0|8,1:2|3:0|1:0,0:0:0:0:
113,295,16952,1,0,3:0:0:0:
199,254,17149,2,0,L|186:150,2,95.9999970703126,2|2|8,1:2|3:2|1:0,0:0:0:0:
294,271,17742,1,0,3:0:0:0:
380,229,17939,102,0,L|391:324,2,95.9999970703126,2|0|8,1:2|3:0|1:0,0:0:0:0:
473,253,18531,1,0,3:0:0:0:
486,158,18728,2,0,B|434:156|448:138|373:136,1,95.9999970703126,0|0,1:0|1:0,0:0:0:0:
452,61,19123,2,0,B|400:59|414:41|339:39,1,95.9999970703126,8|0,1:0|1:0,0:0:0:0:
264,60,19518,6,0,P|231:102|182:111,2,95.9999970703126,0|0|8,1:0|3:0|1:0,0:0:0:0:
178,16,20110,1,2,3:2:0:0:
101,73,20307,2,0,P|90:118|109:161,2,95.9999970703126,2|2|8,1:2|3:2|1:0,0:0:0:0:
191,111,20899,1,0,3:0:0:0:
200,206,21097,102,0,L|295:217,2,95.9999970703126,2|0|8,1:2|3:0|1:0,0:0:0:0:
123,263,21689,1,2,3:2:0:0:
154,353,21886,2,0,L|59:364,2,95.9999970703126,0|0|8,1:0|3:0|1:0,0:0:0:0:
212,275,22478,1,0,3:0:0:0:
266,333,22676,6,0,B|342:331|325:357|402:356,2,128,2|8|0,1:2|1:0|1:0,0:0:0:0:
212,275,23663,1,8,1:0:0:0:
212,275,23860,102,0,P|222:215|257:111,1,160,0|2,1:2|1:2,0:0:0:0:
325,87,24452,1,8,1:0:0:0:
402,106,24649,2,0,P|422:164|431:223,1,120,0|0,1:2|1:0,0:0:0:0:
409,255,25044,2,0,L|449:258,6,40,0|0|0|0|8|8|8,1:0|1:0|1:0|1:0|1:0|1:0|1:0,0:0:0:0:
334,284,25834,6,0,P|314:329|320:373,2,80,4|2|8,1:0|3:2|1:0,0:0:0:0:
277,226,26426,1,0,3:0:0:0:
199,246,26623,2,0,P|162:288|50:274,1,160,2|0,1:2|1:0,0:0:0:0:
25,215,27215,2,0,P|44:169|39:126,1,80,8|0,3:1|1:0,0:0:0:0:
28,60,27610,102,0,L|125:46,2,80,2|8|2,3:2|1:0|3:2,0:0:0:0:
42,139,28202,2,0,B|135:132|106:179|201:181,1,160,8|2,1:0|1:2,0:0:0:0:
228,109,28794,1,8,3:1:0:0:
307,118,28992,6,0,P|323:87|318:37,2,80,0|2|8,1:1|3:2|1:0,0:0:0:0:
360,178,29584,1,0,3:0:0:0:
423,129,29781,2,0,P|460:136|477:243,1,160,2|0,1:2|1:0,0:0:0:0:
480,320,30373,2,0,L|387:303,1,80,8|0,3:1|1:0,0:0:0:0:
339,356,30768,102,0,L|246:339,2,80,2|8|2,3:2|1:0|3:2,0:0:0:0:
401,305,31360,2,0,P|362:257|266:242,1,160,8|8,1:0|1:1,0:0:0:0:
202,286,31952,1,8,3:1:0:0:
140,234,32149,6,0,P|135:194|155:150,2,80,0|2|8,1:1|3:2|1:0,0:0:0:0:
75,282,32742,1,0,3:0:0:0:
20,224,32939,2,0,P|9:141|83:112,1,160,2|0,1:2|1:0,0:0:0:0:
106,39,33531,2,0,L|9:24,1,80,8|0,3:1|1:0,0:0:0:0:
67,109,33926,102,0,P|114:122|141:149,2,80,2|8|2,3:2|1:0|3:2,0:0:0:0:
76,188,34518,2,0,L|51:286,1,80,8|2,1:0|3:2,0:0:0:0:
100,332,34913,2,0,L|198:357,1,80,2|8,1:2|3:1,0:0:0:0:
254,374,35307,6,0,P|251:320|233:295,2,80,0|2|8,1:1|3:2|1:0,0:0:0:0:
333,364,35899,1,0,3:0:0:0:
398,317,36097,2,0,B|384:227|445:246|421:133,1,160,2|0,1:2|1:0,0:0:0:0:
441,84,36689,2,0,L|353:91,1,80,8|0,3:1|1:0,0:0:0:0:
310,28,37084,102,0,L|222:35,2,80,2|8|2,1:2|1:0|1:2,0:0:0:0:
361,90,37676,1,8,1:0:0:0:
298,135,37873,1,0,1:2:0:0:
298,135,37972,1,0,1:0:0:0:
298,135,38070,2,0,L|292:179,2,40,2|2|8,3:0|3:0|3:0,0:0:0:0:
217,135,38465,6,0,P|166:153|134:192,2,80,4|2|8,1:0|3:2|1:0,0:0:0:0:
217,215,39057,1,0,3:0:0:0:
182,287,39255,2,0,P|100:280|24:337,1,160,2|0,1:2|1:0,0:0:0:0:
97,372,39847,2,0,L|191:384,1,80,8|0,3:1|1:0,0:0:0:0:
250,352,40242,102,0,L|260:272,2,80,2|8|2,1:2|1:0|1:2,0:0:0:0:
323,383,40834,1,8,1:0:0:0:
387,336,41031,2,0,P|406:264|322:211,1,160,2|8,1:2|3:1,0:0:0:0:
366,133,41623,6,0,P|307:139|274:165,2,80,0|2|8,1:1|3:2|1:0,0:0:0:0:
424,77,42215,1,0,3:0:0:0:
391,3,42413,2,0,P|324:26|201:30,1,160,2|0,1:2|1:0,0:0:0:0:
178,89,43005,2,0,L|85:76,1,80,8|0,3:1|1:0,0:0:0:0:
38,26,43399,102,0,P|21:62|21:101,2,80,2|8|2,1:2|1:0|1:2,0:0:0:0:
99,77,43992,2,0,P|117:135|75:245,1,160,8|2,1:0|1:2,0:0:0:0:
22,262,44584,1,8,1:0:0:0:
22,262,44682,1,0,0:0:0:0:
22,262,44781,6,0,L|32:348,2,80,0|8|8,1:1|3:1|1:0,0:0:0:0:
90,227,45373,2,0,B|178:223|154:284|260:284,1,160,0|8,3:0|3:1,0:0:0:0:
287,221,45965,2,0,P|351:231|366:271,1,80,0|8,1:0|3:1,0:0:0:0:
411,298,46360,101,0,1:0:0:0:
475,250,46557,2,0,L|484:156,2,80,2|8|2,3:2|1:0|3:2,0:0:0:0:
411,298,47149,2,0,P|378:236|410:120,1,160,8|2,1:0|1:2,0:0:0:0:
450,97,47742,1,8,1:0:0:0:
405,30,47939,6,0,P|363:17|315:25,2,80,2|8|8,1:2|3:1|1:0,0:0:0:0:
450,97,48531,1,2,3:2:0:0:
390,150,48728,2,0,L|305:132,1,80,2|8,1:2|3:1,0:0:0:0:
261,195,49123,2,0,L|176:177,1,80,8|2,1:0|3:2,0:0:0:0:
104,161,49518,101,2,1:2:0:0:
26,143,49715,2,0,B|117:164|46:223|151:252,1,160,8|2,3:1|3:2,0:0:0:0:
181,312,50307,2,0,P|235:295|275:297,1,80,8|8,1:1|1:1,0:0:0:0:
299,363,50702,2,0,L|384:381,1,80,2|8,3:0|3:0,0:0:0:0:
436,327,51097,6,0,B|424:271|424:271|385:246|385:246|364:172,1,160,4|2,1:0|1:2,0:0:0:0:
434,143,51689,1,0,0:0:0:0:
489,85,51886,2,0,B|461:56|461:56|394:64,1,80,8|0,0:1|0:0,0:0:0:0:
350,98,52281,2,0,B|322:127|322:127|255:119,1,80,2|8,1:2|0:1,0:0:0:0:
214,79,52676,102,0,B|158:22|158:22|79:40,2,160,2|8|8,1:2|0:1|0:1,0:0:0:0:
215,159,53663,1,2,1:2:0:0:
143,123,53860,2,0,L|49:140,1,80,8|8,0:1|0:1,0:0:0:0:
43,214,54255,6,0,B|103:238|103:238|154:203,1,120,2|8,1:2|0:1,0:0:0:0:
177,233,54649,2,0,B|237:243|237:243|260:281|260:281|333:295,1,160,8|8,0:1|0:1,0:0:0:0:
380,336,55242,1,2,1:2:0:0:
457,317,55439,2,0,L|474:222,1,80,0|8,1:1|0:1,0:0:0:0:
413,181,55834,102,0,L|430:86,2,80,2|8|8,1:2|1:1|0:1,0:0:0:0:
338,209,56426,1,2,1:2:0:0:
269,168,56623,2,0,P|233:122|262:30,1,160,8|8,0:1|0:1,0:0:0:0:
337,11,57215,1,8,0:1:0:0:
356,88,57413,6,0,B|463:103|463:103|496:167,1,160,4|2,1:0|1:2,0:0:0:0:
413,181,58005,1,0,1:0:0:0:
461,244,58202,2,0,B|428:267|428:267|370:253,1,80,8|0,0:1|0:0,0:0:0:0:
329,311,58597,2,0,L|220:285,1,80,0|8,1:0|0:1,0:0:0:0:
217,219,58992,102,0,L|239:117,2,80,2|0|8,1:2|1:1|1:1,0:0:0:0:
155,271,59584,1,2,1:2:0:0:
82,303,59781,2,0,B|78:217|37:245|27:156,1,160,8|0,0:1|1:0,0:0:0:0:
66,86,60373,1,8,1:1:0:0:
145,78,60570,6,0,B|170:109|170:109|160:159,2,80,0|8|0,1:0|0:1|1:0,0:0:0:0:
199,18,61163,1,0,1:0:0:0:
278,18,61360,2,0,P|316:38|363:32,1,80,8|0,0:1|0:0,0:0:0:0:
430,19,61755,2,0,L|419:102,1,80,0|8,1:0|0:1,0:0:0:0:
379,167,62149,102,0,P|303:185|314:269,2,160,2|8|8,1:2|0:1|0:1,0:0:0:0:
439,220,63136,1,0,1:0:0:0:
441,300,63334,2,0,P|384:306|335:321,1,80,8|0,0:1|1:0,0:0:0:0:
301,255,63728,6,0,P|228:305|144:279,1,160,4|2,1:0|1:2,0:0:0:0:
91,330,64320,1,0,0:0:0:0:
42,265,64518,2,0,B|51:205|51:205|84:173|84:173|96:98,1,160,8|2,0:1|1:2,0:0:0:0:
43,56,65110,1,8,0:1:0:0:
115,23,65307,102,0,L|217:46,1,80,2|8,1:2|0:1,0:0:0:0:
208,119,65702,2,0,L|310:96,1,80,8|0,0:1|1:0,0:0:0:0:
338,40,66097,2,0,P|403:42|421:138,1,160,8|8,0:1|0:1,0:0:0:0:
353,146,66689,1,8,0:1:0:0:
384,219,66886,6,0,P|310:234|199:282,1,160,2|8,1:2|0:1,0:0:0:0:
156,236,67478,1,2,1:2:0:0:
157,316,67676,2,0,B|114:319|114:319|84:277,1,80,8|2,0:1|1:2,0:0:0:0:
24,246,68070,2,0,L|42:143,1,80,0|8,1:1|0:1,0:0:0:0:
22,88,68465,102,0,P|53:87|100:117,2,80,2|8|8,1:2|1:1|0:1,0:0:0:0:
37,167,69057,1,2,1:2:0:0:
110,199,69255,2,0,B|203:206|146:257|260:291,1,160,8|8,0:1|0:1,0:0:0:0:
293,225,69847,1,8,0:1:0:0:
360,261,70044,5,4,1:0:0:0:
396,53,75965,118,0,B|427:70|427:70|435:127,1,64,2|0,0:0|0:0,0:0:0:0:
469,186,76360,102,0,P|423:125|303:147,1,191.999994140625,0|10,1:0|1:0,0:0:0:0:
348,224,76952,1,2,0:2:0:0:
282,293,77149,2,0,B|237:311|237:311|191:280,1,95.9999970703126,2|0,1:0|1:0,0:0:0:0:
256,208,77544,2,0,B|395:213|302:288|440:294,1,191.999994140625,10|0,1:0|1:0,0:0:0:0:
510,261,78136,5,2,0:2:0:0:
494,166,78334,2,0,P|462:202|415:215,1,95.9999970703126,10|2,1:0|0:2,0:0:0:0:
357,139,78728,2,0,P|325:103|278:90,1,95.9999970703126,2|0,1:0|1:0,0:0:0:0:
189,56,79123,2,0,L|207:159,1,95.9999970703126,10|2,1:0|0:2,0:0:0:0:
126,206,79518,102,0,L|108:103,1,95.9999970703126,0|2,1:0|0:2,0:0:0:0:
41,179,79913,2,0,P|64:273|167:271,1,191.999994140625,10|2,1:0|1:0,0:0:0:0:
224,341,80505,1,0,1:0:0:0:
277,261,80702,2,0,B|343:272|343:272|374:321|374:321|453:335,1,191.999994140625,10|0,1:0|1:0,0:0:0:0:
440,236,81294,5,2,0:2:0:0:
504,164,81492,2,0,B|461:138|461:138|391:148,1,95.9999970703126,10|2,1:0|0:2,0:0:0:0:
359,66,81886,2,0,B|316:92|316:92|246:82,1,95.9999970703126,2|0,1:0|1:0,0:0:0:0:
195,19,82281,2,0,P|173:61|177:109,1,95.9999970703126,10|2,1:0|0:2,0:0:0:0:
252,174,82676,102,0,P|274:132|270:84,1,95.9999970703126,0|2,1:0|0:2,0:0:0:0:
176,108,83070,2,0,B|59:121|128:185|16:198,1,191.999994140625,10|2,1:0|1:0,0:0:0:0:
73,276,83663,1,0,1:0:0:0:
154,226,83860,2,0,B|185:262|185:262|163:335,1,95.9999970703126,10|2,1:0|0:2,0:0:0:0:
90,358,84255,6,0,B|58:321|58:321|81:249,1,95.9999970703126,0|2,1:0|0:2,0:0:0:0:
171,308,84649,2,0,B|246:316|246:316|274:355|274:355|350:363,1,191.999994140625,10|2,1:0|1:0,0:0:0:0:
438,349,85242,1,0,1:0:0:0:
421,254,85439,2,0,L|318:277,1,95.9999970703126,10|2,1:0|0:2,0:0:0:0:
291,185,85834,102,0,L|188:208,2,95.9999970703126,0|0|8,1:0|1:0|1:0,0:0:0:0:
327,274,86426,2,0,P|341:161|378:78,1,191.999994140625,8|0,1:0|1:0,0:0:0:0:
462,58,87018,2,0,P|349:43|266:7,1,191.999994140625,8|0,1:0|1:0,0:0:0:0:
181,20,87610,5,8,1:0:0:0:
234,111,87807,1,0,1:0:0:0:
234,111,87906,1,8,1:0:0:0:
234,111,88005,2,0,P|180:118|153:128,1,47.9999985351563,0|0,1:0|0:0,0:0:0:0:
146,143,88202,2,0,L|137:95,2,47.9999985351563,2|2|8,1:3|1:3|1:3,0:0:0:0:
125,236,88597,1,8,1:0:0:0:
41,270,88794,1,8,1:0:0:0:
41,270,88893,1,8,1:0:0:0:
41,270,88992,102,0,P|118:276|225:322,1,160,4|0,1:0|1:0,0:0:0:0:
269,335,89584,1,2,0:0:0:0:
348,327,89781,2,0,L|329:234,1,80,8|2,1:0|0:0,0:0:0:0:
406,218,90176,2,0,L|389:139,1,80,2|0,0:0|1:0,0:0:0:0:
400,60,90570,6,0,B|296:68|349:130|239:131,1,160,2|2,0:0|0:0,0:0:0:0:
205,72,91163,1,2,0:0:0:0:
136,30,91360,2,0,P|95:47|94:107,1,80,8|2,1:0|0:0,0:0:0:0:
59,154,91755,2,0,P|100:171|101:231,1,80,8|8,1:0|1:0,0:0:0:0:
36,232,92149,102,0,P|24:291|118:300,1,160,0|0,1:0|1:0,0:0:0:0:
167,262,92742,1,2,0:0:0:0:
200,334,92939,2,0,P|264:319|375:322,1,160,8|2,1:0|0:0,0:0:0:0:
428,357,93531,1,0,1:0:0:0:
486,302,93728,6,0,B|498:262|498:262|474:231,1,80,2|8,0:0|1:0,0:0:0:0:
395,246,94123,2,0,B|371:215|371:215|383:175,1,80,2|2,0:0|0:0,0:0:0:0:
430,111,94518,2,0,B|378:94|378:94|360:53|360:53|279:27,1,160,8|8,1:0|1:0,0:0:0:0:
238,82,95110,1,8,1:0:0:0:
179,27,95307,102,0,P|118:62|112:174,1,160,0|0,1:0|1:0,0:0:0:0:
31,186,95899,1,2,0:0:0:0:
43,265,96097,2,0,P|103:278|144:288,1,80,8|2,1:0|0:0,0:0:0:0:
154,355,96492,2,0,L|344:333,1,160,2|2,0:0|0:0,0:0:0:0:
362,273,97084,5,8,1:0:0:0:
436,302,97281,2,0,L|457:203,1,80,2|2,0:0|0:0,0:0:0:0:
428,147,97676,2,0,P|467:141|501:160,2,80,8|2|8,1:0|0:0|1:0,0:0:0:0:
389,76,98268,1,8,1:0:0:0:
318,38,98465,102,0,P|282:76|162:59,1,160,0|0,1:0|1:0,0:0:0:0:
119,21,99057,1,2,0:0:0:0:
51,63,99255,2,0,B|39:140|89:145|76:240,1,160,8|8,1:0|0:1,0:0:0:0:
28,281,99847,1,0,1:0:0:0:
105,298,100044,5,2,0:0:0:0:
105,298,101623,102,0,P|166:281|231:277,1,88.000002685547,0|0,1:0|3:0,0:0:0:0:
273,250,102018,2,0,P|333:319|429:307,1,176.000005371094,8|0,0:1|3:0,0:0:0:0:
400,229,102610,1,0,1:0:0:0:
463,168,102807,2,0,B|491:201|491:201|482:254,1,88.000002685547,8|2,0:1|0:0,0:0:0:0:
400,229,103202,6,0,B|293:204|366:162|233:141,1,176.000005371094,0|8,1:0|0:1,0:0:0:0:
224,60,103794,2,0,P|194:86|131:109,1,88.000002685547,2|0,0:0|3:0,0:0:0:0:
68,71,104189,1,0,1:0:0:0:
13,142,104386,2,0,P|58:158|91:183,1,88.000002685547,8|2,0:1|0:0,0:0:0:0:
18,233,104781,102,0,P|73:300|170:272,1,176.000005371094,0|8,1:0|0:1,0:0:0:0:
195,210,105373,1,2,0:0:0:0:
245,281,105570,2,0,L|359:308,1,88.000002685547,0|0,3:0|1:0,0:0:0:0:
314,214,105965,2,0,L|428:241,1,88.000002685547,8|2,0:1|0:0,0:0:0:0:
478,194,106360,6,0,P|437:148|314:136,1,176.000005371094,0|8,1:0|0:1,0:0:0:0:
261,73,106952,2,0,P|240:137|251:174,1,88.000002685547,2|0,0:0|3:0,0:0:0:0:
161,123,107347,1,0,1:0:0:0:
79,155,107544,2,0,P|100:219|88:255,1,88.000002685547,8|8,0:1|0:1,0:0:0:0:
41,306,107939,102,0,L|148:327,1,88.000002685547,0|0,1:0|3:0,0:0:0:0:
182,254,108334,2,0,B|250:240|250:240|270:200|270:200|346:191,1,176.000005371094,8|0,0:1|3:0,0:0:0:0:
388,260,108926,1,0,1:0:0:0:
464,217,109123,2,0,P|458:149|432:129,1,88.000002685547,8|2,0:1|0:0,0:0:0:0:
453,49,109518,6,0,P|374:41|317:127,1,176.000005371094,0|8,1:0|0:1,0:0:0:0:
374,178,110110,2,0,P|331:199|264:206,1,88.000002685547,2|0,0:0|3:0,0:0:0:0:
224,149,110505,1,0,1:0:0:0:
242,63,110702,2,0,P|199:41|132:35,1,88.000002685547,8|2,0:1|0:0,0:0:0:0:
81,73,111097,102,0,B|108:110|108:110|174:115,2,88.000002685547,0|2|8,1:0|1:2|0:1,0:0:0:0:
7,121,111689,2,0,P|95:130|130:203,1,176.000005371094,0|2,1:0|1:2,0:0:0:0:
54,247,112281,2,0,P|12:276|11:319,1,88.000002685547,8|0,1:0|1:1,0:0:0:0:
73,369,112676,1,2,1:2:0:0:
135,307,112873,6,0,P|205:306|289:343,1,132.00000402832,8|8,1:0|1:0,0:0:0:0:
289,361,113268,1,2,1:2:0:0:
376,346,113465,2,0,L|357:234,1,88.000002685547,0|8,1:0|1:0,0:0:0:0:
446,236,113860,2,0,L|429:132,1,88.000002685547,8|0,1:0|1:0,0:0:0:0:
458,73,114255,102,0,B|417:67|417:67|372:93,1,80,0|0,1:0|0:0,0:0:0:0:
357,161,114649,2,0,B|316:167|316:167|271:141,1,80,2|2,0:1|0:0,0:0:0:0:
238,80,115044,2,0,P|182:65|150:72,3,80,8|0|2|2,0:1|1:0|0:1|0:0,0:0:0:0:
82,54,115834,6,0,L|94:152,1,80,0|0,1:0|0:0,0:0:0:0:
14,152,116228,2,0,L|26:250,1,80,2|0,0:1|1:0,0:0:0:0:
3,309,116623,2,0,B|43:318|43:318|93:288,3,80,8|0|2|0,1:0|0:0|0:1|1:2,0:0:0:0:
153,320,117413,102,0,P|215:334|239:354,1,80,0|0,1:0|0:0,0:0:0:0:
303,367,117807,2,0,P|365:353|389:333,1,80,2|2,0:1|0:0,0:0:0:0:
441,295,118202,2,0,L|448:190,3,80,8|0|2|2,0:1|1:0|0:1|0:0,0:0:0:0:
475,140,118992,6,0,L|370:147,1,80,0|0,1:0|0:0,0:0:0:0:
363,218,119386,2,0,L|258:225,1,80,2|0,0:1|1:0,0:0:0:0:
227,280,119781,2,0,P|204:241|219:191,3,80,8|0|2|0,1:0|0:0|0:1|1:2,0:0:0:0:
130,192,120570,102,0,P|80:206|45:229,1,80,0|0,1:0|0:0,0:0:0:0:
24,294,120965,2,0,P|74:308|109:331,1,80,2|2,0:1|0:0,0:0:0:0:
163,368,121360,2,0,L|278:354,3,80,8|0|2|2,0:1|1:0|0:1|0:0,0:0:0:0:
322,360,122149,6,0,L|312:280,1,80,0|0,1:0|0:0,0:0:0:0:
327,201,122544,2,0,L|277:205,2,40,2|0|0,1:1|1:0|1:0,0:0:0:0:
400,233,122939,2,0,B|412:191|412:191|388:139,1,80,8|0,1:0|0:0,0:0:0:0:
467,124,123334,102,0,P|421:65|306:63,1,160,2|0,0:1|1:0,0:0:0:0:
269,18,123926,1,0,0:0:0:0:
229,87,124123,2,0,L|114:117,1,80,2|2,0:1|0:0,0:0:0:0:
73,126,124518,1,8,0:1:0:0:
15,181,124715,2,0,P|-5:101|70:49,1,160,0|2,1:0|0:0,0:0:0:0:
124,37,125307,6,0,L|106:219,1,160,0|2,1:0|0:1,0:0:0:0:
143,268,125899,1,0,1:0:0:0:
62,263,126097,2,0,B|30:289|30:289|42:346,1,80,8|0,1:0|0:0,0:0:0:0:
116,342,126492,102,0,P|199:302|278:294,1,160,2|4,0:1|1:0,0:0:0:0:
