osu file format v14

[General]
AudioFilename: audio.mp3
AudioLeadIn: 0
PreviewTime: 176
Countdown: 0
SampleSet: Soft
StackLeniency: 0.2
Mode: 0
LetterboxInBreaks: 0
WidescreenStoryboard: 0

[Editor]
Bookmarks: 91755
DistanceSpacing: 1.3
BeatDivisor: 6
GridSize: 4
TimelineZoom: 2.1

[Metadata]
Title:Prayer (Cut Ver.)
TitleUnicode:Prayer (Cut Ver.)
Artist:Voicians
ArtistUnicode:Voicians
Creator:Acylica
Version:Insane
Source:osu!
Tags:fa featured artist electronic vocal rock matter of time sharu mappers' guild down mbc monthly beatmapping contest judge screening mg english mbc#2 finalist short ver version cut
BeatmapID:2359066
BeatmapSetID:1129229

[Difficulty]
HPDrainRate:5
CircleSize:4.8
OverallDifficulty:8
ApproachRate:9
SliderMultiplier:2.1
SliderTickRate:1

[Events]
//Background and Video events
0,0,"8fed7ee3-7a9a-4ed8-a090-d4c490e709c3.png",0,0
//Break Periods
2,70244,75365
//Storyboard Layer 0 (Background)
//Storyboard Layer 1 (Fail)
//Storyboard Layer 2 (Pass)
//Storyboard Layer 3 (Foreground)
//Storyboard Layer 4 (Overlay)
//Storyboard Sound Samples

[TimingPoints]
176,394.736842105263,4,2,1,60,1,0
571,394.736842105263,4,2,1,60,1,0
571,-80,4,2,1,60,0,0
2149,-66.6666666666667,4,2,1,60,0,0
2544,-133.333333333333,4,2,1,60,0,0
2742,-66.6666666666667,4,2,1,60,0,0
3136,-133.333333333333,4,2,1,60,0,0
3728,-80,4,2,1,60,0,0
5702,-100,4,2,1,60,0,0
6097,-133.333333333333,4,2,1,60,0,0
6886,-80,4,2,1,60,0,0
8663,-66.6666666666667,4,2,1,60,0,0
9452,-133.333333333333,4,2,1,60,0,0
10044,-80,4,2,1,60,0,0
13202,-50,4,2,1,85,0,0
23268,-200,4,2,1,85,0,0
23465,-100,4,2,1,85,0,0
25834,-50,4,2,1,85,0,0
44978,-66.6666666666667,4,2,1,85,0,0
45176,-100,4,2,1,85,0,0
45373,-50,4,2,1,85,0,0
46755,-66.6666666666667,4,2,1,85,0,0
46952,-100,4,2,1,85,0,0
47149,-50,4,2,1,85,0,0
51097,-50,4,2,1,75,0,0
51294,-100,4,2,1,75,0,0
51886,-66.6666666666667,4,2,1,75,0,0
52676,-100,4,2,1,75,0,0
53860,-133.333333333333,4,2,1,75,0,0
54452,-100,4,2,1,75,0,0
57018,-133.333333333333,4,2,1,75,0,0
57413,-80,4,2,1,75,0,0
57807,-100,4,2,1,75,0,0
60077,-133.333333333333,4,2,1,75,0,0
60768,-80,4,2,1,75,0,0
61163,-100,4,2,1,75,0,0
63728,-66.6666666666667,4,2,1,75,0,0
68860,-100,4,2,1,75,0,0
69057,-133.333333333333,4,2,1,75,0,0
76360,-66.6666666666667,4,2,1,85,0,1
88202,-100,4,2,1,85,0,1
88992,-100,4,2,1,65,0,0
101623,-50,4,2,1,85,0,1
114255,-50,4,2,1,75,0,0
114847,-66.6666666666667,4,2,1,75,0,0
123728,-66.6666666666667,4,2,1,85,0,0
125307,-133.333333333333,4,2,1,85,0,0
126097,-133.333333333333,4,2,1,85,0,0
126197,-133.333333333333,4,2,1,85,0,0
126886,-133.333333333333,4,2,1,85,0,0
127281,-133.333333333333,4,2,1,35,0,0

[Colours]
Combo1 : 247,206,132
Combo2 : 155,126,190
Combo3 : 234,138,179
Combo4 : 185,169,228
Combo5 : 206,165,228
Combo6 : 228,160,225
Combo7 : 227,157,194
Combo8 : 190,190,190

[HitObjects]
32,8,176,6,0,L|40:64,1,52.5,2|2,0:3|0:3,0:0:0:0:
56,152,373,1,8,0:3:0:0:
56,152,472,1,8,0:3:0:0:
56,152,571,6,0,B|136:48|136:48|272:120,2,262.5,4|10|2,1:0|0:0|1:2,0:0:0:0:
120,208,1557,101,2,1:2:0:0:
214,185,1755,2,0,B|158:153|158:153|118:209,1,131.25,8|0,0:0|1:2,0:0:0:0:
181,251,2149,5,2,1:2:0:0:
181,251,2347,2,0,L|189:299,2,39.3750015020371,0|0|0,1:0|1:0|1:0,0:0:0:0:
208,352,2545,1,8,0:0:0:0:
336,208,2742,101,2,1:2:0:0:
331,241,2840,1,0,1:0:0:0:
327,275,2939,1,0,1:2:0:0:
464,216,3136,2,0,L|456:168,1,39.3750015020371,0|0,1:2|0:0,0:0:0:0:
448,112,3334,5,10,0:2:0:0:
268,324,3728,102,0,L|232:64,2,262.5,0|10|2,1:2|0:0|1:2,0:0:0:0:
144,144,4715,5,2,1:2:0:0:
162,273,4913,2,0,B|141:122,1,131.25,8|0,0:0|1:2,0:0:0:0:
48,232,5307,101,2,1:2:0:0:
48,232,5406,1,0,0:0:0:0:
48,232,5505,1,0,1:0:0:0:
32,128,5702,6,0,L|40:176,4,26.25,8|0|0|0|0,3:2|1:0|1:0|1:0|1:0,0:0:0:0:
70,345,6097,101,0,1:2:0:0:
68,337,6196,1,0,1:2:0:0:
66,329,6295,2,0,L|58:285,3,26.2500010013581,0|0|0|10,1:2|0:0|0:0|0:2,0:0:0:0:
339,127,6689,5,0,1:2:0:0:
339,127,6788,1,0,1:2:0:0:
339,127,6886,2,0,P|241:158|232:353,2,262.5,0|10|2,1:2|0:0|1:2,0:0:0:0:
339,203,7874,101,2,1:2:0:0:
274,292,8070,2,0,P|300:212|360:208,1,131.25,8|0,0:0|1:2,0:0:0:0:
340,272,8465,5,2,1:2:0:0:
403,291,8663,2,0,P|398:310|385:324,2,39.3750015020371,0|0|0,1:0|1:0|1:0,0:0:0:0:
340,272,8860,1,8,0:0:0:0:
482,174,9057,101,2,1:2:0:0:
479,206,9156,1,0,1:0:0:0:
497,232,9255,1,0,1:2:0:0:
380,53,9452,6,0,P|372:71|359:85,1,39.3750015020371,0|0,1:2|0:0,0:0:0:0:
316,38,9649,1,10,0:2:0:0:
512,107,10044,102,0,B|497:75|497:75|310:150|310:150|333:212,2,262.5,0|10|2,1:2|0:0|1:2,0:0:0:0:
481,180,11031,1,2,1:2:0:0:
398,215,11228,2,0,B|390:194|390:194|473:162|473:162|488:195,1,131.25,8|0,0:0|1:0,0:0:0:0:
463,246,11524,1,0,1:0:0:0:
463,246,11624,5,10,1:2:0:0:
373,338,11820,1,0,1:0:0:0:
364,337,11919,1,0,1:0:0:0:
354,337,12018,1,10,1:2:0:0:
275,223,12215,1,0,1:0:0:0:
266,222,12314,1,0,1:0:0:0:
256,222,12413,53,10,1:2:0:0:
226,214,12511,101,8,0:0:0:0:
207,186,12610,101,8,0:0:0:0:
206,148,12709,101,8,0:0:0:0:
268,117,12807,86,0,L|360:104,1,65.625,2|2,3:0|3:0,0:0:0:0:
152,40,13005,2,0,L|101:52,2,32.8125,8|0|8,3:0|0:0|3:0,0:0:0:0:
56,56,13202,6,0,B|62:87|62:87|172:66|172:66|189:30|189:30|283:11|283:11|292:58,1,315,4|0,3:1|0:0,0:0:0:0:
84,174,13597,102,0,B|100:150|100:150|180:134,3,105,8|0|2|0,1:0|1:0|1:2|1:2,0:0:0:0:
244,297,13992,6,0,B|268:265|268:265|236:89,2,210,2|2|8,1:2|3:2|1:0,0:0:0:0:
182,271,14584,1,0,3:0:0:0:
268,363,14781,102,0,B|244:379|244:379|196:363|196:363|188:339,1,105,2|0,1:2|0:0,0:0:0:0:
102,247,14978,2,0,B|126:231|126:231|174:247|174:247|182:271,1,105,0|0,3:0|1:2,0:0:0:0:
59,303,15176,1,8,1:0:0:0:
59,303,15373,1,2,3:2:0:0:
96,374,15570,6,0,L|61:131,2,210,0|0|8,1:0|1:0|1:0,0:0:0:0:
110,54,16162,1,0,3:0:0:0:
48,99,16361,102,0,L|316:60,1,210,2|0,1:2|3:0,0:0:0:0:
395,48,16755,6,0,B|464:61|464:61|494:44,3,105,8|0|0|0,1:0|1:0|1:0|1:0,0:0:0:0:
363,170,17149,102,0,B|348:100|348:100|295:79|295:79|267:-28,2,210,2|2|8,1:2|3:2|1:0,0:0:0:0:
403,228,17741,1,0,3:0:0:0:
441,141,17939,6,0,B|482:168|482:168|470:222,1,105,2|0,1:2|0:0,0:0:0:0:
365,310,18136,2,0,B|324:283|324:283|336:229,1,105,0|0,3:0|1:2,0:0:0:0:
436,300,18334,1,8,1:0:0:0:
436,300,18531,1,0,3:0:0:0:
295,342,18728,102,0,L|519:311,3,210,0|0|8|0,1:0|1:0|1:0|1:0,0:0:0:0:
252,127,19518,6,0,B|210:96|210:96|86:144,3,105,0|0|0|0,1:0|1:0|1:0|1:2,0:0:0:0:
230,384,19913,102,0,L|192:109,1,210,8|2,1:0|3:2,0:0:0:0:
308,80,20307,6,0,B|342:87|342:87|374:154|374:154|319:204|319:204|287:199,2,210,2|2|8,1:2|3:2|1:0,0:0:0:0:
76,117,20899,1,0,3:0:0:0:
23,72,21097,102,0,B|31:45|31:45|249:22,1,210,2|0,1:2|3:0,0:0:0:0:
191,294,21492,2,0,B|164:286|164:286|141:68,1,210,8|2,1:0|3:2,0:0:0:0:
35,281,21886,5,0,1:0:0:0:
35,281,21985,2,0,L|18:390,1,105,8|0,1:0|3:0,0:0:0:0:
46,209,22182,1,0,1:2:0:0:
46,209,22281,2,0,L|82:-27,1,210,8|0,1:0|3:0,0:0:0:0:
170,277,22675,101,2,1:2:0:0:
138,282,22774,1,0,1:2:0:0:
109,290,22873,1,0,1:2:0:0:
237,384,23070,2,0,B|244:351|244:351|232:322|232:322|242:274,1,105,8|0,1:0|0:0,0:0:0:0:
197,210,23268,2,0,B|160:204,1,26.25,2|0,1:2|1:0,0:0:0:0:
310,298,23465,6,0,L|321:227,2,52.5,0|0|8,1:0|1:0|1:0,0:0:0:0:
257,177,23860,1,0,1:2:0:0:
378,161,24057,1,0,1:2:0:0:
378,161,24156,1,0,0:0:0:0:
378,161,24255,102,0,L|307:172,2,52.5,2|0|8,1:2|1:0|1:0,0:0:0:0:
188,188,24649,1,0,1:2:0:0:
292,12,24847,1,0,1:0:0:0:
342,98,25044,6,0,L|340:72,14,26.25,0|0|0|0|0|0|0|0|8|0|8|0|8|0|8,1:0|1:0|1:0|1:0|1:0|1:0|1:0|1:0|1:0|1:0|1:0|1:0|1:0|1:0|1:0,0:0:0:0:
23,113,25834,86,0,L|268:91,1,210,4|2,1:0|3:2,0:0:0:0:
30,184,26228,1,8,1:0:0:0:
198,376,26623,5,2,1:2:0:0:
128,384,26820,2,0,L|98:164,3,210,8|0|8|0,3:1|1:0|3:1|1:0,0:0:0:0:
389,216,27610,101,2,3:2:0:0:
398,284,27807,2,0,L|171:312,1,210,8|2,1:0|3:2,0:0:0:0:
453,176,28202,2,0,L|481:403,3,210,8|2|2|8,1:0|3:2|1:2|3:1,0:0:0:0:
340,58,28992,5,0,1:1:0:0:
404,100,29189,2,0,P|304:89|243:214,2,210,2|8|0,3:2|1:0|3:0,0:0:0:0:
135,337,29781,102,0,P|82:197|-32:222,2,210,2|8|0,1:2|3:1|1:0,0:0:0:0:
13,249,30373,1,8,3:1:0:0:
237,378,30768,5,2,3:2:0:0:
259,308,30965,2,0,P|299:287|425:365,1,210,8|2,1:0|3:2,0:0:0:0:
190,252,31360,2,0,P|188:297|57:367,2,210,8|2|8,1:0|3:2|1:1,0:0:0:0:
20,315,31952,1,8,3:1:0:0:
60,257,32149,102,0,L|26:39,3,210,0|2|8|0,1:1|3:2|1:0|3:0,0:0:0:0:
345,192,32939,5,2,1:2:0:0:
328,123,33136,2,0,L|105:162,1,210,8|0,3:1|1:0,0:0:0:0:
418,208,33531,2,0,L|371:-31,1,210,8|0,3:1|1:0,0:0:0:0:
241,300,33926,101,2,3:2:0:0:
303,269,34123,2,0,L|536:301,1,210,8|2,1:0|3:2,0:0:0:0:
189,378,34518,6,0,L|136:100,1,210,8|2,1:0|3:2,0:0:0:0:
339,352,34913,2,0,L|286:74,1,210,2|8,1:2|3:1,0:0:0:0:
426,378,35307,101,0,1:1:0:0:
484,339,35505,2,0,P|496:277|370:201,2,210,2|8|0,3:2|1:0|3:0,0:0:0:0:
311,58,36097,6,0,P|206:117|232:272,2,210,2|8|0,1:2|3:1|1:0,0:0:0:0:
370,99,36689,1,8,3:1:0:0:
219,267,37084,102,0,P|147:353|31:271,1,210,2|8,1:2|1:0,0:0:0:0:
35,272,37478,1,2,1:2:0:0:
59,204,37676,5,8,1:0:0:0:
14,105,37873,2,0,P|13:52|28:2,1,105,0|0,1:2|1:0,0:0:0:0:
139,78,38070,1,2,3:0:0:0:
139,78,38169,1,2,3:0:0:0:
139,78,38268,2,0,P|138:130|125:180,1,105,8|8,3:0|3:0,0:0:0:0:
194,34,38465,102,0,L|446:13,3,210,4|2|8|0,1:0|3:2|1:0|3:0,0:0:0:0:
465,145,39255,5,2,1:2:0:0:
409,196,39452,2,0,L|250:223,1,105,8|0,3:1|0:0,0:0:0:0:
417,90,39649,1,0,1:0:0:0:
417,90,39847,2,0,L|454:333,1,210,8|0,3:1|1:0,0:0:0:0:
347,60,40242,101,2,1:2:0:0:
285,92,40439,2,0,L|559:50,1,210,8|2,1:0|1:2,0:0:0:0:
245,155,40834,2,0,L|-29:197,2,210,8|2|2,1:0|1:2|1:2,0:0:0:0:
0,128,41426,1,8,3:1:0:0:
17,58,41624,6,0,P|111:17|205:124,3,210,0|2|8|0,1:1|3:2|1:0|3:0,0:0:0:0:
257,52,42413,101,2,1:2:0:0:
195,187,42610,2,0,P|143:145|144:81,1,105,8|0,3:1|0:0,0:0:0:0:
322,87,42807,1,0,1:0:0:0:
263,123,43005,2,0,P|298:217|395:247,1,210,8|0,3:1|1:0,0:0:0:0:
440,123,43399,5,2,1:2:0:0:
470,185,43597,2,0,P|422:308|437:430,1,210,8|2,1:0|1:2,0:0:0:0:
323,203,43992,2,0,P|306:97|210:7,2,210,8|2|2,1:0|1:2|1:2,0:0:0:0:
181,64,44584,1,8,1:0:0:0:
114,89,44781,102,0,P|110:48|148:1,1,105,0|0,1:1|0:0,0:0:0:0:
120,189,44978,2,0,P|83:171|64:124,1,78.7500030040742,8|0,3:1|0:0,0:0:0:0:
215,222,45176,2,0,P|187:239|154:238,1,52.5,8|0,1:0|0:0,0:0:0:0:
289,152,45373,6,0,L|275:373,1,210,0|2,3:0|1:2,0:0:0:0:
109,381,45768,101,8,3:1:0:0:
29,367,45965,2,0,B|91:388|134:342|112:327|155:281|213:306,2,210,0|8|0,1:0|3:1|1:0,0:0:0:0:
306,269,46557,6,0,P|346:308|303:387,1,105,2|0,3:2|0:0,0:0:0:0:
351,213,46755,2,0,P|397:204|434:236,1,78.7500030040742,8|0,1:0|0:0,0:0:0:0:
312,153,46952,2,0,P|323:130|357:118,1,52.5,2|0,3:2|0:0,0:0:0:0:
242,157,47149,102,0,P|228:73|368:20,1,210,8|2,1:0|3:2,0:0:0:0:
51,182,47544,2,0,P|130:211|106:359,1,210,2|8,1:2|1:0,0:0:0:0:
110,28,47939,5,2,1:2:0:0:
185,32,48136,2,0,P|157:85|87:98,1,105,8|0,3:1|0:0,0:0:0:0:
258,43,48334,2,0,P|213:136|119:176,1,210,8|2,1:0|3:2,0:0:0:0:
391,110,48728,101,2,1:2:0:0:
350,172,48925,2,0,P|318:121|341:54,1,105,8|0,3:1|0:0,0:0:0:0:
303,230,49123,2,0,P|245:145|258:43,1,210,8|2,1:0|3:2,0:0:0:0:
178,312,49518,5,2,1:2:0:0:
144,245,49715,2,0,P|204:242|250:296,1,105,8|0,3:1|0:0,0:0:0:0:
118,175,49913,2,0,P|220:167|302:229,1,210,8|2,1:0|3:2,0:0:0:0:
378,223,50307,101,8,1:1:0:0:
344,290,50504,2,0,P|404:292|450:238,1,105,8|8,1:1|1:1,0:0:0:0:
318,360,50702,2,0,P|420:367|502:305,1,210,2|8,3:0|3:0,0:0:0:0:
248,378,51097,5,4,1:0:0:0:
210,324,51294,2,0,P|129:314|63:387,1,157.5,8|0,0:1|0:0,0:0:0:0:
73,359,51689,1,0,0:0:0:0:
18,311,51886,86,0,P|107:241|253:268,1,236.250009012223,8|0,0:1|0:0,0:0:0:0:
283,209,52281,1,2,1:2:0:0:
204,120,52478,1,8,0:1:0:0:
324,104,52676,6,0,P|344:52|340:-8,2,105,2|8|8,1:2|0:1|0:1,0:0:0:0:
216,0,53267,1,0,1:0:0:0:
180,56,53465,6,0,L|56:84,1,105,8|2,0:1|1:2,0:0:0:0:
12,96,53761,1,0,1:0:0:0:
12,96,53860,2,0,L|36:200,1,78.7500030040742,8|8,0:1|0:1,0:0:0:0:
115,296,54255,85,2,1:2:0:0:
0,252,54452,1,8,0:1:0:0:
0,252,54551,2,0,B|56:256|56:256|92:224|92:224|184:236,1,157.5,8|2,0:1|1:2,0:0:0:0:
228,308,55044,6,0,B|244:260|244:260|212:216,2,105,8|2|0,0:1|1:2|1:1,0:0:0:0:
158,322,55636,1,8,0:1:0:0:
296,371,55834,5,2,1:2:0:0:
323,306,56031,2,0,L|313:254,1,52.5,8|0,1:1|0:0,0:0:0:0:
492,352,56228,2,0,L|442:367,1,52.5,8|0,0:1|0:0,0:0:0:0:
427,223,56426,1,2,1:2:0:0:
427,223,56623,86,0,L|384:343,1,105,8|0,0:1|1:0,0:0:0:0:
324,304,56919,1,0,1:0:0:0:
324,304,57018,2,0,L|228:265,1,78.7500030040742,8|8,0:1|0:1,0:0:0:0:
60,367,57413,6,0,L|292:343,1,196.875,4|0,1:0|0:0,0:0:0:0:
251,274,57807,2,0,L|237:163,1,105,2|0,1:2|1:0,0:0:0:0:
74,237,58202,6,0,B|116:208|116:208|168:224,2,105,8|0|0,0:1|0:0|1:0,0:0:0:0:
128,288,58794,1,8,0:1:0:0:
12,144,58992,85,2,1:2:0:0:
82,163,59189,1,0,1:1:0:0:
96,32,59386,1,8,1:1:0:0:
164,147,59584,1,2,1:2:0:0:
216,104,59781,6,0,L|344:116,1,105,8|2,0:1|1:2,0:0:0:0:
392,124,60077,1,0,1:2:0:0:
392,124,60176,2,0,L|400:36,1,78.7500030040742,0|8,1:0|1:1,0:0:0:0:
408,232,60570,5,0,1:0:0:0:
476,212,60768,2,0,L|236:184,1,196.875,8|0,0:1|0:0,0:0:0:0:
196,268,61163,1,0,1:0:0:0:
208,200,61360,2,0,L|224:76,1,105,8|0,0:1|0:0,0:0:0:0:
56,244,61755,1,0,1:0:0:0:
84,308,61952,1,8,0:1:0:0:
124,252,62149,86,0,L|132:208,6,26.25,2|0|0|0|8|0|0,1:2|1:0|1:0|1:0|0:1|1:0|1:0,0:0:0:0:
248,384,62544,6,0,L|204:376,6,26.25,8|0|0|0|0|0|0,0:1|1:0|1:0|1:0|1:0|1:0|1:0,0:0:0:0:
313,354,62940,2,0,L|357:362,6,26.25,8|0|0|0|0|0|0,0:1|1:0|1:0|1:0|1:0|1:0|1:0,0:0:0:0:
485,362,63334,6,0,L|471:294,1,52.5,8|0,0:1|0:0,0:0:0:0:
419,374,63531,2,0,L|405:306,1,52.5,0|0,1:0|1:0,0:0:0:0:
347,291,63728,6,0,L|362:87,1,157.500006008148,4|8,1:0|0:1,0:0:0:0:
338,358,64123,1,2,1:2:0:0:
347,291,64320,1,0,0:0:0:0:
234,347,64518,102,0,L|-17:373,1,236.250009012223,8|0,0:1|0:0,0:0:0:0:
123,232,64913,2,0,L|209:223,1,78.7500030040742,2|0,1:2|0:0,0:0:0:0:
75,184,65110,1,8,0:1:0:0:
6,297,65307,5,2,1:2:0:0:
75,288,65505,1,8,0:1:0:0:
0,193,65702,2,0,L|19:5,1,157.500006008148,8|0,0:1|1:0,0:0:0:0:
134,143,66097,1,8,0:1:0:0:
211,62,66294,2,0,L|119:76,1,78.7500030040742,2|0,1:2|1:0,0:0:0:0:
134,143,66492,102,0,L|346:115,1,157.500006008148,8|8,0:1|0:1,0:0:0:0:
406,75,66886,5,2,1:2:0:0:
372,14,67084,2,0,L|342:326,1,236.250009012223,8|0,0:1|0:0,0:0:0:0:
492,223,67478,2,0,L|503:115,1,78.7500030040742,2|0,1:2|0:0,0:0:0:0:
422,237,67676,1,8,0:1:0:0:
488,316,67873,101,2,1:2:0:0:
422,338,68070,1,0,1:1:0:0:
476,384,68268,1,8,0:1:0:0:
422,237,68465,21,2,1:2:0:0:
370,290,68663,6,0,P|347:248|359:196,1,78.7500030040742,8|0,1:1|0:0,0:0:0:0:
292,299,68860,6,0,P|269:308|246:348,1,52.5,8|0,0:1|0:0,0:0:0:0:
257,278,69057,6,0,P|242:259|241:228,1,39.3750015020371,2|0,1:2|0:0,0:0:0:0:
227,289,69255,53,8,0:1:0:0:
162,258,69452,1,0,1:0:0:0:
103,297,69650,1,8,0:1:0:0:
0,245,69847,1,8,0:1:0:0:
49,372,70044,69,4,1:0:0:0:
253,189,75965,117,2,0:0:0:0:
212,133,76162,1,0,0:0:0:0:
175,219,76360,6,0,L|201:54,1,157.500006008148,0|2,1:0|0:2,0:0:0:0:
268,303,76755,2,0,L|103:277,1,157.500006008148,10|2,1:0|0:2,0:0:0:0:
349,218,77150,2,0,L|323:383,1,157.500006008148,2|0,1:0|1:0,0:0:0:0:
252,133,77545,2,0,L|417:159,1,157.500006008148,10|2,1:0|1:2,0:0:0:0:
480,170,77840,1,0,1:0:0:0:
480,170,77939,5,0,1:0:0:0:
420,74,78136,1,2,0:2:0:0:
350,109,78334,1,10,1:0:0:0:
304,55,78531,1,2,0:2:0:0:
205,165,78728,6,0,P|167:113|206:21,1,157.500006008148,2|0,1:0|1:0,0:0:0:0:
336,176,79024,1,0,1:0:0:0:
336,176,79123,2,0,P|291:234|194:226,1,157.500006008148,10|2,1:0|0:2,0:0:0:0:
86,345,79518,86,0,B|80:302|117:273|120:293|156:261|144:194,1,157.500006008148,0|2,1:0|0:2,0:0:0:0:
316,384,79913,2,0,B|273:390|244:353|264:350|232:314|165:326,1,157.500006008148,10|2,1:0|0:2,0:0:0:0:
345,144,80307,2,0,B|351:187|314:216|311:196|275:228|287:295,1,157.500006008148,2|0,1:0|1:0,0:0:0:0:
115,105,80702,2,0,B|158:99|187:136|167:139|199:175|266:163,1,157.500006008148,10|2,1:0|1:2,0:0:0:0:
286,104,80998,1,0,1:0:0:0:
286,104,81097,5,0,1:0:0:0:
361,199,81294,1,2,0:2:0:0:
411,151,81492,1,10,1:0:0:0:
470,187,81689,1,2,0:2:0:0:
355,72,81886,6,0,L|531:40,1,157.500006008148,2|0,1:0|1:0,0:0:0:0:
354,251,82281,2,0,L|308:7,1,236.250009012223,10|0,1:0|0:0,0:0:0:0:
332,328,82676,86,0,B|349:338|349:338|372:346|392:335|404:314|404:314|456:224,1,157.500006008148,0|2,1:0|0:2,0:0:0:0:
216,276,83070,2,0,B|206:293|206:293|197:316|208:336|229:348|229:348|319:400,1,157.500006008148,10|2,1:0|0:2,0:0:0:0:
284,144,83465,2,0,B|267:134|267:134|244:126|224:137|212:158|212:158|160:248,1,157.500006008148,2|0,1:0|1:0,0:0:0:0:
400,196,83859,2,0,B|410:179|410:179|419:156|408:136|387:124|387:124|297:72,1,157.500006008148,10|2,1:0|0:2,0:0:0:0:
140,48,84255,5,0,1:0:0:0:
216,88,84452,1,2,0:2:0:0:
260,12,84649,1,10,1:0:0:0:
399,101,84847,1,2,0:2:0:0:
447,45,85044,6,0,P|379:29|347:157,1,157.500006008148,2|0,1:0|1:0,0:0:0:0:
368,272,85340,1,0,1:0:0:0:
368,272,85439,2,0,P|435:262|464:111,1,236.250009012223,10|0,1:0|0:0,0:0:0:0:
188,240,85834,86,0,P|268:272|308:332,1,157.500006008148,0|0,1:0|1:0,0:0:0:0:
180,312,86130,1,0,1:0:0:0:
180,312,86228,2,0,P|216:324|244:368,1,78.7500030040742,8|0,1:0|0:0,0:0:0:0:
140,116,86426,2,0,P|109:187|124:264,1,157.500006008148,8|0,1:0|1:0,0:0:0:0:
207,99,86820,1,0,1:0:0:0:
328,112,87018,2,0,P|260:165|188:169,1,157.500006008148,8|0,1:0|1:0,0:0:0:0:
208,24,87413,5,0,1:0:0:0:
272,64,87610,1,8,1:0:0:0:
272,64,87709,2,0,P|236:96|172:84,1,78.7500030040742,0|0,1:0|0:0,0:0:0:0:
336,32,87906,1,8,1:0:0:0:
336,32,88005,2,0,P|381:47|403:108,1,78.7500030040742,0|0,1:0|0:0,0:0:0:0:
412,144,88202,6,0,L|336:128,3,52.5,2|2|8|8,0:3|0:3|0:3|0:3,0:0:0:0:
484,128,88597,86,0,L|500:64,1,52.5,8|0,1:0|1:0,0:0:0:0:
344,200,88794,2,0,L|328:264,1,52.5,8|0,1:0|1:0,0:0:0:0:
380,304,88992,101,4,1:0:0:0:
122,272,89386,1,0,1:0:0:0:
122,272,89584,2,0,L|350:248,1,210,8|2,1:0|0:0,0:0:0:0:
56,356,90176,2,0,L|40:228,1,105,8|0,1:0|1:0,0:0:0:0:
200,344,90570,5,2,0:0:0:0:
268,372,90768,1,8,1:0:0:0:
200,344,90965,1,2,0:0:0:0:
268,372,91163,1,2,0:0:0:0:
416,320,91360,102,0,L|296:304,1,105,8|2,1:0|0:0,0:0:0:0:
484,364,91755,2,0,L|500:244,1,105,8|8,1:0|1:0,0:0:0:0:
416,112,92149,6,0,P|324:116|276:244,1,210,0|8,1:0|1:0,0:0:0:0:
160,256,92742,1,2,0:0:0:0:
100,228,92939,2,0,P|80:156|80:96,1,105,8|2,1:0|0:0,0:0:0:0:
216,304,93334,2,0,P|163:357|111:387,1,105,2|0,0:0|1:0,0:0:0:0:
200,176,93728,101,2,0:0:0:0:
240,120,93926,1,8,1:0:0:0:
208,56,94123,1,2,0:0:0:0:
316,120,94320,5,2,1:2:0:0:
316,120,94419,1,0,1:0:0:0:
316,120,94518,2,0,P|384:104|436:96,1,105,8|2,1:0|0:0,0:0:0:0:
144,224,94913,2,0,P|76:208|24:200,1,105,8|0,1:0|1:0,0:0:0:0:
239,320,95307,102,0,L|215:92,1,210,0|0,1:0|1:0,0:0:0:0:
208,40,95899,1,8,0:1:0:0:
144,120,96097,6,0,B|112:76|112:76|136:4,1,105,0|8,1:0|1:0,0:0:0:0:
292,144,96492,2,0,B|324:188|324:188|300:260,1,105,8|0,0:1|1:0,0:0:0:0:
279,67,96886,102,0,L|507:39,1,210,0|8,1:0|0:1,0:0:0:0:
447,119,97478,1,2,0:0:0:0:
483,182,97676,1,8,1:0:0:0:
343,324,98070,2,0,L|354:199,1,105,8|8,1:0|1:0,0:0:0:0:
275,284,98465,6,0,P|184:275|116:362,1,210,0|8,1:0|1:0,0:0:0:0:
58,227,99057,1,2,0:0:0:0:
5,186,99255,2,0,P|10:129|34:70,1,105,8|2,1:0|0:0,0:0:0:0:
103,287,99650,2,0,P|51:311|-11:319,1,105,8|0,0:1|1:0,0:0:0:0:
117,186,100044,101,2,0:0:0:0:
256,192,100143,12,0,101426,0:0:0:0:
85,237,101623,22,0,L|66:351,1,105,0|0,1:0|0:0,0:0:0:0:
196,230,101820,2,0,L|106:156,1,105,0|0,3:0|0:0,0:0:0:0:
147,325,102018,2,0,L|359:243,1,210,8|2,0:1|0:0,0:0:0:0:
387,131,102413,22,0,L|488:158,1,105,0|0,3:0|0:0,0:0:0:0:
427,213,102610,2,0,L|399:314,1,105,0|0,1:0|0:0,0:0:0:0:
342,249,102807,2,0,L|240:221,1,105,8|0,0:1|0:0,0:0:0:0:
305,168,103004,2,0,L|332:66,1,105,2|0,0:0|0:0,0:0:0:0:
327,323,103202,6,0,B|162:275|162:275|95:334,2,210,0|0|8,1:0|3:0|0:1,0:0:0:0:
62,276,103794,6,0,P|62:332|118:376,1,105,2|0,0:0|0:0,0:0:0:0:
104,156,103992,2,0,P|54:127|-11:154,1,105,0|0,3:0|0:0,0:0:0:0:
181,255,104189,2,0,P|231:226|240:156,1,105,0|0,1:0|0:0,0:0:0:0:
118,226,104386,5,8,0:1:0:0:
172,182,104584,1,2,0:0:0:0:
165,98,104781,102,0,P|244:171|396:118,2,210,0|0|8,1:0|3:0|0:1,0:0:0:0:
403,118,105373,1,2,0:0:0:0:
431,246,105570,102,0,P|463:192|459:121,1,105,0|0,3:0|0:0,0:0:0:0:
336,268,105768,2,0,P|366:322|430:354,1,105,0|0,1:0|0:0,0:0:0:0:
362,173,105965,2,0,P|299:172|247:310,1,210,8|2,0:1|0:0,0:0:0:0:
182,354,106360,102,0,L|56:389,1,105,0|0,1:0|0:0,0:0:0:0:
155,276,106557,2,0,L|186:149,1,105,0|0,3:0|0:0,0:0:0:0:
237,288,106755,2,0,L|329:378,1,105,8|0,0:1|0:0,0:0:0:0:
370,305,106952,1,2,0:0:0:0:
319,250,107149,2,0,L|367:34,1,210,0|0,3:0|1:0,0:0:0:0:
512,228,107544,86,0,L|359:262,1,105,8|0,0:1|0:0,0:0:0:0:
382,134,107742,2,0,L|535:100,1,105,8|0,0:1|0:0,0:0:0:0:
315,183,107939,22,0,P|293:144|325:83,1,105,0|0,1:0|0:0,0:0:0:0:
225,161,108136,2,0,P|202:198|132:201,1,105,0|0,3:0|0:0,0:0:0:0:
232,264,108334,2,0,P|324:266|397:371,1,210,8|2,0:1|0:0,0:0:0:0:
100,333,108728,6,0,P|49:251|122:146,2,210,0|0|8,3:0|1:0|0:1,0:0:0:0:
184,103,109320,1,2,0:0:0:0:
225,161,109518,6,0,P|253:120|199:35,1,105,0|0,1:0|0:0,0:0:0:0:
113,40,109715,2,0,P|134:84|235:80,1,105,0|0,3:0|0:0,0:0:0:0:
207,10,109913,2,0,L|-34:56,1,210,8|2,0:1|0:0,0:0:0:0:
313,58,110307,6,0,P|424:42|480:147,2,210,0|0|8,3:0|1:0|0:1,0:0:0:0:
207,10,110899,37,2,1:2:0:0:
207,10,110998,1,0,1:0:0:0:
207,10,111097,2,0,L|193:151,1,105,0|0,1:0|0:0,0:0:0:0:
268,121,111294,1,2,1:2:0:0:
187,186,111492,1,8,0:1:0:0:
125,153,111688,6,0,L|402:131,1,210,0|2,1:0|1:2,0:0:0:0:
0,66,112084,1,2,1:2:0:0:
51,178,112281,2,0,L|81:2,1,105,8|0,1:0|0:0,0:0:0:0:
111,226,112478,2,0,L|81:402,1,105,0|0,1:1|0:0,0:0:0:0:
35,250,112676,101,2,1:2:0:0:
51,178,112873,1,8,1:0:0:0:
111,226,113070,2,0,L|214:209,2,105,0|8|2,1:0|1:0|1:2,0:0:0:0:
280,173,113465,6,0,L|317:395,1,210,0|8,1:0|1:0,0:0:0:0:
443,209,113761,1,0,1:0:0:0:
443,209,113860,2,0,L|409:-2,1,210,8|0,1:0|1:0,0:0:0:0:
270,103,114255,37,0,1:0:0:0:
498,132,114649,1,2,0:1:0:0:
498,132,114847,2,0,L|310:106,1,157.500006008148,2|8,0:0|0:1,0:0:0:0:
265,0,115242,1,0,1:0:0:0:
209,37,115439,2,0,P|139:21|41:168,1,236.250009012223,2|0,0:1|0:0,0:0:0:0:
93,168,115834,21,0,1:0:0:0:
208,105,116032,1,0,0:0:0:0:
222,172,116228,1,2,0:1:0:0:
274,125,116426,85,0,1:0:0:0:
170,225,116623,1,8,1:0:0:0:
184,292,116819,1,0,0:0:0:0:
240,245,117018,21,2,0:1:0:0:
114,177,117215,1,0,1:2:0:0:
114,177,117314,1,0,1:0:0:0:
114,177,117413,86,0,P|95:59|77:-44,1,157.500006008148,0|0,1:0|0:0,0:0:0:0:
21,30,117807,1,2,0:1:0:0:
28,99,118005,1,2,0:0:0:0:
160,43,118201,22,0,P|232:42|277:121,1,157.500006008148,8|0,0:1|1:0,0:0:0:0:
239,170,118597,1,2,0:1:0:0:
275,231,118794,1,2,0:0:0:0:
217,319,118992,86,0,P|110:300|35:283,1,157.500006008148,0|0,1:0|0:0,0:0:0:0:
258,374,119386,1,2,0:1:0:0:
352,285,119584,1,0,1:0:0:0:
390,347,119781,1,8,1:0:0:0:
424,284,119978,2,0,P|432:249|444:195,2,78.7500030040742,0|0|2,1:0|1:0|1:1,0:0:0:0:
288,209,120373,1,0,1:2:0:0:
336,159,120570,22,0,L|314:-31,1,157.500006008148,0|0,1:0|0:0,0:0:0:0:
216,191,120965,1,2,0:1:0:0:
166,139,121163,2,0,L|40:124,2,78.7500030040742,2|0|8,1:2|1:0|1:1,0:0:0:0:
205,261,121557,1,0,1:0:0:0:
134,252,121755,1,2,0:1:0:0:
134,252,121853,2,0,P|221:237|308:226,1,157.500006008148
345,316,122149,86,0,P|383:238|465:212,1,157.500006008148,0|0,1:0|0:0,0:0:0:0:
506,264,122544,1,2,1:1:0:0:
506,264,122643,1,0,1:0:0:0:
506,264,122742,1,0,1:0:0:0:
407,154,122939,2,0,P|414:89|471:9,1,157.500006008148,8|0,1:0|1:0,0:0:0:0:
464,14,123235,1,0,1:0:0:0:
464,14,123334,1,2,1:1:0:0:
512,73,123531,1,0,1:2:0:0:
464,14,123728,38,0,L|141:40,1,315.000012016297,0|2,1:0|0:1,0:0:0:0:
87,143,124320,1,2,0:0:0:0:
36,92,124518,70,0,L|209:127,1,157.500006008148,8|0,0:1|1:0,0:0:0:0:
220,259,124913,2,0,L|393:294,1,157.500006008148,2|2,0:1|0:0,0:0:0:0:
440,261,125307,38,0,L|428:201,2,39.3750015020371,0|0|0,1:0|1:0|1:0,0:0:0:0:
304,307,125702,2,0,L|316:363,2,39.3750015020371,2|0|0,1:1|1:0|1:0,0:0:0:0:
498,308,126097,69,8,1:0:0:0:
422,360,126295,1,0,0:0:0:0:
341,227,126492,1,2,0:1:0:0:
257,255,126689,1,0,1:2:0:0:
185,206,126886,21,4,1:0:0:0:
204,384,127281,21,2,0:0:0:0:
162,321,127873,21,2,0:0:0:0:
131,306,128465,5,2,0:0:0:0:
109,308,129057,5,2,0:0:0:0:
98,316,129649,5,2,0:0:0:0:
88,382,130044,53,0,1:0:0:0:
350,335,130439,1,2,0:0:0:0:
344,269,131031,1,2,0:0:0:0:
336,199,131623,85,2,0:0:0:0:
382,146,131820,1,2,0:0:0:0:
379,77,132018,1,2,0:0:0:0:
321,35,132215,1,2,0:0:0:0:
254,56,132413,101,2,0:0:0:0:
258,74,132610,1,2,0:0:0:0:
262,94,132807,1,2,0:0:0:0:
45,37,133597,21,2,0:0:0:0:
101,84,134188,21,2,0:0:0:0:
110,120,134781,5,2,0:0:0:0:
103,154,135373,5,2,0:0:0:0:
92,173,135965,5,2,0:0:0:0:
25,205,136360,53,0,1:0:0:0:
208,324,136755,1,2,0:0:0:0:
196,255,137347,1,2,0:0:0:0:
184,187,137939,1,2,0:0:0:0:
184,187,138532,69,2,0:0:0:0:
239,152,138728,1,2,0:0:0:0:
302,174,138926,1,2,0:0:0:0:
307,157,139123,1,2,0:0:0:0:
348,26,139518,5,2,0:0:0:0:
369,185,139913,5,2,0:0:0:0:
443,179,140505,21,2,0:0:0:0:
488,217,141097,5,2,0:0:0:0:
498,255,141689,5,2,0:0:0:0:
489,283,142281,5,2,0:0:0:0:
422,288,142676,53,0,1:0:0:0:
220,352,143070,1,2,0:0:0:0:
236,284,143663,1,2,0:0:0:0:
251,218,144255,85,2,0:0:0:0:
234,142,144452,1,2,0:0:0:0:
178,102,144649,1,2,0:0:0:0:
110,100,144847,1,2,0:0:0:0:
21,115,145044,101,2,0:0:0:0:
39,82,145242,1,2,0:0:0:0:
50,140,145439,1,2,0:0:0:0:
8,192,146228,21,2,0:0:0:0:
75,197,146820,21,2,0:0:0:0:
143,200,147413,5,2,0:0:0:0:
208,204,148005,5,2,0:0:0:0:
276,207,148597,5,2,0:0:0:0:
483,223,148992,53,0,0:0:0:0:
276,207,149386,53,2,0:0:0:0:
208,204,149978,101,2,0:0:0:0:
143,200,150570,101,2,0:0:0:0:
