osu file format v14

[General]
AudioFilename: audio.mp3
AudioLeadIn: 0
PreviewTime: 176
Countdown: 0
SampleSet: Soft
StackLeniency: 0.2
Mode: 0
LetterboxInBreaks: 0
WidescreenStoryboard: 1

[Editor]
Bookmarks: 91755
DistanceSpacing: 0.75
BeatDivisor: 4
GridSize: 4
TimelineZoom: 2.1

[Metadata]
Title:Prayer (Cut Ver.)
TitleUnicode:Prayer (Cut Ver.)
Artist:Voicians
ArtistUnicode:Voicians
Creator:Acylica
Version:Down's Normal
Source:osu!
Tags:fa featured artist electronic vocal rock matter of time sharu mappers' guild down mbc monthly beatmapping contest judge screening mg english mbc#2 finalist short ver version cut
BeatmapID:2518549
BeatmapSetID:1129229

[Difficulty]
HPDrainRate:4
CircleSize:4
OverallDifficulty:4
ApproachRate:5
SliderMultiplier:1.24
SliderTickRate:1

[Events]
//Background and Video events
0,0,"8fed7ee3-7a9a-4ed8-a090-d4c490e709c3.png",0,0
//Break Periods
2,70244,74765
//Storyboard Layer 0 (Background)
//Storyboard Layer 1 (Fail)
//Storyboard Layer 2 (Pass)
//Storyboard Layer 3 (Foreground)
//Storyboard Layer 4 (Overlay)
//Storyboard Sound Samples

[TimingPoints]
176,394.736842105263,4,2,1,60,1,0
571,394.736842105263,4,2,1,60,1,0
571,-100,4,2,1,60,0,0
13202,-100,4,2,1,85,0,0
25834,-100,4,2,1,85,0,0
51097,-100,4,2,1,75,0,0
76360,-100,4,2,1,85,0,1
88992,-100,4,2,1,65,0,0
101623,-100,4,2,1,85,0,1
114255,-100,4,2,1,75,0,0
114847,-100,4,2,1,75,0,0
123728,-100,4,2,1,85,0,0
125307,-100,4,2,1,85,0,0
126097,-100,4,2,1,85,0,0
126197,-100,4,2,1,85,0,0
126886,-100,4,2,1,85,0,0
127281,-100,4,2,1,35,0,0

[Colours]
Combo1 : 168,209,215
Combo2 : 243,237,182
Combo3 : 209,184,222

[HitObjects]
409,144,571,6,0,L|392:14,2,124,4|10|2,1:0|0:0|1:2,0:0:0:0:
485,197,1755,1,8,0:0:0:0:
412,254,2149,2,0,P|359:244|265:235,1,124,2|8,1:2|0:0,0:0:0:0:
246,255,2742,1,2,1:2:0:0:
246,255,2939,2,0,P|254:197|242:103,1,124,0|10,1:2|0:2,0:0:0:0:
170,82,3728,6,0,P|214:46|292:49,2,124,0|10|2,1:2|0:0|1:2,0:0:0:0:
248,132,4913,1,8,0:0:0:0:
326,181,5307,2,0,P|282:217|204:214,1,124,2|8,1:2|3:2,0:0:0:0:
174,199,5899,1,0,1:0:0:0:
174,199,6097,2,0,P|163:279|172:345,1,124,0|10,1:2|0:2,0:0:0:0:
243,378,6886,6,0,P|285:328|361:330,2,124,0|10|2,1:2|0:0|1:2,0:0:0:0:
156,343,8070,1,8,0:0:0:0:
71,382,8465,2,0,P|75:343|9:281,1,124,2|8,1:2|0:0,0:0:0:0:
8,243,9057,1,2,1:2:0:0:
8,243,9255,2,0,P|84:185|87:156,1,124,0|10,1:2|0:2,0:0:0:0:
129,80,10044,6,0,B|63:71|63:71|7:113,2,124,0|10|2,1:2|0:0|1:2,0:0:0:0:
87,163,11228,1,8,0:0:0:0:
168,207,11623,2,0,L|233:196,1,62,10|0,1:2|1:0,0:0:0:0:
261,162,12018,2,0,L|322:172,1,62,10|0,1:2|1:0,0:0:0:0:
361,197,12413,2,0,B|378:161|378:161|355:68,1,124,10|2,1:2|3:0,0:0:0:0:
440,37,13202,6,0,L|476:174,1,124,4|8,3:1|1:0,0:0:0:0:
484,206,13794,1,2,3:2:0:0:
484,206,13992,2,0,L|347:242,1,124,2|8,1:2|1:0,0:0:0:0:
290,294,14781,2,0,L|254:157,1,124,2|8,1:2|1:0,0:0:0:0:
243,129,15373,1,2,3:2:0:0:
243,129,15570,2,0,L|313:112,2,62,0|0|8,1:0|1:0|1:0,0:0:0:0:
173,66,16360,6,0,B|118:37|118:37|44:55,1,124,2|8,1:2|1:0,0:0:0:0:
28,88,16952,1,0,3:0:0:0:
28,88,17149,2,0,L|11:216,1,124,2|8,1:2|1:0,0:0:0:0:
104,204,17939,2,0,L|87:326,1,124,2|8,1:2|1:0,0:0:0:0:
120,361,18531,1,0,3:0:0:0:
120,361,18728,2,0,L|195:346,1,62,0|0,1:0|1:0,0:0:0:0:
213,315,19123,2,0,L|288:330,1,62,8|0,1:0|1:0,0:0:0:0:
309,356,19518,6,0,P|376:343|404:287,1,124,0|8,1:0|1:0,0:0:0:0:
441,271,20110,1,2,3:2:0:0:
441,271,20307,2,0,P|429:201|416:131,1,124,2|8,1:2|1:0,0:0:0:0:
337,103,21097,2,0,P|270:116|242:172,1,124,2|8,1:2|1:0,0:0:0:0:
218,201,21689,1,2,3:2:0:0:
218,201,21886,2,0,P|229:242|236:279,2,62,0|0|8,1:0|3:0|1:0,0:0:0:0:
142,146,22676,6,0,P|99:134|61:133,1,62,2|0,1:2|1:2,0:0:0:0:
38,148,23070,2,0,B|3:88|56:89|24:30,2,124,8|0|0,1:0|1:0|1:2,0:0:0:0:
6,235,24255,2,0,P|57:313|221:304,1,248,2|0,1:2|1:0,0:0:0:0:
256,243,25439,1,8,1:0:0:0:
310,318,25834,6,0,P|377:346|434:319,1,124,4|8,1:0|1:0,0:0:0:0:
482,258,26623,2,0,P|477:206|452:114,1,124,2|0,1:2|1:0,0:0:0:0:
457,89,27215,2,0,P|409:130|339:115,1,124,8|2,3:1|3:2,0:0:0:0:
309,103,27807,1,8,1:0:0:0:
229,151,28202,2,0,P|232:197|243:233,2,62,8|2|2,1:0|3:2|1:2,0:0:0:0:
224,57,28992,6,0,B|143:42|143:42|89:75,1,124,0|8,1:1|1:0,0:0:0:0:
52,139,29781,2,0,B|46:170|46:170|65:230|65:230|53:266,1,124,2|0,1:2|1:0,0:0:0:0:
28,295,30373,2,0,B|113:311|113:311|149:285,1,124,8|2,3:1|3:2,0:0:0:0:
180,261,30965,1,8,1:0:0:0:
261,305,31360,2,0,B|277:261|277:261|247:174,1,124,8|8,1:0|1:1,0:0:0:0:
173,137,32149,6,0,B|175:111|175:111|151:76,2,62,0|2|8,1:1|3:2|1:0,0:0:0:0:
131,157,32742,2,0,L|263:191,1,124,0|8,3:0|3:1,0:0:0:0:
292,165,33334,1,0,1:0:0:0:
370,114,33728,2,0,B|385:146|385:146|382:186,2,62,0|2|8,1:0|3:2|1:0,0:0:0:0:
404,82,34320,1,2,3:2:0:0:
404,82,34518,2,0,L|419:9,2,62,8|2|2,1:0|3:2|1:2,0:0:0:0:
498,74,35307,6,0,L|470:194,1,124,0|8,1:1|1:0,0:0:0:0:
443,232,35899,1,0,3:0:0:0:
443,232,36097,2,0,B|467:289|467:289|446:355,1,124,2|0,1:2|1:0,0:0:0:0:
359,357,36886,1,0,1:0:0:0:
318,333,37084,2,0,L|196:361,1,124,2|2,1:2|1:2,0:0:0:0:
159,332,37676,2,0,P|166:304|178:273,2,62,8|0|2,1:0|1:2|3:0,0:0:0:0:
71,363,38465,6,0,P|50:328|49:229,1,124,4|8,1:0|1:0,0:0:0:0:
106,177,39255,2,0,P|168:190|239:195,1,124,2|0,1:2|1:0,0:0:0:0:
270,215,39847,2,0,P|292:159|268:101,1,124,8|2,3:1|1:2,0:0:0:0:
234,71,40439,1,8,1:0:0:0:
317,29,40834,2,0,L|388:22,2,62,8|2|2,1:0|1:2|1:2,0:0:0:0:
234,71,41623,6,0,L|93:48,1,124,0|8,1:1|1:0,0:0:0:0:
33,101,42413,2,0,B|13:159|13:159|49:229,1,124,2|0,1:2|1:0,0:0:0:0:
26,258,43005,2,0,L|172:243,1,124,8|2,3:1|1:2,0:0:0:0:
186,273,43597,1,8,1:0:0:0:
250,205,43992,2,0,L|396:190,1,124,8|2,1:0|1:2,0:0:0:0:
450,244,44781,6,0,B|458:270|458:270|442:312,2,62,0|8|8,1:1|3:1|1:0,0:0:0:0:
492,225,45373,2,0,L|357:188,1,124,0|8,3:0|3:1,0:0:0:0:
345,154,45965,1,0,1:0:0:0:
257,123,46360,2,0,B|245:151|245:151|264:198,2,62,0|2|8,1:0|3:2|1:0,0:0:0:0:
282,85,46952,1,2,3:2:0:0:
282,85,47149,2,0,L|362:71,2,62,8|2|2,1:0|3:2|1:2,0:0:0:0:
190,61,47939,6,0,P|131:67|69:34,1,124,2|8,1:2|1:0,0:0:0:0:
38,8,48531,1,2,3:2:0:0:
38,8,48728,2,0,P|46:89|30:149,1,124,2|8,1:2|1:0,0:0:0:0:
104,194,49518,2,0,P|99:234|71:266,1,62,2|8,1:2|3:1,0:0:0:0:
195,340,50307,2,0,P|157:355|116:347,2,62,8|8|2,1:1|1:1|3:0,0:0:0:0:
192,246,51097,6,0,P|247:190|364:192,1,186,4|0,1:0|0:0,0:0:0:0:
383,217,51886,2,0,P|347:282|353:337,1,124,8|2,0:1|1:2,0:0:0:0:
438,361,52676,2,0,P|474:296|468:241,1,124,2|8,1:2|0:1,0:0:0:0:
469,201,53268,1,0,1:0:0:0:
469,201,53465,2,0,P|471:163|480:122,1,62,8|2,0:1|1:2,0:0:0:0:
470,93,53860,2,0,P|432:91|391:82,1,62,8|8,0:1|0:1,0:0:0:0:
362,80,54255,6,0,P|367:110|358:221,2,124,2|8|8,1:2|0:1|0:1,0:0:0:0:
285,27,55439,1,0,1:1:0:0:
217,90,55834,2,0,P|171:123|83:106,1,124,2|8,1:2|0:1,0:0:0:0:
28,68,56623,2,0,P|74:35|162:52,1,124,8|8,0:1|0:1,0:0:0:0:
217,90,57413,6,0,B|266:138|335:116|335:116|302:134|291:160,1,186,4|0,1:0|1:0,0:0:0:0:
268,194,58202,2,0,P|314:238|386:215,1,124,8|0,0:1|1:0,0:0:0:0:
455,193,58992,2,0,P|490:241|474:298,1,124,2|8,1:2|1:1,0:0:0:0:
447,337,59584,1,2,1:2:0:0:
447,337,59781,2,0,P|412:332|371:323,1,62,8|2,0:1|1:2,0:0:0:0:
350,295,60176,2,0,P|315:300|274:309,1,62,0|8,1:0|1:1,0:0:0:0:
256,339,60570,6,0,P|200:341|134:283,2,124,0|0|8,1:0|1:0|0:1,0:0:0:0:
222,251,61755,1,0,1:0:0:0:
188,163,62149,2,0,P|244:161|310:219,1,124,2|8,1:2|0:1,0:0:0:0:
222,251,62939,2,0,P|166:253|100:195,1,124,8|8,0:1|0:1,0:0:0:0:
188,163,63728,6,0,B|242:128|224:27|208:3|152:-2|132:36|130:82|206:69,1,248,4|8,1:0|0:1,0:0:0:0:
261,111,64913,2,0,P|306:106|334:92,1,62,2|8,1:2|0:1,0:0:0:0:
345,60,65307,2,0,P|369:132|386:178,1,124,2|8,1:2|0:1,0:0:0:0:
427,156,65899,1,0,1:0:0:0:
466,180,66097,2,0,P|471:265|444:273,1,124,8|8,0:1|0:1,0:0:0:0:
358,276,66886,6,0,P|379:312|381:352,2,62,2|8|8,1:2|0:1|0:1,0:0:0:0:
306,198,67676,2,0,P|248:205|194:253,1,124,8|0,0:1|1:1,0:0:0:0:
193,338,68465,1,2,1:2:0:0:
101,352,68860,1,8,0:1:0:0:
43,279,69255,2,0,P|39:237|94:152,1,124,8|8,0:1|0:1,0:0:0:0:
116,144,69847,6,0,P|102:116|93:68,1,62,8|4,0:1|1:0,0:0:0:0:
146,222,75965,5,2,0:0:0:0:
171,133,76360,2,0,L|310:112,1,124,0|10,1:0|1:0,0:0:0:0:
385,125,77149,2,0,B|390:108|390:108|369:57,2,62,2|0|10,1:0|1:0|1:0,0:0:0:0:
329,200,77939,2,0,L|322:348,1,124,0|10,1:0|1:0,0:0:0:0:
239,364,78728,2,0,L|169:349,1,62,2|0,1:0|1:0,0:0:0:0:
145,318,79123,2,0,L|75:333,1,62,10|2,1:0|0:2,0:0:0:0:
43,353,79518,6,0,L|60:222,1,124,0|10,1:0|1:0,0:0:0:0:
5,153,80307,2,0,B|0:136|0:136|21:85,2,62,2|0|10,1:0|1:0|1:0,0:0:0:0:
97,140,81097,2,0,L|239:118,1,124,0|10,1:0|1:0,0:0:0:0:
298,170,81886,2,0,L|386:156,2,62,2|0|10,1:0|1:0|1:0,0:0:0:0:
266,204,82478,1,2,0:2:0:0:
266,204,82676,6,0,B|245:246|245:246|276:343,1,124,0|10,1:0|1:0,0:0:0:0:
360,332,83465,2,0,B|365:315|365:315|344:264,2,62,2|0|10,1:0|1:0|1:0,0:0:0:0:
451,348,84255,2,0,B|457:312|457:312|439:260|439:260|451:222,1,124,0|10,1:0|1:0,0:0:0:0:
478,141,85044,2,0,L|410:152,1,62,2|0,1:0|1:0,0:0:0:0:
377,175,85439,2,0,L|309:164,1,62,10|2,1:0|0:2,0:0:0:0:
275,141,85834,6,0,B|260:188|260:188|291:270|291:270|274:319,2,186,0|8|8,1:0|1:0|1:0,0:0:0:0:
327,64,87413,1,0,1:0:0:0:
286,41,87610,2,0,B|244:61|244:61|153:39,1,124,8|0,1:0|1:0,0:0:0:0:
126,23,88202,2,0,L|145:167,1,124,8|0,0:1|1:0,0:0:0:0:
124,237,88992,6,0,B|182:255|226:224|226:224|272:180|298:164|319:216|290:256|238:229,2,248,4|8|2,1:0|1:0|0:0,0:0:0:0:
23,80,91360,2,0,P|45:30|109:51,1,124,8|8,1:0|1:0,0:0:0:0:
108,135,92149,6,0,B|87:159|73:198|104:251|140:261|140:261|128:270|118:283|118:283|143:310|128:355,2,248,0|8|2,1:0|1:0|0:0,0:0:0:0:
291,102,94518,2,0,P|342:104|385:36,1,124,8|8,1:0|1:0,0:0:0:0:
457,108,95307,6,0,B|486:142|486:142|496:206|496:206|477:228|477:228|473:295|473:295|505:337,2,248,0|8|2,1:0|1:0|0:0,0:0:0:0:
337,251,97676,2,0,B|306:273|306:273|207:251,1,124,8|8,1:0|1:0,0:0:0:0:
130,271,98465,6,0,B|139:212|139:212|103:149,1,124,0|0,1:0|1:0,0:0:0:0:
48,228,99255,2,0,L|37:316,2,62,8|2|8,1:0|0:0|0:1,0:0:0:0:
130,271,100044,1,2,0:0:0:0:
130,271,101623,6,0,P|202:256|261:228,1,124,0|8,1:0|0:1,0:0:0:0:
332,273,102413,2,0,P|336:324|317:352,2,62,0|0|8,3:0|1:0|0:1,0:0:0:0:
386,197,103202,2,0,P|472:210|509:235,1,124,0|8,1:0|0:1,0:0:0:0:
495,322,103992,2,0,P|473:342|419:342,1,62,0|0,3:0|1:0,0:0:0:0:
396,339,104386,2,0,P|367:329|340:283,1,62,8|2,0:1|0:0,0:0:0:0:
335,261,104781,6,0,P|344:191|396:141,1,124,0|8,1:0|0:1,0:0:0:0:
450,93,105570,2,0,P|496:104|524:103,2,62,0|0|8,3:0|1:0|0:1,0:0:0:0:
374,38,106360,2,0,P|299:49|245:78,1,124,0|8,1:0|0:1,0:0:0:0:
163,68,107149,2,0,P|148:32|128:8,2,62,0|0|8,3:0|1:0|0:1,0:0:0:0:
179,111,107742,1,8,0:1:0:0:
179,111,107939,6,0,P|111:131|92:188,1,124,0|8,1:0|0:1,0:0:0:0:
81,268,108728,2,0,P|51:287|9:288,2,62,0|0|8,3:0|1:0|0:1,0:0:0:0:
167,232,109518,2,0,P|222:242|306:274,1,124,0|8,1:0|0:1,0:0:0:0:
349,333,110307,2,0,P|393:317|421:297,1,62,0|0,3:0|1:0,0:0:0:0:
440,277,110702,2,0,P|448:230|444:196,1,62,8|2,0:1|0:0,0:0:0:0:
441,169,111097,6,0,P|402:114|345:89,1,124,0|8,1:0|0:1,0:0:0:0:
316,121,111689,2,0,P|319:62|248:47,1,124,0|2,1:0|1:2,0:0:0:0:
225,60,112281,1,8,1:0:0:0:
144,14,112676,2,0,P|130:52|132:97,2,62,2|8|0,1:2|1:0|1:0,0:0:0:0:
225,60,113465,2,0,P|223:97|204:126,1,62,0|8,1:0|1:0,0:0:0:0:
177,150,113860,2,0,P|143:166|109:164,1,62,8|0,1:0|1:0,0:0:0:0:
74,155,114255,6,0,B|111:216|94:276|94:276|156:233|230:254,2,248,0|8|0,1:0|0:1|1:0,0:0:0:0:
216,34,116623,2,0,P|271:71|268:136,1,124,8|2,1:0|0:1,0:0:0:0:
322,203,117413,6,0,B|389:192|470:170|482:122|449:75|401:90|392:131|406:174,2,248,0|8|0,1:0|0:1|1:0,0:0:0:0:
191,335,119781,2,0,P|161:311|73:304,1,124,8|2,1:0|0:1,0:0:0:0:
39,217,120570,6,0,B|53:184|70:179|70:179|26:161|6:114|15:73|84:58|123:69|92:135,2,248,0|8|0,1:0|0:1|1:0,0:0:0:0:
224,203,122939,2,0,P|237:240|212:280,2,62,8|0|2,1:0|0:0|0:1,0:0:0:0:
220,110,123728,6,0,P|314:141|352:134,1,124,0|2,1:0|0:1,0:0:0:0:
359,47,124518,2,0,P|303:19|242:18,1,124,8|2,0:1|0:1,0:0:0:0:
220,110,125307,2,0,P|271:218|253:298,1,186,0|0,1:0|1:0,0:0:0:0:
233,317,126097,1,8,1:0:0:0:
318,352,126492,1,2,0:1:0:0:
388,292,126886,5,4,1:0:0:0:
453,226,127281,2,0,L|422:39,1,186,2|2,0:0|0:0,0:0:0:0:
284,59,128465,2,0,L|314:242,1,186,2|2,0:0|0:0,0:0:0:0:
453,226,129649,1,2,0:0:0:0:
388,292,130044,5,0,1:0:0:0:
314,242,130439,2,0,L|130:272,1,186,2|2,0:0|0:0,0:0:0:0:
104,135,131623,2,0,L|287:104,1,186,2|2,0:0|0:0,0:0:0:0:
330,121,132413,2,0,B|343:90|343:90|313:-9,1,124,2|2,0:0|0:0,0:0:0:0:
226,25,133202,5,0,0:0:0:0:
149,77,133597,2,0,L|137:284,1,186,2|2,0:0|0:0,0:0:0:0:
276,280,134781,2,0,L|288:73,1,186,2|2,0:0|0:0,0:0:0:0:
149,77,135965,1,2,0:0:0:0:
226,25,136360,5,0,1:0:0:0:
286,94,136755,2,0,L|493:106,1,186,2|2,0:0|0:0,0:0:0:0:
467,244,137939,2,0,L|260:232,1,186,2|2,0:0|0:0,0:0:0:0:
238,215,138728,6,0,B|225:245|225:245|231:306|231:306|266:345,2,124,2|2|2,0:0|0:0|0:0,0:0:0:0:
219,123,139913,2,0,B|138:158|138:158|19:141,1,186,2|2,0:0|0:0,0:0:0:0:
69,280,141097,2,0,B|150:245|150:245|269:262,1,186,2|2,0:0|0:0,0:0:0:0:
219,123,142281,1,2,0:0:0:0:
292,179,142676,1,0,1:0:0:0:
364,120,143070,6,0,B|400:206|400:206|367:317,1,186,2|2,0:0|0:0,0:0:0:0:
233,295,144255,2,0,B|206:206|206:206|242:120,1,186,2|2,0:0|0:0,0:0:0:0:
264,79,145044,2,0,B|236:96|236:96|138:81,1,124,2|2,0:0|0:0,0:0:0:0:
53,69,145834,5,2,0:0:0:0:
90,154,146228,2,0,B|121:225|121:225|117:269|117:269|144:340,1,186,2|2,0:0|0:0,0:0:0:0:
279,334,147413,2,0,B|301:273|301:273|297:229|297:229|328:158,1,186,2|2,0:0|0:0,0:0:0:0:
211,82,148597,1,2,0:0:0:0:
211,175,148992,5,0,0:0:0:0:
130,128,149386,2,0,B|94:108|94:108|152:255,2,186,2|2|2,0:0|0:0|0:0,0:0:0:0:
