osu file format v14

[General]
AudioFilename: audio.mp3
AudioLeadIn: 0
PreviewTime: 67089
Countdown: 0
SampleSet: Soft
StackLeniency: 0.7
Mode: 0
LetterboxInBreaks: 0
WidescreenStoryboard: 1

[Editor]
Bookmarks: 11318,22481,44807,67132,78295,89458,100621,111783,122946,134109
DistanceSpacing: 1
BeatDivisor: 4
GridSize: 16
TimelineZoom: 1.6

[Metadata]
Title:Closer (Cut Ver.)
TitleUnicode:Closer (Cut Ver.)
Artist:Voicians
ArtistUnicode:Voicians
Creator:Lasse
Version:Normal
Source:
Tags:english rock electronic Monthly Beatmapping Contest 2020 February mbc featured artist mappers' guild mpg fa wasteland
BeatmapID:4287395
BeatmapSetID:1120892

[Difficulty]
HPDrainRate:3
CircleSize:3.8
OverallDifficulty:5
ApproachRate:5.6
SliderMultiplier:1.00000000596046
SliderTickRate:1

[Events]
//Background and Video events
0,0,"a.jpg",0,0
//Break Periods
//Storyboard Layer 0 (Background)
//Storyboard Layer 1 (Fail)
//Storyboard Layer 2 (Pass)
//Storyboard Layer 3 (Foreground)
//Storyboard Layer 4 (Overlay)
//Storyboard Sound Samples

[TimingPoints]
156,697.674418604652,4,2,1,30,1,0
156,-50,4,2,1,30,0,0
5737,-50,4,2,1,20,0,0
5824,-50,4,2,1,40,0,0
10097,-50,4,2,1,50,0,0
10621,-50,4,2,1,40,0,0
10969,-50,4,2,1,60,0,0
11144,-50,4,2,1,5,0,0
11318,-50,4,2,1,70,0,0
22481,-55.5555555555555,4,2,1,60,0,0
33644,-55.5555555555555,4,2,1,60,0,0
35039,-55.5555555555555,4,2,1,60,0,0
39225,-55.5555555555555,4,2,1,64,0,0
40621,-55.5555555555555,4,2,1,60,0,0
44807,-62.5,4,2,1,46,0,0
45330,-62.5,4,2,1,44,0,0
46028,-62.5,4,2,1,42,0,0
46725,-62.5,4,2,1,40,0,0
47597,-62.5,4,2,1,46,0,0
48295,-62.5,4,2,1,44,0,0
48993,-62.5,4,2,1,42,0,0
49690,-62.5,4,2,1,40,0,0
50388,-62.5,4,2,1,46,0,0
50911,-62.5,4,2,1,44,0,0
51609,-62.5,4,2,1,42,0,0
52307,-62.5,4,2,1,40,0,0
53179,-62.5,4,2,1,46,0,0
53876,-62.5,4,2,1,44,0,0
54574,-62.5,4,2,1,42,0,0
55272,-62.5,4,2,1,40,0,0
55969,-62.5,4,2,1,46,0,0
56493,-62.5,4,2,1,44,0,0
57190,-62.5,4,2,1,42,0,0
57888,-62.5,4,2,1,40,0,0
58760,-62.5,4,2,1,46,0,0
59458,-62.5,4,2,1,44,0,0
60156,-62.5,4,2,1,42,0,0
60853,-62.5,4,2,1,40,0,0
61551,-62.5,4,2,1,44,0,0
62074,-62.5,4,2,1,42,0,0
62772,-62.5,4,2,1,40,0,0
62946,-62.5,4,2,1,5,0,0
63818,-62.5,4,2,1,5,0,0
64167,-62.5,4,2,1,40,0,0
65039,-62.5,4,2,1,50,0,0
65737,-62.5,4,2,1,60,0,0
66435,-62.5,4,2,1,20,0,0
66958,-62.5,4,2,1,5,0,0
67132,-50,4,2,1,75,0,0
67481,-50,4,2,1,75,0,0
69923,-50,4,2,1,75,0,0
70446,-50,4,2,1,75,0,0
72714,-50,4,2,1,75,0,0
73062,-50,4,2,1,75,0,0
75504,-50,4,2,1,75,0,0
76028,-50,4,2,1,75,0,0
78295,-50,4,2,1,75,0,0
78644,-50,4,2,1,75,0,0
81086,-50,4,2,1,75,0,0
81609,-50,4,2,1,75,0,0
83876,-50,4,2,1,75,0,0
84225,-50,4,2,1,75,0,0
86667,-50,4,2,1,75,0,0
87190,-50,4,2,1,75,0,0
88935,-50,4,2,1,70,0,0
89283,-50,4,2,1,60,0,0
89458,-50,4,2,1,70,0,0
89981,-50,4,2,1,70,0,0
92249,-50,4,2,1,70,0,0
92772,-50,4,2,1,70,0,0
95039,-50,4,2,1,70,0,0
95562,-50,4,2,1,70,0,0
97830,-50,4,2,1,70,0,0
98353,-50,4,2,1,70,0,0
100621,-50,4,2,1,72,0,0
101144,-50,4,2,1,72,0,0
103411,-50,4,2,1,72,0,0
103935,-50,4,2,1,72,0,0
106202,-50,4,2,1,72,0,0
106725,-50,4,2,1,72,0,0
108993,-50,4,2,1,72,0,0
109516,-50,4,2,1,72,0,0
111783,-50,4,2,1,75,0,0
112132,-50,4,2,1,75,0,0
114574,-50,4,2,1,75,0,0
115097,-50,4,2,1,75,0,0
117365,-50,4,2,1,75,0,0
117714,-50,4,2,1,75,0,0
120156,-50,4,2,1,75,0,0
120679,-50,4,2,1,75,0,0
122946,-50,4,2,1,75,0,0
123295,-50,4,2,1,75,0,0
125737,-50,4,2,1,75,0,0
126260,-50,4,2,1,75,0,0
128528,-50,4,2,1,75,0,0
128876,-50,4,2,1,75,0,0
131318,-50,4,2,1,75,0,0
131842,-50,4,2,1,75,0,0
133411,-50,4,2,1,75,0,0
133586,-50,4,2,1,70,0,0
133760,-50,4,2,99,5,0,0
134109,-50,4,2,99,44,0,0

[Colours]
Combo1 : 175,205,255
Combo2 : 134,168,215
Combo3 : 210,210,210
Combo4 : 110,200,240
Combo5 : 160,190,255
Combo6 : 135,210,235
Combo7 : 160,160,160
Combo8 : 90,170,210

[HitObjects]
256,192,156,12,0,5737,0:2:0:0:
256,192,5824,12,0,10621,3:0:0:0:
179,62,11318,6,0,P|132:46|69:50,1,100.000000596046,6|0,3:2|0:3,0:2:0:0:
40,71,11842,1,2,3:2:0:0:
40,71,12016,2,0,L|49:181,1,100.000000596046,8|0,0:2|0:3,0:2:0:0:
34,218,12539,1,2,3:2:0:0:
112,280,12888,1,2,3:2:0:0:
193,221,13237,1,2,3:2:0:0:
193,221,13411,2,0,L|199:121,1,100.000000596046,8|2,0:2|2:2,0:2:0:0:
273,53,14109,53,2,3:1:0:0:
273,53,14283,1,10,0:2:0:0:
376,60,14632,1,2,3:2:0:0:
376,60,14807,2,0,L|385:-1,2,50.000000298023,8|2|0,0:2|3:2|0:2,0:0:0:0:
422,78,15330,2,0,P|436:127|424:176,1,100.000000596046,2|0,3:2|3:2,0:2:0:0:
400,217,15853,1,10,0:2:0:0:
307,179,16202,2,0,P|263:164|193:157,1,100.000000596046,10|2,0:2|0:3,2:2:0:0:
126,212,16900,86,0,P|107:269|112:316,1,100.000000596046,6|0,3:2|0:2,0:2:0:0:
137,350,17423,1,2,3:2:0:0:
137,350,17597,2,0,P|191:341|243:342,1,100.000000596046,8|0,0:2|0:2,0:2:0:0:
280,365,18121,1,2,3:2:0:0:
378,380,18469,1,2,3:2:0:0:
439,300,18818,1,2,3:2:0:0:
439,300,18993,2,0,P|433:252|417:202,1,100.000000596046,8|2,0:2|0:2,0:2:0:0:
370,114,19690,53,2,3:2:0:0:
370,114,19865,1,8,0:2:0:0:
297,182,20214,1,2,3:2:0:0:
297,182,20388,2,0,L|292:236,2,50.000000298023,8|2|0,0:2|3:2|0:2,0:0:0:0:
261,146,20911,2,0,P|199:144|162:178,1,100.000000596046,2|0,3:2|3:2,0:2:0:0:
139,205,21435,1,8,0:2:0:0:
43,176,21783,2,0,P|32:113|44:74,1,100.000000596046,8|2,0:2|0:3,0:2:0:0:
125,29,22481,6,0,P|166:30|228:19,2,89.9999977898594,6|2|8,3:2|0:3|0:2,2:2:0:0:
91,59,23353,2,0,P|80:99|92:155,1,89.9999977898594,2|0,0:3|3:2,0:0:0:0:
125,171,23876,2,0,P|168:166|220:168,1,89.9999977898594,2|0,0:2|0:2,0:0:0:0:
258,180,24400,1,2,3:2:0:0:
319,245,24749,2,0,L|312:302,1,44.9999988949297,2|2,0:3|0:3,0:0:0:0:
329,331,25097,54,0,P|373:342|430:340,1,89.9999977898594,0|8,3:2|0:2,0:0:0:0:
457,320,25621,1,2,0:0:0:0:
493,237,25969,1,10,0:2:0:0:
493,237,26144,2,0,L|480:129,1,89.9999977898594,2|0,3:3|3:2,0:0:0:0:
460,108,26667,2,0,P|422:105|365:118,1,89.9999977898594,2|8,2:2|0:2,0:0:0:0:
326,110,27190,1,2,3:2:0:0:
320,203,27539,1,2,0:3:0:0:
320,203,27714,1,2,0:3:0:0:
308,292,28062,54,0,P|266:292|209:277,1,89.9999977898594,4|2,3:1|0:3,0:2:0:0:
137,313,28760,1,8,0:2:0:0:
137,313,28935,2,0,L|127:205,1,89.9999977898594,2|0,0:2|3:2,0:2:0:0:
91,197,29458,2,0,L|99:107,1,89.9999977898594,2|0,0:2|3:2,0:0:0:0:
79,66,29981,1,2,0:2:0:0:
158,23,30330,1,2,0:2:0:0:
228,78,30679,54,0,P|278:87|330:76,1,89.9999977898594,0|8,3:2|0:2,0:0:0:0:
356,59,31202,1,2,0:2:0:0:
445,36,31551,1,8,0:2:0:0:
445,36,31725,2,0,L|428:136,1,89.9999977898594,2|2,0:3|3:2,0:0:0:0:
432,169,32249,2,0,L|451:262,1,89.9999977898594,2|10,0:3|0:2,0:0:0:0:
453,302,32772,1,2,0:3:0:0:
453,302,32946,2,0,P|417:305|364:288,1,89.9999977898594,8|2,0:2|0:2,0:2:0:0:
279,249,33644,54,0,L|266:356,2,89.9999977898594,6|2|8,3:2|0:3|0:2,0:2:0:0:
310,216,34516,2,0,P|348:214|397:188,1,89.9999977898594,2|0,0:3|3:2,0:0:0:0:
423,156,35039,2,0,P|420:110|394:67,1,89.9999977898594,2|0,0:2|0:2,0:0:0:0:
368,38,35562,1,2,3:2:0:0:
280,59,35911,2,0,L|216:52,1,44.9999988949297,2|2,0:3|0:3,0:0:0:0:
196,30,36260,54,0,L|91:39,1,89.9999977898594,0|8,3:2|0:2,0:0:0:0:
61,44,36783,1,2,0:0:0:0:
19,123,37132,1,10,0:2:0:0:
19,123,37307,2,0,P|26:168|28:221,1,89.9999977898594,2|0,3:3|3:2,0:0:0:0:
28,257,37830,2,0,P|71:261|130:275,1,89.9999977898594,2|8,0:2|0:2,0:0:0:0:
158,287,38353,1,2,3:2:0:0:
214,364,38702,1,2,0:2:0:0:
214,364,38876,2,0,P|249:357|269:345,1,44.9999988949297,2|2,0:3|0:3,0:0:0:0:
301,344,39225,54,0,P|339:355|400:343,1,89.9999977898594,6|2,3:2|0:3,0:2:0:0:
480,370,39923,1,8,0:2:0:0:
480,370,40097,2,0,P|484:322|499:267,1,89.9999977898594,2|0,0:2|3:2,0:0:0:0:
469,243,40621,2,0,P|463:197|452:151,1,89.9999977898594,2|0,0:2|3:2,0:0:0:0:
432,114,41144,1,2,0:2:0:0:
359,166,41493,2,0,P|333:168|308:165,1,44.9999988949297,2|2,0:3|0:3,0:0:0:0:
276,190,41842,54,0,P|227:176|178:176,1,89.9999977898594,0|8,3:2|0:2,0:0:0:0:
146,192,42365,1,2,0:2:0:0:
71,141,42714,1,8,0:2:0:0:
71,141,42888,2,0,P|74:81|89:45,1,89.9999977898594,2|2,0:3|3:2,0:0:0:0:
121,27,43411,2,0,P|171:39|218:42,1,89.9999977898594,0|10,0:0|0:2,0:0:0:0:
252,68,43935,1,2,0:3:0:0:
252,68,44109,2,0,P|287:59|350:59,1,89.9999977898594,10|2,0:2|0:3,0:2:0:0:
427,104,44807,86,0,L|443:227,1,120.000000715255,2|2,0:2|0:3,0:0:0:0:
288,267,46028,2,0,L|267:107,1,160.000000953674,2|2,0:3|0:3,0:2:0:0:
79,41,47597,54,0,L|-7:54,1,80.0000004768368,2|2,0:2|0:3,0:0:0:0:
23,129,48295,2,0,L|109:116,1,80.0000004768368,2|2,0:2|0:3,0:0:0:0:
122,194,48993,2,0,L|36:207,1,80.0000004768368,2|2,0:2|0:3,0:0:0:0:
66,282,49690,2,0,L|152:269,1,80.0000004768368,2|2,0:2|0:3,0:0:0:0:
196,336,50388,54,0,L|209:216,1,120.000000715255,2|2,0:2|0:3,0:0:0:0:
330,331,51609,2,0,L|348:161,1,160.000000953674,2|2,0:3|0:3,0:2:0:0:
487,29,53179,54,0,L|501:113,1,80.0000004768368,2|2,0:2|0:3,0:0:0:0:
424,134,53876,2,0,L|410:50,1,80.0000004768368,2|2,0:2|0:3,0:0:0:0:
334,78,54574,2,0,L|348:162,1,80.0000004768368,2|2,0:2|0:3,0:0:0:0:
271,183,55272,2,0,L|257:99,1,80.0000004768368,2|2,0:2|0:3,0:0:0:0:
172,74,55969,54,0,L|168:200,1,120.000000715255,2|2,0:2|0:3,0:0:0:0:
25,266,57190,2,0,L|30:89,1,160.000000953674,2|2,0:3|0:3,0:2:0:0:
224,60,58760,54,0,L|302:46,1,80.0000004768368,2|2,0:2|0:3,0:0:0:0:
323,124,59458,2,0,L|244:137,1,80.0000004768368,2|2,0:2|0:3,0:0:0:0:
260,215,60156,2,0,L|338:201,1,80.0000004768368,2|2,0:2|0:3,0:0:0:0:
359,279,60853,2,0,L|280:292,1,80.0000004768368,2|2,0:2|0:3,0:0:0:0:
213,350,61551,54,0,L|82:331,1,120.000000715255,2|2,0:2|0:3,0:0:0:0:
66,176,62772,2,0,L|370:219,1,280.000001668929,2|0,0:2|0:0,0:2:0:0:
256,192,64167,12,0,66435,0:0:0:0:
2,210,67132,5,6,3:2:0:0:
39,302,67481,2,2,P|86:314|155:295,1,100.000000596046,2|8,0:2|0:2,0:1:0:0:
183,288,68004,1,2,0:2:0:0:
183,288,68179,1,2,0:3:0:0:
238,204,68528,2,0,L|223:95,1,100.000000596046,2|0,0:1|0:2,0:0:0:0:
241,57,69051,1,2,3:2:0:0:
241,57,69225,2,2,P|267:38|346:36,1,100.000000596046,8|2,0:2|0:2,0:1:0:0:
428,76,69923,53,4,3:1:0:0:
428,76,70097,2,0,B|444:125|444:125|426:170|447:229,1,150.000000894069,8|10,0:2|0:2,0:1:0:0:
484,313,70969,1,2,0:2:0:0:
398,364,71318,1,2,0:1:0:0:
358,272,71667,1,8,0:2:0:0:
272,323,72016,1,8,0:2:0:0:
272,323,72190,2,0,P|220:329|166:307,1,100.000000596046,0|0,3:2|3:2,0:0:0:0:
128,294,72714,53,6,3:2:0:0:
93,200,73062,2,2,L|119:96,1,100.000000596046,2|8,0:2|0:2,0:1:0:0:
144,62,73586,1,2,0:2:0:0:
144,62,73760,1,2,0:3:0:0:
240,86,74109,2,0,L|215:183,1,100.000000596046,2|0,0:1|0:2,0:0:0:0:
213,237,74632,1,2,3:2:0:0:
213,237,74807,2,2,P|257:261|314:255,1,100.000000596046,8|2,0:2|0:2,0:1:0:0:
403,234,75504,117,4,3:1:0:0:
403,234,75679,2,0,L|395:129,1,100.000000596046,8|0,0:2|3:2,0:2:0:0:
392,84,76202,1,8,0:2:0:0:
314,20,76551,1,2,0:2:0:0:
231,76,76900,1,2,0:1:0:0:
140,33,77249,1,8,0:2:0:0:
140,33,77423,2,2,P|81:30|31:46,2,100.000000596046,2|0|8,0:2|3:2|0:2,0:1:0:0:
180,63,78295,53,6,3:2:0:0:
116,140,78644,2,2,P|100:188|100:242,1,100.000000596046,2|8,0:2|0:2,0:1:0:0:
116,284,79167,1,2,0:2:0:0:
116,284,79342,1,2,0:3:0:0:
196,343,79690,2,0,P|246:336|298:338,1,100.000000596046,2|0,2:1|2:2,0:0:0:0:
343,365,80214,1,2,3:2:0:0:
343,365,80388,2,2,P|392:366|442:359,1,100.000000596046,8|2,2:2|2:2,2:1:0:0:
500,276,81086,53,4,3:1:0:0:
500,276,81260,2,0,B|478:237|487:174|487:174|504:156|510:120,1,150.000000894069,8|8,0:2|0:2,0:2:0:0:
470,44,82132,1,2,0:2:0:0:
370,47,82481,1,2,0:1:0:0:
331,139,82830,1,8,0:2:0:0:
391,218,83179,1,8,0:2:0:0:
391,218,83353,2,0,P|398:264|377:325,1,100.000000596046,0|0,3:2|3:2,0:0:0:0:
353,354,83876,53,6,3:2:0:0:
254,373,84225,2,2,P|215:362|152:356,1,100.000000596046,2|8,0:2|0:2,0:1:0:0:
110,369,84749,1,2,0:2:0:0:
110,369,84923,1,2,0:3:0:0:
35,302,85272,2,0,P|38:255|60:198,1,100.000000596046,2|0,0:1|0:2,0:0:0:0:
96,176,85795,1,2,3:2:0:0:
96,176,85969,2,2,P|122:187|193:191,1,100.000000596046,8|2,0:2|0:2,0:1:0:0:
287,155,86667,53,4,3:1:0:0:
287,155,86842,2,0,L|297:261,1,100.000000596046,8|0,0:2|3:2,0:2:0:0:
305,303,87365,1,8,0:2:0:0:
382,366,87714,1,2,0:2:0:0:
478,340,88062,1,2,0:1:0:0:
501,242,88411,1,8,0:2:0:0:
438,164,88760,1,8,0:2:0:0:
438,164,88935,2,2,P|373:179|335:164,1,100.000000596046,2|0,3:2|0:2,1:2:0:0:
294,157,89458,70,0,P|292:87|275:46,1,100.000000596046,6|0,3:2|0:2,0:2:0:0:
243,27,89981,1,2,0:2:0:0:
143,23,90330,1,2,0:2:0:0:
78,99,90679,1,2,0:2:0:0:
78,99,90853,2,0,P|80:169|97:210,1,100.000000596046,2|2,0:1|0:2,0:2:0:0:
120,243,91376,1,2,0:2:0:0:
120,243,91551,2,0,P|163:234|228:237,1,100.000000596046,8|0,0:2|0:0,0:0:0:0:
286,309,92249,54,0,P|335:310|384:301,1,100.000000596046,6|0,3:2|0:2,0:2:0:0:
425,330,92772,1,2,0:2:0:0:
505,270,93121,1,2,0:2:0:0:
465,183,93469,1,2,0:2:0:0:
465,183,93644,2,0,P|415:181|366:190,1,100.000000596046,2|2,0:1|0:2,0:2:0:0:
323,163,94167,1,2,2:2:0:0:
249,230,94516,1,2,3:3:0:0:
266,328,94865,53,2,0:3:0:0:
266,328,95039,2,0,P|216:336|167:334,1,100.000000596046,6|0,3:2|0:2,0:2:0:0:
122,356,95562,1,2,0:2:0:0:
38,301,95911,1,2,0:2:0:0:
16,203,96260,1,2,0:2:0:0:
16,203,96435,2,0,L|35:87,1,100.000000596046,2|2,0:1|0:2,0:2:0:0:
69,71,96958,1,2,0:2:0:0:
69,71,97132,2,0,P|120:57|173:60,1,100.000000596046,8|0,0:2|0:0,0:0:0:0:
231,134,97830,54,0,L|212:250,1,100.000000596046,6|0,3:2|0:2,0:2:0:0:
204,281,98353,1,2,0:2:0:0:
279,346,98702,1,2,0:3:0:0:
377,318,99051,1,2,0:3:0:0:
377,318,99225,2,0,L|396:202,1,100.000000596046,2|10,0:1|0:2,0:2:0:0:
424,180,99749,1,2,0:3:0:0:
482,99,100097,1,2,3:3:0:0:
401,39,100446,69,2,3:3:0:0:
401,39,100621,2,0,L|288:45,1,100.000000596046,6|0,3:2|0:2,0:2:0:0:
251,50,101144,1,2,0:2:0:0:
209,140,101493,1,2,0:2:0:0:
277,219,101842,1,2,0:2:0:0:
277,219,102016,1,2,0:1:0:0:
240,314,102365,1,2,0:2:0:0:
240,314,102539,2,2,L|127:320,1,100.000000596046,2|2,0:2|0:2,0:1:0:0:
47,351,103237,53,2,0:3:0:0:
47,351,103411,2,0,P|38:298|59:242,1,100.000000596046,6|0,3:2|0:2,0:2:0:0:
79,213,103935,1,2,0:2:0:0:
174,184,104283,1,2,0:2:0:0:
261,232,104632,1,2,0:2:0:0:
261,232,104807,2,2,P|306:242|368:227,1,100.000000596046,2|2,0:1|0:2,0:1:0:0:
404,213,105330,1,2,0:2:0:0:
456,128,105679,1,2,3:3:0:0:
406,47,106028,53,2,0:3:0:0:
406,47,106202,2,0,P|361:37|299:52,1,100.000000596046,6|0,3:2|0:2,0:2:0:0:
265,72,106725,1,2,0:2:0:0:
170,39,107074,1,2,0:2:0:0:
84,90,107423,1,2,0:2:0:0:
84,90,107597,1,2,0:1:0:0:
57,186,107946,1,2,0:2:0:0:
57,186,108121,2,2,L|64:296,1,100.000000596046,2|2,0:2|0:2,0:1:0:0:
137,360,108818,53,2,0:3:0:0:
137,360,108993,2,0,P|194:365|243:337,1,100.000000596046,6|2,3:2|0:2,0:2:0:0:
268,313,109516,1,2,0:2:0:0:
359,353,109865,1,2,0:3:0:0:
449,306,110214,1,8,0:2:0:0:
449,306,110388,1,2,0:1:0:0:
457,206,110737,1,10,0:0:0:0:
379,142,111086,1,10,0:2:0:0:
284,175,111435,1,10,0:2:0:0:
189,143,111783,86,0,L|184:245,2,100.000000596046,6|2|8,3:2|0:2|0:2,0:2:0:0:
197,96,112656,1,2,0:2:0:0:
197,96,112830,1,2,0:3:0:0:
284,47,113179,2,0,P|336:38|393:59,1,100.000000596046,2|0,0:1|0:2,0:0:0:0:
425,84,113702,1,2,3:2:0:0:
425,84,113876,2,2,L|420:183,1,100.000000596046,8|2,0:2|0:2,0:1:0:0:
464,279,114574,53,4,3:1:0:0:
464,279,114749,2,0,B|367:266|407:323|314:307,1,150.000000894069,8|8,0:2|0:2,0:2:0:0:
240,365,115621,1,2,0:2:0:0:
168,295,115969,1,2,0:1:0:0:
250,238,116318,1,8,0:2:0:0:
250,238,116493,1,2,0:2:0:0:
322,308,116842,1,2,3:3:0:0:
402,249,117190,53,2,3:3:0:0:
402,249,117365,2,0,P|450:263|504:256,2,100.000000596046,6|2|8,3:2|0:2|0:2,0:2:0:0:
359,222,118237,1,2,0:2:0:0:
359,222,118411,1,2,0:3:0:0:
266,184,118760,2,0,L|261:76,1,100.000000596046,2|0,0:1|0:2,0:0:0:0:
235,47,119283,1,2,3:2:0:0:
235,47,119458,2,2,P|192:39|118:59,1,100.000000596046,8|2,0:2|0:2,0:1:0:0:
58,110,120156,53,4,3:1:0:0:
58,110,120330,2,0,L|63:218,1,100.000000596046,8|0,2:2|3:2,2:2:0:0:
66,259,120853,1,8,0:2:0:0:
136,330,121202,1,2,0:2:0:0:
221,278,121551,1,2,2:1:0:0:
151,207,121900,1,10,0:2:0:0:
174,109,122249,1,10,0:2:0:0:
270,82,122597,2,0,L|321:97,1,50.000000298023,8|8,0:2|0:2,0:0:0:0:
343,139,122946,54,0,P|324:180|327:241,2,100.000000596046,6|2|8,3:2|0:2|0:2,0:2:0:0:
394,127,123818,1,2,0:2:0:0:
394,127,123993,1,2,0:3:0:0:
476,182,124342,2,0,P|477:231|457:276,1,100.000000596046,2|0,2:1|0:2,0:0:0:0:
437,324,124865,1,2,3:2:0:0:
437,324,125039,2,2,P|381:305|334:304,1,100.000000596046,8|2,0:2|0:2,0:1:0:0:
242,324,125737,53,4,3:1:0:0:
242,324,125911,2,0,B|208:350|208:350|156:368|100:328,1,150.000000894069,8|8,0:2|0:2,0:2:0:0:
32,264,126783,1,2,0:2:0:0:
51,165,127132,1,2,0:1:0:0:
152,146,127481,1,8,0:2:0:0:
152,146,127656,1,2,0:2:0:0:
219,219,128004,1,2,3:3:0:0:
314,189,128353,53,2,3:3:0:0:
314,189,128528,2,0,L|305:74,2,100.000000596046,6|2|8,3:2|0:2|0:2,0:2:0:0:
318,243,129400,1,2,0:2:0:0:
318,243,129574,1,2,0:3:0:0:
368,329,129923,2,0,P|412:337|471:317,1,100.000000596046,2|0,0:1|0:2,0:0:0:0:
494,282,130446,1,2,3:2:0:0:
494,282,130621,2,2,L|486:182,1,100.000000596046,8|2,0:2|0:3,0:1:0:0:
422,104,131318,53,4,3:1:0:0:
422,104,131493,2,0,P|377:120|313:110,1,100.000000596046,8|0,0:2|3:2,0:2:0:0:
277,101,132016,1,8,0:2:0:0:
197,162,132365,1,2,0:2:0:0:
252,244,132714,1,2,3:1:0:0:
191,323,133062,1,10,0:2:0:0:
191,323,133237,2,0,P|166:326|135:318,1,50.000000298023,0|10,3:2|0:2,0:0:0:0:
96,343,133586,2,2,B|87:292|87:292|102:249|102:249|87:185,1,150.000000894069,0|2,3:2|0:2,0:2:0:0:
