osu file format v14

[General]
AudioFilename: audio.mp3
AudioLeadIn: 0
PreviewTime: 67089
Countdown: 0
SampleSet: Soft
StackLeniency: 0.4
Mode: 0
LetterboxInBreaks: 0
WidescreenStoryboard: 1

[Editor]
Bookmarks: 22481,44807,67132,78295,89458,100621,111783,122946,134109
DistanceSpacing: 0.42
BeatDivisor: 4
GridSize: 16
TimelineZoom: 1.6

[Metadata]
Title:Closer (Cut Ver.)
TitleUnicode:Closer (Cut Ver.)
Artist:Voicians
ArtistUnicode:Voicians
Creator:Lasse
Version:Hard
Source:
Tags:english rock electronic Monthly Beatmapping Contest 2020 February mbc featured artist mappers' guild mpg fa wasteland
BeatmapID:4287394
BeatmapSetID:1120892

[Difficulty]
HPDrainRate:4.6
CircleSize:4.6
OverallDifficulty:6.8
ApproachRate:7.8
SliderMultiplier:0.700000005960464
SliderTickRate:1

[Events]
//Background and Video events
0,0,"a.jpg",0,0
//Break Periods
//Storyboard Layer 0 (Background)
//Storyboard Layer 1 (Fail)
//Storyboard Layer 2 (Pass)
//Storyboard Layer 3 (Foreground)
//Storyboard Layer 4 (Overlay)
//Storyboard Sound Samples

[TimingPoints]
156,697.674418604652,4,2,1,30,1,0
156,-50,4,2,1,30,0,0
5737,-50,4,2,1,20,0,0
5824,-50,4,2,1,40,0,0
10097,-50,4,2,1,50,0,0
10621,-50,4,2,1,55,0,0
10969,-50,4,2,1,60,0,0
11144,-50,4,2,1,5,0,0
11318,-30.3030303030303,4,2,1,70,0,0
22481,-35.7142857142858,4,2,1,60,0,0
33644,-30.3030303030303,4,2,1,60,0,0
35039,-35.7142857142858,4,2,1,60,0,0
39225,-30.3030303030303,4,2,1,64,0,0
40621,-35.7142857142858,4,2,1,60,0,0
44807,-66.6666666666665,4,2,1,46,0,0
45330,-50,4,2,1,44,0,0
46028,-66.6666666666665,4,2,1,42,0,0
46725,-100,4,2,1,40,0,0
47597,-50,4,2,1,46,0,0
48295,-62.5,4,2,1,44,0,0
48993,-83.3333333333335,4,2,1,42,0,0
49690,-125,4,2,1,40,0,0
50388,-66.6666666666665,4,2,1,46,0,0
50911,-50,4,2,1,44,0,0
51609,-66.6666666666665,4,2,1,42,0,0
52307,-100,4,2,1,40,0,0
53179,-50,4,2,1,46,0,0
53876,-62.5,4,2,1,44,0,0
54574,-83.3333333333335,4,2,1,42,0,0
55272,-125,4,2,1,40,0,0
55969,-66.6666666666665,4,2,1,46,0,0
56493,-50,4,2,1,44,0,0
57190,-66.6666666666665,4,2,1,42,0,0
57888,-100,4,2,1,40,0,0
58760,-50,4,2,1,46,0,0
59458,-62.5,4,2,1,44,0,0
60156,-83.3333333333335,4,2,1,42,0,0
60853,-125,4,2,1,40,0,0
61551,-66.6666666666665,4,2,1,44,0,0
62074,-50,4,2,1,42,0,0
62772,-500,4,2,1,40,0,0
62946,-500,4,2,1,5,0,0
63818,-100,4,2,1,5,0,0
64167,-50,4,2,1,40,0,0
65039,-62.5,4,2,1,50,0,0
65737,-83.3333333333335,4,2,1,60,0,0
66435,-125,4,2,1,30,0,0
66958,-125,4,2,1,5,0,0
67132,-33.3333333333334,4,2,1,75,0,0
67481,-50,4,2,1,75,0,0
69923,-33.3333333333334,4,2,1,75,0,0
70446,-50,4,2,1,75,0,0
72714,-33.3333333333334,4,2,1,75,0,0
73062,-50,4,2,1,75,0,0
75504,-33.3333333333334,4,2,1,75,0,0
76028,-50,4,2,1,75,0,0
78295,-33.3333333333334,4,2,1,75,0,0
78644,-50,4,2,1,75,0,0
81086,-33.3333333333334,4,2,1,75,0,0
81609,-50,4,2,1,75,0,0
83876,-33.3333333333334,4,2,1,75,0,0
84225,-50,4,2,1,75,0,0
86667,-33.3333333333334,4,2,1,75,0,0
87190,-50,4,2,1,75,0,0
88935,-66.6666666666665,4,2,1,70,0,0
89283,-66.6666666666665,4,2,1,60,0,0
89458,-33.3333333333334,4,2,1,70,0,0
89981,-40,4,2,1,70,0,0
92249,-33.3333333333334,4,2,1,70,0,0
92772,-40,4,2,1,70,0,0
95039,-33.3333333333334,4,2,1,70,0,0
95562,-40,4,2,1,70,0,0
97830,-33.3333333333334,4,2,1,70,0,0
98353,-40,4,2,1,70,0,0
100621,-28.5714285714286,4,2,1,72,0,0
101144,-33.3333333333334,4,2,1,72,0,0
103411,-28.5714285714286,4,2,1,72,0,0
103935,-33.3333333333334,4,2,1,72,0,0
106202,-28.5714285714286,4,2,1,72,0,0
106725,-33.3333333333334,4,2,1,72,0,0
108993,-28.5714285714286,4,2,1,72,0,0
109516,-33.3333333333334,4,2,1,72,0,0
111783,-33.3333333333334,4,2,1,75,0,0
112132,-50,4,2,1,75,0,0
114574,-33.3333333333334,4,2,1,75,0,0
115097,-50,4,2,1,75,0,0
117365,-33.3333333333334,4,2,1,75,0,0
117714,-50,4,2,1,75,0,0
120156,-33.3333333333334,4,2,1,75,0,0
120679,-50,4,2,1,75,0,0
122946,-33.3333333333334,4,2,1,75,0,0
123295,-50,4,2,1,75,0,0
125737,-33.3333333333334,4,2,1,75,0,0
126260,-50,4,2,1,75,0,0
128528,-33.3333333333334,4,2,1,75,0,0
128876,-50,4,2,1,75,0,0
131318,-33.3333333333334,4,2,1,75,0,0
131842,-50,4,2,1,75,0,0
133411,-66.6666666666665,4,2,1,75,0,0
133586,-66.6666666666665,4,2,1,70,0,0
133760,-66.6666666666665,4,2,99,5,0,0
134109,-66.6666666666665,4,2,99,44,0,0

[Colours]
Combo1 : 175,205,255
Combo2 : 134,168,215
Combo3 : 210,210,210
Combo4 : 110,200,240
Combo5 : 160,190,255
Combo6 : 135,210,235
Combo7 : 160,160,160
Combo8 : 90,170,210

[HitObjects]
256,192,156,12,0,5737,0:2:0:0:
256,192,5824,12,0,10621,3:0:0:0:
172,47,11318,6,0,P|88:35|39:76,1,115.50000208497,6|0,3:2|0:3,0:2:0:0:
14,130,11842,1,2,3:2:0:0:
60,180,12016,2,0,P|114:197|168:179,1,115.50000208497,8|0,0:2|0:3,0:2:0:0:
254,125,12539,1,2,3:2:0:0:
254,125,12888,1,2,3:2:0:0:
254,125,13237,1,2,3:2:0:0:
300,176,13411,2,0,L|286:252,1,57.7500010424852,8|0,0:2|0:2,0:2:0:0:
354,308,13760,2,0,L|368:232,1,57.7500010424852,2|0,2:2|3:3,0:0:0:0:
263,313,14109,53,2,3:1:0:0:
263,313,14283,2,0,L|134:338,1,115.50000208497,10|2,0:2|3:2,0:2:0:0:
85,375,14807,1,8,0:2:0:0:
84,375,14981,2,0,P|64:371|23:349,1,57.7500010424852,2|0,3:2|0:2,0:2:0:0:
149,334,15330,2,0,L|186:220,1,115.50000208497,2|0,3:2|3:2,0:2:0:0:
88,172,15853,2,0,P|102:196|105:225,1,57.7500010424852,10|0,0:2|3:2,0:2:0:0:
13,169,16202,2,0,P|16:140|30:115,1,57.7500010424852,10|2,0:2|2:3,2:2:0:0:
42,106,16464,1,2,0:3:0:0:
55,99,16551,2,0,P|84:90|112:72,1,57.7500010424852,2|2,0:3|0:3,0:2:0:0:
239,3,16900,86,0,P|215:49|217:129,1,115.50000208497,6|0,3:2|0:2,0:2:0:0:
301,175,17423,1,2,3:2:0:0:
373,145,17597,2,0,P|397:99|395:19,1,115.50000208497,8|0,0:2|0:2,0:2:0:0:
296,118,18121,2,0,P|295:147|301:175,1,57.7500010424852,2|0,3:2|0:2,0:2:0:0:
388,230,18469,1,2,3:2:0:0:
388,230,18818,1,2,3:2:0:0:
454,191,18993,2,0,L|519:195,1,57.7500010424852,8|0,0:2|0:2,0:2:0:0:
507,296,19342,2,0,L|449:291,1,57.7500010424852,2|0,0:2|3:3,0:0:0:0:
366,362,19690,53,2,3:2:0:0:
366,362,19865,2,0,P|320:319|256:314,1,115.50000208497,8|2,0:2|3:2,0:2:0:0:
184,330,20388,1,8,0:2:0:0:
129,376,20562,2,0,L|62:361,1,57.7500010424852,2|0,3:2|0:2,0:2:0:0:
12,290,20911,1,2,3:2:0:0:
12,290,21260,1,0,3:2:0:0:
75,249,21435,2,0,L|90:189,1,57.7500010424852,8|0,0:2|3:2,0:2:0:0:
176,169,21783,2,0,L|161:229,1,57.7500010424852,8|2,0:2|3:3,0:2:0:0:
167,238,22045,1,2,0:3:0:0:
175,249,22132,2,0,P|198:259|243:259,1,57.7500010424852,2|0,0:3|0:2,0:2:0:0:
359,227,22481,6,0,L|373:354,1,97.9999978437423,6|0,3:2|0:2,2:2:0:0:
481,384,23004,1,2,3:2:0:0:
481,384,23179,2,0,L|474:320,1,48.9999989218712,8|2,0:2|0:3,0:2:0:0:
480,326,23440,1,2,0:3:0:0:
486,318,23528,2,0,L|479:254,1,48.9999989218712,2|0,0:3|3:2,0:2:0:0:
512,177,23876,1,2,0:2:0:0:
512,177,24051,2,0,P|450:195|406:169,1,97.9999978437423,0|2,3:2|3:2,0:2:0:0:
346,169,24574,2,0,P|360:131|361:111,1,48.9999989218712,8|2,0:2|0:3,0:2:0:0:
361,112,24836,1,2,0:3:0:0:
361,102,24923,2,0,P|352:65|346:53,1,48.9999989218712,2|0,0:3|3:2,0:2:0:0:
235,16,25272,53,2,3:2:0:0:
235,16,25446,2,0,P|184:53|140:48,1,97.9999978437423,8|0,0:2|3:2,0:2:0:0:
106,107,25969,2,0,P|87:93|58:86,1,48.9999989218712,10|2,0:2|3:3,0:2:0:0:
52,87,26231,1,2,0:3:0:0:
43,92,26318,2,0,P|21:130|17:147,1,48.9999989218712,2|0,0:3|3:2,0:2:0:0:
38,218,26667,1,2,2:2:0:0:
38,218,26842,2,0,P|75:211|105:213,1,48.9999989218712,0|8,3:2|0:2,0:2:0:0:
130,294,27190,1,2,3:2:0:0:
130,294,27365,2,0,P|93:287|63:289,1,48.9999989218712,8|2,0:2|0:3,0:2:0:0:
73,292,27626,1,2,0:3:0:0:
65,298,27714,2,0,P|58:318|57:358,1,48.9999989218712,2|2,0:3|0:3,0:2:0:0:
162,376,28062,53,4,3:1:0:0:
162,376,28411,2,0,P|202:361|225:358,1,48.9999989218712,2|2,0:3|3:3,0:2:0:0:
282,376,28760,1,8,0:2:0:0:
282,376,28935,2,0,P|274:349|271:265,1,97.9999978437423,2|0,0:2|3:2,0:2:0:0:
333,221,29458,1,2,0:2:0:0:
333,221,29632,2,0,P|386:248|428:243,1,97.9999978437423,0|2,2:2|0:2,0:2:0:0:
502,196,30156,1,10,0:2:0:0:
502,196,30504,2,0,P|493:175|487:144,1,48.9999989218712,2|0,0:2|3:2,0:2:0:0:
512,42,30853,53,2,3:2:0:0:
512,42,31028,2,0,P|472:68|400:71,1,97.9999978437423,8|2,0:2|3:2,0:2:0:0:
358,112,31551,2,0,P|350:88|338:67,1,48.9999989218712,8|2,0:2|0:3,0:2:0:0:
330,61,31812,1,2,0:3:0:0:
320,59,31900,1,2,0:3:0:0:
282,119,32074,2,0,P|284:152|315:220,1,97.9999978437423,2|0,3:2|3:2,0:2:0:0:
361,272,32597,2,0,P|383:261|406:254,1,48.9999989218712,10|0,0:2|0:2,0:2:0:0:
364,367,32946,2,0,P|341:351|318:340,1,48.9999989218712,8|2,0:2|3:3,0:2:0:0:
312,337,33208,1,2,0:3:0:0:
301,334,33295,1,2,0:2:0:0:
246,378,33469,1,2,0:2:0:0:
193,299,33644,54,0,P|209:226|207:171,1,115.50000208497,6|0,3:2|0:2,0:2:0:0:
146,114,34167,1,2,3:2:0:0:
146,114,34342,2,0,P|126:111|69:83,1,57.7500010424852,8|2,0:2|0:3,0:2:0:0:
80,93,34603,1,2,0:3:0:0:
69,88,34690,2,0,P|75:59|86:33,1,57.7500010424852,2|0,0:3|3:2,0:2:0:0:
184,11,35039,1,2,0:2:0:0:
184,11,35214,2,0,P|231:46|275:52,1,97.9999978437423,0|2,3:2|3:2,0:2:0:0:
339,97,35737,2,0,P|307:115|289:133,1,48.9999989218712,8|2,0:2|0:3,0:2:0:0:
293,131,35999,1,2,0:3:0:0:
290,140,36086,2,0,P|294:163|317:213,1,48.9999989218712,2|0,0:3|3:2,0:2:0:0:
394,246,36435,53,2,3:2:0:0:
394,246,36609,2,0,P|334:271|315:320,1,97.9999978437423,8|0,0:2|3:2,0:2:0:0:
281,380,37132,2,0,P|275:358|250:329,1,48.9999989218712,10|2,0:2|3:3,0:2:0:0:
253,329,37394,1,2,0:3:0:0:
244,323,37481,2,0,P|227:335|195:345,1,48.9999989218712,2|0,0:3|3:2,0:2:0:0:
102,369,37830,1,2,0:2:0:0:
102,369,38004,2,0,P|124:312|124:308,1,48.9999989218712,0|8,3:2|0:2,0:2:0:0:
25,270,38353,1,2,3:2:0:0:
25,270,38528,2,0,P|32:293|45:313,1,48.9999989218712,8|0,0:2|0:2,0:2:0:0:
148,258,38876,1,2,0:3:0:0:
145,248,38964,1,2,0:3:0:0:
142,238,39051,1,2,0:3:0:0:
139,228,39138,1,2,0:3:0:0:
136,218,39225,54,0,P|101:212|59:148,1,115.50000208497,6|0,3:2|0:2,0:2:0:0:
0,71,39749,1,2,3:2:0:0:
0,71,39923,2,0,P|31:68|68:48,1,57.7500010424852,8|0,0:2|0:2,0:2:0:0:
145,12,40272,2,0,P|135:33|129:80,1,57.7500010424852,2|0,0:2|3:2,0:2:0:0:
175,148,40621,1,2,0:2:0:0:
175,148,40795,2,0,P|235:135|290:135,1,97.9999978437423,0|2,3:2|0:2,0:2:0:0:
209,214,41318,2,0,P|199:240|197:273,1,48.9999989218712,8|2,0:2|0:3,0:2:0:0:
197,270,41580,1,2,0:3:0:0:
199,279,41667,2,0,P|230:313|243:321,1,48.9999989218712,2|0,0:3|3:2,0:0:0:0:
327,359,42016,53,2,3:2:0:0:
327,359,42190,2,0,P|336:318|368:266,1,97.9999978437423,8|2,0:2|3:2,0:2:0:0:
479,268,42714,2,0,P|457:255|435:237,1,48.9999989218712,8|2,0:2|0:3,0:2:0:0:
433,232,42975,1,2,0:3:0:0:
428,223,43062,1,2,0:3:0:0:
498,195,43237,2,0,P|509:179|486:87,1,97.9999978437423,2|0,3:2|3:2,0:2:0:0:
439,41,43760,2,0,P|469:37|504:24,1,48.9999989218712,10|0,0:2|0:2,0:2:0:0:
429,115,44109,2,0,P|399:119|364:132,1,48.9999989218712,10|2,0:2|0:3,0:2:0:0:
373,130,44371,1,2,0:3:0:0:
368,138,44458,2,0,P|356:171|356:190,1,48.9999989218712,2|2,0:3|0:3,0:0:0:0:
278,247,44807,85,2,0:2:0:0:
278,247,45330,2,0,L|268:287,1,35.0000002980232,2|0,0:3|0:2,0:2:0:0:
269,280,46028,2,0,L|259:320,1,26.2500012248755,2|0,0:3|0:2,0:2:0:0:
262,305,46725,2,0,L|255:330,1,17.5000001490116,2|0,0:3|0:2,0:2:0:0:
109,371,47597,53,2,0:2:0:0:
109,371,47946,2,0,L|104:329,1,35.0000002980232,2|0,0:3|0:2,0:2:0:0:
154,281,48295,53,2,0:2:0:0:
154,281,48644,2,0,L|149:239,1,28.0000002384186,2|0,0:3|0:2,0:2:0:0:
89,217,48993,53,2,0:2:0:0:
89,217,49342,2,0,L|85:189,1,20.9999995379448,2|0,0:3|0:2,0:2:0:0:
134,142,49690,53,2,0:2:0:0:
134,142,50039,2,0,L|131:121,1,14.0000001192093,2|0,0:3|0:2,0:2:0:0:
85,75,50388,53,2,0:2:0:0:
85,75,50911,2,0,L|134:83,1,35.0000002980232,2|0,0:3|0:2,0:2:0:0:
119,80,51609,2,0,L|168:88,1,26.2500012248755,2|0,0:3|0:2,0:2:0:0:
144,84,52307,2,0,L|161:86,1,17.5000001490116,2|0,0:3|0:2,0:2:0:0:
296,52,53179,53,2,0:2:0:0:
296,52,53528,2,0,L|291:94,1,35.0000002980232,2|0,0:3|0:2,0:2:0:0:
341,142,53877,53,2,0:2:0:0:
341,142,54226,2,0,L|336:184,1,28.0000002384186,2|0,0:3|0:2,0:2:0:0:
276,206,54575,53,2,0:2:0:0:
276,206,54924,2,0,L|272:233,1,20.9999995379448,2|0,0:3|0:2,0:2:0:0:
321,281,55272,53,2,0:2:0:0:
321,281,55621,2,0,L|318:301,1,14.0000001192093,2|0,0:3|0:2,0:2:0:0:
363,364,55969,53,2,0:2:0:0:
363,364,56493,2,0,L|408:359,1,35.0000002980232,2|0,0:3|0:2,0:2:0:0:
397,360,57190,2,0,L|370:357,1,26.2500012248755,2|0,0:3|0:2,0:2:0:0:
370,357,57888,2,0,L|396:354,1,17.5000001490116,2|0,0:3|0:2,0:2:0:0:
472,282,58760,53,2,0:2:0:0:
472,282,59109,2,0,L|465:240,1,35.0000002980232,2|0,0:3|0:2,0:2:0:0:
399,210,59458,53,2,0:2:0:0:
399,210,59807,2,0,L|392:252,1,28.0000002384186,2|0,0:3|0:2,0:2:0:0:
328,268,60156,53,2,0:2:0:0:
328,268,60505,2,0,L|323:238,1,20.9999995379448,2|0,0:3|0:2,0:2:0:0:
258,218,60853,53,2,0:2:0:0:
258,218,61202,2,0,L|255:231,1,14.0000001192093,2|0,0:3|0:2,0:2:0:0:
212,289,61551,53,2,0:2:0:0:
212,289,62074,2,0,L|164:296,1,35.0000002980232,2|0,0:3|0:2,0:2:0:0:
177,294,62772,54,0,L|204:298,1,28.0000002384186,2|2,0:2|0:2,0:2:0:0:
256,192,64254,12,0,66435,0:0:0:0:
107,52,67132,69,6,3:2:0:0:
107,52,67481,2,2,P|72:67|30:70,1,70.0000005960464,2|8,0:2|0:2,0:1:0:0:
161,129,68004,2,2,P|192:114|227:110,1,70.0000005960464,2|0,0:2|0:2,0:1:0:0:
330,167,68528,1,2,0:1:0:0:
330,167,68702,2,2,L|317:243,1,70.0000005960464,0|2,3:2|3:2,0:1:0:0:
397,223,69225,2,2,L|436:215,1,35.0000002980232,8|0,0:2|0:2,0:1:0:0:
372,299,69574,2,2,L|333:307,1,35.0000002980232,2|0,0:2|3:2,0:1:0:0:
216,366,69923,53,4,3:1:0:0:
216,366,70097,2,0,P|215:327|195:255,1,105.000004899502,8|0,0:2|0:2,0:1:0:0:
155,161,70621,1,10,0:2:0:0:
155,161,70969,2,2,P|141:169|107:175,1,35.0000002980232,2|0,0:2|0:2,0:1:0:0:
117,101,71318,2,2,P|109:87|103:53,1,35.0000002980232,2|0,0:1|3:2,0:1:0:0:
182,70,71667,1,8,0:2:0:0:
182,70,71842,2,2,P|196:62|230:56,1,35.0000002980232,2|8,2:2|0:2,0:1:0:0:
310,45,72190,37,0,3:2:0:0:
310,45,72365,1,2,3:2:0:0:
310,45,72539,1,0,3:2:0:0:
270,118,72714,5,6,3:2:0:0:
270,118,73062,2,2,P|272:155|290:196,1,70.0000005960464,2|8,0:2|0:2,0:1:0:0:
439,165,73586,2,2,P|437:128|419:87,1,70.0000005960464,2|0,0:2|0:2,0:1:0:0:
371,226,74109,1,2,0:1:0:0:
371,226,74283,2,2,L|385:310,1,70.0000005960464,0|2,3:2|3:2,0:1:0:0:
384,368,74807,2,2,P|400:367|421:361,1,35.0000002980232,8|0,0:2|0:2,0:1:0:0:
491,304,75156,2,2,P|474:299|456:298,1,35.0000002980232,2|0,0:2|3:2,0:1:0:0:
341,227,75504,117,4,3:1:0:0:
341,227,75679,2,0,P|306:237|224:232,1,105.000004899502,8|0,0:2|3:2,0:2:0:0:
127,205,76202,1,8,0:2:0:0:
127,205,76551,2,2,P|114:236|112:248,1,35.0000002980232,2|0,0:2|0:2,0:1:0:0:
91,142,76900,2,2,P|67:165|60:176,1,35.0000002980232,2|0,0:1|3:2,0:1:0:0:
75,76,77249,1,8,0:2:0:0:
75,76,77423,2,2,P|44:89|34:96,1,35.0000002980232,2|8,0:2|0:2,0:1:0:0:
85,7,77772,101,0,3:2:0:0:
85,7,77859,1,0,3:2:0:0:
85,7,77946,2,0,P|51:7|39:10,1,35.0000002980232,8|8,0:2|0:2,0:0:0:0:
12,100,78295,5,6,3:2:0:0:
12,100,78644,2,2,P|13:137|27:178,1,70.0000005960464,2|8,0:2|0:2,0:1:0:0:
138,229,79167,2,2,P|137:266|123:307,1,70.0000005960464,2|0,0:2|0:2,0:1:0:0:
254,192,79691,1,2,2:1:0:0:
254,192,79865,2,2,P|278:182|328:182,1,70.0000005960464,0|2,3:2|3:2,2:1:0:0:
398,190,80388,2,2,L|404:148,1,35.0000002980232,8|0,2:2|2:2,2:1:0:0:
464,253,80737,2,2,L|468:218,1,35.0000002980232,2|0,2:2|2:2,2:1:0:0:
372,304,81086,53,4,3:1:0:0:
372,304,81260,2,0,P|341:286|253:282,1,105.000004899502,8|0,0:2|0:2,0:2:0:0:
175,305,81784,1,8,0:2:0:0:
175,305,82132,2,2,P|175:331|170:353,1,35.0000002980232,2|0,0:2|0:2,0:1:0:0:
100,369,82481,2,0,P|100:343|105:321,1,35.0000002980232,2|0,0:1|3:2,0:2:0:0:
248,350,82830,1,8,0:2:0:0:
248,350,83004,2,2,P|248:376|243:398,1,35.0000002980232,2|8,0:2|0:2,0:1:0:0:
182,312,83353,37,0,3:2:0:0:
182,312,83528,1,0,3:2:0:0:
182,312,83702,1,0,3:2:0:0:
273,269,83877,5,6,3:2:0:0:
273,269,84225,2,2,P|233:258|205:238,1,70.0000005960464,2|8,0:2|0:2,0:1:0:0:
363,345,84749,2,2,P|402:355|430:375,1,70.0000005960464,2|0,0:2|0:2,0:1:0:0:
364,252,85272,1,2,0:1:0:0:
364,252,85446,2,2,P|389:219|400:187,1,70.0000005960464,0|2,3:2|3:2,0:1:0:0:
438,132,85969,2,2,L|480:125,1,35.0000002980232,8|0,0:2|0:2,0:1:0:0:
389,52,86318,2,2,L|431:59,1,35.0000002980232,2|0,0:2|3:2,0:1:0:0:
312,128,86667,53,4,3:1:0:0:
312,128,86842,2,0,P|302:86|269:18,1,105.000004899502,8|0,0:2|3:2,0:2:0:0:
173,6,87365,1,8,0:2:0:0:
173,6,87714,2,2,L|165:50,1,35.0000002980232,2|0,0:2|0:2,0:1:0:0:
97,72,88062,2,0,L|90:37,1,35.0000002980232,2|0,0:1|3:2,0:2:0:0:
233,77,88412,1,8,0:2:0:0:
233,77,88586,2,2,L|211:104,2,35.0000002980232,2|8|2,0:2|0:2|3:2,0:1:0:0:
233,77,89458,6,0,P|253:124|305:154,1,105.000004899502,6|0,3:2|0:2,0:2:0:0:
355,219,89981,2,0,P|333:224|313:233,1,43.750000372529,2|8,0:2|0:2,0:2:0:0:
372,143,90330,2,0,P|377:121|387:102,1,43.750000372529,2|0,0:2|0:2,0:2:0:0:
433,198,90679,1,2,0:2:0:0:
433,198,90853,2,0,P|461:211|497:270,1,87.500000745058,2|2,0:1|0:2,0:2:0:0:
512,350,91376,2,0,P|485:333|457:328,1,43.750000372529,2|8,0:2|0:2,0:2:0:0:
421,274,91725,2,0,P|406:305|344:325,1,87.500000745058,2|2,0:2|0:3,0:2:0:0:
243,383,92249,54,0,P|239:326|224:275,1,105.000004899502,6|0,3:2|0:2,0:2:0:0:
211,193,92772,2,0,P|192:210|167:224,1,43.750000372529,2|8,0:2|0:2,0:2:0:0:
278,230,93121,2,0,P|296:241|312:256,1,43.750000372529,2|0,0:2|0:2,0:2:0:0:
272,153,93469,1,2,0:2:0:0:
272,153,93644,2,0,P|291:98|294:59,1,87.500000745058,2|2,0:1|0:2,0:2:0:0:
203,4,94167,2,0,P|224:42|225:49,1,43.750000372529,2|8,2:2|0:2,0:2:0:0:
178,110,94516,1,2,3:3:0:0:
178,110,94603,1,2,0:3:0:0:
178,110,94690,2,0,P|157:72|156:65,1,43.750000372529,2|2,0:3|0:3,0:2:0:0:
8,25,95039,54,0,P|48:71|49:122,1,105.000004899502,6|0,3:2|0:2,0:2:0:0:
0,212,95562,2,0,P|17:199|35:186,1,43.750000372529,2|8,0:2|0:2,0:2:0:0:
106,281,95911,2,0,P|89:268|71:255,1,43.750000372529,2|0,0:2|0:2,0:2:0:0:
112,189,96260,1,2,0:2:0:0:
112,189,96435,2,0,P|137:180|205:125,1,87.500000745058,2|2,0:1|0:2,0:2:0:0:
276,104,96958,2,0,P|269:117|257:154,1,43.750000372529,2|8,0:2|0:2,0:2:0:0:
409,193,97307,2,0,P|374:167|334:150,1,87.500000745058,2|2,0:2|0:3,0:2:0:0:
224,217,97830,54,0,P|231:246|248:326,1,105.000004899502,6|0,3:2|0:2,0:2:0:0:
357,380,98353,2,0,P|337:372|316:365,1,43.750000372529,2|8,0:2|0:2,0:2:0:0:
320,284,98702,1,2,0:3:0:0:
320,284,98789,1,2,0:3:0:0:
320,284,98876,2,0,P|341:278|361:269,1,43.750000372529,2|2,0:3|0:3,0:2:0:0:
451,234,99225,2,0,P|467:249|508:265,1,43.750000372529,2|0,0:1|3:2,0:2:0:0:
435,144,99574,2,0,P|467:132|488:114,1,43.750000372529,10|2,0:2|0:3,0:2:0:0:
349,182,99923,2,0,P|341:155|326:129,1,43.750000372529,10|2,0:2|3:3,0:2:0:0:
326,132,100185,1,2,0:3:0:0:
318,123,100272,2,0,P|297:113|270:109,1,43.750000372529,2|2,0:3|3:3,0:2:0:0:
153,19,100621,70,0,P|107:46|24:52,1,122.500002211332,6|0,3:2|0:2,0:2:0:0:
0,149,101144,2,2,P|21:136|48:128,1,52.500002449751,2|0,0:2|0:2,0:1:0:0:
107,220,101493,2,2,P|85:207|58:199,1,52.500002449751,2|0,0:2|0:2,0:1:0:0:
124,142,101842,1,2,0:2:0:0:
124,142,102016,2,2,P|174:129|219:102,1,105.000004899502,2|2,0:1|0:2,0:1:0:0:
305,85,102539,2,2,P|292:58|285:18,1,52.500002449751,2|8,0:2|0:2,0:1:0:0:
374,116,102888,2,2,P|308:133|291:169,1,105.000004899502,2|2,0:2|0:3,0:1:0:0:
264,273,103411,54,0,P|204:260|142:256,1,122.500002211332,6|0,3:2|0:2,0:2:0:0:
28,229,103935,2,2,P|53:225|78:216,1,52.500002449751,2|8,0:2|0:2,0:1:0:0:
84,300,104283,2,2,P|74:326|67:374,1,52.500002449751,2|0,0:2|0:2,0:1:0:0:
147,260,104632,1,2,0:2:0:0:
147,260,104807,2,2,P|125:198|133:143,1,105.000004899502,2|2,0:1|0:2,0:1:0:0:
179,104,105330,2,2,P|154:92|111:84,1,52.500002449751,2|0,0:2|0:2,0:1:0:0:
208,182,105679,1,2,3:3:0:0:
208,182,105766,1,2,0:3:0:0:
208,182,105853,2,0,P|233:175|256:163,1,52.500002449751,2|2,0:3|0:3,0:2:0:0:
395,96,106202,54,0,P|378:147|374:225,1,122.500002211332,6|0,3:2|0:2,0:2:0:0:
468,291,106725,2,2,P|443:280|418:274,1,52.500002449751,2|8,0:2|0:2,0:1:0:0:
370,368,107074,2,2,P|394:357|419:351,1,52.500002449751,2|0,0:2|0:2,0:1:0:0:
345,297,107423,1,2,0:2:0:0:
345,297,107597,2,0,P|308:269|233:263,1,105.000004899502,2|2,0:1|0:2,0:2:0:0:
184,301,108121,2,2,P|178:275|169:250,1,52.500002449751,2|8,0:2|0:2,0:1:0:0:
10,331,108469,2,2,P|61:323|103:293,1,105.000004899502,2|2,0:2|0:3,0:1:0:0:
203,161,108993,54,0,P|184:128|179:81,1,61.2500011056661,6|8,3:2|0:2,0:2:0:0:
173,32,109342,1,2,0:2:0:0:
173,32,109516,2,2,P|155:32|103:67,1,52.500002449751,2|8,0:2|0:2,0:1:0:0:
258,104,109865,1,2,0:3:0:0:
258,104,109952,1,2,0:3:0:0:
258,104,110039,2,0,P|281:114|325:113,1,52.500002449751,2|8,3:3|0:2,0:2:0:0:
203,161,110388,2,2,P|176:163|152:173,1,52.500002449751,2|0,0:1|3:2,0:1:0:0:
84,232,110737,69,10,0:2:0:0:
84,232,110824,1,2,0:3:0:0:
84,232,110911,1,2,2:3:0:0:
84,232,110999,1,2,0:3:0:0:
84,232,111086,2,0,L|78:267,3,26.2500012248755,10|2|2|2,0:2|0:3|3:3|0:3,0:0:0:0:
92,283,111435,2,0,L|86:318,3,26.2500012248755,10|2|2|2,0:2|0:3|3:3|0:3,0:0:0:0:
100,334,111783,5,6,3:2:0:0:
100,334,112132,2,2,P|147:317|180:321,1,70.0000005960464,2|8,0:2|0:2,0:1:0:0:
304,357,112656,2,2,P|257:374|224:370,1,70.0000005960464,2|0,0:2|0:2,0:1:0:0:
183,287,113179,1,2,0:1:0:0:
183,287,113353,2,2,P|200:241|204:207,1,70.0000005960464,0|2,3:2|3:2,0:1:0:0:
143,140,113876,2,2,P|158:147|175:151,1,35.0000002980232,8|0,0:2|0:2,0:1:0:0:
284,152,114225,2,2,P|266:155|251:163,1,35.0000002980232,2|0,0:2|3:2,0:1:0:0:
341,277,114574,53,4,3:1:0:0:
341,277,114749,2,0,P|413:304|457:295,1,105.000004899502,8|0,0:2|0:2,0:2:0:0:
512,226,115272,2,0,P|505:242|500:259,1,35.0000002980232,8|0,0:2|0:2,0:2:0:0:
396,202,115621,2,2,P|422:219|449:227,1,35.0000002980232,2|0,0:2|0:2,0:1:0:0:
512,128,115969,2,2,P|481:152|446:153,1,70.0000005960464,2|8,0:1|0:2,0:1:0:0:
382,129,116493,2,2,P|375:112|367:97,1,35.0000002980232,2|8,0:2|0:2,0:1:0:0:
300,47,116842,37,2,3:3:0:0:
300,47,116929,1,2,0:3:0:0:
300,47,117016,2,0,P|293:63|285:78,1,35.0000002980232,2|2,0:3|3:3,0:2:0:0:
194,140,117365,5,6,3:2:0:0:
194,140,117714,2,2,P|152:120|110:120,1,70.0000005960464,2|8,0:2|0:2,0:1:0:0:
58,214,118237,2,2,P|100:194|142:194,1,70.0000005960464,2|0,0:2|0:2,0:1:0:0:
195,269,118760,1,2,0:1:0:0:
195,269,118935,2,2,P|183:315|182:356,1,70.0000005960464,0|2,3:2|3:2,0:1:0:0:
118,375,119458,2,2,P|101:370|85:362,1,35.0000002980232,8|0,0:2|0:2,0:1:0:0:
181,337,119807,2,2,P|196:329|213:324,1,35.0000002980232,2|0,0:2|0:2,0:1:0:0:
336,279,120156,53,4,3:1:0:0:
336,279,120330,2,0,P|386:313|445:316,1,105.000004899502,8|0,2:2|3:2,2:2:0:0:
512,335,120853,2,0,P|502:317|493:290,1,35.0000002980232,8|2,0:2|0:3,0:2:0:0:
494,295,121115,1,2,0:3:0:0:
493,286,121202,2,2,P|499:269|508:254,1,35.0000002980232,2|2,0:2|0:3,0:1:0:0:
424,193,121551,2,2,P|432:208|438:224,1,35.0000002980232,2|0,2:1|3:2,0:1:0:0:
494,165,121900,2,2,P|502:149|508:133,1,35.0000002980232,10|2,0:2|0:3,0:1:0:0:
465,48,122249,37,10,0:2:0:0:
402,94,122423,1,2,3:3:0:0:
402,94,122510,1,2,0:3:0:0:
402,93,122597,2,0,P|385:100|368:100,1,35.0000002980232,8|8,0:2|0:2,0:0:0:0:
284,40,122946,5,6,3:2:0:0:
284,40,123295,2,2,P|284:66|264:122,1,70.0000005960464,2|8,0:2|0:2,0:1:0:0:
124,98,123818,2,2,P|124:72|144:16,1,70.0000005960464,2|0,0:2|0:2,0:1:0:0:
200,159,124342,1,2,2:1:0:0:
200,159,124516,2,2,P|200:185|180:241,1,70.0000005960464,0|2,3:2|3:2,0:1:0:0:
97,284,125039,2,2,P|113:278|130:276,1,35.0000002980232,8|0,0:2|0:2,0:1:0:0:
149,347,125388,2,2,P|132:352|115:354,1,35.0000002980232,2|0,0:2|3:2,0:1:0:0:
206,250,125737,53,4,3:1:0:0:
206,250,125911,2,0,P|229:266|312:271,1,105.000004899502,8|0,0:2|0:2,0:2:0:0:
389,300,126435,2,0,P|375:310|364:324,1,35.0000002980232,8|0,0:2|0:2,0:2:0:0:
337,206,126783,2,2,P|352:221|378:235,1,35.0000002980232,2|0,0:2|0:2,0:1:0:0:
481,189,127132,2,2,P|455:214|438:244,1,70.0000005960464,2|8,0:1|0:2,0:1:0:0:
390,129,127656,2,2,P|397:149|412:174,1,35.0000002980232,2|8,0:2|0:2,0:1:0:0:
477,119,128004,37,2,3:3:0:0:
477,119,128092,1,2,0:3:0:0:
477,119,128179,2,0,P|484:103|490:86,1,35.0000002980232,2|2,3:3|3:3,0:2:0:0:
394,16,128528,5,6,3:2:0:0:
394,16,128876,2,2,P|356:42|305:38,1,70.0000005960464,2|8,0:2|0:2,0:1:0:0:
251,156,129400,2,2,P|289:130|340:134,1,70.0000005960464,2|0,0:2|0:2,0:1:0:0:
403,174,129923,1,2,0:1:0:0:
403,174,130097,2,2,P|409:207|443:246,1,70.0000005960464,0|2,3:2|3:2,0:1:0:0:
512,311,130621,2,2,P|495:300|470:289,1,35.0000002980232,8|0,0:2|0:2,0:1:0:0:
449,359,130969,2,0,P|466:370|491:381,1,35.0000002980232,2|0,0:3|3:2,0:1:0:0:
407,255,131318,53,4,3:1:0:0:
406,255,131493,2,0,P|360:278|308:279,1,105.000004899502,8|0,0:2|3:2,0:2:0:0:
239,316,132016,2,0,P|234:291|224:264,1,35.0000002980232,8|0,0:2|0:2,0:2:0:0:
161,327,132365,2,2,P|166:352|176:379,1,35.0000002980232,2|0,0:2|0:2,0:1:0:0:
104,263,132714,53,2,3:1:0:0:
104,263,132888,1,0,3:2:0:0:
29,283,133062,85,10,0:2:0:0:
29,283,133237,1,0,3:2:0:0:
45,208,133411,5,10,0:2:0:0:
45,208,133586,2,2,P|39:168|20:112,1,78.7500036746264,0|2,3:2|0:2,0:2:0:0:
