osu file format v14

[General]
AudioFilename: audio.mp3
AudioLeadIn: 0
PreviewTime: 67089
Countdown: 0
SampleSet: Soft
StackLeniency: 0.7
Mode: 0
LetterboxInBreaks: 0
WidescreenStoryboard: 1

[Editor]
Bookmarks: 11318,22481,44807,67132,78295,89458,100621,111783,122946,134109
DistanceSpacing: 1.05
BeatDivisor: 4
GridSize: 16
TimelineZoom: 1.4

[Metadata]
Title:Closer (Cut Ver.)
TitleUnicode:Closer (Cut Ver.)
Artist:Voicians
ArtistUnicode:Voicians
Creator:Lasse
Version:Easy
Source:
Tags:english rock electronic Monthly Beatmapping Contest 2020 February mbc featured artist mappers' guild mpg fa wasteland
BeatmapID:4287393
BeatmapSetID:1120892

[Difficulty]
HPDrainRate:2
CircleSize:3
OverallDifficulty:4
ApproachRate:4.6
SliderMultiplier:0.82000000596046
SliderTickRate:1

[Events]
//Background and Video events
0,0,"a.jpg",0,0
//Break Periods
2,45007,62919
//Storyboard Layer 0 (Background)
//Storyboard Layer 1 (Fail)
//Storyboard Layer 2 (Pass)
//Storyboard Layer 3 (Foreground)
//Storyboard Layer 4 (Overlay)
//Storyboard Sound Samples

[TimingPoints]
156,697.674418604652,4,2,1,30,1,0
156,-50,4,2,1,30,0,0
5737,-50,4,2,1,20,0,0
5824,-50,4,2,1,40,0,0
10097,-50,4,2,1,50,0,0
10621,-50,4,2,1,55,0,0
10969,-50,4,2,1,60,0,0
11144,-50,4,2,1,5,0,0
11318,-50,4,2,1,70,0,0
22481,-55.5555555555555,4,2,1,60,0,0
33644,-55.5555555555555,4,2,1,60,0,0
35039,-55.5555555555555,4,2,1,60,0,0
39225,-55.5555555555555,4,2,1,64,0,0
40621,-55.5555555555555,4,2,1,60,0,0
44807,-55.5555555555556,4,2,1,46,0,0
45330,-55.5555555555556,4,2,1,44,0,0
46028,-55.5555555555556,4,2,1,42,0,0
46725,-55.5555555555556,4,2,1,40,0,0
47597,-55.5555555555556,4,2,1,46,0,0
48295,-55.5555555555556,4,2,1,44,0,0
48993,-55.5555555555556,4,2,1,42,0,0
49690,-55.5555555555556,4,2,1,40,0,0
50388,-55.5555555555556,4,2,1,46,0,0
50911,-55.5555555555556,4,2,1,44,0,0
51609,-55.5555555555556,4,2,1,42,0,0
52307,-55.5555555555556,4,2,1,40,0,0
53179,-55.5555555555556,4,2,1,46,0,0
53876,-55.5555555555556,4,2,1,44,0,0
54574,-55.5555555555556,4,2,1,42,0,0
55272,-55.5555555555556,4,2,1,40,0,0
55969,-55.5555555555556,4,2,1,46,0,0
56493,-55.5555555555556,4,2,1,44,0,0
57190,-55.5555555555556,4,2,1,42,0,0
57888,-55.5555555555556,4,2,1,40,0,0
58760,-55.5555555555556,4,2,1,46,0,0
59458,-55.5555555555556,4,2,1,44,0,0
60156,-55.5555555555556,4,2,1,42,0,0
60853,-55.5555555555556,4,2,1,40,0,0
61551,-55.5555555555556,4,2,1,44,0,0
62074,-55.5555555555556,4,2,1,42,0,0
62772,-55.5555555555556,4,2,1,40,0,0
62946,-55.5555555555556,4,2,1,5,0,0
63818,-55.5555555555556,4,2,1,5,0,0
64167,-55.5555555555556,4,2,1,40,0,0
65039,-55.5555555555556,4,2,1,50,0,0
65737,-55.5555555555556,4,2,1,60,0,0
66435,-55.5555555555556,4,2,1,70,0,0
66958,-55.5555555555556,4,2,1,5,0,0
67132,-50,4,2,1,75,0,0
67481,-50,4,2,1,75,0,0
69923,-50,4,2,1,75,0,0
70446,-50,4,2,1,75,0,0
72714,-50,4,2,1,75,0,0
73062,-50,4,2,1,75,0,0
75504,-50,4,2,1,75,0,0
76028,-50,4,2,1,75,0,0
78295,-50,4,2,1,75,0,0
78644,-50,4,2,1,75,0,0
81086,-50,4,2,1,75,0,0
81609,-50,4,2,1,75,0,0
83876,-50,4,2,1,75,0,0
84225,-50,4,2,1,75,0,0
86667,-50,4,2,1,75,0,0
87190,-50,4,2,1,75,0,0
88935,-50,4,2,1,70,0,0
89283,-50,4,2,1,60,0,0
89458,-50,4,2,1,70,0,0
89981,-50,4,2,1,70,0,0
92249,-50,4,2,1,70,0,0
92772,-50,4,2,1,70,0,0
95039,-50,4,2,1,70,0,0
95562,-50,4,2,1,70,0,0
97830,-50,4,2,1,70,0,0
98353,-50,4,2,1,70,0,0
100621,-50,4,2,1,72,0,0
101144,-50,4,2,1,72,0,0
103411,-50,4,2,1,72,0,0
103935,-50,4,2,1,72,0,0
106202,-50,4,2,1,72,0,0
106725,-50,4,2,1,72,0,0
108993,-50,4,2,1,72,0,0
109516,-50,4,2,1,72,0,0
111783,-50,4,2,1,75,0,0
112132,-50,4,2,1,75,0,0
114574,-50,4,2,1,75,0,0
115097,-50,4,2,1,75,0,0
117365,-50,4,2,1,75,0,0
117714,-50,4,2,1,75,0,0
120156,-50,4,2,1,75,0,0
120679,-50,4,2,1,75,0,0
122946,-50,4,2,1,75,0,0
123295,-50,4,2,1,75,0,0
125737,-50,4,2,1,75,0,0
126260,-50,4,2,1,75,0,0
128528,-50,4,2,1,75,0,0
128876,-50,4,2,1,75,0,0
131318,-50,4,2,1,75,0,0
131842,-50,4,2,1,75,0,0
133411,-50,4,2,1,75,0,0
133586,-50,4,2,1,70,0,0
133760,-50,4,2,99,5,0,0
134109,-50,4,2,99,44,0,0

[Colours]
Combo1 : 175,205,255
Combo2 : 134,168,215
Combo3 : 210,210,210
Combo4 : 110,200,240
Combo5 : 160,190,255
Combo6 : 135,210,235
Combo7 : 160,160,160
Combo8 : 90,170,210

[HitObjects]
256,192,156,12,0,5737,0:2:0:0:
256,192,5824,12,0,9923,0:0:0:0:
248,40,11318,6,0,P|160:28|82:69,1,164.000001192092,6|8,3:2|0:2,0:2:0:0:
30,171,12539,1,2,3:2:0:0:
15,255,12888,1,2,3:2:0:0:
65,324,13237,2,0,P|120:325|192:294,1,123.000000894069,2|2,3:2|2:2,0:0:0:0:
252,250,14109,2,0,P|248:168|279:78,1,164.000001192092,2|8,3:1|0:2,0:0:0:0:
389,35,15330,2,0,P|443:46|479:127,1,123.000000894069,2|10,3:2|0:2,0:2:0:0:
476,185,16202,1,10,0:2:0:0:
423,349,16900,54,0,P|358:327|251:330,1,164.000001192092,6|8,3:2|0:2,0:2:0:0:
142,372,18121,1,2,3:2:0:0:
71,322,18470,1,2,3:2:0:0:
6,265,18818,2,0,P|9:194|46:125,1,123.000000894069,2|2,3:2|0:2,0:0:0:0:
98,95,19690,2,0,P|150:125|260:109,1,164.000001192092,2|8,3:2|0:2,0:0:0:0:
368,62,20912,2,0,P|346:115|340:208,1,123.000000894069,2|8,3:2|0:2,0:2:0:0:
345,265,21784,1,8,0:2:0:0:
492,333,22481,38,0,L|507:165,1,147.599996568488,6|8,3:2|0:2,2:2:0:0:
394,76,23876,2,0,L|379:244,1,147.599996568488,2|8,0:2|0:2,0:0:0:0:
341,332,25097,1,0,3:2:0:0:
267,357,25446,1,8,0:2:0:0:
208,305,25795,2,0,L|217:194,1,110.699997426366,0|2,3:2|0:3,0:0:0:0:
179,125,26667,2,0,P|136:129|89:116,1,73.7999982842442,2|8,2:2|0:2,0:0:0:0:
46,73,27365,1,8,0:2:0:0:
193,25,28062,54,0,P|273:46|355:39,1,147.599996568488,4|8,3:1|0:2,0:2:0:0:
458,139,29457,2,0,P|470:212|445:300,1,147.599996568488,2|10,0:2|0:2,0:0:0:0:
376,369,30678,1,0,3:2:0:0:
305,332,31028,1,8,0:2:0:0:
232,361,31376,2,0,P|174:361|117:345,1,110.699997426366,2|2,3:2|0:3,0:0:0:0:
63,295,32249,2,0,P|72:255|71:204,1,73.7999982842442,2|10,0:0|0:2,0:0:0:0:
25,158,32946,1,8,0:2:0:0:
136,50,33644,54,0,L|285:59,1,147.599996568488,6|8,3:2|0:2,0:2:0:0:
332,205,35039,2,0,L|184:196,1,147.599996568488,2|8,0:2|0:2,0:0:0:0:
69,225,36260,1,0,3:2:0:0:
35,296,36609,1,8,0:2:0:0:
77,362,36958,2,0,L|187:368,1,110.699997426366,0|2,3:2|0:3,0:0:0:0:
268,381,37830,2,0,L|279:294,1,73.7999982842442,2|10,0:0|0:2,0:0:0:0:
339,254,38527,1,8,0:2:0:0:
191,200,39225,54,0,L|187:39,1,147.599996568488,6|8,3:2|0:2,0:2:0:0:
343,38,40621,2,0,L|346:185,1,147.599996568488,2|8,0:2|0:2,0:0:0:0:
341,304,41841,1,0,3:2:0:0:
416,330,42190,1,8,0:2:0:0:
483,287,42539,2,0,L|480:176,1,110.699997426366,2|2,3:2|0:3,0:0:0:0:
421,122,43412,2,0,P|388:115|345:120,1,73.7999982842442,2|10,0:0|0:2,0:0:0:0:
289,172,44109,1,10,0:2:0:0:
218,25,44807,85,2,0:2:0:0:
256,192,64167,12,0,65737,0:0:0:0:
10,129,67132,5,6,3:2:0:0:
27,214,67481,2,2,P|96:224|171:186,1,123.000000894069,2|2,0:2|0:2,0:1:0:0:
260,144,68528,1,2,0:1:0:0:
273,273,69051,1,2,3:2:0:0:
393,322,69574,1,2,0:2:0:0:
468,279,69923,2,0,P|477:220|455:104,1,164.000001192092,4|10,3:1|0:2,0:0:0:0:
408,47,70969,1,2,0:2:0:0:
321,43,71318,1,2,0:1:0:0:
257,102,71667,2,0,B|242:150|280:169|265:224,1,123.000000894069,8|0,0:2|3:2,0:0:0:0:
200,335,72714,53,6,3:2:0:0:
117,363,73063,2,2,P|49:356|13:299,1,123.000000894069,2|2,0:2|0:2,0:1:0:0:
0,189,74110,1,2,0:1:0:0:
114,126,74633,1,2,3:2:0:0:
218,204,75156,1,2,0:2:0:0:
284,148,75504,2,0,P|336:124|448:157,1,164.000001192092,4|8,3:1|0:2,0:0:0:0:
496,210,76551,1,2,0:2:0:0:
484,296,76900,1,2,0:1:0:0:
412,345,77249,2,0,P|355:354|288:287,1,123.000000894069,8|0,0:2|3:2,0:0:0:0:
246,203,78295,53,6,3:2:0:0:
326,170,78644,2,2,P|352:121|338:41,1,123.000000894069,2|2,0:2|0:2,0:1:0:0:
225,5,79691,1,2,2:1:0:0:
103,52,80214,1,2,3:2:0:0:
67,177,80737,1,2,2:2:0:0:
120,245,81086,2,0,P|178:258|275:226,1,164.000001192092,4|8,3:1|0:2,0:0:0:0:
351,184,82132,1,2,0:2:0:0:
420,236,82481,1,2,0:1:0:0:
492,188,82830,2,0,P|504:128|492:68,1,123.000000894069,8|0,0:2|3:2,0:0:0:0:
375,10,83877,53,6,3:2:0:0:
309,67,84225,2,2,P|243:94|188:72,1,123.000000894069,2|2,0:2|0:2,0:1:0:0:
75,29,85273,1,2,0:1:0:0:
15,144,85796,1,2,3:2:0:0:
67,263,86319,1,2,0:2:0:0:
153,260,86667,2,0,L|329:241,1,164.000001192092,4|8,3:1|0:2,0:0:0:0:
399,218,87714,1,2,0:2:0:0:
418,302,88063,1,2,0:1:0:0:
335,326,88411,2,0,L|194:341,1,123.000000894069,8|2,0:2|3:2,0:0:0:0:
87,375,89458,6,0,P|73:309|93:241,1,123.000000894069,6|2,3:2|0:2,0:2:0:0:
128,181,90330,1,2,0:2:0:0:
192,237,90679,2,0,P|270:265|357:244,1,164.000001192092,2|2,0:2|0:2,0:0:0:0:
422,205,91725,1,2,0:2:0:0:
419,75,92249,2,0,P|357:59|279:80,1,123.000000894069,6|2,3:2|0:2,0:2:0:0:
224,27,93121,1,2,0:2:0:0:
149,69,93469,2,0,L|135:244,1,164.000001192092,2|2,0:2|2:2,0:0:0:0:
87,304,94516,1,2,3:3:0:0:
198,368,95039,54,0,P|261:353|338:350,1,123.000000894069,6|2,3:2|0:2,0:2:0:0:
403,363,95911,1,2,0:2:0:0:
474,314,96260,2,0,P|486:254|463:153,1,164.000001192092,2|2,0:2|0:2,0:0:0:0:
407,89,97306,1,2,0:2:0:0:
319,183,97830,2,0,L|318:326,1,123.000000894069,6|2,3:2|0:2,0:2:0:0:
256,365,98702,1,2,0:3:0:0:
193,305,99051,2,0,L|193:183,1,123.000000894069,2|10,0:3|0:2,0:0:0:0:
256,124,99923,1,10,0:2:0:0:
108,34,100621,70,0,P|65:32|19:107,1,123.000000894069,6|2,3:2|0:2,0:2:0:0:
12,175,101493,1,2,0:2:0:0:
54,249,101842,2,0,L|223:243,1,164.000001192092,2|2,0:2|0:2,0:0:0:0:
293,201,102888,1,2,0:2:0:0:
326,326,103412,2,0,P|385:337|441:314,1,123.000000894069,6|2,3:2|0:2,0:2:0:0:
498,249,104284,1,2,0:2:0:0:
455,174,104632,2,0,P|394:151|285:193,1,164.000001192092,2|2,0:2|0:2,0:0:0:0:
239,237,105679,1,2,3:3:0:0:
116,195,106202,54,0,P|65:190|29:127,1,123.000000894069,6|2,3:2|0:2,0:2:0:0:
59,52,107074,1,2,0:2:0:0:
142,30,107423,2,0,P|195:36|319:74,1,164.000001192092,2|2,0:2|0:2,0:0:0:0:
384,44,108469,1,2,0:2:0:0:
464,145,108993,2,0,P|467:225|430:283,1,123.000000894069,6|2,3:2|0:2,0:2:0:0:
397,331,109865,1,2,0:3:0:0:
324,284,110214,2,0,L|313:157,1,123.000000894069,8|10,0:2|0:2,0:0:0:0:
268,88,111086,2,0,P|201:80|167:95,1,82.000000596046,10|10,0:2|0:2,0:0:0:0:
107,54,111783,85,6,3:2:0:0:
37,105,112132,2,2,P|10:176|32:247,1,123.000000894069,2|2,0:2|0:2,0:1:0:0:
96,324,113179,1,2,0:1:0:0:
226,322,113702,1,2,3:2:0:0:
349,362,114225,1,2,0:2:0:0:
428,325,114574,2,0,P|458:254|420:161,1,164.000001192092,4|8,3:1|0:2,0:0:0:0:
371,112,115620,1,2,0:2:0:0:
293,151,115969,1,2,0:1:0:0:
307,236,116318,2,0,P|259:268|190:262,1,123.000000894069,8|2,0:2|3:3,0:0:0:0:
83,198,117365,53,6,3:2:0:0:
74,111,117714,2,2,P|124:78|185:82,1,123.000000894069,2|2,0:2|0:2,0:1:0:0:
300,20,118761,1,2,0:1:0:0:
409,91,119284,1,2,3:2:0:0:
297,158,119807,1,2,0:2:0:0:
339,233,120156,2,0,P|332:302|233:339,1,164.000001192092,4|8,3:1|0:2,0:0:0:0:
172,373,121202,1,2,0:2:0:0:
90,343,121551,1,2,2:1:0:0:
36,274,121900,2,2,P|63:203|89:184,2,82.000000596046,10|10|8,0:2|0:2|0:2,0:1:0:0:
79,349,122946,53,6,3:2:0:0:
163,369,123295,2,2,P|227:355|294:357,1,123.000000894069,2|2,0:2|0:2,0:1:0:0:
412,379,124342,1,2,2:1:0:0:
494,278,124865,1,2,3:2:0:0:
376,222,125388,1,2,0:2:0:0:
438,161,125737,2,0,P|468:90|401:25,1,164.000001192092,4|8,3:1|0:2,0:0:0:0:
331,17,126783,1,2,0:2:0:0:
286,91,127132,1,2,0:1:0:0:
203,64,127481,2,0,P|174:55|93:65,2,82.000000596046,8|8|2,0:2|0:2|3:3,0:0:0:0:
279,108,128528,53,6,3:2:0:0:
246,187,128877,2,2,L|253:311,1,123.000000894069,2|2,0:2|0:2,0:1:0:0:
138,371,129924,1,2,0:1:0:0:
20,315,130446,2,0,B|20:274|17:236|41:161,1,123.000000894069,2|2,3:2|0:3,0:0:0:0:
93,132,131318,2,0,P|140:149|214:112,1,123.000000894069,4|0,3:1|3:2,0:0:0:0:
299,32,132365,1,2,0:2:0:0:
385,40,132714,1,2,3:1:0:0:
471,41,133062,2,0,P|476:76|465:171,2,123.000000894069,10|0|2,0:2|3:2|0:2,0:0:0:0:
