osu file format v14

[General]
AudioFilename: audio.mp3
AudioLeadIn: 0
PreviewTime: 52346
Countdown: 0
SampleSet: Normal
StackLeniency: 0.2
Mode: 1
LetterboxInBreaks: 0
WidescreenStoryboard: 1

[Editor]
DistanceSpacing: 1
BeatDivisor: 4
GridSize: 16
TimelineZoom: 2

[Metadata]
Title:Alive
TitleUnicode:Alive
Artist:Voicians
ArtistUnicode:Voicians
Creator:fieryrage
Version:inner oni
Source:osu!
Tags:fa featured artist mappers' guild part 1 english electronic metal rock
BeatmapID:2441943
BeatmapSetID:1127896

[Difficulty]
HPDrainRate:5.5
CircleSize:5
OverallDifficulty:6.5
ApproachRate:10
SliderMultiplier:2.79999990463257
SliderTickRate:1

[Events]
//Background and Video events
0,0,"i dont wanna be here anymore.jpg",0,0
//Break Periods
//Storyboard Layer 0 (Background)
//Storyboard Layer 1 (Fail)
//Storyboard Layer 2 (Pass)
//Storyboard Layer 3 (Foreground)
//Storyboard Layer 4 (Overlay)
//Storyboard Sound Samples

[TimingPoints]
224,652.173913043478,4,1,0,60,1,0
224,-125,4,1,0,60,0,0
10658,-111.111111111111,4,1,0,70,0,0
30876,-113.636363636364,4,1,0,70,0,0
30957,-114.942528735632,4,1,0,70,0,0
31039,-116.279069767442,4,1,0,70,0,0
31202,-119.047619047619,4,1,0,70,0,0
31365,-121.951219512195,4,1,0,70,0,0
31528,-125,4,1,0,60,0,0
52397,-100,4,1,0,80,0,1
82397,-100,4,1,0,80,0,1
82479,-100,4,1,0,80,0,1
82560,-100,4,1,0,80,0,1
82723,-100,4,1,0,80,0,1
82805,-100,4,1,0,80,0,1
82887,-100,4,1,0,80,0,1
83050,-100,4,1,0,80,0,1
83213,-100,4,1,0,80,0,1
83376,-100,4,1,0,80,0,1
83539,-100,4,1,0,80,0,1
83702,-100,4,1,0,70,0,0
104082,-102.564102564103,4,1,0,70,0,0
104245,-105.263157894737,4,1,0,70,0,0
104408,-108.108108108108,4,1,0,70,0,0
104571,-111.111111111111,4,1,0,70,0,0
123158,-125,4,1,0,70,0,0
123810,-123.456790123457,4,1,0,70,0,0
123973,-121.951219512195,4,1,0,70,0,0
124137,-120.481927710843,4,1,0,70,0,0
124300,-119.047619047619,4,1,0,70,0,0
124381,-117.647058823529,4,1,0,70,0,0
124463,-116.279069767442,4,1,0,70,0,0
124544,-114.942528735632,4,1,0,70,0,0
124626,-113.636363636364,4,1,0,70,0,0
124789,-112.359550561798,4,1,0,70,0,0
124870,-111.111111111111,4,1,0,70,0,0
124952,-109.89010989011,4,1,0,70,0,0
125033,-108.695652173913,4,1,0,70,0,0
125115,-107.52688172043,4,1,0,70,0,0
125196,-106.382978723404,4,1,0,70,0,0
125278,-105.263157894737,4,1,0,70,0,0
125359,-104.166666666667,4,1,0,70,0,0
125441,-100,4,1,0,80,0,1
154137,-102.040816326531,4,1,0,70,0,0
154300,-103.092783505155,4,1,0,70,0,0
154463,-104.166666666667,4,1,0,70,0,0
154626,-106.382978723404,4,1,0,70,0,0
154789,-108.695652173913,4,1,0,70,0,0
155115,-111.111111111111,4,1,0,70,0,0
155278,-113.636363636364,4,1,0,70,0,0
155441,-116.279069767442,4,1,0,70,0,0
155930,-119.047619047619,4,1,0,70,0,0
156093,-120.481927710843,4,1,0,70,0,0
156256,-121.951219512195,4,1,0,70,0,0
156419,-123.456790123457,4,1,0,70,0,0
156745,-125,4,1,0,60,0,0
175006,-121.951219512195,4,1,0,60,0,0
175332,-120.481927710843,4,1,0,60,0,0
175658,-119.047619047619,4,1,0,60,0,0
175984,-117.647058823529,4,1,0,60,0,0
176310,-116.279069767442,4,1,0,60,0,0
176637,-114.942528735632,4,1,0,60,0,0
176963,-113.636363636364,4,1,0,60,0,0
177289,-112.359550561798,4,1,0,60,0,0
177615,-111.111111111111,4,1,0,70,0,0
197506,-109.89010989011,4,1,0,70,0,0
197669,-108.695652173913,4,1,0,70,0,0
197751,-107.52688172043,4,1,0,70,0,0
197832,-106.382978723404,4,1,0,70,0,0
197995,-105.263157894737,4,1,0,70,0,0
198158,-104.166666666667,4,1,0,70,0,0
198240,-103.092783505155,4,1,0,70,0,0
198321,-102.040816326531,4,1,0,70,0,0
198484,-100,4,1,0,80,0,1
237615,-100,4,1,0,60,0,0
237941,-111.111111111111,4,1,0,60,0,0
240223,-111.111111111111,4,1,0,70,0,0
242343,-109.89010989011,4,1,0,70,0,0
242425,-108.695652173913,4,1,0,70,0,0
242506,-107.52688172043,4,1,0,70,0,0
242588,-106.382978723404,4,1,0,70,0,0
242669,-105.263157894737,4,1,0,70,0,0
242751,-104.166666666667,4,1,0,70,0,0
242832,-100,4,1,0,80,0,1
263702,-100,4,1,0,60,0,0
264028,-125,4,1,0,60,0,0
268919,-125,4,1,0,60,0,0
274137,-125,4,1,0,60,0,0
284734,-125,4,1,0,50,0,0
285876,-125,4,1,0,40,0,0
286528,-125,4,1,0,30,0,0
287180,-125,4,1,0,20,0,0
288484,-125,4,1,0,10,0,0
289789,-125,4,1,0,5,0,0

[Colours]
Combo1 : 61,107,133
Combo2 : 92,140,180
Combo3 : 138,138,138
Combo4 : 81,86,87

[HitObjects]
133,148,224,5,0,0:0:0:0:
133,148,550,1,0,0:0:0:0:
133,148,876,1,8,0:0:0:0:
272,137,2832,1,8,0:0:0:0:
168,148,5441,1,8,0:0:0:0:
168,148,5767,1,0,0:0:0:0:
119,212,6093,1,8,0:0:0:0:
219,88,7723,1,0,0:0:0:0:
219,88,8050,1,8,0:0:0:0:
126,154,8539,1,8,0:0:0:0:
179,158,8865,1,8,0:0:0:0:
179,158,9028,1,0,0:0:0:0:
179,158,9191,1,8,0:0:0:0:
179,158,9517,1,8,0:0:0:0:
179,158,9680,1,0,0:0:0:0:
179,158,10006,1,8,0:0:0:0:
217,64,10658,1,12,0:0:0:0:
332,203,10821,1,0,0:0:0:0:
204,144,10984,1,0,0:0:0:0:
291,118,11066,1,0,0:0:0:0:
126,56,11147,1,0,0:0:0:0:
117,146,11310,1,8,0:0:0:0:
363,108,11473,1,0,0:0:0:0:
117,146,11637,1,0,0:0:0:0:
193,45,11800,1,8,0:0:0:0:
117,146,11963,1,8,0:0:0:0:
246,92,12044,1,8,0:0:0:0:
226,140,12126,1,8,0:0:0:0:
117,146,12289,1,8,0:0:0:0:
270,228,12452,1,0,0:0:0:0:
387,171,12615,1,8,0:0:0:0:
307,162,12696,1,0,0:0:0:0:
71,104,12778,1,8,0:0:0:0:
171,27,12941,1,8,0:0:0:0:
212,77,13022,1,0,0:0:0:0:
71,104,13104,1,8,0:0:0:0:
271,66,13267,1,12,0:0:0:0:
306,190,13430,1,0,0:0:0:0:
179,129,13593,1,8,0:0:0:0:
184,194,13675,1,0,0:0:0:0:
251,133,13756,1,0,0:0:0:0:
251,133,13919,1,8,0:0:0:0:
212,46,14082,1,0,0:0:0:0:
225,217,14245,1,0,0:0:0:0:
225,217,14408,1,8,0:0:0:0:
225,217,14571,1,8,0:0:0:0:
134,106,14653,1,0,0:0:0:0:
225,217,14734,1,8,0:0:0:0:
225,217,14897,1,8,0:0:0:0:
298,158,15060,1,0,0:0:0:0:
298,158,15223,1,8,0:0:0:0:
79,155,15305,1,8,0:0:0:0:
79,155,15387,1,8,0:0:0:0:
125,71,15550,1,8,0:0:0:0:
137,132,15631,1,0,0:0:0:0:
205,87,15713,1,0,0:0:0:0:
200,177,15876,1,12,0:0:0:0:
394,172,16039,1,0,0:0:0:0:
303,125,16202,1,0,0:0:0:0:
241,132,16283,1,0,0:0:0:0:
303,125,16365,1,0,0:0:0:0:
303,125,16528,1,8,0:0:0:0:
83,78,16691,1,0,0:0:0:0:
305,191,16854,1,0,0:0:0:0:
195,15,17017,1,8,0:0:0:0:
188,89,17180,1,8,0:0:0:0:
161,95,17262,1,8,0:0:0:0:
305,191,17343,1,0,0:0:0:0:
305,191,17506,1,8,0:0:0:0:
305,191,17669,1,0,0:0:0:0:
305,191,17832,1,8,0:0:0:0:
269,101,17914,1,0,0:0:0:0:
76,100,17995,1,8,0:0:0:0:
82,99,18158,1,8,0:0:0:0:
176,226,18240,1,0,0:0:0:0:
76,100,18321,1,8,0:0:0:0:
200,112,18484,1,4,0:0:0:0:
200,112,18647,1,0,0:0:0:0:
200,112,18810,1,8,0:0:0:0:
116,72,18892,1,0,0:0:0:0:
136,192,18973,1,0,0:0:0:0:
136,192,19137,1,8,0:0:0:0:
200,40,19300,1,8,0:0:0:0:
74,144,19381,1,8,0:0:0:0:
304,184,19463,1,0,0:0:0:0:
304,184,19626,1,8,0:0:0:0:
304,184,19789,1,0,0:0:0:0:
351,98,19870,1,0,0:0:0:0:
304,184,19952,1,8,0:0:0:0:
289,79,20033,1,0,0:0:0:0:
304,184,20115,1,8,0:0:0:0:
186,166,20196,1,0,0:0:0:0:
108,140,20278,1,8,0:0:0:0:
216,120,20441,1,0,0:0:0:0:
216,120,20604,1,8,0:0:0:0:
185,60,20685,1,0,0:0:0:0:
216,120,20767,1,8,0:0:0:0:
198,50,20848,1,0,0:0:0:0:
216,120,20930,1,8,0:0:0:0:
228,232,21093,1,4,0:0:0:0:
317,191,21256,1,0,0:0:0:0:
228,232,21419,1,8,0:0:0:0:
96,152,21501,1,0,0:0:0:0:
108,68,21582,1,8,0:0:0:0:
96,152,21745,1,8,0:0:0:0:
386,123,21786,1,8,0:0:0:0:
206,4,21908,1,0,0:0:0:0:
200,64,22071,1,8,0:0:0:0:
200,145,22112,1,8,0:0:0:0:
200,64,22234,1,8,0:0:0:0:
200,64,22397,1,0,0:0:0:0:
200,64,22560,1,8,0:0:0:0:
102,136,22601,1,8,0:0:0:0:
200,64,22723,1,0,0:0:0:0:
200,64,22887,1,8,0:0:0:0:
182,144,22927,1,8,0:0:0:0:
200,64,23050,1,0,0:0:0:0:
288,128,23213,1,8,0:0:0:0:
288,128,23376,1,0,0:0:0:0:
288,128,23539,1,8,0:0:0:0:
144,116,23702,1,4,0:0:0:0:
179,191,23865,1,8,0:0:0:0:
245,33,23919,1,8,0:0:0:0:
360,180,23973,1,0,0:0:0:0:
168,37,24028,1,0,0:0:0:0:
360,180,24191,1,0,0:0:0:0:
360,180,24354,1,8,0:0:0:0:
238,198,24395,1,8,0:0:0:0:
96,70,24517,1,0,0:0:0:0:
232,84,24680,1,0,0:0:0:0:
232,84,24843,1,8,0:0:0:0:
168,171,24884,1,8,0:0:0:0:
232,84,25006,1,0,0:0:0:0:
220,76,25169,1,8,0:0:0:0:
339,130,25210,1,8,0:0:0:0:
220,76,25332,1,8,0:0:0:0:
220,76,25495,1,0,0:0:0:0:
220,76,25658,1,8,0:0:0:0:
416,56,25740,1,8,0:0:0:0:
416,56,25821,1,8,0:0:0:0:
416,56,25984,1,8,0:0:0:0:
416,56,26147,1,0,0:0:0:0:
120,120,26310,1,12,0:0:0:0:
327,176,26473,1,0,0:0:0:0:
120,120,26637,1,0,0:0:0:0:
198,106,26718,1,8,0:0:0:0:
240,180,26800,1,0,0:0:0:0:
240,180,26963,1,8,0:0:0:0:
261,63,27003,1,8,0:0:0:0:
120,67,27126,1,0,0:0:0:0:
240,180,27289,1,0,0:0:0:0:
240,180,27452,1,8,0:0:0:0:
288,127,27493,1,8,0:0:0:0:
240,180,27615,1,0,0:0:0:0:
240,180,27778,1,8,0:0:0:0:
214,22,27859,1,0,0:0:0:0:
240,180,27941,1,8,0:0:0:0:
240,180,28104,1,0,0:0:0:0:
240,180,28267,1,8,0:0:0:0:
195,32,28308,1,8,0:0:0:0:
128,104,28430,1,8,0:0:0:0:
128,104,28593,1,0,0:0:0:0:
128,104,28756,1,8,0:0:0:0:
128,104,28919,1,4,0:0:0:0:
328,152,29082,1,8,0:0:0:0:
130,206,29123,1,8,0:0:0:0:
328,152,29245,1,8,0:0:0:0:
196,144,29408,1,0,0:0:0:0:
196,144,29571,1,8,0:0:0:0:
245,238,29653,1,8,0:0:0:0:
196,144,29734,1,0,0:0:0:0:
152,48,29897,1,0,0:0:0:0:
225,23,29979,1,0,0:0:0:0:
32,120,30060,1,8,0:0:0:0:
32,120,30223,1,0,0:0:0:0:
80,168,30387,1,8,0:0:0:0:
80,168,30550,1,0,0:0:0:0:
234,102,30590,1,0,0:0:0:0:
80,168,30713,1,0,0:0:0:0:
80,168,30876,1,8,0:0:0:0:
324,108,30957,1,8,0:0:0:0:
324,108,31039,1,8,0:0:0:0:
256,176,31202,1,8,0:0:0:0:
256,176,31365,1,8,0:0:0:0:
368,200,31528,1,0,0:0:0:0:
128,76,31854,1,0,0:0:0:0:
240,248,32180,1,8,0:0:0:0:
133,213,32506,1,0,0:0:0:0:
16,96,32669,1,8,0:0:0:0:
217,163,32832,1,0,0:0:0:0:
128,124,32995,1,8,0:0:0:0:
108,212,33158,1,0,0:0:0:0:
108,212,33321,1,0,0:0:0:0:
294,149,33403,1,0,0:0:0:0:
208,24,33484,1,8,0:0:0:0:
297,48,33810,1,0,0:0:0:0:
188,64,33973,1,8,0:0:0:0:
245,227,34055,1,0,0:0:0:0:
268,120,34137,1,0,0:0:0:0:
268,120,34463,1,0,0:0:0:0:
308,184,34789,1,8,0:0:0:0:
194,47,34952,1,0,0:0:0:0:
228,29,35115,1,0,0:0:0:0:
156,108,35278,1,8,0:0:0:0:
397,142,35359,1,8,0:0:0:0:
228,29,35441,1,0,0:0:0:0:
248,140,35604,1,8,0:0:0:0:
48,120,35767,1,0,0:0:0:0:
48,120,35930,1,0,0:0:0:0:
182,31,36093,1,0,0:0:0:0:
120,120,36256,1,0,0:0:0:0:
248,140,36419,1,8,0:0:0:0:
180,40,36745,1,8,0:0:0:0:
120,88,37071,1,0,0:0:0:0:
96,156,37397,1,8,0:0:0:0:
276,112,37560,1,0,0:0:0:0:
252,43,37723,1,0,0:0:0:0:
276,112,37887,1,0,0:0:0:0:
276,200,37968,1,0,0:0:0:0:
252,43,38050,1,8,0:0:0:0:
192,128,38213,1,8,0:0:0:0:
112,240,38376,1,0,0:0:0:0:
112,240,38539,1,0,0:0:0:0:
92,96,38702,1,8,0:0:0:0:
228,28,39028,1,0,0:0:0:0:
224,88,39191,1,8,0:0:0:0:
328,169,39272,1,8,0:0:0:0:
244,184,39354,1,0,0:0:0:0:
244,184,39680,1,0,0:0:0:0:
224,88,40006,1,8,0:0:0:0:
128,128,40169,1,8,0:0:0:0:
311,98,40332,1,0,0:0:0:0:
128,128,40495,1,0,0:0:0:0:
311,98,40658,1,0,0:0:0:0:
224,88,40821,1,8,0:0:0:0:
236,180,40984,1,0,0:0:0:0:
236,180,41147,1,0,0:0:0:0:
116,61,41310,1,8,0:0:0:0:
299,159,41392,1,8,0:0:0:0:
124,144,41473,1,0,0:0:0:0:
308,167,41555,1,0,0:0:0:0:
224,88,41637,1,8,0:0:0:0:
100,72,41963,1,0,0:0:0:0:
92,120,42289,1,0,0:0:0:0:
88,120,42615,1,8,0:0:0:0:
260,92,42778,1,0,0:0:0:0:
275,49,42941,1,0,0:0:0:0:
200,144,43104,1,8,0:0:0:0:
327,161,43185,1,0,0:0:0:0:
275,49,43267,1,8,0:0:0:0:
88,120,43430,1,8,0:0:0:0:
176,200,43593,1,0,0:0:0:0:
176,200,43756,1,0,0:0:0:0:
126,22,43919,1,0,0:0:0:0:
193,60,44245,1,8,0:0:0:0:
88,120,44408,1,8,0:0:0:0:
334,218,44490,1,8,0:0:0:0:
284,148,44571,1,0,0:0:0:0:
284,148,44897,1,0,0:0:0:0:
204,120,45223,1,8,0:0:0:0:
232,56,45387,1,0,0:0:0:0:
159,23,45550,1,0,0:0:0:0:
144,40,45713,1,0,0:0:0:0:
326,174,45794,1,0,0:0:0:0:
220,10,45876,1,8,0:0:0:0:
204,120,46039,1,8,0:0:0:0:
72,120,46202,1,0,0:0:0:0:
72,120,46365,1,0,0:0:0:0:
143,54,46528,1,0,0:0:0:0:
72,120,46691,1,0,0:0:0:0:
204,120,46854,1,8,0:0:0:0:
344,128,47180,1,8,0:0:0:0:
344,128,47506,1,0,0:0:0:0:
216,176,47832,1,8,0:0:0:0:
344,128,47995,1,0,0:0:0:0:
246,71,48158,1,0,0:0:0:0:
344,128,48321,1,8,0:0:0:0:
327,167,48403,1,0,0:0:0:0:
246,71,48484,1,8,0:0:0:0:
140,96,48647,1,8,0:0:0:0:
224,100,48810,1,0,0:0:0:0:
224,100,48973,1,0,0:0:0:0:
212,188,49137,1,8,0:0:0:0:
224,100,49300,1,0,0:0:0:0:
112,233,49463,1,8,0:0:0:0:
209,21,49626,1,0,0:0:0:0:
326,175,49707,1,0,0:0:0:0:
160,84,49789,1,8,0:0:0:0:
160,84,50115,1,0,0:0:0:0:
106,209,50278,1,0,0:0:0:0:
216,100,50441,1,8,0:0:0:0:
106,209,50604,1,0,0:0:0:0:
77,115,50685,1,8,0:0:0:0:
126,57,50767,1,8,0:0:0:0:
216,180,50930,1,0,0:0:0:0:
189,239,51012,1,0,0:0:0:0:
133,50,51093,1,8,0:0:0:0:
319,106,51256,1,0,0:0:0:0:
183,90,51419,1,8,0:0:0:0:
88,127,51460,1,8,0:0:0:0:
183,90,51582,1,0,0:0:0:0:
77,115,51623,1,0,0:0:0:0:
230,78,51745,1,8,0:0:0:0:
116,92,52397,1,12,0:0:0:0:
229,49,52560,1,0,0:0:0:0:
351,263,52723,1,0,0:0:0:0:
185,154,52887,1,8,0:0:0:0:
316,137,52968,1,0,0:0:0:0:
167,224,53050,1,8,0:0:0:0:
251,212,53213,1,0,0:0:0:0:
96,83,53376,1,8,0:0:0:0:
227,92,53457,1,0,0:0:0:0:
251,212,53539,1,8,0:0:0:0:
177,21,53620,1,0,0:0:0:0:
366,184,53702,1,0,0:0:0:0:
315,147,53865,1,8,0:0:0:0:
333,62,53946,1,0,0:0:0:0:
247,77,54028,1,0,0:0:0:0:
96,161,54191,1,8,0:0:0:0:
203,169,54272,1,0,0:0:0:0:
202,117,54354,1,8,0:0:0:0:
96,161,54517,1,0,0:0:0:0:
128,42,54680,1,8,0:0:0:0:
300,238,54843,1,0,0:0:0:0:
200,57,54925,1,0,0:0:0:0:
300,238,55006,1,8,0:0:0:0:
324,71,55088,1,8,0:0:0:0:
300,238,55169,1,0,0:0:0:0:
172,181,55332,1,0,0:0:0:0:
232,135,55495,1,8,0:0:0:0:
66,113,55577,1,0,0:0:0:0:
228,62,55658,1,8,0:0:0:0:
232,135,55821,1,0,0:0:0:0:
117,80,55984,1,8,0:0:0:0:
135,35,56066,1,8,0:0:0:0:
232,135,56147,1,0,0:0:0:0:
232,135,56310,1,0,0:0:0:0:
232,135,56473,1,0,0:0:0:0:
183,201,56555,1,8,0:0:0:0:
91,144,56637,1,8,0:0:0:0:
171,48,56718,1,0,0:0:0:0:
91,144,56800,1,8,0:0:0:0:
232,135,56963,1,0,0:0:0:0:
61,104,57126,1,0,0:0:0:0:
83,226,57289,1,8,0:0:0:0:
213,16,57370,1,0,0:0:0:0:
204,119,57452,1,0,0:0:0:0:
176,170,57615,1,12,0:0:0:0:
176,170,57778,1,0,0:0:0:0:
255,90,57941,1,0,0:0:0:0:
125,141,58104,1,8,0:0:0:0:
321,74,58185,1,0,0:0:0:0:
329,132,58267,1,8,0:0:0:0:
125,141,58430,1,0,0:0:0:0:
129,20,58593,1,8,0:0:0:0:
222,171,58675,1,0,0:0:0:0:
125,141,58756,1,0,0:0:0:0:
207,69,58838,1,8,0:0:0:0:
125,141,58919,1,0,0:0:0:0:
125,141,59082,1,8,0:0:0:0:
239,226,59164,1,0,0:0:0:0:
291,147,59245,1,0,0:0:0:0:
206,163,59408,1,0,0:0:0:0:
304,72,59490,1,0,0:0:0:0:
247,81,59571,1,8,0:0:0:0:
206,163,59734,1,0,0:0:0:0:
154,65,59897,1,8,0:0:0:0:
245,209,60060,1,8,0:0:0:0:
203,24,60142,1,0,0:0:0:0:
245,209,60223,1,8,0:0:0:0:
245,209,60387,1,0,0:0:0:0:
298,119,60550,1,0,0:0:0:0:
271,204,60713,1,0,0:0:0:0:
163,15,60876,1,8,0:0:0:0:
271,204,61039,1,0,0:0:0:0:
254,66,61202,1,8,0:0:0:0:
146,151,61365,1,8,0:0:0:0:
195,79,61446,1,8,0:0:0:0:
146,151,61528,1,0,0:0:0:0:
146,151,61691,1,0,0:0:0:0:
57,62,61854,1,8,0:0:0:0:
201,13,61935,1,0,0:0:0:0:
57,62,62017,1,8,0:0:0:0:
146,151,62180,1,0,0:0:0:0:
146,151,62343,1,0,0:0:0:0:
172,73,62506,1,8,0:0:0:0:
172,73,62669,1,8,0:0:0:0:
160,18,62751,1,8,0:0:0:0:
146,151,62832,1,4,0:0:0:0:
238,38,62995,1,0,0:0:0:0:
358,135,63158,1,0,0:0:0:0:
291,193,63321,1,8,0:0:0:0:
173,206,63403,1,0,0:0:0:0:
244,101,63484,1,8,0:0:0:0:
291,193,63647,1,0,0:0:0:0:
110,52,63810,1,8,0:0:0:0:
104,163,63892,1,0,0:0:0:0:
180,100,63973,1,8,0:0:0:0:
180,100,64055,1,8,0:0:0:0:
331,194,64137,1,0,0:0:0:0:
331,194,64300,1,8,0:0:0:0:
168,239,64381,1,0,0:0:0:0:
266,125,64463,1,0,0:0:0:0:
305,186,64626,1,0,0:0:0:0:
219,174,64707,1,0,0:0:0:0:
158,79,64789,1,8,0:0:0:0:
305,186,64952,1,0,0:0:0:0:
213,38,65115,1,8,0:0:0:0:
304,186,65278,1,8,0:0:0:0:
221,149,65359,1,0,0:0:0:0:
305,186,65441,1,8,0:0:0:0:
124,147,65522,1,0,0:0:0:0:
305,186,65604,1,0,0:0:0:0:
279,111,65767,1,0,0:0:0:0:
305,186,65930,1,0,0:0:0:0:
195,170,66012,1,0,0:0:0:0:
196,21,66093,1,8,0:0:0:0:
304,186,66256,1,0,0:0:0:0:
126,121,66419,1,8,0:0:0:0:
131,224,66501,1,0,0:0:0:0:
305,186,66582,1,8,0:0:0:0:
229,79,66664,1,0,0:0:0:0:
233,170,66745,1,0,0:0:0:0:
233,170,66908,1,0,0:0:0:0:
226,250,66990,1,0,0:0:0:0:
151,109,67071,1,8,0:0:0:0:
151,109,67234,1,8,0:0:0:0:
233,170,67397,1,0,0:0:0:0:
233,170,67560,1,0,0:0:0:0:
88,130,67723,1,8,0:0:0:0:
232,32,67805,1,0,0:0:0:0:
154,120,67887,1,8,0:0:0:0:
154,120,68050,1,12,0:0:0:0:
205,119,68213,1,0,0:0:0:0:
281,113,68376,1,0,0:0:0:0:
205,119,68539,1,0,0:0:0:0:
421,106,68620,1,0,0:0:0:0:
239,54,68702,1,8,0:0:0:0:
205,119,68865,1,0,0:0:0:0:
127,124,69028,1,8,0:0:0:0:
128,220,69109,1,0,0:0:0:0:
205,119,69191,1,0,0:0:0:0:
287,112,69272,1,0,0:0:0:0:
205,119,69354,1,8,0:0:0:0:
205,119,69517,1,8,0:0:0:0:
211,217,69598,1,0,0:0:0:0:
363,106,69680,1,0,0:0:0:0:
205,119,69843,1,8,0:0:0:0:
304,169,69925,1,0,0:0:0:0:
106,64,70006,1,8,0:0:0:0:
205,119,70169,1,0,0:0:0:0:
183,37,70332,1,8,0:0:0:0:
179,156,70495,1,8,0:0:0:0:
240,50,70577,1,8,0:0:0:0:
179,156,70658,1,0,0:0:0:0:
179,156,70821,1,0,0:0:0:0:
267,97,70984,1,0,0:0:0:0:
163,30,71147,1,8,0:0:0:0:
267,97,71310,1,0,0:0:0:0:
180,61,71392,1,0,0:0:0:0:
267,97,71473,1,0,0:0:0:0:
30,163,71637,1,8,0:0:0:0:
267,97,71800,1,0,0:0:0:0:
256,91,71963,1,0,0:0:0:0:
117,72,72126,1,8,0:0:0:0:
187,100,72289,1,8,0:0:0:0:
242,174,72370,1,8,0:0:0:0:
187,100,72452,1,0,0:0:0:0:
85,154,72615,1,0,0:0:0:0:
146,235,72656,1,0,0:0:0:0:
85,154,72778,1,0,0:0:0:0:
53,239,72819,1,0,0:0:0:0:
85,154,72941,1,8,0:0:0:0:
264,247,72982,1,8,0:0:0:0:
85,154,73104,1,8,0:0:0:0:
264,247,73145,1,8,0:0:0:0:
187,100,73267,1,4,0:0:0:0:
294,163,73430,1,8,0:0:0:0:
294,163,73593,1,0,0:0:0:0:
223,172,73756,1,0,0:0:0:0:
294,163,73838,1,0,0:0:0:0:
284,106,73919,1,8,0:0:0:0:
223,172,74082,1,0,0:0:0:0:
223,172,74245,1,8,0:0:0:0:
198,39,74327,1,0,0:0:0:0:
104,159,74408,1,8,0:0:0:0:
223,172,74571,1,0,0:0:0:0:
377,124,74734,1,8,0:0:0:0:
167,111,74897,1,0,0:0:0:0:
223,172,75060,1,8,0:0:0:0:
329,207,75142,1,8,0:0:0:0:
168,55,75223,1,8,0:0:0:0:
223,172,75387,1,0,0:0:0:0:
108,181,75550,1,0,0:0:0:0:
211,103,75631,1,0,0:0:0:0:
101,67,75713,1,8,0:0:0:0:
223,172,75876,1,4,0:0:0:0:
256,65,76039,1,8,0:0:0:0:
256,65,76120,1,8,0:0:0:0:
256,65,76202,1,0,0:0:0:0:
350,195,76365,1,0,0:0:0:0:
139,139,76528,1,8,0:0:0:0:
350,195,76691,1,0,0:0:0:0:
350,195,76854,1,8,0:0:0:0:
242,205,76935,1,0,0:0:0:0:
205,68,77017,1,8,0:0:0:0:
350,195,77180,1,0,0:0:0:0:
350,195,77343,1,8,0:0:0:0:
194,161,77506,1,0,0:0:0:0:
350,195,77669,1,0,0:0:0:0:
222,228,77751,1,0,0:0:0:0:
220,125,77832,1,8,0:0:0:0:
350,195,77995,1,0,0:0:0:0:
180,33,78158,1,8,0:0:0:0:
174,35,78240,1,0,0:0:0:0:
180,33,78321,1,8,0:0:0:0:
350,195,78484,1,4,0:0:0:0:
127,99,78647,1,8,0:0:0:0:
234,168,78810,1,0,0:0:0:0:
350,195,78973,1,0,0:0:0:0:
163,188,79055,1,0,0:0:0:0:
219,83,79137,1,8,0:0:0:0:
350,195,79300,1,0,0:0:0:0:
350,195,79463,1,8,0:0:0:0:
210,35,79544,1,0,0:0:0:0:
146,131,79626,1,8,0:0:0:0:
350,195,79789,1,0,0:0:0:0:
350,195,79952,1,8,0:0:0:0:
258,146,80115,1,0,0:0:0:0:
350,195,80278,1,0,0:0:0:0:
212,211,80359,1,0,0:0:0:0:
243,115,80441,1,8,0:0:0:0:
350,195,80604,1,0,0:0:0:0:
350,195,80767,1,8,0:0:0:0:
74,90,80848,1,8,0:0:0:0:
152,111,80930,1,0,0:0:0:0:
350,195,81093,1,4,0:0:0:0:
82,115,81256,1,8,0:0:0:0:
323,186,81419,1,8,0:0:0:0:
323,186,81582,1,0,0:0:0:0:
263,53,81664,1,0,0:0:0:0:
201,136,81745,1,8,0:0:0:0:
323,186,81908,1,0,0:0:0:0:
323,186,82071,1,8,0:0:0:0:
186,73,82234,1,8,0:0:0:0:
105,159,82397,1,8,0:0:0:0:
192,10,82479,1,0,0:0:0:0:
105,159,82560,1,8,0:0:0:0:
105,159,82723,1,8,0:0:0:0:
106,32,82805,1,8,0:0:0:0:
105,159,82887,1,8,0:0:0:0:
270,197,83050,1,0,0:0:0:0:
399,192,83090,1,0,0:0:0:0:
208,197,83213,1,8,0:0:0:0:
425,50,83253,1,8,0:0:0:0:
215,83,83376,1,8,0:0:0:0:
322,125,83457,1,8,0:0:0:0:
215,83,83539,1,0,0:0:0:0:
208,197,83702,1,12,0:0:0:0:
69,91,84191,1,0,0:0:0:0:
146,172,84354,1,8,0:0:0:0:
197,32,84517,1,0,0:0:0:0:
321,85,84598,1,0,0:0:0:0:
327,167,84680,1,8,0:0:0:0:
247,162,84843,1,0,0:0:0:0:
105,267,85006,1,0,0:0:0:0:
247,162,85332,1,0,0:0:0:0:
428,114,85495,1,0,0:0:0:0:
420,77,85577,1,0,0:0:0:0:
178,90,85658,1,8,0:0:0:0:
306,106,85821,1,0,0:0:0:0:
306,106,85984,1,8,0:0:0:0:
306,106,86147,1,8,0:0:0:0:
247,60,86229,1,0,0:0:0:0:
313,126,86310,1,8,0:0:0:0:
110,141,86800,1,8,0:0:0:0:
453,101,86881,1,0,0:0:0:0:
137,54,86963,1,8,0:0:0:0:
166,251,87126,1,0,0:0:0:0:
221,88,87289,1,8,0:0:0:0:
221,88,87452,1,8,0:0:0:0:
294,61,87533,1,0,0:0:0:0:
221,88,87615,1,0,0:0:0:0:
221,88,87941,1,0,0:0:0:0:
221,88,88104,1,0,0:0:0:0:
376,112,88185,1,0,0:0:0:0:
125,74,88267,1,8,0:0:0:0:
308,65,88430,1,0,0:0:0:0:
275,141,88593,1,8,0:0:0:0:
275,141,88756,1,0,0:0:0:0:
308,65,88838,1,0,0:0:0:0:
328,176,88919,1,8,0:0:0:0:
328,176,89408,1,8,0:0:0:0:
421,198,89490,1,0,0:0:0:0:
164,80,89571,1,8,0:0:0:0:
154,259,89734,1,0,0:0:0:0:
400,100,89897,1,8,0:0:0:0:
400,100,90060,1,0,0:0:0:0:
185,180,90223,1,0,0:0:0:0:
295,75,90387,1,0,0:0:0:0:
248,102,90550,1,8,0:0:0:0:
248,102,90713,1,8,0:0:0:0:
350,117,90794,1,0,0:0:0:0:
190,18,90876,1,8,0:0:0:0:
235,166,91039,1,0,0:0:0:0:
235,166,91202,1,8,0:0:0:0:
235,166,91365,1,8,0:0:0:0:
272,152,91528,1,0,0:0:0:0:
272,152,92017,1,8,0:0:0:0:
344,167,92098,1,0,0:0:0:0:
222,39,92180,1,8,0:0:0:0:
235,71,92343,1,0,0:0:0:0:
222,162,92506,1,8,0:0:0:0:
222,162,92669,1,0,0:0:0:0:
108,88,92832,1,0,0:0:0:0:
409,74,92995,1,0,0:0:0:0:
332,141,93077,1,8,0:0:0:0:
332,141,93158,1,8,0:0:0:0:
332,141,93240,1,8,0:0:0:0:
332,141,93321,1,8,0:0:0:0:
332,141,93403,1,8,0:0:0:0:
332,141,93484,1,0,0:0:0:0:
332,141,93566,1,0,0:0:0:0:
332,141,93647,1,0,0:0:0:0:
332,141,93729,1,0,0:0:0:0:
222,162,93810,1,8,0:0:0:0:
235,104,93892,1,8,0:0:0:0:
235,104,93973,1,0,0:0:0:0:
235,104,94055,1,0,0:0:0:0:
235,104,94137,1,12,0:0:0:0:
87,50,94626,1,0,0:0:0:0:
121,142,94789,1,8,0:0:0:0:
157,194,94952,1,0,0:0:0:0:
383,90,95033,1,0,0:0:0:0:
315,136,95115,1,8,0:0:0:0:
250,200,95278,1,0,0:0:0:0:
114,306,95441,1,0,0:0:0:0:
376,164,95604,1,8,0:0:0:0:
250,200,95767,1,0,0:0:0:0:
250,200,95930,1,0,0:0:0:0:
244,222,96012,1,0,0:0:0:0:
157,55,96093,1,8,0:0:0:0:
248,209,96256,1,0,0:0:0:0:
248,209,96419,1,8,0:0:0:0:
248,209,96582,1,8,0:0:0:0:
248,209,96745,1,4,0:0:0:0:
240,197,97071,1,0,0:0:0:0:
317,240,97234,1,8,0:0:0:0:
355,186,97316,1,0,0:0:0:0:
239,55,97397,1,8,0:0:0:0:
169,147,97560,1,0,0:0:0:0:
386,214,97723,1,8,0:0:0:0:
386,214,97887,1,0,0:0:0:0:
386,214,98050,1,0,0:0:0:0:
94,225,98213,1,8,0:0:0:0:
386,214,98376,1,0,0:0:0:0:
386,214,98539,1,8,0:0:0:0:
250,103,98620,1,0,0:0:0:0:
149,44,98702,1,8,0:0:0:0:
212,183,98865,1,0,0:0:0:0:
212,183,99028,1,8,0:0:0:0:
212,183,99191,1,0,0:0:0:0:
170,108,99272,1,0,0:0:0:0:
212,183,99354,1,12,0:0:0:0:
174,231,99680,1,8,0:0:0:0:
249,195,99843,1,8,0:0:0:0:
270,172,99925,1,0,0:0:0:0:
239,53,100006,1,8,0:0:0:0:
85,233,100169,1,0,0:0:0:0:
299,119,100332,1,8,0:0:0:0:
299,119,100495,1,0,0:0:0:0:
185,120,100658,1,0,0:0:0:0:
126,115,100821,1,8,0:0:0:0:
299,119,100984,1,8,0:0:0:0:
299,119,101147,1,0,0:0:0:0:
312,192,101229,1,0,0:0:0:0:
118,56,101310,1,8,0:0:0:0:
179,168,101473,1,0,0:0:0:0:
179,168,101637,1,8,0:0:0:0:
179,168,101800,1,8,0:0:0:0:
202,114,101881,1,0,0:0:0:0:
179,168,101963,1,12,0:0:0:0:
114,83,102289,1,0,0:0:0:0:
252,166,102452,1,0,0:0:0:0:
168,28,102533,1,0,0:0:0:0:
213,58,102615,1,8,0:0:0:0:
155,245,102778,1,0,0:0:0:0:
252,166,102941,1,8,0:0:0:0:
252,166,103104,1,0,0:0:0:0:
155,127,103267,1,0,0:0:0:0:
155,127,103430,1,0,0:0:0:0:
78,60,103593,1,8,0:0:0:0:
78,60,103756,1,0,0:0:0:0:
168,23,103838,1,0,0:0:0:0:
241,103,103919,1,0,0:0:0:0:
211,41,104082,1,8,0:0:0:0:
372,152,104245,1,0,0:0:0:0:
211,41,104408,1,8,0:0:0:0:
156,128,104571,1,4,0:0:0:0:
329,148,104897,1,0,0:0:0:0:
212,224,105060,1,0,0:0:0:0:
111,49,105223,1,8,0:0:0:0:
170,71,105387,1,0,0:0:0:0:
170,71,105468,1,0,0:0:0:0:
262,206,105550,1,8,0:0:0:0:
260,100,105713,1,0,0:0:0:0:
229,55,105876,1,8,0:0:0:0:
262,206,106202,1,0,0:0:0:0:
162,79,106528,1,8,0:0:0:0:
371,194,106691,1,0,0:0:0:0:
262,206,106854,1,0,0:0:0:0:
87,112,107017,1,8,0:0:0:0:
262,206,107180,1,0,0:0:0:0:
262,206,107506,1,0,0:0:0:0:
262,206,107669,1,8,0:0:0:0:
155,34,107751,1,0,0:0:0:0:
201,10,107832,1,8,0:0:0:0:
148,192,108158,1,8,0:0:0:0:
155,97,108321,1,0,0:0:0:0:
228,89,108484,1,8,0:0:0:0:
218,105,108647,1,0,0:0:0:0:
185,28,108810,1,0,0:0:0:0:
148,192,108973,1,0,0:0:0:0:
320,116,109055,1,0,0:0:0:0:
241,63,109137,1,8,0:0:0:0:
126,101,109300,1,0,0:0:0:0:
148,192,109463,1,0,0:0:0:0:
148,192,109626,1,0,0:0:0:0:
148,192,109789,1,12,0:0:0:0:
305,222,110115,1,0,0:0:0:0:
139,182,110278,1,8,0:0:0:0:
263,131,110359,1,0,0:0:0:0:
241,63,110441,1,8,0:0:0:0:
118,100,110604,1,0,0:0:0:0:
139,182,110767,1,8,0:0:0:0:
188,50,110930,1,0,0:0:0:0:
136,67,111093,1,8,0:0:0:0:
108,100,111256,1,0,0:0:0:0:
139,182,111419,1,0,0:0:0:0:
241,63,111745,1,8,0:0:0:0:
139,182,112071,1,0,0:0:0:0:
241,63,112234,1,8,0:0:0:0:
139,182,112397,1,8,0:0:0:0:
194,149,112723,1,0,0:0:0:0:
194,149,112887,1,8,0:0:0:0:
285,112,112968,1,0,0:0:0:0:
241,63,113050,1,8,0:0:0:0:
266,192,113213,1,0,0:0:0:0:
194,149,113376,1,8,0:0:0:0:
176,50,113539,1,0,0:0:0:0:
118,48,113702,1,8,0:0:0:0:
303,193,113865,1,0,0:0:0:0:
230,120,114028,1,0,0:0:0:0:
112,123,114191,1,8,0:0:0:0:
241,63,114354,1,8,0:0:0:0:
298,193,114517,1,0,0:0:0:0:
180,151,114680,1,0,0:0:0:0:
179,45,114762,1,0,0:0:0:0:
180,151,114843,1,0,0:0:0:0:
180,151,115006,1,12,0:0:0:0:
371,181,115332,1,0,0:0:0:0:
235,129,115495,1,0,0:0:0:0:
241,63,115658,1,8,0:0:0:0:
142,167,115821,1,0,0:0:0:0:
235,129,115984,1,8,0:0:0:0:
186,45,116147,1,0,0:0:0:0:
126,83,116310,1,8,0:0:0:0:
142,167,116473,1,8,0:0:0:0:
235,129,116637,1,0,0:0:0:0:
183,112,116800,1,0,0:0:0:0:
183,112,116881,1,0,0:0:0:0:
241,63,116963,1,8,0:0:0:0:
245,211,117126,1,0,0:0:0:0:
235,129,117289,1,0,0:0:0:0:
241,63,117452,1,8,0:0:0:0:
235,129,117615,1,0,0:0:0:0:
235,129,117941,1,8,0:0:0:0:
235,129,118104,1,8,0:0:0:0:
175,28,118185,1,0,0:0:0:0:
241,63,118267,1,8,0:0:0:0:
351,207,118430,1,0,0:0:0:0:
235,129,118593,1,8,0:0:0:0:
224,15,118756,1,0,0:0:0:0:
126,105,118919,1,8,0:0:0:0:
241,63,119082,1,8,0:0:0:0:
184,85,119245,1,0,0:0:0:0:
235,129,119408,1,0,0:0:0:0:
241,63,119571,1,8,0:0:0:0:
166,197,119734,1,0,0:0:0:0:
235,129,119897,1,0,0:0:0:0:
235,129,120060,1,0,0:0:0:0:
235,129,120223,1,12,0:0:0:0:
244,252,120550,1,0,0:0:0:0:
212,143,120713,1,0,0:0:0:0:
91,101,120794,1,0,0:0:0:0:
241,63,120876,1,8,0:0:0:0:
316,219,121039,1,0,0:0:0:0:
172,125,121202,1,8,0:0:0:0:
259,135,121365,1,0,0:0:0:0:
79,187,121528,1,0,0:0:0:0:
241,63,121691,1,8,0:0:0:0:
121,99,121854,1,0,0:0:0:0:
120,31,122017,1,0,0:0:0:0:
241,63,122180,1,8,0:0:0:0:
191,228,122343,1,0,0:0:0:0:
384,209,122506,1,0,0:0:0:0:
241,63,122669,1,8,0:0:0:0:
223,167,122832,1,0,0:0:0:0:
241,63,123484,1,8,0:0:0:0:
241,63,123810,1,0,0:0:0:0:
241,63,123973,1,0,0:0:0:0:
137,115,124137,1,8,0:0:0:0:
287,210,124300,1,8,0:0:0:0:
197,155,124381,1,8,0:0:0:0:
197,155,124463,1,8,0:0:0:0:
183,64,124544,1,8,0:0:0:0:
183,64,124626,1,0,0:0:0:0:
183,64,124789,1,8,0:0:0:0:
72,54,124870,1,8,0:0:0:0:
72,54,124952,1,8,0:0:0:0:
72,54,125033,1,8,0:0:0:0:
325,85,125115,1,0,0:0:0:0:
325,85,125196,1,0,0:0:0:0:
325,85,125278,1,0,0:0:0:0:
325,85,125359,1,0,0:0:0:0:
116,92,125441,1,12,0:0:0:0:
229,49,125604,1,0,0:0:0:0:
351,263,125767,1,0,0:0:0:0:
185,154,125930,1,8,0:0:0:0:
316,137,126012,1,0,0:0:0:0:
167,224,126093,1,8,0:0:0:0:
251,212,126256,1,0,0:0:0:0:
96,83,126419,1,8,0:0:0:0:
172,246,126501,1,0,0:0:0:0:
251,212,126582,1,8,0:0:0:0:
177,21,126664,1,0,0:0:0:0:
366,184,126745,1,0,0:0:0:0:
315,147,126908,1,8,0:0:0:0:
172,246,126990,1,0,0:0:0:0:
247,77,127071,1,0,0:0:0:0:
96,161,127234,1,8,0:0:0:0:
203,169,127316,1,0,0:0:0:0:
202,117,127397,1,8,0:0:0:0:
96,161,127560,1,0,0:0:0:0:
128,42,127723,1,8,0:0:0:0:
300,238,127887,1,0,0:0:0:0:
200,57,127968,1,0,0:0:0:0:
300,238,128050,1,8,0:0:0:0:
172,246,128131,1,8,0:0:0:0:
300,238,128213,1,0,0:0:0:0:
172,181,128376,1,0,0:0:0:0:
232,135,128539,1,8,0:0:0:0:
94,166,128620,1,0,0:0:0:0:
228,62,128702,1,8,0:0:0:0:
232,135,128865,1,0,0:0:0:0:
117,80,129028,1,8,0:0:0:0:
127,219,129109,1,8,0:0:0:0:
232,135,129191,1,0,0:0:0:0:
232,135,129354,1,0,0:0:0:0:
232,135,129517,1,0,0:0:0:0:
149,217,129598,1,8,0:0:0:0:
91,144,129680,1,8,0:0:0:0:
171,48,129762,1,0,0:0:0:0:
91,144,129843,1,8,0:0:0:0:
232,135,130006,1,0,0:0:0:0:
61,104,130169,1,0,0:0:0:0:
83,226,130332,1,8,0:0:0:0:
213,16,130414,1,0,0:0:0:0:
204,119,130495,1,0,0:0:0:0:
176,170,130658,1,12,0:0:0:0:
176,170,130821,1,0,0:0:0:0:
255,90,130984,1,0,0:0:0:0:
125,141,131147,1,8,0:0:0:0:
321,74,131229,1,0,0:0:0:0:
329,132,131310,1,8,0:0:0:0:
125,141,131473,1,0,0:0:0:0:
129,20,131637,1,8,0:0:0:0:
116,214,131718,1,0,0:0:0:0:
125,141,131800,1,0,0:0:0:0:
207,69,131881,1,8,0:0:0:0:
125,141,131963,1,0,0:0:0:0:
125,141,132126,1,8,0:0:0:0:
116,214,132207,1,0,0:0:0:0:
291,147,132289,1,0,0:0:0:0:
206,163,132452,1,0,0:0:0:0:
304,72,132533,1,0,0:0:0:0:
247,81,132615,1,8,0:0:0:0:
206,163,132778,1,0,0:0:0:0:
154,65,132941,1,8,0:0:0:0:
245,209,133104,1,8,0:0:0:0:
203,24,133185,1,0,0:0:0:0:
245,209,133267,1,8,0:0:0:0:
245,209,133430,1,0,0:0:0:0:
298,119,133593,1,0,0:0:0:0:
271,204,133756,1,0,0:0:0:0:
163,15,133919,1,8,0:0:0:0:
271,204,134082,1,0,0:0:0:0:
254,66,134245,1,8,0:0:0:0:
146,151,134408,1,8,0:0:0:0:
195,79,134490,1,8,0:0:0:0:
146,151,134571,1,0,0:0:0:0:
146,151,134734,1,0,0:0:0:0:
57,62,134897,1,8,0:0:0:0:
201,13,134979,1,0,0:0:0:0:
57,62,135060,1,8,0:0:0:0:
146,151,135223,1,0,0:0:0:0:
146,151,135387,1,0,0:0:0:0:
172,73,135550,1,8,0:0:0:0:
172,73,135713,1,8,0:0:0:0:
160,18,135794,1,8,0:0:0:0:
146,151,135876,1,4,0:0:0:0:
238,38,136039,1,0,0:0:0:0:
358,135,136202,1,0,0:0:0:0:
291,193,136365,1,8,0:0:0:0:
173,206,136446,1,0,0:0:0:0:
244,101,136528,1,8,0:0:0:0:
291,193,136691,1,0,0:0:0:0:
110,52,136854,1,8,0:0:0:0:
92,245,136935,1,0,0:0:0:0:
180,100,137017,1,8,0:0:0:0:
180,100,137098,1,8,0:0:0:0:
331,194,137180,1,0,0:0:0:0:
331,194,137343,1,8,0:0:0:0:
201,257,137425,1,0,0:0:0:0:
266,125,137506,1,0,0:0:0:0:
305,186,137669,1,0,0:0:0:0:
219,174,137751,1,0,0:0:0:0:
158,79,137832,1,8,0:0:0:0:
305,186,137995,1,0,0:0:0:0:
213,38,138158,1,8,0:0:0:0:
304,186,138321,1,8,0:0:0:0:
221,149,138403,1,0,0:0:0:0:
305,186,138484,1,8,0:0:0:0:
154,230,138566,1,0,0:0:0:0:
305,186,138647,1,0,0:0:0:0:
279,111,138810,1,0,0:0:0:0:
305,186,138973,1,0,0:0:0:0:
195,170,139055,1,0,0:0:0:0:
196,21,139137,1,8,0:0:0:0:
304,186,139300,1,0,0:0:0:0:
126,121,139463,1,8,0:0:0:0:
183,256,139544,1,0,0:0:0:0:
305,186,139626,1,8,0:0:0:0:
229,79,139707,1,0,0:0:0:0:
233,170,139789,1,0,0:0:0:0:
233,170,139952,1,0,0:0:0:0:
116,204,140033,1,0,0:0:0:0:
151,109,140115,1,8,0:0:0:0:
151,109,140278,1,8,0:0:0:0:
233,170,140441,1,0,0:0:0:0:
233,170,140604,1,0,0:0:0:0:
88,130,140767,1,8,0:0:0:0:
232,32,140848,1,0,0:0:0:0:
154,120,140930,1,8,0:0:0:0:
154,120,141093,1,12,0:0:0:0:
205,119,141256,1,0,0:0:0:0:
281,113,141419,1,0,0:0:0:0:
205,119,141582,1,0,0:0:0:0:
421,106,141664,1,0,0:0:0:0:
239,54,141745,1,8,0:0:0:0:
205,119,141908,1,0,0:0:0:0:
127,124,142071,1,8,0:0:0:0:
213,212,142153,1,0,0:0:0:0:
205,119,142234,1,0,0:0:0:0:
287,112,142316,1,0,0:0:0:0:
205,119,142397,1,8,0:0:0:0:
205,119,142560,1,8,0:0:0:0:
121,217,142642,1,0,0:0:0:0:
363,106,142723,1,0,0:0:0:0:
205,119,142887,1,8,0:0:0:0:
304,169,142968,1,0,0:0:0:0:
106,64,143050,1,8,0:0:0:0:
205,119,143213,1,0,0:0:0:0:
183,37,143376,1,8,0:0:0:0:
179,156,143539,1,8,0:0:0:0:
240,50,143620,1,8,0:0:0:0:
179,156,143702,1,0,0:0:0:0:
179,156,143865,1,0,0:0:0:0:
267,97,144028,1,0,0:0:0:0:
163,30,144191,1,8,0:0:0:0:
267,97,144354,1,0,0:0:0:0:
180,61,144435,1,0,0:0:0:0:
267,97,144517,1,0,0:0:0:0:
30,163,144680,1,8,0:0:0:0:
267,97,144843,1,0,0:0:0:0:
256,91,145006,1,0,0:0:0:0:
117,72,145169,1,8,0:0:0:0:
187,100,145332,1,8,0:0:0:0:
242,174,145414,1,8,0:0:0:0:
187,100,145495,1,0,0:0:0:0:
85,154,145658,1,0,0:0:0:0:
108,284,145699,1,0,0:0:0:0:
85,154,145821,1,0,0:0:0:0:
108,284,145862,1,0,0:0:0:0:
85,154,145984,1,8,0:0:0:0:
264,247,146025,1,8,0:0:0:0:
85,154,146147,1,8,0:0:0:0:
264,247,146188,1,8,0:0:0:0:
187,100,146310,1,4,0:0:0:0:
294,163,146473,1,8,0:0:0:0:
294,163,146637,1,0,0:0:0:0:
223,172,146800,1,0,0:0:0:0:
294,163,146881,1,0,0:0:0:0:
284,106,146963,1,8,0:0:0:0:
223,172,147126,1,0,0:0:0:0:
223,172,147289,1,8,0:0:0:0:
198,39,147370,1,0,0:0:0:0:
104,159,147452,1,8,0:0:0:0:
223,172,147615,1,0,0:0:0:0:
377,124,147778,1,8,0:0:0:0:
167,111,147941,1,0,0:0:0:0:
223,172,148104,1,8,0:0:0:0:
329,207,148185,1,8,0:0:0:0:
168,55,148267,1,8,0:0:0:0:
223,172,148430,1,0,0:0:0:0:
108,181,148593,1,0,0:0:0:0:
211,103,148675,1,0,0:0:0:0:
101,67,148756,1,8,0:0:0:0:
223,172,148919,1,4,0:0:0:0:
256,65,149082,1,8,0:0:0:0:
256,65,149164,1,8,0:0:0:0:
256,65,149245,1,0,0:0:0:0:
350,195,149408,1,0,0:0:0:0:
139,139,149571,1,8,0:0:0:0:
350,195,149734,1,0,0:0:0:0:
350,195,149897,1,8,0:0:0:0:
242,205,149979,1,0,0:0:0:0:
205,68,150060,1,8,0:0:0:0:
350,195,150223,1,0,0:0:0:0:
350,195,150387,1,8,0:0:0:0:
194,161,150550,1,0,0:0:0:0:
350,195,150713,1,0,0:0:0:0:
222,228,150794,1,0,0:0:0:0:
220,125,150876,1,8,0:0:0:0:
350,195,151039,1,0,0:0:0:0:
180,33,151202,1,8,0:0:0:0:
174,35,151283,1,0,0:0:0:0:
180,33,151365,1,8,0:0:0:0:
350,195,151528,1,4,0:0:0:0:
127,99,151691,1,8,0:0:0:0:
234,168,151854,1,0,0:0:0:0:
350,195,152017,1,0,0:0:0:0:
163,188,152098,1,0,0:0:0:0:
219,83,152180,1,8,0:0:0:0:
350,195,152343,1,0,0:0:0:0:
350,195,152506,1,8,0:0:0:0:
210,35,152588,1,0,0:0:0:0:
146,131,152669,1,8,0:0:0:0:
350,195,152832,1,0,0:0:0:0:
350,195,152995,1,8,0:0:0:0:
258,146,153158,1,0,0:0:0:0:
350,195,153321,1,0,0:0:0:0:
212,211,153403,1,0,0:0:0:0:
243,115,153484,1,8,0:0:0:0:
350,195,153647,1,0,0:0:0:0:
350,195,153810,1,8,0:0:0:0:
74,90,153892,1,8,0:0:0:0:
152,111,153973,1,0,0:0:0:0:
350,195,154137,1,0,0:0:0:0:
105,180,154300,1,0,0:0:0:0:
180,193,154463,1,8,0:0:0:0:
263,272,154503,1,8,0:0:0:0:
180,193,154626,1,0,0:0:0:0:
238,83,154789,1,8,0:0:0:0:
205,250,154829,1,8,0:0:0:0:
176,118,155115,1,0,0:0:0:0:
144,5,155278,1,8,0:0:0:0:
176,118,155441,1,0,0:0:0:0:
164,243,155767,1,0,0:0:0:0:
298,136,155930,1,8,0:0:0:0:
243,234,155971,1,8,0:0:0:0:
315,258,156093,1,8,0:0:0:0:
311,250,156134,1,8,0:0:0:0:
298,136,156256,1,0,0:0:0:0:
220,53,156419,1,8,0:0:0:0:
170,159,156460,1,8,0:0:0:0:
252,176,156745,1,0,0:0:0:0:
149,214,157071,1,0,0:0:0:0:
175,115,157234,1,8,0:0:0:0:
337,154,157397,1,0,0:0:0:0:
143,109,157560,1,0,0:0:0:0:
175,115,157723,1,8,0:0:0:0:
310,143,158050,1,0,0:0:0:0:
92,62,158213,1,8,0:0:0:0:
238,40,158539,1,0,0:0:0:0:
92,62,158702,1,8,0:0:0:0:
228,138,158865,1,0,0:0:0:0:
228,138,159028,1,0,0:0:0:0:
153,117,159191,1,8,0:0:0:0:
92,62,159354,1,8,0:0:0:0:
334,157,159680,1,0,0:0:0:0:
191,92,159843,1,8,0:0:0:0:
314,71,160006,1,0,0:0:0:0:
163,18,160169,1,0,0:0:0:0:
191,92,160332,1,8,0:0:0:0:
303,143,160658,1,0,0:0:0:0:
191,92,160821,1,8,0:0:0:0:
121,129,161147,1,0,0:0:0:0:
191,92,161310,1,8,0:0:0:0:
100,50,161473,1,0,0:0:0:0:
100,50,161637,1,8,0:0:0:0:
100,50,161800,1,8,0:0:0:0:
260,91,161963,1,0,0:0:0:0:
303,143,162289,1,0,0:0:0:0:
270,148,162452,1,8,0:0:0:0:
150,113,162615,1,0,0:0:0:0:
150,113,162778,1,0,0:0:0:0:
270,148,162941,1,8,0:0:0:0:
173,139,163267,1,0,0:0:0:0:
270,148,163430,1,8,0:0:0:0:
224,46,163756,1,0,0:0:0:0:
270,148,163919,1,8,0:0:0:0:
280,53,164082,1,0,0:0:0:0:
270,148,164245,1,8,0:0:0:0:
280,53,164408,1,8,0:0:0:0:
270,148,164571,1,8,0:0:0:0:
265,221,164897,1,0,0:0:0:0:
264,144,165060,1,8,0:0:0:0:
155,81,165223,1,0,0:0:0:0:
155,81,165387,1,0,0:0:0:0:
264,144,165550,1,8,0:0:0:0:
207,69,165876,1,0,0:0:0:0:
264,144,166039,1,8,0:0:0:0:
148,91,166365,1,0,0:0:0:0:
264,144,166528,1,8,0:0:0:0:
247,44,166691,1,0,0:0:0:0:
247,44,166854,1,8,0:0:0:0:
247,44,167017,1,0,0:0:0:0:
264,144,167180,1,8,0:0:0:0:
281,232,167506,1,0,0:0:0:0:
264,144,167669,1,8,0:0:0:0:
216,175,167832,1,0,0:0:0:0:
216,175,167995,1,0,0:0:0:0:
264,144,168158,1,8,0:0:0:0:
216,175,168484,1,0,0:0:0:0:
216,175,168647,1,8,0:0:0:0:
134,119,168973,1,0,0:0:0:0:
134,119,169137,1,0,0:0:0:0:
134,119,169300,1,0,0:0:0:0:
134,119,169463,1,8,0:0:0:0:
134,119,169626,1,0,0:0:0:0:
206,58,169789,1,8,0:0:0:0:
273,231,170115,1,0,0:0:0:0:
206,58,170278,1,8,0:0:0:0:
299,69,170441,1,0,0:0:0:0:
299,69,170604,1,0,0:0:0:0:
206,58,170767,1,8,0:0:0:0:
222,137,171093,1,0,0:0:0:0:
299,69,171256,1,8,0:0:0:0:
225,124,171582,1,0,0:0:0:0:
225,124,171745,1,8,0:0:0:0:
225,124,171908,1,0,0:0:0:0:
225,124,172071,1,8,0:0:0:0:
167,25,172234,1,0,0:0:0:0:
205,58,172397,1,8,0:0:0:0:
323,226,172723,1,0,0:0:0:0:
205,58,172887,1,8,0:0:0:0:
282,84,173050,1,0,0:0:0:0:
282,84,173213,1,0,0:0:0:0:
205,58,173376,1,8,0:0:0:0:
159,165,173702,1,0,0:0:0:0:
282,84,173865,1,8,0:0:0:0:
282,84,174028,1,0,0:0:0:0:
282,84,174191,1,0,0:0:0:0:
205,58,174354,1,8,0:0:0:0:
253,18,174517,1,0,0:0:0:0:
253,18,174680,1,0,0:0:0:0:
249,12,174843,1,8,0:0:0:0:
205,58,175006,1,8,0:0:0:0:
357,215,175332,1,0,0:0:0:0:
205,58,175495,1,8,0:0:0:0:
136,78,175658,1,0,0:0:0:0:
136,78,175821,1,0,0:0:0:0:
205,58,175984,1,8,0:0:0:0:
322,147,176310,1,0,0:0:0:0:
205,58,176473,1,8,0:0:0:0:
219,165,176637,1,0,0:0:0:0:
72,83,176800,1,8,0:0:0:0:
205,58,176963,1,8,0:0:0:0:
127,150,177126,1,8,0:0:0:0:
205,58,177289,1,0,0:0:0:0:
132,61,177452,1,0,0:0:0:0:
225,114,177615,1,12,0:0:0:0:
69,91,178104,1,0,0:0:0:0:
146,172,178267,1,8,0:0:0:0:
197,32,178430,1,0,0:0:0:0:
236,220,178512,1,0,0:0:0:0:
327,167,178593,1,8,0:0:0:0:
247,162,178756,1,0,0:0:0:0:
247,162,179245,1,0,0:0:0:0:
428,114,179408,1,8,0:0:0:0:
420,77,179490,1,0,0:0:0:0:
178,90,179571,1,8,0:0:0:0:
306,106,179734,1,0,0:0:0:0:
306,106,179897,1,8,0:0:0:0:
306,106,180060,1,8,0:0:0:0:
313,126,180223,1,12,0:0:0:0:
231,47,180550,1,0,0:0:0:0:
110,141,180713,1,0,0:0:0:0:
453,101,180794,1,0,0:0:0:0:
137,54,180876,1,8,0:0:0:0:
205,193,181039,1,0,0:0:0:0:
221,88,181202,1,8,0:0:0:0:
221,88,181365,1,8,0:0:0:0:
221,88,181528,1,0,0:0:0:0:
279,222,181691,1,0,0:0:0:0:
221,88,181854,1,0,0:0:0:0:
221,88,182017,1,8,0:0:0:0:
376,112,182098,1,8,0:0:0:0:
125,74,182180,1,8,0:0:0:0:
193,52,182343,1,0,0:0:0:0:
275,141,182506,1,8,0:0:0:0:
275,141,182669,1,0,0:0:0:0:
196,190,182751,1,0,0:0:0:0:
328,176,182832,1,12,0:0:0:0:
328,176,183321,1,8,0:0:0:0:
421,198,183403,1,0,0:0:0:0:
164,80,183484,1,8,0:0:0:0:
112,171,183647,1,0,0:0:0:0:
400,100,183810,1,8,0:0:0:0:
400,100,183973,1,0,0:0:0:0:
185,180,184137,1,0,0:0:0:0:
248,102,184463,1,8,0:0:0:0:
248,102,184626,1,0,0:0:0:0:
350,117,184707,1,0,0:0:0:0:
190,18,184789,1,8,0:0:0:0:
235,166,184952,1,0,0:0:0:0:
235,166,185115,1,8,0:0:0:0:
235,166,185278,1,8,0:0:0:0:
272,152,185441,1,4,0:0:0:0:
272,152,185930,1,8,0:0:0:0:
344,167,186012,1,0,0:0:0:0:
222,39,186093,1,8,0:0:0:0:
159,163,186256,1,0,0:0:0:0:
222,162,186419,1,8,0:0:0:0:
222,162,186582,1,0,0:0:0:0:
108,88,186745,1,0,0:0:0:0:
409,74,186908,1,0,0:0:0:0:
332,141,186990,1,8,0:0:0:0:
332,141,187071,1,8,0:0:0:0:
332,141,187153,1,8,0:0:0:0:
332,141,187234,1,8,0:0:0:0:
332,141,187316,1,8,0:0:0:0:
332,141,187397,1,0,0:0:0:0:
332,141,187479,1,0,0:0:0:0:
332,141,187560,1,0,0:0:0:0:
332,141,187642,1,0,0:0:0:0:
222,162,187723,1,8,0:0:0:0:
235,104,187805,1,8,0:0:0:0:
235,104,187887,1,0,0:0:0:0:
235,104,187968,1,0,0:0:0:0:
235,104,188050,1,12,0:0:0:0:
87,50,188539,1,0,0:0:0:0:
121,142,188702,1,8,0:0:0:0:
145,185,188865,1,0,0:0:0:0:
167,267,188946,1,0,0:0:0:0:
315,136,189028,1,8,0:0:0:0:
250,200,189191,1,0,0:0:0:0:
250,200,189680,1,0,0:0:0:0:
250,200,189843,1,8,0:0:0:0:
244,222,189925,1,0,0:0:0:0:
157,55,190006,1,8,0:0:0:0:
248,209,190169,1,0,0:0:0:0:
248,209,190332,1,8,0:0:0:0:
248,209,190495,1,8,0:0:0:0:
248,209,190658,1,4,0:0:0:0:
240,197,190984,1,0,0:0:0:0:
317,240,191147,1,8,0:0:0:0:
355,186,191229,1,0,0:0:0:0:
239,55,191310,1,8,0:0:0:0:
138,155,191473,1,0,0:0:0:0:
386,214,191637,1,8,0:0:0:0:
386,214,191800,1,0,0:0:0:0:
386,214,191963,1,0,0:0:0:0:
386,214,192289,1,0,0:0:0:0:
386,214,192452,1,0,0:0:0:0:
250,103,192533,1,0,0:0:0:0:
149,44,192615,1,8,0:0:0:0:
212,183,192778,1,0,0:0:0:0:
212,183,192941,1,8,0:0:0:0:
212,183,193104,1,8,0:0:0:0:
255,151,193185,1,8,0:0:0:0:
212,183,193267,1,4,0:0:0:0:
174,231,193593,1,8,0:0:0:0:
249,195,193756,1,0,0:0:0:0:
270,172,193838,1,0,0:0:0:0:
239,53,193919,1,8,0:0:0:0:
294,194,194082,1,0,0:0:0:0:
299,119,194245,1,8,0:0:0:0:
299,119,194408,1,0,0:0:0:0:
216,280,194734,1,0,0:0:0:0:
299,119,194897,1,8,0:0:0:0:
299,119,195060,1,8,0:0:0:0:
312,192,195142,1,0,0:0:0:0:
118,56,195223,1,8,0:0:0:0:
179,168,195387,1,0,0:0:0:0:
179,168,195550,1,8,0:0:0:0:
179,168,195713,1,0,0:0:0:0:
202,228,195794,1,0,0:0:0:0:
179,168,195876,1,12,0:0:0:0:
114,83,196202,1,0,0:0:0:0:
252,166,196365,1,0,0:0:0:0:
168,28,196446,1,0,0:0:0:0:
213,58,196528,1,8,0:0:0:0:
214,240,196691,1,0,0:0:0:0:
252,166,196854,1,8,0:0:0:0:
252,166,197017,1,8,0:0:0:0:
155,127,197180,1,0,0:0:0:0:
155,127,197343,1,0,0:0:0:0:
78,60,197506,1,8,0:0:0:0:
78,60,197669,1,8,0:0:0:0:
176,201,197751,1,0,0:0:0:0:
241,103,197832,1,8,0:0:0:0:
211,41,197995,1,8,0:0:0:0:
372,152,198158,1,0,0:0:0:0:
317,227,198240,1,0,0:0:0:0:
211,41,198321,1,8,0:0:0:0:
241,183,198484,1,4,0:0:0:0:
136,161,198647,1,0,0:0:0:0:
176,237,198810,1,8,0:0:0:0:
241,183,198973,1,0,0:0:0:0:
188,55,199055,1,0,0:0:0:0:
102,54,199137,1,8,0:0:0:0:
107,141,199300,1,0,0:0:0:0:
262,44,199463,1,8,0:0:0:0:
234,204,199626,1,0,0:0:0:0:
312,186,199707,1,0,0:0:0:0:
190,100,199789,1,8,0:0:0:0:
186,49,199870,1,0,0:0:0:0:
190,100,199952,1,0,0:0:0:0:
200,26,200115,1,8,0:0:0:0:
190,100,200278,1,0,0:0:0:0:
93,109,200441,1,8,0:0:0:0:
190,100,200604,1,0,0:0:0:0:
231,200,200767,1,8,0:0:0:0:
296,155,200848,1,8,0:0:0:0:
190,100,200930,1,0,0:0:0:0:
156,20,201012,1,0,0:0:0:0:
190,100,201093,1,8,0:0:0:0:
190,100,201256,1,0,0:0:0:0:
303,159,201419,1,0,0:0:0:0:
190,100,201582,1,0,0:0:0:0:
85,140,201745,1,8,0:0:0:0:
190,100,201908,1,0,0:0:0:0:
108,35,202071,1,8,0:0:0:0:
190,100,202234,1,0,0:0:0:0:
316,107,202316,1,8,0:0:0:0:
190,100,202397,1,0,0:0:0:0:
190,100,202560,1,0,0:0:0:0:
241,43,202723,1,8,0:0:0:0:
241,43,202887,1,8,0:0:0:0:
190,100,203050,1,0,0:0:0:0:
190,100,203213,1,0,0:0:0:0:
69,139,203376,1,8,0:0:0:0:
266,104,203457,1,8,0:0:0:0:
128,72,203539,1,0,0:0:0:0:
197,190,203620,1,0,0:0:0:0:
190,100,203702,1,8,0:0:0:0:
190,100,203865,1,0,0:0:0:0:
233,161,204028,1,0,0:0:0:0:
190,100,204191,1,0,0:0:0:0:
98,169,204354,1,8,0:0:0:0:
190,100,204517,1,0,0:0:0:0:
214,18,204680,1,8,0:0:0:0:
271,87,204843,1,0,0:0:0:0:
276,73,204925,1,8,0:0:0:0:
190,100,205006,1,0,0:0:0:0:
190,100,205169,1,0,0:0:0:0:
171,188,205332,1,0,0:0:0:0:
190,100,205495,1,0,0:0:0:0:
216,165,205658,1,8,0:0:0:0:
190,100,205821,1,0,0:0:0:0:
94,56,205984,1,0,0:0:0:0:
39,151,206066,1,0,0:0:0:0:
190,100,206147,1,0,0:0:0:0:
293,84,206229,1,0,0:0:0:0:
190,100,206310,1,8,0:0:0:0:
190,100,206473,1,0,0:0:0:0:
130,206,206637,1,0,0:0:0:0:
186,106,206800,1,0,0:0:0:0:
286,96,206963,1,8,0:0:0:0:
186,106,207126,1,0,0:0:0:0:
178,19,207289,1,8,0:0:0:0:
186,106,207452,1,0,0:0:0:0:
186,106,207615,1,0,0:0:0:0:
280,126,207696,1,0,0:0:0:0:
186,106,207778,1,0,0:0:0:0:
238,183,207941,1,8,0:0:0:0:
92,167,208022,1,8,0:0:0:0:
238,183,208104,1,0,0:0:0:0:
186,106,208267,1,0,0:0:0:0:
157,249,208348,1,8,0:0:0:0:
186,106,208430,1,0,0:0:0:0:
196,147,208593,1,8,0:0:0:0:
187,145,208756,1,0,0:0:0:0:
257,157,208838,1,0,0:0:0:0:
186,106,208919,1,12,0:0:0:0:
83,135,209082,1,0,0:0:0:0:
314,65,209245,1,0,0:0:0:0:
186,106,209408,1,0,0:0:0:0:
96,187,209571,1,8,0:0:0:0:
186,106,209734,1,0,0:0:0:0:
92,100,209897,1,0,0:0:0:0:
311,158,209979,1,0,0:0:0:0:
186,106,210060,1,8,0:0:0:0:
201,40,210142,1,0,0:0:0:0:
186,106,210223,1,8,0:0:0:0:
186,106,210387,1,0,0:0:0:0:
92,100,210550,1,0,0:0:0:0:
188,100,210713,1,0,0:0:0:0:
88,180,210876,1,8,0:0:0:0:
188,100,211039,1,0,0:0:0:0:
253,160,211202,1,8,0:0:0:0:
167,165,211283,1,8,0:0:0:0:
120,57,211365,1,0,0:0:0:0:
116,49,211446,1,0,0:0:0:0:
188,100,211528,1,8,0:0:0:0:
188,100,211691,1,8,0:0:0:0:
62,144,211854,1,0,0:0:0:0:
188,100,212017,1,0,0:0:0:0:
256,112,212180,1,8,0:0:0:0:
187,100,212343,1,0,0:0:0:0:
196,16,212506,1,0,0:0:0:0:
175,101,212669,1,0,0:0:0:0:
104,71,212751,1,8,0:0:0:0:
182,102,212832,1,0,0:0:0:0:
182,102,212995,1,0,0:0:0:0:
267,46,213158,1,8,0:0:0:0:
267,46,213321,1,8,0:0:0:0:
182,102,213484,1,0,0:0:0:0:
182,102,213647,1,0,0:0:0:0:
267,46,213810,1,0,0:0:0:0:
342,187,213892,1,0,0:0:0:0:
267,46,213973,1,8,0:0:0:0:
287,100,214055,1,8,0:0:0:0:
182,102,214137,1,0,0:0:0:0:
182,102,214300,1,8,0:0:0:0:
404,176,214463,1,0,0:0:0:0:
182,102,214626,1,0,0:0:0:0:
275,123,214789,1,8,0:0:0:0:
182,102,214952,1,0,0:0:0:0:
248,160,215115,1,0,0:0:0:0:
195,103,215278,1,0,0:0:0:0:
97,171,215359,1,0,0:0:0:0:
182,102,215441,1,8,0:0:0:0:
182,102,215604,1,0,0:0:0:0:
267,231,215767,1,0,0:0:0:0:
182,102,215930,1,0,0:0:0:0:
253,75,216093,1,8,0:0:0:0:
184,102,216256,1,0,0:0:0:0:
291,151,216419,1,0,0:0:0:0:
182,102,216582,1,0,0:0:0:0:
182,102,216745,1,8,0:0:0:0:
170,18,216827,1,8,0:0:0:0:
188,101,216908,1,0,0:0:0:0:
184,102,217071,1,0,0:0:0:0:
285,60,217234,1,8,0:0:0:0:
188,101,217397,1,0,0:0:0:0:
123,160,217479,1,0,0:0:0:0:
188,101,217560,1,0,0:0:0:0:
108,85,217723,1,8,0:0:0:0:
188,101,217887,1,8,0:0:0:0:
191,189,217968,1,8,0:0:0:0:
184,102,218050,1,0,0:0:0:0:
223,110,218213,1,8,0:0:0:0:
188,101,218376,1,0,0:0:0:0:
135,180,218539,1,8,0:0:0:0:
273,183,218702,1,8,0:0:0:0:
273,183,218865,1,8,0:0:0:0:
273,183,219028,1,8,0:0:0:0:
273,183,219191,1,8,0:0:0:0:
196,137,219354,1,4,0:0:0:0:
197,238,219517,1,0,0:0:0:0:
273,93,219680,1,8,0:0:0:0:
204,143,219843,1,0,0:0:0:0:
121,80,220006,1,8,0:0:0:0:
204,143,220169,1,0,0:0:0:0:
216,48,220332,1,8,0:0:0:0:
406,131,220414,1,8,0:0:0:0:
204,143,220495,1,0,0:0:0:0:
283,156,220577,1,0,0:0:0:0:
204,143,220658,1,0,0:0:0:0:
204,143,220821,1,0,0:0:0:0:
94,143,220984,1,8,0:0:0:0:
200,135,221147,1,0,0:0:0:0:
272,87,221310,1,8,0:0:0:0:
200,135,221473,1,0,0:0:0:0:
132,247,221637,1,8,0:0:0:0:
297,199,221718,1,0,0:0:0:0:
200,135,221800,1,8,0:0:0:0:
184,39,221881,1,0,0:0:0:0:
200,135,221963,1,8,0:0:0:0:
200,135,222126,1,0,0:0:0:0:
259,115,222207,1,8,0:0:0:0:
259,115,222289,1,0,0:0:0:0:
200,135,222452,1,0,0:0:0:0:
89,191,222615,1,8,0:0:0:0:
346,215,222656,1,8,0:0:0:0:
200,135,222778,1,0,0:0:0:0:
163,51,222941,1,8,0:0:0:0:
200,135,223104,1,8,0:0:0:0:
237,47,223185,1,0,0:0:0:0:
200,135,223267,1,0,0:0:0:0:
200,135,223430,1,0,0:0:0:0:
98,161,223593,1,8,0:0:0:0:
98,161,223756,1,8,0:0:0:0:
200,135,223919,1,0,0:0:0:0:
200,135,224082,1,0,0:0:0:0:
98,161,224245,1,8,0:0:0:0:
98,161,224408,1,8,0:0:0:0:
200,135,224571,1,8,0:0:0:0:
200,135,224734,1,0,0:0:0:0:
338,96,224816,1,8,0:0:0:0:
338,96,224897,1,0,0:0:0:0:
200,135,225060,1,0,0:0:0:0:
286,171,225223,1,8,0:0:0:0:
177,201,225264,1,8,0:0:0:0:
200,135,225387,1,0,0:0:0:0:
180,76,225550,1,8,0:0:0:0:
200,135,225713,1,8,0:0:0:0:
74,88,225753,1,8,0:0:0:0:
200,135,225876,1,0,0:0:0:0:
200,135,226039,1,8,0:0:0:0:
279,242,226079,1,8,0:0:0:0:
293,128,226202,1,0,0:0:0:0:
200,135,226365,1,0,0:0:0:0:
220,211,226446,1,0,0:0:0:0:
100,152,226528,1,8,0:0:0:0:
200,135,226691,1,0,0:0:0:0:
216,26,226854,1,0,0:0:0:0:
200,135,227017,1,8,0:0:0:0:
189,31,227098,1,8,0:0:0:0:
200,135,227180,1,8,0:0:0:0:
200,135,227343,1,0,0:0:0:0:
285,120,227506,1,0,0:0:0:0:
200,135,227669,1,0,0:0:0:0:
101,114,227832,1,8,0:0:0:0:
220,250,227914,1,8,0:0:0:0:
200,135,227995,1,0,0:0:0:0:
107,245,228158,1,8,0:0:0:0:
279,158,228240,1,8,0:0:0:0:
200,135,228321,1,0,0:0:0:0:
259,74,228403,1,0,0:0:0:0:
200,135,228484,1,8,0:0:0:0:
197,142,228647,1,0,0:0:0:0:
259,67,228810,1,8,0:0:0:0:
116,23,228892,1,8,0:0:0:0:
259,67,228973,1,0,0:0:0:0:
198,142,229137,1,0,0:0:0:0:
103,188,229218,1,0,0:0:0:0:
199,141,229300,1,0,0:0:0:0:
136,43,229463,1,8,0:0:0:0:
210,51,229544,1,8,0:0:0:0:
136,43,229626,1,8,0:0:0:0:
189,134,229789,1,4,0:0:0:0:
292,146,229952,1,0,0:0:0:0:
194,232,230115,1,8,0:0:0:0:
202,123,230278,1,0,0:0:0:0:
110,145,230441,1,8,0:0:0:0:
198,120,230604,1,0,0:0:0:0:
225,59,230767,1,8,0:0:0:0:
299,140,230848,1,8,0:0:0:0:
200,123,230930,1,0,0:0:0:0:
179,32,231012,1,0,0:0:0:0:
206,118,231093,1,8,0:0:0:0:
206,118,231256,1,0,0:0:0:0:
118,75,231419,1,8,0:0:0:0:
205,118,231582,1,0,0:0:0:0:
307,137,231745,1,8,0:0:0:0:
205,118,231908,1,0,0:0:0:0:
118,75,232071,1,0,0:0:0:0:
288,102,232153,1,0,0:0:0:0:
206,118,232234,1,8,0:0:0:0:
214,21,232316,1,0,0:0:0:0:
205,118,232397,1,8,0:0:0:0:
205,118,232560,1,0,0:0:0:0:
382,106,232642,1,8,0:0:0:0:
382,106,232723,1,0,0:0:0:0:
205,118,232887,1,0,0:0:0:0:
116,143,233050,1,8,0:0:0:0:
291,227,233090,1,8,0:0:0:0:
206,118,233213,1,0,0:0:0:0:
162,239,233376,1,0,0:0:0:0:
205,118,233539,1,8,0:0:0:0:
363,178,233579,1,8,0:0:0:0:
205,118,233702,1,0,0:0:0:0:
270,101,233783,1,0,0:0:0:0:
205,118,233865,1,8,0:0:0:0:
103,49,234028,1,8,0:0:0:0:
103,49,234191,1,8,0:0:0:0:
209,126,234354,1,0,0:0:0:0:
209,126,234517,1,0,0:0:0:0:
101,177,234598,1,0,0:0:0:0:
103,49,234680,1,8,0:0:0:0:
103,49,234843,1,8,0:0:0:0:
209,126,235006,1,0,0:0:0:0:
209,126,235169,1,8,0:0:0:0:
273,61,235251,1,0,0:0:0:0:
169,34,235332,1,8,0:0:0:0:
209,126,235495,1,0,0:0:0:0:
134,186,235658,1,8,0:0:0:0:
282,212,235699,1,8,0:0:0:0:
209,126,235821,1,0,0:0:0:0:
298,73,235984,1,0,0:0:0:0:
209,126,236147,1,8,0:0:0:0:
253,220,236188,1,8,0:0:0:0:
209,126,236310,1,0,0:0:0:0:
209,126,236473,1,8,0:0:0:0:
294,264,236514,1,8,0:0:0:0:
327,188,236637,1,0,0:0:0:0:
209,126,236800,1,0,0:0:0:0:
215,66,236881,1,0,0:0:0:0:
265,51,236963,1,8,0:0:0:0:
209,126,237126,1,0,0:0:0:0:
174,26,237289,1,8,0:0:0:0:
224,122,237370,1,0,0:0:0:0:
319,130,237452,1,8,0:0:0:0:
119,222,237533,1,8,0:0:0:0:
103,95,237615,1,0,0:0:0:0:
239,163,239082,1,0,0:0:0:0:
239,163,239245,1,0,0:0:0:0:
239,163,239408,1,0,0:0:0:0:
239,163,239571,1,8,0:0:0:0:
299,68,239653,1,8,0:0:0:0:
299,68,239734,1,0,0:0:0:0:
179,201,239897,1,8,0:0:0:0:
179,201,240060,1,8,0:0:0:0:
144,101,240223,1,0,0:0:0:0:
379,141,240387,1,8,0:0:0:0:
177,29,240441,1,8,0:0:0:0:
76,154,240495,1,0,0:0:0:0:
105,41,240550,1,0,0:0:0:0:
240,69,240713,1,0,0:0:0:0:
76,154,240876,1,8,0:0:0:0:
289,229,240916,1,8,0:0:0:0:
133,96,241039,1,0,0:0:0:0:
199,143,241202,1,0,0:0:0:0:
199,143,241365,1,8,0:0:0:0:
331,200,241406,1,8,0:0:0:0:
199,143,241528,1,0,0:0:0:0:
179,72,241691,1,0,0:0:0:0:
243,164,241772,1,0,0:0:0:0:
329,159,241854,1,8,0:0:0:0:
122,101,241935,1,8,0:0:0:0:
329,159,242017,1,8,0:0:0:0:
262,78,242180,1,0,0:0:0:0:
262,78,242343,1,8,0:0:0:0:
262,78,242425,1,8,0:0:0:0:
262,78,242506,1,8,0:0:0:0:
235,212,242588,1,8,0:0:0:0:
235,212,242669,1,0,0:0:0:0:
235,212,242751,1,0,0:0:0:0:
116,92,242832,1,12,0:0:0:0:
229,49,242995,1,0,0:0:0:0:
351,263,243158,1,0,0:0:0:0:
185,154,243321,1,8,0:0:0:0:
316,137,243403,1,0,0:0:0:0:
167,224,243484,1,8,0:0:0:0:
251,212,243647,1,0,0:0:0:0:
96,83,243810,1,8,0:0:0:0:
94,198,243892,1,0,0:0:0:0:
251,212,243973,1,8,0:0:0:0:
177,21,244055,1,0,0:0:0:0:
366,184,244137,1,0,0:0:0:0:
315,147,244300,1,8,0:0:0:0:
142,278,244381,1,0,0:0:0:0:
247,77,244463,1,0,0:0:0:0:
96,161,244626,1,8,0:0:0:0:
203,169,244707,1,0,0:0:0:0:
202,117,244789,1,8,0:0:0:0:
96,161,244952,1,0,0:0:0:0:
128,42,245115,1,8,0:0:0:0:
300,238,245278,1,0,0:0:0:0:
200,57,245359,1,0,0:0:0:0:
300,238,245441,1,8,0:0:0:0:
94,220,245522,1,8,0:0:0:0:
300,238,245604,1,0,0:0:0:0:
172,181,245767,1,0,0:0:0:0:
232,135,245930,1,8,0:0:0:0:
85,132,246012,1,0,0:0:0:0:
228,62,246093,1,8,0:0:0:0:
232,135,246256,1,0,0:0:0:0:
117,80,246419,1,8,0:0:0:0:
85,132,246501,1,8,0:0:0:0:
232,135,246582,1,0,0:0:0:0:
232,135,246745,1,0,0:0:0:0:
232,135,246908,1,0,0:0:0:0:
85,132,246990,1,8,0:0:0:0:
91,144,247071,1,8,0:0:0:0:
171,48,247153,1,0,0:0:0:0:
91,144,247234,1,8,0:0:0:0:
232,135,247397,1,0,0:0:0:0:
61,104,247560,1,0,0:0:0:0:
83,226,247723,1,8,0:0:0:0:
213,16,247805,1,0,0:0:0:0:
204,119,247887,1,0,0:0:0:0:
176,170,248050,1,12,0:0:0:0:
176,170,248213,1,0,0:0:0:0:
255,90,248376,1,0,0:0:0:0:
125,141,248539,1,8,0:0:0:0:
321,74,248620,1,0,0:0:0:0:
329,132,248702,1,8,0:0:0:0:
125,141,248865,1,0,0:0:0:0:
129,20,249028,1,8,0:0:0:0:
192,206,249109,1,0,0:0:0:0:
125,141,249191,1,0,0:0:0:0:
207,69,249272,1,8,0:0:0:0:
125,141,249354,1,0,0:0:0:0:
125,141,249517,1,8,0:0:0:0:
192,206,249598,1,0,0:0:0:0:
291,147,249680,1,0,0:0:0:0:
206,163,249843,1,0,0:0:0:0:
304,72,249925,1,0,0:0:0:0:
247,81,250006,1,8,0:0:0:0:
206,163,250169,1,0,0:0:0:0:
154,65,250332,1,8,0:0:0:0:
245,209,250495,1,8,0:0:0:0:
203,24,250577,1,0,0:0:0:0:
245,209,250658,1,8,0:0:0:0:
245,209,250821,1,0,0:0:0:0:
298,119,250984,1,0,0:0:0:0:
271,204,251147,1,0,0:0:0:0:
163,15,251310,1,8,0:0:0:0:
271,204,251473,1,0,0:0:0:0:
254,66,251637,1,8,0:0:0:0:
146,151,251800,1,8,0:0:0:0:
195,79,251881,1,8,0:0:0:0:
146,151,251963,1,0,0:0:0:0:
146,151,252126,1,0,0:0:0:0:
57,62,252289,1,8,0:0:0:0:
201,13,252370,1,0,0:0:0:0:
57,62,252452,1,8,0:0:0:0:
146,151,252615,1,0,0:0:0:0:
146,151,252778,1,0,0:0:0:0:
172,73,252941,1,8,0:0:0:0:
172,73,253104,1,8,0:0:0:0:
160,18,253185,1,8,0:0:0:0:
146,151,253267,1,4,0:0:0:0:
238,38,253430,1,0,0:0:0:0:
358,135,253593,1,0,0:0:0:0:
291,193,253756,1,8,0:0:0:0:
173,206,253838,1,0,0:0:0:0:
244,101,253919,1,8,0:0:0:0:
291,193,254082,1,0,0:0:0:0:
110,52,254245,1,8,0:0:0:0:
162,202,254327,1,0,0:0:0:0:
180,100,254408,1,8,0:0:0:0:
180,100,254490,1,8,0:0:0:0:
331,194,254571,1,0,0:0:0:0:
331,194,254734,1,8,0:0:0:0:
161,202,254816,1,0,0:0:0:0:
266,125,254897,1,0,0:0:0:0:
305,186,255060,1,0,0:0:0:0:
219,174,255142,1,0,0:0:0:0:
158,79,255223,1,8,0:0:0:0:
305,186,255387,1,0,0:0:0:0:
213,38,255550,1,8,0:0:0:0:
304,186,255713,1,8,0:0:0:0:
221,149,255794,1,0,0:0:0:0:
305,186,255876,1,8,0:0:0:0:
162,201,255957,1,0,0:0:0:0:
305,186,256039,1,0,0:0:0:0:
279,111,256202,1,0,0:0:0:0:
305,186,256365,1,0,0:0:0:0:
195,170,256446,1,0,0:0:0:0:
196,21,256528,1,8,0:0:0:0:
304,186,256691,1,0,0:0:0:0:
126,121,256854,1,8,0:0:0:0:
139,199,256935,1,0,0:0:0:0:
305,186,257017,1,8,0:0:0:0:
229,79,257098,1,0,0:0:0:0:
233,170,257180,1,0,0:0:0:0:
233,170,257343,1,0,0:0:0:0:
87,199,257425,1,0,0:0:0:0:
151,109,257506,1,8,0:0:0:0:
151,109,257669,1,8,0:0:0:0:
233,170,257832,1,0,0:0:0:0:
233,170,257995,1,0,0:0:0:0:
88,130,258158,1,8,0:0:0:0:
232,32,258240,1,0,0:0:0:0:
154,120,258321,1,8,0:0:0:0:
154,120,258484,1,12,0:0:0:0:
205,119,258647,1,0,0:0:0:0:
281,113,258810,1,0,0:0:0:0:
205,119,258973,1,0,0:0:0:0:
421,106,259055,1,0,0:0:0:0:
239,54,259137,1,8,0:0:0:0:
205,119,259300,1,0,0:0:0:0:
127,124,259463,1,8,0:0:0:0:
89,192,259544,1,0,0:0:0:0:
205,119,259626,1,0,0:0:0:0:
287,112,259707,1,0,0:0:0:0:
205,119,259789,1,8,0:0:0:0:
205,119,259952,1,8,0:0:0:0:
187,219,260033,1,0,0:0:0:0:
363,106,260115,1,0,0:0:0:0:
205,119,260278,1,8,0:0:0:0:
304,169,260359,1,0,0:0:0:0:
106,64,260441,1,8,0:0:0:0:
205,119,260604,1,0,0:0:0:0:
183,37,260767,1,8,0:0:0:0:
179,156,260930,1,8,0:0:0:0:
240,50,261012,1,8,0:0:0:0:
179,156,261093,1,0,0:0:0:0:
179,156,261256,1,0,0:0:0:0:
267,97,261419,1,0,0:0:0:0:
163,30,261582,1,8,0:0:0:0:
267,97,261745,1,0,0:0:0:0:
180,61,261827,1,0,0:0:0:0:
267,97,261908,1,0,0:0:0:0:
30,163,262071,1,8,0:0:0:0:
267,97,262234,1,0,0:0:0:0:
256,91,262397,1,0,0:0:0:0:
117,72,262560,1,8,0:0:0:0:
187,100,262723,1,8,0:0:0:0:
242,174,262805,1,8,0:0:0:0:
187,100,262887,1,0,0:0:0:0:
85,154,263050,1,0,0:0:0:0:
122,275,263090,1,0,0:0:0:0:
85,154,263213,1,0,0:0:0:0:
122,275,263253,1,0,0:0:0:0:
85,154,263376,1,8,0:0:0:0:
264,247,263416,1,8,0:0:0:0:
85,154,263539,1,8,0:0:0:0:
264,247,263579,1,8,0:0:0:0:
187,100,263702,1,4,0:0:0:0:
230,224,264191,1,0,0:0:0:0:
180,192,264517,1,0,0:0:0:0:
281,120,264680,1,8,0:0:0:0:
329,224,264843,1,0,0:0:0:0:
281,120,265006,1,8,0:0:0:0:
184,64,265169,1,0,0:0:0:0:
212,71,265495,1,0,0:0:0:0:
212,71,265658,1,0,0:0:0:0:
212,71,265821,1,0,0:0:0:0:
332,223,265984,1,8,0:0:0:0:
133,84,266147,1,8,0:0:0:0:
332,223,266310,1,0,0:0:0:0:
204,130,266800,1,8,0:0:0:0:
370,169,266963,1,0,0:0:0:0:
98,67,267126,1,0,0:0:0:0:
234,193,267289,1,8,0:0:0:0:
192,55,267452,1,0,0:0:0:0:
234,193,267615,1,8,0:0:0:0:
152,76,267778,1,0,0:0:0:0:
248,103,268104,1,0,0:0:0:0:
248,103,268267,1,0,0:0:0:0:
248,103,268430,1,0,0:0:0:0:
239,190,268593,1,8,0:0:0:0:
184,28,268756,1,8,0:0:0:0:
239,190,268919,1,0,0:0:0:0:
149,124,269408,1,8,0:0:0:0:
299,171,269571,1,0,0:0:0:0:
149,124,269734,1,0,0:0:0:0:
319,120,269897,1,8,0:0:0:0:
149,124,270060,1,0,0:0:0:0:
319,120,270223,1,8,0:0:0:0:
211,80,270387,1,0,0:0:0:0:
211,80,270713,1,0,0:0:0:0:
211,80,270876,1,0,0:0:0:0:
211,80,271039,1,0,0:0:0:0:
319,120,271202,1,8,0:0:0:0:
211,80,271365,1,8,0:0:0:0:
319,120,271528,1,0,0:0:0:0:
148,50,272017,1,8,0:0:0:0:
196,163,272180,1,0,0:0:0:0:
148,50,272343,1,0,0:0:0:0:
174,120,272506,1,8,0:0:0:0:
206,33,272669,1,8,0:0:0:0:
174,120,272832,1,0,0:0:0:0:
261,83,272995,1,0,0:0:0:0:
261,83,273321,1,0,0:0:0:0:
261,83,273484,1,8,0:0:0:0:
261,83,273647,1,0,0:0:0:0:
261,83,273810,1,8,0:0:0:0:
261,83,273973,1,0,0:0:0:0:
180,86,274137,1,8,0:0:0:0:
180,86,274626,1,8,0:0:0:0:
261,114,274952,1,0,0:0:0:0:
180,86,275115,1,8,0:0:0:0:
262,148,275441,1,0,0:0:0:0:
180,133,275604,1,8,0:0:0:0:
180,133,275930,1,0,0:0:0:0:
180,133,276093,1,8,0:0:0:0:
180,133,276256,1,0,0:0:0:0:
180,133,276419,1,8,0:0:0:0:
180,133,276582,1,0,0:0:0:0:
127,121,276745,1,8,0:0:0:0:
127,121,277234,1,8,0:0:0:0:
217,28,277397,1,0,0:0:0:0:
239,82,277560,1,0,0:0:0:0:
127,121,277723,1,8,0:0:0:0:
370,175,278050,1,0,0:0:0:0:
252,132,278213,1,8,0:0:0:0:
252,132,278539,1,0,0:0:0:0:
174,57,278702,1,8,0:0:0:0:
174,57,278865,1,0,0:0:0:0:
174,57,279028,1,0,0:0:0:0:
174,57,279191,1,0,0:0:0:0:
194,71,279354,1,8,0:0:0:0:
194,71,279843,1,8,0:0:0:0:
317,165,280006,1,0,0:0:0:0:
252,41,280169,1,0,0:0:0:0:
194,71,280332,1,8,0:0:0:0:
205,180,280658,1,0,0:0:0:0:
266,110,280821,1,8,0:0:0:0:
266,110,281147,1,0,0:0:0:0:
330,243,281310,1,8,0:0:0:0:
323,241,281473,1,8,0:0:0:0:
253,38,281637,1,0,0:0:0:0:
168,61,281800,1,0,0:0:0:0:
335,142,281963,1,8,0:0:0:0:
184,185,282452,1,8,0:0:0:0:
69,77,282615,1,0,0:0:0:0:
69,77,282778,1,0,0:0:0:0:
184,185,282941,1,8,0:0:0:0:
250,163,283267,1,0,0:0:0:0:
69,77,283430,1,0,0:0:0:0:
151,109,283593,1,8,0:0:0:0:
69,77,283756,1,0,0:0:0:0:
69,77,283919,1,0,0:0:0:0:
69,77,284082,1,0,0:0:0:0:
69,77,284245,1,8,0:0:0:0:
258,98,284571,1,12,0:0:0:0:
256,192,284734,8,0,289789,0:0:0:0:
