osu file format v14

[General]
AudioFilename: audio.mp3
AudioLeadIn: 0
PreviewTime: 15564
Countdown: 1
SampleSet: Normal
StackLeniency: 0.7
Mode: 1
LetterboxInBreaks: 0
WidescreenStoryboard: 0

[Editor]
Bookmarks: 1044,15589,30134,59225,88316,133771,148316,162862,191953,221044,237407,281044,311953,326498,341044,370134,399225,413771,428316,444680,459225,531953,575589,664680,766498,795589,811953,870134,899225,928316,959225,973771,986507,999234,1011961,1050143,1062870,1090143,1142870,1157415,1186506,1204688,1233779,1241052,1302870,1317415,1366506,1388324,1401052
DistanceSpacing: 0.8
BeatDivisor: 4
GridSize: 32
TimelineZoom: 2.2

[Metadata]
Title:vocaloid tachi ga tada sakebu dake
TitleUnicode:ボーカロイドたちがただ叫ぶだけ
Artist:Vocaloid
ArtistUnicode:ボーカロイド
Creator:rhyrhy
Version:taiko
Source:
Tags:vocaloid dake marathon
BeatmapID:1466185
BeatmapSetID:692904

[Difficulty]
HPDrainRate:8
CircleSize:5
OverallDifficulty:6
ApproachRate:10
SliderMultiplier:1.39999990463257
SliderTickRate:2

[Events]
//Background and Video events
//Break Periods
//Storyboard Layer 0 (Background)
//Storyboard Layer 1 (Fail)
//Storyboard Layer 2 (Pass)
//Storyboard Layer 3 (Foreground)
//Storyboard Sound Samples

[TimingPoints]
1044,454.545454545455,4,1,0,100,1,0
15589,-66.6666666666667,4,1,0,100,0,1
22860,-55.5555555555556,4,1,0,100,0,1
26498,-50,4,1,0,100,0,1
30151,-100,4,1,0,100,0,0
88544,-50,4,1,0,100,0,1
88657,-100,4,1,0,100,0,0
88998,-50,4,1,0,100,0,1
89112,-100,4,1,0,100,0,0
89453,-50,4,1,0,100,0,1
89566,-100,4,1,0,100,0,0
89907,-50,4,1,0,100,0,1
90021,-100,4,1,0,100,0,0
95816,-50,4,1,0,100,0,1
95929,-100,4,1,0,100,0,0
96270,-50,4,1,0,100,0,1
96384,-100,4,1,0,100,0,0
96725,-50,4,1,0,100,0,1
96838,-100,4,1,0,100,0,0
97179,-50,4,1,0,100,0,1
97293,-100,4,1,0,100,0,0
99452,227.272727272727,4,1,0,100,1,9
99452,-25,4,1,0,100,0,9
99565,454.545454545455,4,1,0,100,1,8
99906,227.272727272727,4,1,0,100,1,9
99906,-25,4,1,0,100,0,9
100020,454.545454545455,4,1,0,100,1,8
100361,227.272727272727,4,1,0,100,1,9
100361,-25,4,1,0,100,0,9
100474,454.545454545455,4,1,0,100,1,8
100815,227.272727272727,4,1,0,100,1,9
100815,-25,4,1,0,100,0,9
101028,454.545454545455,4,1,0,100,1,9
101042,-100,4,1,0,100,0,8
101157,-94.3396226415094,4,1,0,100,0,0
101271,-88.8888888888889,4,1,0,100,0,0
101384,-84.7457627118644,4,1,0,100,0,0
101498,-80,4,1,0,100,0,0
101612,-76.3358778625954,4,1,0,100,0,0
101725,-72.7272727272727,4,1,0,100,0,0
101839,-69.9300699300699,4,1,0,100,0,0
101953,-66.6666666666667,4,1,0,100,0,0
102066,-64.1025641025641,4,1,0,100,0,0
102180,-61.5384615384615,4,1,0,100,0,0
102294,-59.1715976331361,4,1,0,100,0,0
102407,-57.1428571428571,4,1,0,100,0,0
102521,-54.7945205479452,4,1,0,100,0,0
102634,-50,4,1,0,100,0,0
102747,-50,4,1,0,100,0,1
116384,-100,4,1,0,100,0,0
117407,-100,4,1,0,100,0,1
131953,-100,4,1,0,100,0,0
973780,454.545454545455,7,1,0,100,1,0
1090143,454.545454545455,4,1,0,100,1,0

[HitObjects]
288,160,1044,5,8,0:0:0:0:
224,160,1271,1,0,0:0:0:0:
224,160,1384,1,0,0:0:0:0:
288,160,1498,1,8,0:0:0:0:
224,160,1725,1,0,0:0:0:0:
224,160,1839,1,0,0:0:0:0:
288,160,1953,1,8,0:0:0:0:
224,160,2180,1,0,0:0:0:0:
224,160,2294,1,0,0:0:0:0:
224,160,2407,1,0,0:0:0:0:
224,160,2483,1,0,0:0:0:0:
224,160,2559,1,0,0:0:0:0:
224,160,2634,1,0,0:0:0:0:
288,160,2748,1,8,0:0:0:0:
224,160,2862,1,0,0:0:0:0:
224,160,2975,1,0,0:0:0:0:
288,160,3089,1,8,0:0:0:0:
288,160,3316,1,12,0:0:0:0:
224,160,3544,1,0,0:0:0:0:
224,160,3657,1,0,0:0:0:0:
224,160,3771,1,0,0:0:0:0:
288,160,3884,1,8,0:0:0:0:
288,160,4112,1,8,0:0:0:0:
288,160,4339,1,8,0:0:0:0:
288,160,4566,1,8,0:0:0:0:
288,160,4680,5,8,0:0:0:0:
224,160,4908,1,0,0:0:0:0:
224,160,5021,1,0,0:0:0:0:
288,160,5135,1,8,0:0:0:0:
224,160,5362,1,0,0:0:0:0:
224,160,5475,1,0,0:0:0:0:
288,160,5589,1,8,0:0:0:0:
224,160,5817,1,0,0:0:0:0:
224,160,5931,1,0,0:0:0:0:
224,160,6044,1,0,0:0:0:0:
224,160,6120,1,0,0:0:0:0:
224,160,6196,1,0,0:0:0:0:
224,160,6271,1,0,0:0:0:0:
288,160,6385,1,8,0:0:0:0:
224,160,6499,1,0,0:0:0:0:
224,160,6612,1,0,0:0:0:0:
288,160,6726,1,8,0:0:0:0:
288,160,6953,1,12,0:0:0:0:
224,160,7181,1,0,0:0:0:0:
224,160,7294,1,0,0:0:0:0:
224,160,7408,1,0,0:0:0:0:
288,160,7521,1,8,0:0:0:0:
288,160,7749,1,8,0:0:0:0:
288,160,7976,1,8,0:0:0:0:
288,160,8203,1,8,0:0:0:0:
288,160,8316,5,8,0:0:0:0:
224,160,8544,1,0,0:0:0:0:
224,160,8657,1,0,0:0:0:0:
288,160,8771,1,8,0:0:0:0:
224,160,8998,1,0,0:0:0:0:
224,160,9112,1,0,0:0:0:0:
224,160,9225,1,8,0:0:0:0:
224,160,9453,1,0,0:0:0:0:
224,160,9567,1,0,0:0:0:0:
224,160,9680,1,0,0:0:0:0:
224,160,9756,1,0,0:0:0:0:
224,160,9832,1,0,0:0:0:0:
224,160,9907,1,0,0:0:0:0:
288,160,10021,1,8,0:0:0:0:
224,160,10135,1,0,0:0:0:0:
224,160,10248,1,0,0:0:0:0:
288,160,10362,1,8,0:0:0:0:
288,160,10589,1,12,0:0:0:0:
224,160,10817,1,0,0:0:0:0:
224,160,10930,1,0,0:0:0:0:
224,160,11044,1,0,0:0:0:0:
288,160,11157,1,8,0:0:0:0:
288,160,11385,1,8,0:0:0:0:
288,160,11612,1,8,0:0:0:0:
288,160,11839,1,8,0:0:0:0:
288,160,11953,5,8,0:0:0:0:
224,160,12180,1,0,0:0:0:0:
288,160,12407,1,12,0:0:0:0:
224,160,12748,1,0,0:0:0:0:
224,160,13089,1,0,0:0:0:0:
224,160,13316,1,0,0:0:0:0:
224,160,13544,1,0,0:0:0:0:
288,160,13771,5,8,0:0:0:0:
224,160,13847,1,0,0:0:0:0:
224,160,13922,1,0,0:0:0:0:
288,160,13998,1,8,0:0:0:0:
224,160,14074,1,0,0:0:0:0:
224,160,14150,1,0,0:0:0:0:
288,160,14225,1,8,0:0:0:0:
224,160,14453,1,0,0:0:0:0:
224,160,14528,1,0,0:0:0:0:
224,160,14604,1,0,0:0:0:0:
224,160,14680,1,0,0:0:0:0:
288,160,14794,1,8,0:0:0:0:
224,160,14907,1,0,0:0:0:0:
224,160,15021,1,0,0:0:0:0:
288,160,15134,1,8,0:0:0:0:
224,160,15248,1,0,0:0:0:0:
288,160,15362,1,8,0:0:0:0:
288,160,15589,5,8,0:0:0:0:
224,160,15702,1,0,0:0:0:0:
224,160,15816,1,0,0:0:0:0:
288,160,15929,1,8,0:0:0:0:
224,160,16043,1,0,0:0:0:0:
224,160,16157,1,0,0:0:0:0:
288,160,16270,1,8,0:0:0:0:
224,160,16384,1,0,0:0:0:0:
224,160,16498,1,0,0:0:0:0:
288,160,16611,1,8,0:0:0:0:
224,160,16725,1,0,0:0:0:0:
224,160,16839,1,0,0:0:0:0:
288,160,16952,1,8,0:0:0:0:
224,160,17066,1,0,0:0:0:0:
288,160,17179,1,8,0:0:0:0:
288,160,17407,5,8,0:0:0:0:
224,160,17520,1,0,0:0:0:0:
224,160,17634,1,0,0:0:0:0:
288,160,17747,1,8,0:0:0:0:
224,160,17861,1,0,0:0:0:0:
224,160,17975,1,0,0:0:0:0:
288,160,18088,1,8,0:0:0:0:
224,160,18202,1,0,0:0:0:0:
224,160,18316,1,0,0:0:0:0:
288,160,18429,1,8,0:0:0:0:
224,160,18543,1,0,0:0:0:0:
224,160,18657,1,0,0:0:0:0:
288,160,18770,1,8,0:0:0:0:
224,160,18884,1,0,0:0:0:0:
288,160,18997,1,8,0:0:0:0:
288,160,19225,5,8,0:0:0:0:
288,160,19339,1,8,0:0:0:0:
224,160,19452,1,0,0:0:0:0:
288,160,19566,1,8,0:0:0:0:
288,160,19679,1,8,0:0:0:0:
224,160,19793,1,0,0:0:0:0:
288,160,19907,1,8,0:0:0:0:
288,160,20020,1,8,0:0:0:0:
224,160,20134,1,0,0:0:0:0:
288,160,20248,1,8,0:0:0:0:
288,160,20361,1,8,0:0:0:0:
224,160,20475,1,0,0:0:0:0:
288,160,20589,1,8,0:0:0:0:
224,160,20702,1,0,0:0:0:0:
288,160,20816,1,8,0:0:0:0:
288,160,21043,5,8,0:0:0:0:
288,160,21157,1,8,0:0:0:0:
224,160,21270,1,0,0:0:0:0:
288,160,21384,1,8,0:0:0:0:
288,160,21497,1,8,0:0:0:0:
224,160,21611,1,0,0:0:0:0:
288,160,21725,1,8,0:0:0:0:
288,160,21838,1,8,0:0:0:0:
224,160,21952,1,0,0:0:0:0:
288,160,22066,1,8,0:0:0:0:
288,160,22179,1,8,0:0:0:0:
224,160,22293,1,0,0:0:0:0:
288,160,22407,1,8,0:0:0:0:
224,160,22520,1,0,0:0:0:0:
288,160,22634,1,8,0:0:0:0:
288,160,22861,5,8,0:0:0:0:
224,160,22975,1,0,0:0:0:0:
224,160,23032,1,0,0:0:0:0:
224,160,23089,1,0,0:0:0:0:
288,160,23202,1,8,0:0:0:0:
224,160,23316,1,0,0:0:0:0:
224,160,23373,1,0,0:0:0:0:
224,160,23429,1,0,0:0:0:0:
288,160,23543,1,8,0:0:0:0:
224,160,23657,1,0,0:0:0:0:
224,160,23714,1,0,0:0:0:0:
224,160,23770,1,0,0:0:0:0:
288,160,23884,1,8,0:0:0:0:
224,160,23998,1,0,0:0:0:0:
224,160,24054,1,0,0:0:0:0:
224,160,24111,1,0,0:0:0:0:
288,160,24225,1,8,0:0:0:0:
224,160,24339,1,0,0:0:0:0:
288,160,24452,1,8,0:0:0:0:
224,160,24566,1,0,0:0:0:0:
288,160,24679,5,8,0:0:0:0:
224,160,24793,1,0,0:0:0:0:
224,160,24850,1,0,0:0:0:0:
224,160,24907,1,0,0:0:0:0:
288,160,25020,1,8,0:0:0:0:
224,160,25134,1,0,0:0:0:0:
224,160,25191,1,0,0:0:0:0:
224,160,25247,1,0,0:0:0:0:
288,160,25361,1,8,0:0:0:0:
224,160,25475,1,0,0:0:0:0:
224,160,25532,1,0,0:0:0:0:
224,160,25588,1,0,0:0:0:0:
288,160,25702,1,8,0:0:0:0:
224,160,25816,1,0,0:0:0:0:
224,160,25872,1,0,0:0:0:0:
224,160,25929,1,0,0:0:0:0:
288,160,26043,1,8,0:0:0:0:
224,160,26157,1,0,0:0:0:0:
288,160,26270,1,8,0:0:0:0:
224,160,26384,1,0,0:0:0:0:
288,160,26498,5,8,0:0:0:0:
288,160,26554,5,8,0:0:0:0:
224,160,26611,1,0,0:0:0:0:
224,160,26725,1,0,0:0:0:0:
288,160,26839,1,8,0:0:0:0:
288,160,26895,1,8,0:0:0:0:
224,160,26952,1,0,0:0:0:0:
224,160,27066,1,0,0:0:0:0:
288,160,27179,1,8,0:0:0:0:
288,160,27236,1,8,0:0:0:0:
224,160,27293,1,0,0:0:0:0:
224,160,27407,1,0,0:0:0:0:
288,160,27520,1,8,0:0:0:0:
288,160,27577,1,8,0:0:0:0:
224,160,27634,1,0,0:0:0:0:
224,160,27748,1,0,0:0:0:0:
288,160,27861,1,8,0:0:0:0:
224,160,27975,1,0,0:0:0:0:
288,160,28089,1,8,0:0:0:0:
224,160,28202,1,0,0:0:0:0:
288,160,28316,5,8,0:0:0:0:
288,160,28372,5,8,0:0:0:0:
224,160,28429,1,0,0:0:0:0:
224,160,28543,1,0,0:0:0:0:
288,160,28657,1,8,0:0:0:0:
288,160,28713,1,8,0:0:0:0:
224,160,28770,1,0,0:0:0:0:
224,160,28884,1,0,0:0:0:0:
288,160,28997,1,8,0:0:0:0:
288,160,29054,1,8,0:0:0:0:
224,160,29111,1,0,0:0:0:0:
224,160,29225,1,0,0:0:0:0:
288,160,29338,1,8,0:0:0:0:
288,160,29395,1,8,0:0:0:0:
224,160,29452,1,0,0:0:0:0:
224,160,29566,1,0,0:0:0:0:
288,160,29679,1,8,0:0:0:0:
224,160,29755,1,0,0:0:0:0:
224,160,29831,1,0,0:0:0:0:
288,160,29907,1,8,0:0:0:0:
224,160,29982,1,0,0:0:0:0:
224,160,30058,1,0,0:0:0:0:
288,160,30134,5,8,0:0:0:0:
224,160,30589,1,0,0:0:0:0:
224,160,30816,1,0,0:0:0:0:
288,160,30930,1,8,0:0:0:0:
224,160,31271,1,0,0:0:0:0:
288,160,31498,1,8,0:0:0:0:
224,160,31725,1,0,0:0:0:0:
288,160,31953,1,8,0:0:0:0:
224,160,32180,1,0,0:0:0:0:
288,160,32294,1,8,0:0:0:0:
224,160,32407,1,0,0:0:0:0:
288,160,32634,1,8,0:0:0:0:
224,160,32862,1,0,0:0:0:0:
288,160,32975,1,8,0:0:0:0:
224,160,33089,1,0,0:0:0:0:
224,160,33203,1,0,0:0:0:0:
288,160,33316,1,8,0:0:0:0:
288,160,33544,1,8,0:0:0:0:
224,160,33771,5,0,0:0:0:0:
288,160,33884,1,8,0:0:0:0:
224,160,33998,1,0,0:0:0:0:
288,160,34225,1,8,0:0:0:0:
224,160,34339,1,0,0:0:0:0:
288,160,34566,1,8,0:0:0:0:
224,160,34680,1,0,0:0:0:0:
288,160,34907,1,8,0:0:0:0:
224,160,35021,1,0,0:0:0:0:
224,160,35248,1,0,0:0:0:0:
224,160,35362,1,8,0:0:0:0:
224,160,35589,1,0,0:0:0:0:
224,160,35816,1,0,0:0:0:0:
224,160,35892,1,0,0:0:0:0:
224,160,35968,1,0,0:0:0:0:
224,160,36044,1,0,0:0:0:0:
288,160,36157,1,8,0:0:0:0:
288,160,36384,1,8,0:0:0:0:
288,160,36612,1,8,0:0:0:0:
288,160,36839,1,8,0:0:0:0:
288,160,36953,1,8,0:0:0:0:
288,160,37180,1,8,0:0:0:0:
224,160,37407,5,4,0:0:0:0:
224,160,37634,1,0,0:0:0:0:
224,160,37710,1,0,0:0:0:0:
224,160,37786,1,0,0:0:0:0:
288,160,37862,1,8,0:0:0:0:
224,160,38089,1,0,0:0:0:0:
224,160,38165,1,0,0:0:0:0:
224,160,38240,1,0,0:0:0:0:
224,160,38316,1,0,0:0:0:0:
288,160,38430,1,8,0:0:0:0:
224,160,38544,1,0,0:0:0:0:
224,160,38657,1,0,0:0:0:0:
288,160,38771,1,8,0:0:0:0:
224,160,38884,1,0,0:0:0:0:
288,160,38998,1,8,0:0:0:0:
224,160,39225,5,12,0:0:0:0:
224,160,39452,1,0,0:0:0:0:
224,160,39528,1,0,0:0:0:0:
224,160,39604,1,0,0:0:0:0:
288,160,39680,1,8,0:0:0:0:
224,160,39907,1,0,0:0:0:0:
224,160,39983,1,0,0:0:0:0:
224,160,40058,1,0,0:0:0:0:
224,160,40134,1,0,0:0:0:0:
288,160,40248,1,8,0:0:0:0:
224,160,40362,1,8,0:0:0:0:
224,160,40475,1,0,0:0:0:0:
288,160,40589,1,8,0:0:0:0:
224,160,40702,1,0,0:0:0:0:
288,160,40816,1,8,0:0:0:0:
224,160,41044,5,4,0:0:0:0:
224,160,41271,1,0,0:0:0:0:
224,160,41347,1,0,0:0:0:0:
224,160,41423,1,0,0:0:0:0:
288,160,41499,1,8,0:0:0:0:
224,160,41725,1,0,0:0:0:0:
224,160,41801,1,0,0:0:0:0:
224,160,41877,1,0,0:0:0:0:
288,160,41953,1,8,0:0:0:0:
224,160,42066,1,0,0:0:0:0:
224,160,42180,1,0,0:0:0:0:
288,160,42294,1,8,0:0:0:0:
224,160,42407,1,0,0:0:0:0:
224,160,42521,1,0,0:0:0:0:
288,160,42634,1,8,0:0:0:0:
224,160,42748,1,0,0:0:0:0:
224,160,42862,1,0,0:0:0:0:
288,160,42975,1,8,0:0:0:0:
224,160,43089,1,0,0:0:0:0:
224,160,43203,1,0,0:0:0:0:
288,160,43316,1,8,0:0:0:0:
224,160,43430,1,0,0:0:0:0:
224,160,43544,1,0,0:0:0:0:
288,160,43657,1,8,0:0:0:0:
288,160,43771,1,8,0:0:0:0:
224,160,43884,1,0,0:0:0:0:
288,160,43998,1,8,0:0:0:0:
224,160,44112,1,0,0:0:0:0:
288,160,44225,1,8,0:0:0:0:
224,160,44301,1,0,0:0:0:0:
224,160,44377,1,0,0:0:0:0:
288,160,44453,1,8,0:0:0:0:
288,160,44680,5,4,0:0:0:0:
288,160,44907,1,8,0:0:0:0:
224,160,45134,1,0,0:0:0:0:
224,160,45248,1,0,0:0:0:0:
288,160,45362,1,8,0:0:0:0:
224,160,45475,1,0,0:0:0:0:
224,160,45703,1,0,0:0:0:0:
288,160,45816,1,8,0:0:0:0:
224,160,46044,1,0,0:0:0:0:
224,160,46157,1,0,0:0:0:0:
288,160,46271,1,8,0:0:0:0:
224,160,46498,5,0,0:0:0:0:
288,160,46725,1,8,0:0:0:0:
224,160,46839,1,0,0:0:0:0:
224,160,47066,1,0,0:0:0:0:
288,160,47180,1,8,0:0:0:0:
224,160,47294,1,0,0:0:0:0:
224,160,47521,1,0,0:0:0:0:
288,160,47634,1,8,0:0:0:0:
224,160,47748,1,0,0:0:0:0:
224,160,47862,1,0,0:0:0:0:
224,160,47937,1,0,0:0:0:0:
224,160,48013,1,0,0:0:0:0:
288,160,48089,1,8,0:0:0:0:
224,160,48316,5,0,0:0:0:0:
288,160,48544,1,8,0:0:0:0:
224,160,48657,1,0,0:0:0:0:
224,160,48884,1,0,0:0:0:0:
288,160,48998,1,8,0:0:0:0:
224,160,49112,1,0,0:0:0:0:
224,160,49339,1,0,0:0:0:0:
288,160,49453,1,8,0:0:0:0:
224,160,49566,1,0,0:0:0:0:
224,160,49680,1,0,0:0:0:0:
224,160,49794,1,0,0:0:0:0:
288,160,49907,1,8,0:0:0:0:
224,160,50134,5,0,0:0:0:0:
288,160,50362,1,8,0:0:0:0:
224,160,50475,1,0,0:0:0:0:
224,160,50589,1,0,0:0:0:0:
224,160,50665,1,0,0:0:0:0:
224,160,50740,1,0,0:0:0:0:
288,160,50816,1,8,0:0:0:0:
224,160,50930,1,0,0:0:0:0:
224,160,51157,1,0,0:0:0:0:
288,160,51271,1,8,0:0:0:0:
224,160,51384,1,0,0:0:0:0:
224,160,51498,1,0,0:0:0:0:
224,160,51555,1,0,0:0:0:0:
224,160,51612,1,0,0:0:0:0:
224,160,51669,1,0,0:0:0:0:
288,160,51725,1,8,0:0:0:0:
224,160,51953,5,0,0:0:0:0:
288,160,52180,1,8,0:0:0:0:
224,160,52294,1,0,0:0:0:0:
224,160,52521,1,0,0:0:0:0:
288,160,52634,1,8,0:0:0:0:
224,160,52748,1,0,0:0:0:0:
224,160,52862,1,0,0:0:0:0:
224,160,52975,1,0,0:0:0:0:
288,160,53089,1,8,0:0:0:0:
224,160,53203,1,0,0:0:0:0:
224,160,53316,1,0,0:0:0:0:
224,160,53430,1,0,0:0:0:0:
288,160,53544,1,8,0:0:0:0:
224,160,53771,5,0,0:0:0:0:
224,160,53884,1,0,0:0:0:0:
288,160,53998,1,8,0:0:0:0:
224,160,54112,1,0,0:0:0:0:
224,160,54339,1,0,0:0:0:0:
288,160,54453,1,8,0:0:0:0:
224,160,54566,1,0,0:0:0:0:
224,160,54680,1,0,0:0:0:0:
224,160,54794,1,0,0:0:0:0:
288,160,54907,1,8,0:0:0:0:
224,160,55021,1,0,0:0:0:0:
224,160,55134,1,0,0:0:0:0:
224,160,55248,1,0,0:0:0:0:
288,160,55362,1,8,0:0:0:0:
224,160,55589,5,0,0:0:0:0:
224,160,55665,1,0,0:0:0:0:
224,160,55740,1,0,0:0:0:0:
288,160,55816,1,8,0:0:0:0:
224,160,55930,1,0,0:0:0:0:
224,160,56157,1,0,0:0:0:0:
288,160,56271,1,8,0:0:0:0:
224,160,56384,1,0,0:0:0:0:
224,160,56498,1,0,0:0:0:0:
224,160,56574,1,0,0:0:0:0:
224,160,56650,1,0,0:0:0:0:
288,160,56725,1,8,0:0:0:0:
224,160,56839,1,0,0:0:0:0:
224,160,57066,1,0,0:0:0:0:
288,160,57180,1,8,0:0:0:0:
224,160,57294,1,0,0:0:0:0:
224,160,57407,1,0,0:0:0:0:
224,160,57483,1,0,0:0:0:0:
224,160,57559,1,0,0:0:0:0:
288,160,57634,1,8,0:0:0:0:
224,160,57748,1,0,0:0:0:0:
288,160,57862,1,8,0:0:0:0:
224,160,57975,1,0,0:0:0:0:
224,160,58089,1,0,0:0:0:0:
288,160,58202,1,8,0:0:0:0:
224,160,58316,1,0,0:0:0:0:
224,160,58430,1,0,0:0:0:0:
288,160,58543,1,8,0:0:0:0:
224,160,58657,1,0,0:0:0:0:
288,160,58771,1,8,0:0:0:0:
224,160,58847,1,0,0:0:0:0:
224,160,58922,1,0,0:0:0:0:
288,160,58998,1,8,0:0:0:0:
288,160,59225,5,12,0:0:0:0:
288,160,59453,1,8,0:0:0:0:
224,160,59680,1,0,0:0:0:0:
224,160,59794,1,0,0:0:0:0:
288,160,59907,1,8,0:0:0:0:
224,160,60134,1,0,0:0:0:0:
288,160,60248,1,0,0:0:0:0:
288,160,60362,1,8,0:0:0:0:
288,160,60475,1,0,0:0:0:0:
288,160,60589,1,0,0:0:0:0:
288,160,60816,1,8,0:0:0:0:
224,160,61044,5,0,0:0:0:0:
288,160,61157,1,0,0:0:0:0:
288,160,61271,1,8,0:0:0:0:
224,160,61384,1,0,0:0:0:0:
288,160,61498,1,0,0:0:0:0:
224,160,61612,1,0,0:0:0:0:
224,160,61725,1,8,0:0:0:0:
224,160,61839,1,0,0:0:0:0:
224,160,61953,1,0,0:0:0:0:
288,160,62028,1,0,0:0:0:0:
288,160,62104,1,0,0:0:0:0:
288,160,62180,1,8,0:0:0:0:
224,160,62294,1,0,0:0:0:0:
288,160,62407,1,0,0:0:0:0:
288,160,62634,1,8,0:0:0:0:
288,160,62862,5,8,0:0:0:0:
224,160,62975,1,0,0:0:0:0:
224,160,63089,1,0,0:0:0:0:
288,160,63203,1,8,0:0:0:0:
224,160,63316,1,0,0:0:0:0:
224,160,63430,1,0,0:0:0:0:
288,160,63544,1,8,0:0:0:0:
224,160,63657,1,0,0:0:0:0:
224,160,63771,1,0,0:0:0:0:
288,160,63884,1,8,0:0:0:0:
288,160,63998,1,8,0:0:0:0:
224,160,64112,1,0,0:0:0:0:
288,160,64226,1,8,0:0:0:0:
288,160,64339,1,8,0:0:0:0:
288,160,64453,1,8,0:0:0:0:
224,160,64566,1,0,0:0:0:0:
224,160,64680,5,0,0:0:0:0:
224,160,64907,1,0,0:0:0:0:
224,160,64964,1,0,0:0:0:0:
224,160,65021,1,0,0:0:0:0:
224,160,65134,1,0,0:0:0:0:
224,160,65248,1,0,0:0:0:0:
288,160,65361,1,8,0:0:0:0:
224,160,65475,1,0,0:0:0:0:
224,160,65589,1,0,0:0:0:0:
288,160,65703,1,8,0:0:0:0:
224,160,65816,1,0,0:0:0:0:
224,160,65930,1,0,0:0:0:0:
224,160,66044,1,8,0:0:0:0:
224,160,66157,1,0,0:0:0:0:
224,160,66271,1,8,0:0:0:0:
224,160,66498,5,4,0:0:0:0:
288,160,66839,1,12,0:0:0:0:
288,160,67180,1,12,0:0:0:0:
288,160,67634,1,8,0:0:0:0:
224,160,67748,1,0,0:0:0:0:
224,160,67862,1,0,0:0:0:0:
224,160,67975,1,0,0:0:0:0:
288,160,68089,1,8,0:0:0:0:
224,160,68316,1,0,0:0:0:0:
288,160,68544,1,8,0:0:0:0:
224,160,68657,1,0,0:0:0:0:
224,160,68771,1,0,0:0:0:0:
288,160,68998,1,8,0:0:0:0:
224,160,69225,1,0,0:0:0:0:
224,160,69339,1,0,0:0:0:0:
288,160,69453,1,8,0:0:0:0:
224,160,69566,1,0,0:0:0:0:
224,160,69680,1,0,0:0:0:0:
288,160,69907,1,8,0:0:0:0:
288,160,70134,5,8,0:0:0:0:
224,160,70362,1,0,0:0:0:0:
224,160,70475,1,0,0:0:0:0:
288,160,70589,1,8,0:0:0:0:
224,160,70816,1,0,0:0:0:0:
224,160,70930,1,0,0:0:0:0:
288,160,71044,1,8,0:0:0:0:
288,160,71271,1,8,0:0:0:0:
288,160,71498,1,8,0:0:0:0:
224,160,71612,1,0,0:0:0:0:
224,160,71953,1,0,0:0:0:0:
224,160,72066,1,0,0:0:0:0:
288,160,72180,1,8,0:0:0:0:
224,160,72294,1,0,0:0:0:0:
224,160,72407,1,8,0:0:0:0:
288,160,72521,1,0,0:0:0:0:
224,160,72634,1,0,0:0:0:0:
288,160,72748,1,8,0:0:0:0:
224,160,72862,1,0,0:0:0:0:
224,160,72937,1,0,0:0:0:0:
224,160,73013,1,0,0:0:0:0:
288,160,73089,1,8,0:0:0:0:
224,160,73203,1,0,0:0:0:0:
224,160,73316,1,0,0:0:0:0:
288,160,73544,1,8,0:0:0:0:
224,160,73771,5,4,0:0:0:0:
224,160,73998,1,0,0:0:0:0:
224,160,74112,1,0,0:0:0:0:
288,160,74225,1,8,0:0:0:0:
224,160,74339,1,0,0:0:0:0:
224,160,74566,1,0,0:0:0:0:
224,160,74793,1,0,0:0:0:0:
224,160,74907,1,0,0:0:0:0:
288,160,75134,1,8,0:0:0:0:
288,160,75362,1,8,0:0:0:0:
224,160,75475,1,0,0:0:0:0:
224,160,75589,1,0,0:0:0:0:
288,160,75816,1,12,0:0:0:0:
224,160,76044,1,4,0:0:0:0:
288,160,76271,1,12,0:0:0:0:
224,160,76498,1,4,0:0:0:0:
288,160,76725,1,12,0:0:0:0:
224,160,76953,1,0,0:0:0:0:
224,160,77066,1,0,0:0:0:0:
288,160,77180,1,8,0:0:0:0:
224,160,77294,1,0,0:0:0:0:
224,160,77407,5,0,0:0:0:0:
288,160,77634,1,8,0:0:0:0:
224,160,77748,1,0,0:0:0:0:
224,160,77975,1,0,0:0:0:0:
224,160,78089,1,0,0:0:0:0:
224,160,78316,1,0,0:0:0:0:
288,160,78544,1,12,0:0:0:0:
224,160,78771,1,0,0:0:0:0:
288,160,78998,1,12,0:0:0:0:
288,160,79225,1,8,0:0:0:0:
224,160,79453,1,0,0:0:0:0:
288,160,79680,1,8,0:0:0:0:
224,160,79907,1,0,0:0:0:0:
288,160,80021,1,8,0:0:0:0:
224,160,80134,1,0,0:0:0:0:
224,160,80248,1,0,0:0:0:0:
288,160,80362,1,8,0:0:0:0:
224,160,80475,1,0,0:0:0:0:
288,160,80589,1,8,0:0:0:0:
224,160,80816,1,0,0:0:0:0:
288,160,81044,5,8,0:0:0:0:
224,160,81271,1,0,0:0:0:0:
288,160,81384,1,8,0:0:0:0:
224,160,81612,1,0,0:0:0:0:
288,160,81725,1,8,0:0:0:0:
224,160,81953,1,0,0:0:0:0:
224,160,82180,1,0,0:0:0:0:
288,160,82407,1,12,0:0:0:0:
224,160,82634,1,0,0:0:0:0:
288,160,82862,1,8,0:0:0:0:
224,160,82975,1,0,0:0:0:0:
224,160,83089,1,0,0:0:0:0:
288,160,83203,1,8,0:0:0:0:
224,160,83316,1,0,0:0:0:0:
224,160,83430,1,0,0:0:0:0:
288,160,83544,1,8,0:0:0:0:
224,160,83771,1,0,0:0:0:0:
224,160,83884,1,0,0:0:0:0:
288,160,83998,1,8,0:0:0:0:
224,160,84112,1,0,0:0:0:0:
224,160,84225,1,0,0:0:0:0:
288,160,84453,1,8,0:0:0:0:
288,160,84680,5,12,0:0:0:0:
224,160,84907,1,0,0:0:0:0:
224,160,85021,1,0,0:0:0:0:
288,160,85134,1,8,0:0:0:0:
224,160,85362,1,0,0:0:0:0:
224,160,85475,1,0,0:0:0:0:
288,160,85589,1,8,0:0:0:0:
288,160,85816,1,8,0:0:0:0:
224,160,86044,1,0,0:0:0:0:
224,160,86157,1,0,0:0:0:0:
288,160,86271,1,8,0:0:0:0:
224,160,86498,1,0,0:0:0:0:
224,160,86612,1,0,0:0:0:0:
288,160,86725,1,8,0:0:0:0:
224,160,86839,1,0,0:0:0:0:
224,160,86953,1,0,0:0:0:0:
224,160,87066,1,0,0:0:0:0:
288,160,87180,1,8,0:0:0:0:
224,160,87294,1,0,0:0:0:0:
288,160,87407,1,8,0:0:0:0:
288,160,87634,1,12,0:0:0:0:
288,160,87862,1,12,0:0:0:0:
288,160,88089,1,12,0:0:0:0:
224,160,88316,1,0,0:0:0:0:
288,160,88544,1,12,0:0:0:0:
224,160,88771,1,0,0:0:0:0:
288,160,88998,1,12,0:0:0:0:
224,160,89225,1,0,0:0:0:0:
288,160,89453,1,12,0:0:0:0:
224,160,89680,1,0,0:0:0:0:
288,160,89907,1,12,0:0:0:0:
224,160,90134,1,0,0:0:0:0:
288,160,90362,1,8,0:0:0:0:
224,160,90437,1,0,0:0:0:0:
224,160,90513,1,0,0:0:0:0:
224,160,90589,1,0,0:0:0:0:
224,160,90816,1,8,0:0:0:0:
224,160,91044,1,0,0:0:0:0:
288,160,91271,1,8,0:0:0:0:
224,160,91347,1,0,0:0:0:0:
224,160,91422,1,0,0:0:0:0:
224,160,91498,1,0,0:0:0:0:
224,160,91725,1,8,0:0:0:0:
224,160,91953,5,0,0:0:0:0:
288,160,92180,1,4,0:0:0:0:
224,160,92407,1,0,0:0:0:0:
288,160,92634,1,4,0:0:0:0:
224,160,92862,1,0,0:0:0:0:
288,160,93089,1,4,0:0:0:0:
224,160,93316,1,0,0:0:0:0:
288,160,93544,1,4,0:0:0:0:
224,160,93771,1,0,0:0:0:0:
224,160,93998,1,8,0:0:0:0:
288,160,94074,1,8,0:0:0:0:
224,160,94150,1,0,0:0:0:0:
224,160,94225,1,0,0:0:0:0:
288,160,94453,1,8,0:0:0:0:
224,160,94680,1,0,0:0:0:0:
224,160,94907,1,8,0:0:0:0:
288,160,94983,1,8,0:0:0:0:
224,160,95059,1,0,0:0:0:0:
224,160,95134,1,0,0:0:0:0:
288,160,95362,1,8,0:0:0:0:
224,160,95589,5,0,0:0:0:0:
288,160,95816,1,12,0:0:0:0:
224,160,96044,1,0,0:0:0:0:
288,160,96271,1,12,0:0:0:0:
224,160,96498,1,0,0:0:0:0:
288,160,96725,1,12,0:0:0:0:
224,160,96953,1,0,0:0:0:0:
288,160,97180,1,12,0:0:0:0:
224,160,97407,1,0,0:0:0:0:
224,160,97634,1,8,0:0:0:0:
288,160,97710,1,8,0:0:0:0:
224,160,97786,1,0,0:0:0:0:
224,160,97862,1,0,0:0:0:0:
288,160,98089,1,8,0:0:0:0:
224,160,98316,1,0,0:0:0:0:
288,160,98544,1,8,0:0:0:0:
224,160,98657,1,0,0:0:0:0:
224,160,98771,1,0,0:0:0:0:
288,160,98998,1,8,0:0:0:0:
224,160,99225,5,0,0:0:0:0:
288,160,99453,1,12,0:0:0:0:
224,160,99680,1,0,0:0:0:0:
288,160,99907,1,12,0:0:0:0:
224,160,100134,1,0,0:0:0:0:
288,160,100362,1,12,0:0:0:0:
224,160,100589,1,0,0:0:0:0:
288,160,100816,1,12,0:0:0:0:
224,160,101044,1,0,0:0:0:0:
224,160,101157,1,0,0:0:0:0:
288,160,101271,1,8,0:0:0:0:
224,160,101384,1,0,0:0:0:0:
224,160,101498,1,0,0:0:0:0:
288,160,101612,1,8,0:0:0:0:
224,160,101725,1,0,0:0:0:0:
224,160,101839,1,0,0:0:0:0:
224,160,101953,1,0,0:0:0:0:
288,160,102066,1,8,0:0:0:0:
224,160,102180,1,0,0:0:0:0:
224,160,102294,1,0,0:0:0:0:
288,160,102407,1,8,0:0:0:0:
224,160,102521,1,0,0:0:0:0:
288,160,102634,1,8,0:0:0:0:
