osu file format v14

[General]
AudioFilename: audio.mp3
AudioLeadIn: 0
PreviewTime: 55142
Countdown: 0
SampleSet: None
StackLeniency: 0.7
Mode: 0
LetterboxInBreaks: 0
WidescreenStoryboard: 0

[Editor]
Bookmarks: 1563,1677,2132,2473,2586,3041,3382,3495,3950,4291,4404,4859,5200,5313,5768,6109,6223,6563,6791,7018,7245,7586,8041,8495,8836,8950,9404,9859,10313,10654,10882,11109,11223,11677,12132,12473,12586,13041,13382,13609,13836,13950,14291,14518,14859,15313,20986,21574,21770,22064,22432,22726,23020,23167,23314,23608,23902,24098,24196,24294,24392,24490,24785,25079,25373,25520,25667,25740,25814,25888,25961,26035,26108,26182,26255,26549,26745,26843,27138,27432,27726,27922,28020,28314,28510,28608,28902,29098,29196,29490,29687,29785,29981,30079,30275,30373,30667,30961,31255,31451,31549,31843,32138,32334,32432,32628,32726,33020,33314,33608,33804,33902,34196,34392,34490,34687,34785,34981,35079,35177,35275,35373,35471,35569,35667,35961,36255,36549,36843,37138,37432,37530,37726,37922,38020,38314,38608,38902,39196,39392,39490,39687,39785,40079,40373,40667,40863,40961,41255,41549,41843,42039,42138,42432,42726,43020,43314,43608,43902,44098,44196,44392,44490,44785,45079,45373,45667,46255,46745,46843,47039,47138,47334,47432,47726,48020,48608,49098,49196,49392,49490,49687,49785,49981,50079,50373,50961,51451,51549,51745,51843,52138,52432,52726,53314,53804,53902,54098,54196,54294,54490,54785,55079,55373,55667,55961,56157,56451,56549,56745,56843,57039,57138,57334,57432,57726,58020,58314,58510,58804,58902,59098,59196,59490,59785,60373,60863,60961,61157,61255,61451,61549,61843,62138,62726,63216,63314,63510,63608,63804,63902,64098,64196,64392,64490,64785,64981,65079,65373,65569,65667,65863,65961,66157,66255,66549,66745,66843,67138,67432,67726,68020,68216,68314,68510,68608,68902,69196,69490,69785,70079,70373,70569,70667,70863,70961,71157,71255,71549,71843,72138,72432,72726,72922,73020,73216,73314,73510,73608,73902,74196,74490,74785,75079,75275,75373,75569,75667,75961,76157,76255,76549,76843,77138,77432,78020,80863,80961,81255,81451,81549,81745,81843,82039,82138,82432,82726,83020,83216,83314,83608,83902,84098,84196,84392,84490,84785,85079,85373,85569,85667,85961,86157,86255,86549,86745,86843,87138,87432,87726,87922,88020,88314,88608,88804,88902,89098,89196,89490,89785,90079,90275,90373,90667,90863,90961,91157,91255,91451,91549,91843,92138,92432,92628,92726,93020,93314,93608,93804,93902,94196,94490,94785,94981,95079,95373,95569,95667,95961,96255,96843,106843,107432,107726,107922,108020,108216,108314,108510,108608,108902,109196,109785,110275,110373,110569,110667,110863,110961,111157,111255,111549,112039,112138,112432,112628,112726,112922,113020,113216,113314,113608,113902,114490,114981,115079,115275,115373,115569,115667,115863,115961,116255,116549,116843,117138,117334,117628,117726,117922,118020,118216,118314,118510,118608,118902,119196,119490,119687,119981,120079,120275,120373,120667,120961,121549,122039,122138,122334,122432,122628,122726,123020,123314,123902,124392,124490,124687,124785,124981,125079,125275,125373,125667,125863,125961,126157,126255,126451,126549,126745,126843,127039,127138,127334,127432,127628,127726,128020,128314,128608,128902,129196,129392,129490,129687,129785,129981,130079,130373,130667,130961,131255,131549,131745,131843,132039,132138,132334,132432,132726,133020,133314,133608,133902,134098,134196,134392,134490,134687,134785,135079,135373,135667,135961,136255,136451,136549,136745,136843,137039,137138,137334,137432,137726,138020,138314,138608,139196,142039,142138,142432,142628,142726,142922,143020,143216,143314,143608,143902,144196,144392,144490,144785,145079,145275,145373,145569,145667,145961,146255,146549,146745,146843,147039,147138,147334,147432,147628,147726,147922,148020,148314,148608,148902,149098,149196,149490,149687,149785,150079,150275,150373,150667,150961,151255,151451,151549,151843,152039,152138,152334,152432,152628,152726,153020,153314,153608,153804,153902,154196,154490,154785,154981,155079,155373,155667,155961,156157,156255,156549,156745,156843,157138,157432,158020,168020,168608,168902,169098,169196,169490,169785,170373,170961,171255,171451,171549,171843,172138,172726,173314,173608,173804,173902,174196,174490,175079,175667,175961,176157,176255,176549,176843,177432,178020,178314,178510,178608,178902,179196,179785,180373,180667,180863,180961,181255,181549,182138,182726,183020,183216,183314,183608,183902,184196,184490,184785,185079,185373,185667,186255,186843,187138,187334,187432,190275,190373,190667,190863,190961,191157,191255,191451,191549,191843,192138,192432,192628,192726,193020,193314,193510,193608,193804,193902,194196,194490,197138,197334,197432,197726,198020,198314,198510,198608,198804,198902,199098,199196,199490,199687,199785,200079,200275,200373,200569,200667,200863,200961,201255,201549,201843,202039,202138,202432,202726,203020,203216,203314,203608,203902,204196,204392,204490,204687,204785,204981,205079,205373,205667,206255,206843,207138,207432,207726,207922,208020,208314,208510,208608,208902,209098,209196,209490,209687,209785,209981,210079,210275,210471,210667,210961,211255,211451,211549,211843,212138,212432,212628,212726,213020,213314,213608,213804,213902,214196,214392,214490,214687,214785,214981,215079,215373,215667,215961,216157,216255,216549,216843,217138,217334,217432,217726,217922,218020,218314,218510,218608,218902,219098,219196,219392,219490,219687,219785,220079,220373,220667,220863,220961,221255,221549,221745,221843,222039,222138,222432,222726,223020,223216,223314,223510,223608,223804,223902,224196,224490,225079,225373,229653,229804,230259,230713,231168,231471,231622,232077,232380,232531,232986,233289,233440,233895,234198,234350,234653,234956,235259,235410,235713,236168,236774,237077,237228,237683,238137,238592,238895,239046,239501,239956,242228,242531,242683,243137,243440,243592,243895,244046,244350,244501,244956,245410
DistanceSpacing: 0.8
BeatDivisor: 6
GridSize: 16
TimelineZoom: 1.2

[Metadata]
Title:Bad End Night
TitleUnicode:Bad End Night
Artist:Vocaloid
ArtistUnicode:Vocaloid
Creator:jdlire
Version:Sunset
Source:vocaloid
Tags:
BeatmapID:1424332
BeatmapSetID:673068

[Difficulty]
HPDrainRate:6
CircleSize:4
OverallDifficulty:3
ApproachRate:9
SliderMultiplier:1.4
SliderTickRate:1

[Events]
//Background and Video events
0,0,"bad_end_night.jpg",0,0
Video,0,"Vocaloid - Bad End Night.mp4"
//Break Periods
2,78220,80067
2,97043,105949
2,139396,141243
2,158220,167420
2,194690,196538
2,225573,228750
//Storyboard Layer 0 (Background)
//Storyboard Layer 1 (Fail)
//Storyboard Layer 2 (Pass)
//Storyboard Layer 3 (Foreground)
//Storyboard Sound Samples

[TimingPoints]
1223,454.545454545455,4,2,0,100,1,0
17359,294.117647058824,4,2,0,100,1,0
17359,-133.333333333333,4,2,0,100,0,0
22138,294.117647058824,4,2,0,100,1,0
22138,-100,4,2,0,100,0,0
45373,-133.333333333333,4,2,0,100,0,0
80667,-76.9230769230769,4,2,0,100,0,1
97432,-133.333333333333,4,2,0,100,0,0
106549,-133.333333333333,4,2,0,100,0,0
141843,-76.9230769230769,4,2,0,100,0,1
158314,-133.333333333333,4,2,0,100,0,0
190079,-76.9230769230769,4,2,0,100,0,1
206549,-133.333333333333,4,2,0,100,0,1
206745,-66.6666666666667,4,2,0,100,0,1
225667,-133.333333333333,4,2,0,100,0,0
229350,454.545454545455,4,2,0,100,1,0

[Colours]
Combo1 : 221,0,0
Combo2 : 243,243,243
Combo3 : 95,231,241
Combo4 : 176,57,0
Combo5 : 105,13,230
Combo6 : 240,240,0
Combo7 : 16,218,97
Combo8 : 242,132,159

[HitObjects]
80,160,1223,6,0,P|96:80|128:48,1,105
160,16,1677,1,0,0:0:0:0:
240,160,2132,2,0,P|256:80|288:48,1,105
320,16,2586,1,0,0:0:0:0:
448,80,3041,2,0,P|448:144|416:192,1,105
416,0,3495,2,0,P|384:48|400:144,1,140
480,64,4291,2,0,L|480:16,1,35
448,240,4859,6,0,P|416:288|352:304,1,105
304,304,5313,1,0,0:0:0:0:
176,256,5768,1,0,0:0:0:0:
30,244,6109,2,0,L|64:256,1,35
128,176,6563,2,0,L|112:144,1,35
224,144,7018,2,0,L|224:96,1,35
175,268,7586,2,0,P|223:188|223:140,1,140
320,48,8495,101,0,0:0:0:0:
448,48,8836,1,0,0:0:0:0:
448,48,8950,2,0,P|384:16|320:48,2,140
416,144,10313,2,0,P|384:192|320:192,1,105
320,240,10768,2,0,P|304:272|224:256,1,105
192,192,11223,2,0,B|240:128|240:272,1,140
96,64,12132,6,0,P|144:80|192:144,1,105
240,160,12586,1,0,0:0:0:0:
384,144,13041,2,0,P|336:160|288:224,1,105
240,240,13495,1,0,0:0:0:0:
128,240,13836,2,0,L|96:192,1,35
240,240,14291,2,0,L|272:288,1,35
352,240,14859,1,0,0:0:0:0:
464,240,15313,1,0,0:0:0:0:
64,64,19760,101,0,0:0:0:0:
160,320,20349,1,0,0:0:0:0:
352,64,20937,1,0,0:0:0:0:
448,320,21525,1,0,0:0:0:0:
256,192,21721,101,0,0:0:0:0:
256,192,22015,1,0,0:0:0:0:
256,192,22138,2,0,L|112:192,1,140
96,96,22726,2,0,L|240:96,1,140
320,96,23167,1,0,0:0:0:0:
384,96,23314,2,0,L|496:0,2,140
320,144,24098,1,0,0:0:0:0:
288,176,24196,1,0,0:0:0:0:
256,208,24294,1,0,0:0:0:0:
224,240,24392,1,0,0:0:0:0:
192,272,24490,1,0,0:0:0:0:
112,320,24785,2,0,L|112:160,2,140
208,320,25520,1,0,0:0:0:0:
272,320,25667,6,0,L|320:320,2,46.6666666666667
384,320,25961,2,0,L|448:320,2,46.6666666666667
480,320,26255,1,0,0:0:0:0:
480,192,26549,101,0,0:0:0:0:
432,96,26745,1,0,0:0:0:0:
352,64,26843,2,0,P|288:48|224:48,1,93.3333333333333
272,128,27138,2,0,P|224:112|160:112,1,93.3333333333333
208,192,27432,2,0,P|160:176|96:176,1,93.3333333333333
48,112,27726,2,0,P|96:48|144:32,1,93.3333333333333
176,32,28020,1,0,0:0:0:0:
48,192,28314,2,0,P|96:256|144:272,1,93.3333333333333
176,272,28608,1,0,0:0:0:0:
192,160,28902,6,0,P|240:144|288:112,1,93.3333333333333
368,80,29196,2,0,P|320:144|368:192,1,140
256,208,29687,2,0,L|224:256,1,46.6666666666667
160,144,29981,1,0,0:0:0:0:
208,112,30079,1,0,0:0:0:0:
272,64,30275,1,0,0:0:0:0:
320,32,30373,1,0,0:0:0:0:
368,144,30667,1,0,0:0:0:0:
464,16,30961,1,0,0:0:0:0:
368,128,31255,101,0,0:0:0:0:
304,64,31451,1,0,0:0:0:0:
224,48,31549,2,0,P|208:80|128:128,1,93.3333333333333
208,176,31843,2,0,P|176:224|128:256,1,93.3333333333333
208,288,32138,2,0,P|176:336|128:368,1,93.3333333333333
96,368,32432,1,0,0:0:0:0:
32,272,32628,2,0,L|32:224,1,46.6666666666667
64,48,33020,2,0,B|64:144|96:176|160:176,1,140
224,80,33608,5,0,0:0:0:0:
336,32,33804,2,0,L|384:16,1,46.6666666666667
224,80,34196,1,0,0:0:0:0:
112,128,34392,2,0,L|64:160,1,46.6666666666667
96,240,34687,2,0,L|48:272,1,46.6666666666667
144,336,34981,1,0,0:0:0:0:
208,336,35079,102,0,L|272:336,2,46.6666666666667
304,336,35373,2,0,L|368:336,2,46.6666666666667
400,336,35667,1,0,0:0:0:0:
464,192,35961,5,0,0:0:0:0:
448,48,36255,2,0,P|368:112|304:128,2,140
336,128,37138,1,0,0:0:0:0:
256,64,37334,2,0,L|256:0,1,46.6666666666667
176,128,37726,1,0,0:0:0:0:
96,192,37922,2,0,L|96:256,1,46.6666666666667
32,80,38314,101,0,0:0:0:0:
144,32,38608,2,0,P|176:112|256:160,2,140
288,32,39392,2,0,L|336:64,1,46.6666666666667
336,144,39687,2,0,L|384:176,1,46.6666666666667
464,48,40079,2,0,L|464:208,1,140
432,320,40667,2,0,P|368:288|336:240,1,93.3333333333333
320,208,40961,6,0,P|256:240|192:192,2,140
432,320,41843,2,0,P|368:288|336:240,1,93.3333333333333
320,208,42138,1,0,0:0:0:0:
256,96,42432,2,0,B|208:64|192:96|128:160,1,140
80,336,43020,102,0,L|32:192,1,140
208,208,43608,2,0,L|144:352,1,140
112,208,44098,2,0,L|112:144,1,46.6666666666667
112,64,44392,2,0,L|112:0,1,46.6666666666667
192,176,44785,1,0,0:0:0:0:
256,48,45079,1,0,0:0:0:0:
304,128,45373,22,0,P|368:160|416:160,1,105.000004005432
368,64,46255,2,0,P|288:48|192:64,1,175.00000667572
160,80,46843,1,0,0:0:0:0:
80,32,47039,2,0,L|48:16,1,35.0000013351441
16,112,47334,2,0,L|64:128,1,35.0000013351441
160,80,47726,101,0,0:0:0:0:
192,0,48020,2,0,P|208:64|160:208,1,210.000008010865
64,336,49098,2,0,L|32:288,1,35.0000013351441
80,208,49392,2,0,L|112:256,1,35.0000013351441
176,304,49687,2,0,L|128:304,1,35.0000013351441
192,224,49981,2,0,L|240:224,1,35.0000013351441
352,240,50373,6,0,B|336:304|336:320|160:304,1,210.000008010865
64,240,51451,1,0,0:0:0:0:
32,208,51549,2,0,P|16:160|48:128,1,70.0000026702882
48,112,51843,2,0,P|80:64|64:16,1,105.000004005432
192,32,52432,22,0,P|288:32|304:16,1,105.000004005432
368,32,53314,2,0,P|336:96|224:128,1,175.00000667572
208,128,53902,1,0,0:0:0:0:
112,128,54098,2,0,L|64:128,2,35.0000013351441
208,128,54490,1,0,0:0:0:0:
288,192,54785,1,0,0:0:0:0:
384,192,55079,1,0,0:0:0:0:
432,80,55373,6,0,P|400:16|352:16,2,105.000004005432
352,80,56157,1,0,0:0:0:0:
256,48,56451,2,0,L|256:0,1,35.0000013351441
256,128,56745,2,0,L|208:128,1,35.0000013351441
336,128,57039,2,0,L|336:192,1,35.0000013351441
336,48,57334,2,0,L|384:48,1,35.0000013351441
240,48,57726,6,0,P|288:48|368:16,2,105.000004005432
160,48,58510,2,0,P|144:48|48:80,1,105.000004005432
32,112,58902,2,0,P|16:144|16:208,1,70.0000026702882
16,224,59196,1,0,0:0:0:0:
64,320,59490,53,0,0:0:0:0:
128,272,59785,2,0,P|112:192|160:128,1,157.500006008148
208,112,60373,2,0,P|176:208|208:288,1,175.00000667572
240,288,60961,2,0,P|272:240|304:240,1,70.0000026702882
320,224,61255,2,0,P|352:192|400:192,1,70.0000026702882
416,192,61549,1,0,0:0:0:0:
464,128,61843,102,0,B|464:48|464:48|416:48,1,105.000004005432
416,48,62726,2,0,B|480:48|480:48|480:192,1,175.00000667572
480,192,63314,1,0,0:0:0:0:
480,288,63510,1,0,0:0:0:0:
448,288,63608,1,0,0:0:0:0:
352,288,63804,1,0,0:0:0:0:
352,256,63902,1,0,0:0:0:0:
352,160,64098,1,0,0:0:0:0:
320,160,64196,38,0,L|224:160,1,70.0000026702882
208,160,64490,1,0,0:0:0:0:
112,80,64785,2,0,L|208:80,1,70.0000026702882
224,80,65079,1,0,0:0:0:0:
304,80,65373,2,0,P|336:64|352:32,1,70.0000026702882
416,16,65667,2,0,P|448:48|480:48,1,70.0000026702882
480,112,65961,2,0,P|448:144|448:192,1,70.0000026702882
384,192,66255,1,0,0:0:0:0:
256,240,66549,6,0,L|256:144,1,70.0000026702882
208,96,66843,2,0,P|144:144|112:144,1,105.000004005432
304,304,67432,2,0,P|336:256|400:240,1,105.000004005432
352,160,68020,38,0,L|352:64,1,70.0000026702882
384,32,68314,2,0,L|448:80,1,70.0000026702882
480,16,68608,2,0,L|480:144,1,105.000004005432
432,320,69196,70,0,L|336:240,3,105.000004005432
256,192,70373,101,0,0:0:0:0:
176,112,70569,1,0,0:0:0:0:
176,112,70667,1,0,0:0:0:0:
64,112,70863,1,0,0:0:0:0:
64,112,70961,1,0,0:0:0:0:
112,208,71157,1,0,0:0:0:0:
112,208,71255,1,0,0:0:0:0:
160,96,71549,22,0,P|240:48|272:48,1,105.000004005432
384,64,72138,2,0,P|320:80|288:128,1,105.000004005432
176,192,72726,2,0,L|128:256,1,70.0000026702882
256,224,73020,2,0,L|256:304,1,70.0000026702882
336,192,73314,2,0,L|384:256,1,70.0000026702882
256,144,73608,1,0,0:0:0:0:
176,32,73902,5,0,0:0:0:0:
336,32,74196,1,0,0:0:0:0:
176,160,74490,1,0,0:0:0:0:
336,160,74785,1,0,0:0:0:0:
256,80,75079,54,0,L|320:144,1,70.0000026702882
224,176,75373,2,0,L|176:240,1,70.0000026702882
256,288,75667,1,0,0:0:0:0:
256,384,75961,86,0,L|256:288,1,70.0000026702882
256,224,76353,1,0,0:0:0:0:
256,96,76549,1,0,0:0:0:0:
256,224,76843,1,0,0:0:0:0:
256,0,77138,1,0,0:0:0:0:
256,192,77432,12,0,78020,0:0:0:0:
256,192,80667,118,0,P|304:112|352:80,1,121.333327779134
384,64,80961,1,0,0:0:0:0:
256,192,81255,2,0,P|208:272|160:304,1,121.333327779134
128,320,81549,1,0,0:0:0:0:
48,256,81745,1,0,0:0:0:0:
0,240,81843,1,0,0:0:0:0:
128,160,82039,1,0,0:0:0:0:
112,112,82138,1,0,0:0:0:0:
16,128,82432,2,0,P|64:48|160:16,1,181.999991668702
160,96,83020,102,0,P|224:96|304:48,1,121.333327779134
160,96,83314,2,0,P|160:176|96:256,2,181.999991668702
80,32,84098,1,0,0:0:0:0:
32,80,84196,2,0,P|16:128|48:192,1,121.333327779134
96,224,84490,1,0,0:0:0:0:
176,128,84785,2,0,P|256:144|352:224,1,181.999991668702
464,160,85373,6,0,P|432:96|435:35,1,121.333327779134
464,160,85667,1,0,0:0:0:0:
352,240,85961,2,0,P|384:288|403:355,1,121.333327779134
352,240,86255,1,0,0:0:0:0:
240,160,86549,2,0,P|208:96|208:32,1,121.333327779134
160,0,86843,1,0,0:0:0:0:
128,192,87138,1,0,0:0:0:0:
32,16,87432,1,0,0:0:0:0:
32,128,87726,102,0,L|32:256,1,121.333327779134
32,320,88020,2,0,P|96:272|224:272,2,181.999991668702
48,192,88804,2,0,L|96:128,1,60.6666638895672
176,112,89098,2,0,L|224:48,1,60.6666638895672
352,0,89490,2,0,B|352:128|320:128|240:128,1,181.999991668702
160,128,90079,5,0,0:0:0:0:
48,32,90275,2,0,L|48:96,1,60.6666638895672
160,128,90667,1,0,0:0:0:0:
48,32,90863,2,0,L|144:64,1,60.6666638895672
192,96,91157,1,0,0:0:0:0:
256,112,91255,2,0,P|304:112|368:80,1,121.333327779134
416,32,91549,1,0,0:0:0:0:
416,176,91843,1,0,0:0:0:0:
512,16,92138,1,0,0:0:0:0:
416,32,92432,102,0,L|288:32,1,121.333327779134
272,96,92726,2,0,P|208:144|144:160,1,121.333327779134
240,160,93020,2,0,P|192:192|128:208,1,121.333327779134
208,224,93314,2,0,P|160:256|32:272,1,181.999991668702
16,176,93804,1,0,0:0:0:0:
16,112,93902,2,0,P|64:64|176:16,1,181.999991668702
240,96,94490,1,0,0:0:0:0:
160,288,94785,5,0,0:0:0:0:
160,288,94981,2,0,L|96:208,1,60.6666638895672
352,96,95373,1,0,0:0:0:0:
352,96,95569,2,0,L|416:176,1,60.6666638895672
256,192,95961,1,0,0:0:0:0:
256,192,96255,12,0,96843,0:0:0:0:
256,320,106549,117,0,0:0:0:0:
144,320,106843,2,0,P|48:256|32:160,1,210.000008010865
32,80,107726,1,0,0:0:0:0:
128,48,107922,2,0,L|176:32,1,35.0000013351441
256,48,108216,2,0,L|208:80,1,35.0000013351441
320,80,108510,2,0,L|368:48,1,35.0000013351441
384,160,108902,6,0,P|432:128|464:80,1,105.000004005432
480,16,109785,2,0,B|480:128|480:160|400:160,1,175.00000667572
384,160,110373,2,0,L|320:112,1,70.0000026702882
288,144,110667,2,0,L|240:208,1,70.0000026702882
208,192,110961,2,0,L|160:128,1,70.0000026702882
128,160,111255,1,0,0:0:0:0:
17,271,111549,102,0,B|33:159|129:159,1,175.00000667572
176,160,112138,1,0,0:0:0:0:
256,96,112432,1,0,0:0:0:0:
256,240,112628,1,0,0:0:0:0:
256,240,112726,1,0,0:0:0:0:
336,160,112922,1,0,0:0:0:0:
336,160,113020,1,0,0:0:0:0:
448,160,113216,1,0,0:0:0:0:
448,160,113314,1,0,0:0:0:0:
448,48,113608,38,0,L|448:176,1,105.000004005432
448,160,114490,2,0,B|432:288|384:288|336:288,1,175.00000667572
320,288,115079,1,0,0:0:0:0:
224,288,115275,1,0,0:0:0:0:
176,288,115373,1,0,0:0:0:0:
96,240,115569,2,0,L|64:192,1,35.0000013351441
96,320,115863,2,0,L|48:352,1,35.0000013351441
192,256,116255,1,0,0:0:0:0:
160,160,116549,6,0,P|96:128|80:80,2,105.000004005432
256,160,117334,1,0,0:0:0:0:
256,48,117628,2,0,L|256:-16,1,35.0000013351441
336,96,117922,2,0,L|336:160,1,35.0000013351441
416,48,118216,2,0,L|416:0,1,35.0000013351441
496,96,118510,2,0,L|496:144,1,35.0000013351441
384,208,118902,6,0,P|448:240|496:256,2,105.000004005432
304,160,119687,2,0,L|208:96,1,105.000004005432
176,128,120079,2,0,L|176:224,1,70.0000026702882
176,240,120373,1,0,0:0:0:0:
48,160,120667,37,0,0:0:0:0:
80,336,120961,2,0,P|16:240|48:160,1,210.000008010865
128,48,122039,1,0,0:0:0:0:
144,96,122138,54,0,L|192:176,1,70.0000026702882
224,144,122432,2,0,L|272:80,1,70.0000026702882
288,48,122726,1,0,0:0:0:0:
336,160,123020,69,0,0:0:0:0:
448,16,123314,2,0,B|448:144|416:160|336:160,1,210.000008010865
256,112,124392,2,0,L|208:80,1,35.0000013351441
240,240,124687,22,0,L|192:272,1,35.0000013351441
192,176,124981,2,0,L|144:176,1,35.0000013351441
336,256,125275,2,0,L|320:304,1,35.0000013351441
304,176,125667,2,0,L|336:112,1,70.0000026702882
256,32,125961,2,0,L|352:32,1,70.0000026702882
400,16,126255,2,0,L|400:96,1,70.0000026702882
480,160,126549,2,0,L|400:160,1,70.0000026702882
288,224,126843,2,0,L|352:160,1,70.0000026702882
400,64,127138,2,0,L|400:160,1,70.0000026702882
320,80,127432,2,0,L|240:80,1,70.0000026702882
208,0,127726,1,0,0:0:0:0:
32,16,128020,85,0,0:0:0:0:
160,208,128314,1,0,0:0:0:0:
160,16,128608,1,0,0:0:0:0:
288,208,128902,1,0,0:0:0:0:
320,96,129196,102,0,L|416:96,1,70.0000026702882
432,96,129490,1,0,0:0:0:0:
400,208,129687,2,0,L|416:176,1,35.0000013351441
448,304,129981,2,0,L|464:272,1,35.0000013351441
272,336,130373,102,4,L|384:336,3,105.000004005432
384,240,131549,54,0,L|432:176,1,70.0000026702882
400,144,131843,2,0,L|304:144,1,70.0000026702882
304,112,132138,2,0,L|368:32,1,70.0000026702882
384,16,132432,1,0,0:0:0:0:
224,48,132726,38,0,P|208:144|224:176,1,105.000004005432
80,48,133314,2,0,P|96:112|80:160,1,105.000004005432
160,224,133902,101,0,0:0:0:0:
48,304,134098,1,0,0:0:0:0:
80,304,134196,1,0,0:0:0:0:
176,304,134392,1,0,0:0:0:0:
208,304,134490,1,0,0:0:0:0:
304,304,134687,1,0,0:0:0:0:
336,304,134785,1,0,0:0:0:0:
336,176,135079,101,0,0:0:0:0:
464,304,135373,1,0,0:0:0:0:
464,176,135667,1,0,0:0:0:0:
336,304,135961,1,0,0:0:0:0:
400,240,136255,102,0,L|400:144,1,70.0000026702882
400,128,136549,2,0,L|400:48,1,70.0000026702882
400,16,136843,1,0,0:0:0:0:
288,80,137039,1,0,0:0:0:0:
256,96,137138,1,0,0:0:0:0:
144,176,137334,53,0,0:0:0:0:
160,224,137432,2,0,P|224:288|256:288,1,105.000004005432
352,160,138020,2,0,P|288:96|256:96,1,105.000004005432
256,192,138608,12,0,139196,0:0:0:0:
64,48,141843,118,0,P|48:128|16:192,1,121.333327779134
0,224,142138,1,0,0:0:0:0:
176,160,142432,118,0,P|160:240|128:304,1,121.333327779134
112,336,142727,1,0,0:0:0:0:
96,224,142922,2,0,L|80:160,1,60.6666638895672
224,256,143216,2,0,L|272:192,1,60.6666638895672
336,112,143608,1,0,0:0:0:0:
416,16,143902,1,0,0:0:0:0:
480,96,144196,6,0,L|480:256,1,121.333327779134
480,217,144490,2,0,L|336:368,2,181.999991668702
480,112,145275,1,0,0:0:0:0:
480,64,145373,1,0,0:0:0:0:
384,64,145569,1,0,0:0:0:0:
384,16,145667,1,0,0:0:0:0:
272,32,145961,2,0,B|208:48|192:112|160:208,1,181.999991668702
48,272,146549,102,0,P|128:320|208:320,1,121.333327779134
224,320,146843,1,0,0:0:0:0:
288,240,147039,2,0,L|336:176,1,60.6666638895672
416,256,147334,2,0,L|416:336,1,60.6666638895672
320,336,147628,2,0,L|240:336,1,60.6666638895672
256,240,147922,2,0,L|256:144,1,60.6666638895672
256,240,148314,1,0,0:0:0:0:
256,64,148608,1,0,0:0:0:0:
448,48,148902,6,0,P|464:128|496:192,1,121.333327779134
512,224,149197,1,0,0:0:0:0:
336,160,149491,118,0,P|352:240|384:304,1,121.333327779134
400,336,149786,1,0,0:0:0:0:
272,336,150079,2,0,P|192:304|128:336,1,121.333327779134
208,368,150373,2,0,P|130:321|78:247,2,181.999991668702
176,240,151255,102,0,P|144:160|192:160,1,121.333327779134
192,112,151549,1,0,0:0:0:0:
336,144,151843,2,0,P|368:64|320:64,1,121.333327779134
320,16,152137,1,0,0:0:0:0:
224,96,152334,2,0,L|176:160,1,60.6666638895672
256,224,152628,2,0,L|256:304,1,60.6666638895672
256,128,153020,1,0,0:0:0:0:
256,32,153314,1,0,0:0:0:0:
400,32,153608,6,0,P|416:112|400:192,1,121.333327779134
352,128,153902,2,0,B|416:192|416:192|384:288,2,181.999991668702
112,32,154785,2,0,P|96:112|112:192,1,121.333327779134
160,128,155079,2,0,B|96:192|96:192|144:288,2,181.999991668702
256,304,155961,1,0,0:0:0:0:
256,304,156157,1,0,0:0:0:0:
256,208,156255,1,0,0:0:0:0:
256,208,156549,1,0,0:0:0:0:
256,208,156745,1,0,0:0:0:0:
256,96,156843,1,0,0:0:0:0:
256,96,157138,1,0,0:0:0:0:
256,192,157432,12,0,158020,0:0:0:0:
48,32,168020,5,0,0:0:0:0:
176,32,168608,1,0,0:0:0:0:
112,96,168902,1,0,0:0:0:0:
112,176,169098,1,0,0:0:0:0:
144,176,169196,1,0,0:0:0:0:
240,176,169490,1,0,0:0:0:0:
336,176,169785,1,0,0:0:0:0:
464,32,170373,101,0,0:0:0:0:
336,32,170961,1,0,0:0:0:0:
400,96,171255,1,0,0:0:0:0:
400,176,171451,1,0,0:0:0:0:
368,176,171549,1,0,0:0:0:0:
272,176,171843,1,0,0:0:0:0:
176,176,172138,1,0,0:0:0:0:
48,352,172726,37,0,0:0:0:0:
176,352,173314,1,0,0:0:0:0:
112,288,173608,1,0,0:0:0:0:
112,208,173804,1,0,0:0:0:0:
144,208,173902,1,0,0:0:0:0:
240,208,174196,1,0,0:0:0:0:
336,208,174491,1,0,0:0:0:0:
464,352,175079,101,0,0:0:0:0:
336,352,175667,53,0,0:0:0:0:
400,288,175961,85,0,0:0:0:0:
400,208,176157,1,0,0:0:0:0:
368,208,176255,1,0,0:0:0:0:
272,208,176549,5,0,0:0:0:0:
176,208,176844,1,0,0:0:0:0:
64,160,177432,54,0,P|112:112|256:80,1,210.000008010865
432,80,178314,1,0,0:0:0:0:
368,80,178510,2,0,L|320:80,1,35.0000013351441
272,160,178902,1,0,0:0:0:0:
176,80,179196,1,0,0:0:0:0:
448,160,179785,102,0,P|400:112|256:80,1,210.000008010865
80,80,180667,1,0,0:0:0:0:
144,80,180863,2,0,L|192:80,1,35.0000013351441
240,160,181255,1,0,0:0:0:0:
336,80,181549,1,0,0:0:0:0:
256,256,182138,6,0,B|160:272|240:400|384:256|224:256,1,210.000008010865
256,176,183020,2,0,L|256:96,1,70.0000026702882
256,64,183314,1,0,0:0:0:0:
160,112,183608,1,0,0:0:0:0:
160,224,183902,1,0,0:0:0:0:
160,352,184196,85,0,0:0:0:0:
352,272,184490,1,0,0:0:0:0:
128,176,184785,1,0,0:0:0:0:
352,96,185079,1,0,0:0:0:0:
128,0,185373,1,0,0:0:0:0:
256,192,185667,12,0,186255,0:0:0:0:
320,128,186843,21,0,0:0:0:0:
192,128,187138,1,0,0:0:0:0:
256,176,187334,1,0,0:0:0:0:
256,176,187432,1,0,0:0:0:0:
144,128,190079,86,0,P|208:64|288:64,1,121.333327779134
304,64,190373,1,0,0:0:0:0:
368,256,190667,2,0,P|304:320|224:320,1,121.333327779134
208,320,190961,1,0,0:0:0:0:
192,160,191157,1,0,0:0:0:0:
224,128,191255,1,0,0:0:0:0:
320,224,191451,1,0,0:0:0:0:
288,256,191549,1,0,0:0:0:0:
256,192,191843,1,0,0:0:0:0:
256,48,192138,1,0,0:0:0:0:
256,144,192432,6,0,L|256:272,1,121.333327779134
176,304,192726,2,0,P|320:320|368:272,2,181.999991668702
304,224,193510,2,0,L|368:192,1,60.6666638895672
208,144,193804,2,0,L|144:96,1,60.6666638895672
256,48,194196,2,0,L|256:256,1,181.999991668702
160,48,197138,102,0,P|128:112|80:144,1,121.333327779134
64,64,197432,2,0,P|16:144|48:240,2,181.999991668702
192,160,198314,1,0,0:0:0:0:
256,64,198510,2,0,L|224:0,1,60.6666638895672
336,96,198804,2,0,L|416:64,1,60.6666638895672
320,176,199098,2,0,L|352:240,1,60.6666638895672
192,192,199490,6,0,P|240:112|272:112,1,121.333327779134
128,208,199785,1,0,0:0:0:0:
192,192,200079,2,0,P|144:272|112:272,1,121.333327779134
256,176,200373,1,0,0:0:0:0:
272,304,200569,2,0,L|336:352,1,60.6666638895672
352,224,200863,2,0,L|416:240,1,60.6666638895672
400,112,201255,1,0,0:0:0:0:
416,0,201549,1,0,0:0:0:0:
320,16,201843,102,0,L|192:16,1,121.333327779134
288,96,202138,2,0,B|256:32|224:128|128:96|128:0,2,181.999991668702
368,160,203020,2,0,P|416:112|416:32,1,121.333327779134
464,16,203314,2,0,L|464:240,1,181.999991668702
464,320,203902,1,0,0:0:0:0:
352,352,204196,5,0,0:0:0:0:
272,304,204392,1,0,0:0:0:0:
240,272,204490,1,0,0:0:0:0:
256,176,204687,1,0,0:0:0:0:
288,144,204785,1,0,0:0:0:0:
256,48,204981,1,0,0:0:0:0:
224,16,205079,1,0,0:0:0:0:
256,176,205373,1,0,0:0:0:0:
256,192,205667,12,0,206255,0:0:0:0:
256,208,206549,102,0,L|256:128,1,70.0000026702882
160,112,206843,2,0,P|240:80|368:128,2,210.000008010865
96,224,207726,2,0,P|144:288|224:320,1,140.000005340576
256,336,208020,1,0,0:0:0:0:
416,160,208314,2,0,P|368:96|288:64,1,140.000005340576
256,48,208608,1,0,0:0:0:0:
64,64,208902,5,0,0:0:0:0:
144,144,209098,2,0,L|224:144,1,70.0000026702882
448,64,209490,1,0,0:0:0:0:
368,144,209686,2,0,L|288:144,1,70.0000026702882
256,240,209981,2,0,L|256:336,1,70.0000026702882
256,144,210275,2,0,L|256:64,1,70.0000026702882
256,304,210667,1,0,0:0:0:0:
256,80,210961,1,0,0:0:0:0:
128,224,211255,6,0,L|128:384,1,140.000005340576
64,272,211549,2,0,P|80:176|176:112,2,210.000008010865
384,224,212432,2,0,L|384:384,1,140.000005340576
448,272,212726,2,0,P|432:176|336:112,2,210.000008010865
240,272,213608,6,0,P|176:240|144:304,1,140.000005340576
240,272,213902,1,0,0:0:0:0:
288,112,214196,2,0,P|352:144|384:80,1,140.000005340576
288,112,214490,1,0,0:0:0:0:
192,96,214687,2,0,L|128:160,1,70.0000026702882
320,288,214981,2,0,L|384:240,1,70.0000026702882
176,256,215373,1,0,0:0:0:0:
336,128,215667,1,0,0:0:0:0:
240,160,215961,22,0,P|192:80|240:0,1,140.000005340576
272,80,216255,2,0,P|352:160|336:288,2,210.000008010865
128,64,217138,2,0,P|96:128|32:160,1,140.000005340576
64,224,217432,2,0,P|176:192|288:272,1,210.000008010865
320,112,217922,2,0,L|416:48,1,70.0000026702882
448,272,218314,6,0,P|352:320|288:320,1,140.000005340576
256,320,218608,1,0,0:0:0:0:
64,112,218902,2,0,P|160:64|224:64,1,140.000005340576
256,64,219196,1,0,0:0:0:0:
384,176,219392,1,0,0:0:0:0:
320,208,219490,2,0,P|208:224|176:176,1,140.000005340576
144,176,219785,1,0,0:0:0:0:
256,352,220079,2,0,L|256:128,1,210.000008010865
80,32,220667,6,0,P|160:64|224:64,1,140.000005340576
288,32,220961,2,0,P|176:112|112:112,1,140.000005340576
272,128,221255,2,0,P|160:208|96:208,1,140.000005340576
256,224,221549,2,0,P|144:304|80:304,1,140.000005340576
80,320,221843,1,0,0:0:0:0:
32,192,222039,1,0,0:0:0:0:
80,144,222138,2,0,P|176:112|320:112,1,210.000008010865
416,112,222726,1,0,0:0:0:0:
416,32,223020,69,0,0:0:0:0:
384,240,223216,2,0,L|448:160,1,70.0000026702882
224,256,223510,2,0,L|304:256,1,70.0000026702882
96,176,223804,2,0,L|160:240,1,70.0000026702882
256,32,224196,1,0,0:0:0:0:
256,304,224490,1,0,0:0:0:0:
256,272,224588,1,0,0:0:0:0:
256,240,224687,1,0,0:0:0:0:
256,208,224785,1,0,0:0:0:0:
256,176,224883,1,0,0:0:0:0:
256,144,224981,1,0,0:0:0:0:
256,112,225079,1,0,0:0:0:0:
256,112,225373,1,0,0:0:0:0:
464,304,229350,86,0,P|384:304|352:272,1,93.3333333333333
352,272,229804,1,0,0:0:0:0:
256,304,230259,1,0,0:0:0:0:
256,176,230713,1,0,0:0:0:0:
208,80,231168,2,0,P|144:96|128:128,1,93.3333333333333
112,160,231622,1,0,0:0:0:0:
304,80,232077,2,0,P|368:96|384:128,1,93.3333333333333
400,160,232531,1,0,0:0:0:0:
256,192,232986,102,0,L|160:256,1,93.3333333333333
144,272,233440,1,0,0:0:0:0:
256,192,233895,2,0,L|352:256,1,93.3333333333333
368,272,234349,1,0,0:0:0:0:
464,176,234653,2,0,L|464:112,1,46.6666666666667
384,80,235107,2,0,L|384:16,1,46.6666666666667
304,176,235713,1,0,0:0:0:0:
256,32,236168,1,0,0:0:0:0:
176,144,236698,6,0,P|128:160|64:160,1,93.3333333333333
48,160,237152,1,0,0:0:0:0:
224,160,237607,1,0,0:0:0:0:
400,160,238061,1,0,0:0:0:0:
336,144,238516,2,0,P|384:160|448:160,1,93.3333333333333
464,160,238970,1,0,0:0:0:0:
320,80,239425,2,0,P|240:64|160:96,1,140
192,32,242152,102,0,L|288:112,1,93.3333333333333
304,128,242607,1,0,0:0:0:0:
304,224,243061,2,0,L|224:272,1,93.3333333333333
176,304,243516,1,0,0:0:0:0:
304,224,243819,1,0,0:0:0:0:
368,160,243970,1,0,0:0:0:0:
128,160,244274,1,0,0:0:0:0:
192,224,244425,1,0,0:0:0:0:
256,304,244880,1,0,0:0:0:0:
256,144,245410,1,0,0:0:0:0:
