osu file format v14

[General]
AudioFilename: .mp3
AudioLeadIn: 0
PreviewTime: 136011
Countdown: 1
SampleSet: Normal
StackLeniency: 0.7
Mode: 3
LetterboxInBreaks: 0
SpecialStyle: 0
WidescreenStoryboard: 0

[Editor]
DistanceSpacing: 2
BeatDivisor: 4
GridSize: 16
TimelineZoom: 2.1

[Metadata]
Title:[Trash-]'s Training Pack
TitleUnicode:[Trash-]'s Training Pack
Artist:Vocaloid
ArtistUnicode:誰か考えて
Creator:[Trash-]
Version:Sakyokusurunara imanousa!
Source:
Tags:
BeatmapID:889155
BeatmapSetID:404166

[Difficulty]
HPDrainRate:5
CircleSize:4
OverallDifficulty:5
ApproachRate:5
SliderMultiplier:1.4
SliderTickRate:1

[Events]
//Background and Video events
0,0,"sakyoku.png",0,0
//Break Periods
2,161600,173200
//Storyboard Layer 0 (Background)
//Storyboard Layer 1 (Fail)
//Storyboard Layer 2 (Pass)
//Storyboard Layer 3 (Foreground)
//Storyboard Sound Samples

[TimingPoints]
0,400,4,1,1,55,1,0

[HitObjects]
320,192,1600,5,2,0:0:0:0:
192,192,1600,1,2,0:0:0:0:
64,192,1800,1,2,0:0:0:0:
192,192,2000,1,2,0:0:0:0:
448,192,2000,1,2,0:0:0:0:
320,192,2200,1,2,0:0:0:0:
192,192,2400,1,2,0:0:0:0:
64,192,2400,1,2,0:0:0:0:
192,192,2600,1,2,0:0:0:0:
320,192,2800,1,2,0:0:0:0:
448,192,2800,1,2,0:0:0:0:
320,192,3000,1,2,0:0:0:0:
64,192,3200,1,2,0:0:0:0:
448,192,3200,1,2,0:0:0:0:
192,192,3400,1,2,0:0:0:0:
64,192,3600,1,2,0:0:0:0:
320,192,3600,1,2,0:0:0:0:
192,192,3800,1,2,0:0:0:0:
192,192,4000,1,2,0:0:0:0:
448,192,4000,1,2,0:0:0:0:
320,192,4200,1,2,0:0:0:0:
448,192,4400,1,2,0:0:0:0:
320,192,4400,1,2,0:0:0:0:
192,192,4600,1,2,0:0:0:0:
64,192,4800,1,2,0:0:0:0:
448,192,4800,1,2,0:0:0:0:
320,192,5000,1,2,0:0:0:0:
64,192,5200,1,2,0:0:0:0:
448,192,5200,1,2,0:0:0:0:
320,192,5400,1,2,0:0:0:0:
192,192,5600,1,2,0:0:0:0:
64,192,5600,1,2,0:0:0:0:
320,192,5800,1,2,0:0:0:0:
192,192,6000,1,2,0:0:0:0:
448,192,6000,1,2,0:0:0:0:
448,192,6200,1,2,0:0:0:0:
192,192,6400,1,2,0:0:0:0:
320,192,6400,1,2,0:0:0:0:
192,192,6600,1,2,0:0:0:0:
64,192,6800,1,2,0:0:0:0:
320,192,6800,1,2,0:0:0:0:
192,192,7000,1,2,0:0:0:0:
320,192,7200,1,2,0:0:0:0:
64,192,7200,1,2,0:0:0:0:
192,192,7300,1,2,0:0:0:0:
448,192,7400,1,2,0:0:0:0:
320,192,7500,1,2,0:0:0:0:
320,192,7600,1,2,0:0:0:0:
64,192,7600,1,2,0:0:0:0:
320,192,7800,1,2,0:0:0:0:
192,192,7900,1,2,0:0:0:0:
64,192,8000,1,2,0:0:0:0:
448,192,8000,1,2,0:0:0:0:
320,192,8200,1,2,0:0:0:0:
192,192,8400,1,2,0:0:0:0:
320,192,8400,1,2,0:0:0:0:
448,192,8400,1,2,0:0:0:0:
64,192,8600,1,2,0:0:0:0:
448,192,8800,1,2,0:0:0:0:
320,192,8800,1,2,0:0:0:0:
64,192,8800,1,2,0:0:0:0:
192,192,9000,1,2,0:0:0:0:
64,192,9200,1,2,0:0:0:0:
192,192,9200,1,2,0:0:0:0:
448,192,9200,1,2,0:0:0:0:
320,192,9400,1,2,0:0:0:0:
192,192,9600,1,2,0:0:0:0:
448,192,9600,1,2,0:0:0:0:
320,192,9600,1,2,0:0:0:0:
320,192,9800,1,2,0:0:0:0:
64,192,10000,1,2,0:0:0:0:
320,192,10000,1,2,0:0:0:0:
192,192,10000,1,2,0:0:0:0:
448,192,10200,1,2,0:0:0:0:
64,192,10400,1,2,0:0:0:0:
192,192,10400,1,2,0:0:0:0:
448,192,10400,1,2,0:0:0:0:
320,192,10600,1,2,0:0:0:0:
64,192,10800,1,2,0:0:0:0:
448,192,10800,1,2,0:0:0:0:
192,192,10800,1,2,0:0:0:0:
192,192,11000,1,2,0:0:0:0:
64,192,11200,1,2,0:0:0:0:
320,192,11200,1,2,0:0:0:0:
448,192,11200,1,2,0:0:0:0:
448,192,11400,1,2,0:0:0:0:
320,192,11600,1,2,0:0:0:0:
192,192,11600,1,2,0:0:0:0:
64,192,11600,1,2,0:0:0:0:
192,192,11800,1,2,0:0:0:0:
64,192,12000,1,2,0:0:0:0:
192,192,12000,1,2,0:0:0:0:
448,192,12000,1,2,0:0:0:0:
320,192,12200,1,2,0:0:0:0:
64,192,12400,1,2,0:0:0:0:
192,192,12400,1,2,0:0:0:0:
448,192,12400,1,2,0:0:0:0:
192,192,12600,1,2,0:0:0:0:
64,192,12800,1,2,0:0:0:0:
320,192,12800,1,2,0:0:0:0:
448,192,12800,1,2,0:0:0:0:
320,192,13000,1,2,0:0:0:0:
64,192,13200,1,2,0:0:0:0:
192,192,13200,1,2,0:0:0:0:
448,192,13200,1,2,0:0:0:0:
448,192,13400,1,2,0:0:0:0:
192,192,13600,1,2,0:0:0:0:
64,192,13600,1,2,0:0:0:0:
448,192,13600,1,2,0:0:0:0:
320,192,13700,1,2,0:0:0:0:
64,192,13800,1,2,0:0:0:0:
320,192,13900,1,2,0:0:0:0:
64,192,14000,1,2,0:0:0:0:
448,192,14000,1,2,0:0:0:0:
320,192,14000,1,2,0:0:0:0:
192,192,14200,1,2,0:0:0:0:
320,192,14200,1,2,0:0:0:0:
64,192,14400,1,2,0:0:0:0:
448,192,14400,1,2,0:0:0:0:
192,192,14600,1,2,0:0:0:0:
320,192,14600,1,2,0:0:0:0:
64,192,14800,1,2,0:0:0:0:
320,192,14800,1,2,0:0:0:0:
448,192,14800,1,2,0:0:0:0:
192,192,15000,1,2,0:0:0:0:
448,192,15000,1,2,0:0:0:0:
64,192,15200,1,2,0:0:0:0:
320,192,15200,1,2,0:0:0:0:
320,192,15400,1,2,0:0:0:0:
448,192,15400,1,2,0:0:0:0:
64,192,15600,1,2,0:0:0:0:
320,192,15600,1,2,0:0:0:0:
320,192,15800,1,2,0:0:0:0:
192,192,15800,1,2,0:0:0:0:
64,192,16000,1,2,0:0:0:0:
320,192,16000,1,2,0:0:0:0:
192,192,16200,1,2,0:0:0:0:
448,192,16200,1,2,0:0:0:0:
320,192,16400,1,2,0:0:0:0:
192,192,16400,1,2,0:0:0:0:
64,192,16600,1,2,0:0:0:0:
320,192,16600,1,2,0:0:0:0:
192,192,16800,1,2,0:0:0:0:
448,192,16800,1,2,0:0:0:0:
64,192,17000,1,2,0:0:0:0:
320,192,17000,1,2,0:0:0:0:
64,192,17200,1,2,0:0:0:0:
448,192,17200,1,2,0:0:0:0:
192,192,17400,1,2,0:0:0:0:
320,192,17400,1,2,0:0:0:0:
320,192,17600,1,2,0:0:0:0:
192,192,17600,1,2,0:0:0:0:
448,192,17800,1,2,0:0:0:0:
64,192,18200,1,2,0:0:0:0:
448,192,18600,1,2,0:0:0:0:
64,192,19000,1,2,0:0:0:0:
448,192,19200,1,2,0:0:0:0:
64,192,19200,1,2,0:0:0:0:
320,192,19300,1,2,0:0:0:0:
192,192,19400,1,2,0:0:0:0:
64,192,19500,1,2,0:0:0:0:
320,192,19500,1,2,0:0:0:0:
192,192,19600,1,2,0:0:0:0:
448,192,19700,1,2,0:0:0:0:
320,192,19700,1,2,0:0:0:0:
64,192,19800,1,2,0:0:0:0:
192,192,19900,1,2,0:0:0:0:
320,192,19900,1,2,0:0:0:0:
448,192,20000,1,2,0:0:0:0:
320,192,20100,1,2,0:0:0:0:
64,192,20100,1,2,0:0:0:0:
192,192,20200,1,2,0:0:0:0:
320,192,20300,1,2,0:0:0:0:
64,192,20400,1,2,0:0:0:0:
448,192,20400,1,2,0:0:0:0:
192,192,20600,1,2,0:0:0:0:
320,192,20600,1,2,0:0:0:0:
64,192,20800,1,2,0:0:0:0:
448,192,20800,1,2,0:0:0:0:
320,192,21000,1,2,0:0:0:0:
64,192,21000,1,2,0:0:0:0:
192,192,21000,1,2,0:0:0:0:
64,192,21200,1,2,0:0:0:0:
320,192,21200,1,2,0:0:0:0:
448,192,21200,1,2,0:0:0:0:
320,192,21400,1,2,0:0:0:0:
192,192,21400,1,2,0:0:0:0:
192,192,21600,1,2,0:0:0:0:
320,192,21600,1,2,0:0:0:0:
448,192,21600,1,2,0:0:0:0:
320,192,21700,1,2,0:0:0:0:
64,192,21800,1,2,0:0:0:0:
320,192,21800,1,2,0:0:0:0:
448,192,21800,1,2,0:0:0:0:
64,192,22000,1,2,0:0:0:0:
192,192,22000,1,2,0:0:0:0:
448,192,22000,1,2,0:0:0:0:
64,192,22200,1,2,0:0:0:0:
320,192,22200,1,2,0:0:0:0:
448,192,22200,1,2,0:0:0:0:
192,192,22400,1,2,0:0:0:0:
64,192,22400,1,2,0:0:0:0:
320,192,22400,1,2,0:0:0:0:
192,192,22600,1,2,0:0:0:0:
320,192,22600,1,2,0:0:0:0:
448,192,22600,1,2,0:0:0:0:
64,192,22800,1,2,0:0:0:0:
320,192,22800,1,2,0:0:0:0:
448,192,22800,1,2,0:0:0:0:
64,192,23000,1,2,0:0:0:0:
192,192,23000,1,2,0:0:0:0:
320,192,23000,1,2,0:0:0:0:
64,192,23200,1,2,0:0:0:0:
320,192,23200,1,2,0:0:0:0:
448,192,23200,1,2,0:0:0:0:
320,192,23300,1,2,0:0:0:0:
320,192,23400,1,2,0:0:0:0:
192,192,23400,1,2,0:0:0:0:
448,192,23400,1,2,0:0:0:0:
192,192,23500,1,2,0:0:0:0:
320,192,23600,1,2,0:0:0:0:
448,192,23600,1,2,0:0:0:0:
192,192,23600,1,2,0:0:0:0:
64,192,23700,1,2,0:0:0:0:
64,192,23800,1,2,0:0:0:0:
192,192,23800,1,2,0:0:0:0:
320,192,23800,1,2,0:0:0:0:
448,192,23900,1,2,0:0:0:0:
64,192,24000,1,2,0:0:0:0:
192,192,24000,1,2,0:0:0:0:
448,192,24000,1,2,0:0:0:0:
320,192,24200,1,2,0:0:0:0:
192,192,24200,1,2,0:0:0:0:
64,192,24200,1,2,0:0:0:0:
64,192,24400,1,2,0:0:0:0:
320,192,24400,1,2,0:0:0:0:
448,192,24400,1,2,0:0:0:0:
64,192,24600,1,2,0:0:0:0:
192,192,24600,1,2,0:0:0:0:
320,192,24600,1,2,0:0:0:0:
192,192,24800,1,2,0:0:0:0:
320,192,24800,1,2,0:0:0:0:
448,192,24800,1,2,0:0:0:0:
320,192,24900,1,2,0:0:0:0:
192,192,25000,1,2,0:0:0:0:
64,192,25000,1,2,0:0:0:0:
448,192,25000,1,2,0:0:0:0:
64,192,25200,1,2,0:0:0:0:
320,192,25200,1,2,0:0:0:0:
448,192,25200,1,2,0:0:0:0:
64,192,25400,1,2,0:0:0:0:
192,192,25400,1,2,0:0:0:0:
448,192,25400,1,2,0:0:0:0:
320,192,25600,1,2,0:0:0:0:
192,192,25600,1,2,0:0:0:0:
64,192,25600,1,2,0:0:0:0:
448,192,25800,1,2,0:0:0:0:
320,192,25800,1,2,0:0:0:0:
192,192,25800,1,2,0:0:0:0:
64,192,26000,1,2,0:0:0:0:
320,192,26000,1,2,0:0:0:0:
448,192,26000,1,2,0:0:0:0:
192,192,26200,1,2,0:0:0:0:
320,192,26200,1,2,0:0:0:0:
64,192,26200,1,2,0:0:0:0:
192,192,26400,1,2,0:0:0:0:
448,192,26400,1,2,0:0:0:0:
320,192,26500,1,2,0:0:0:0:
192,192,26600,1,2,0:0:0:0:
64,192,26600,1,2,0:0:0:0:
448,192,26600,1,2,0:0:0:0:
64,192,26700,1,2,0:0:0:0:
192,192,26800,1,2,0:0:0:0:
320,192,26800,1,2,0:0:0:0:
448,192,26800,1,2,0:0:0:0:
192,192,27000,1,2,0:0:0:0:
320,192,27000,1,2,0:0:0:0:
64,192,27200,1,2,0:0:0:0:
192,192,27200,1,2,0:0:0:0:
320,192,27200,1,2,0:0:0:0:
448,192,27200,1,2,0:0:0:0:
192,192,27400,1,2,0:0:0:0:
64,192,27400,1,2,0:0:0:0:
448,192,27400,1,2,0:0:0:0:
192,192,27600,1,2,0:0:0:0:
320,192,27600,1,2,0:0:0:0:
448,192,27600,1,2,0:0:0:0:
64,192,27800,1,2,0:0:0:0:
192,192,27800,1,2,0:0:0:0:
320,192,27800,1,2,0:0:0:0:
192,192,28000,1,2,0:0:0:0:
64,192,28000,1,2,0:0:0:0:
448,192,28000,1,2,0:0:0:0:
320,192,28100,1,2,0:0:0:0:
192,192,28200,1,2,0:0:0:0:
320,192,28200,1,2,0:0:0:0:
448,192,28200,1,2,0:0:0:0:
64,192,28400,1,2,0:0:0:0:
192,192,28400,1,2,0:0:0:0:
448,192,28400,1,2,0:0:0:0:
320,192,28600,1,2,0:0:0:0:
192,192,28600,1,2,0:0:0:0:
64,192,28600,1,2,0:0:0:0:
192,192,28800,1,2,0:0:0:0:
320,192,28800,1,2,0:0:0:0:
448,192,28800,1,2,0:0:0:0:
192,192,29000,1,2,0:0:0:0:
320,192,29000,1,2,0:0:0:0:
448,192,29000,1,2,0:0:0:0:
64,192,29200,1,2,0:0:0:0:
192,192,29200,1,2,0:0:0:0:
448,192,29200,1,2,0:0:0:0:
192,192,29400,1,2,0:0:0:0:
320,192,29400,1,2,0:0:0:0:
64,192,29600,1,2,0:0:0:0:
448,192,29600,1,2,0:0:0:0:
320,192,29600,1,2,0:0:0:0:
192,192,29700,1,2,0:0:0:0:
192,192,29800,1,2,0:0:0:0:
64,192,29800,1,2,0:0:0:0:
448,192,29800,1,2,0:0:0:0:
320,192,29900,1,2,0:0:0:0:
192,192,30000,1,2,0:0:0:0:
64,192,30000,1,2,0:0:0:0:
448,192,30000,1,2,0:0:0:0:
448,192,30100,1,2,0:0:0:0:
64,192,30200,1,2,0:0:0:0:
320,192,30200,1,2,0:0:0:0:
448,192,30200,1,2,0:0:0:0:
320,192,30300,1,2,0:0:0:0:
64,192,30400,1,2,0:0:0:0:
192,192,30400,1,2,0:0:0:0:
320,192,30400,1,2,0:0:0:0:
448,192,30400,1,2,0:0:0:0:
320,192,30600,1,2,0:0:0:0:
192,192,31000,1,2,0:0:0:0:
320,192,31400,1,2,0:0:0:0:
192,192,31800,1,2,0:0:0:0:
64,192,32000,1,2,0:0:0:0:
192,192,32000,1,2,0:0:0:0:
320,192,32100,1,2,0:0:0:0:
448,192,32100,1,2,0:0:0:0:
64,192,32200,1,2,0:0:0:0:
192,192,32200,1,2,0:0:0:0:
320,192,32300,1,2,0:0:0:0:
448,192,32300,1,2,0:0:0:0:
64,192,32400,1,2,0:0:0:0:
192,192,32400,1,2,0:0:0:0:
320,192,32500,1,2,0:0:0:0:
448,192,32500,1,2,0:0:0:0:
64,192,32600,1,2,0:0:0:0:
192,192,32600,1,2,0:0:0:0:
320,192,32700,1,2,0:0:0:0:
448,192,32700,1,2,0:0:0:0:
64,192,32800,1,2,0:0:0:0:
192,192,32800,1,2,0:0:0:0:
320,192,32900,1,2,0:0:0:0:
448,192,32900,1,2,0:0:0:0:
64,192,33000,1,2,0:0:0:0:
192,192,33000,1,2,0:0:0:0:
320,192,33100,1,2,0:0:0:0:
448,192,33100,1,2,0:0:0:0:
64,192,33200,1,2,0:0:0:0:
192,192,33200,1,2,0:0:0:0:
320,192,33200,1,2,0:0:0:0:
448,192,33200,1,2,0:0:0:0:
192,192,33400,1,2,0:0:0:0:
320,192,33400,1,2,0:0:0:0:
64,192,33600,1,2,0:0:0:0:
192,192,33600,1,2,0:0:0:0:
448,192,33600,1,2,0:0:0:0:
320,192,33600,128,2,33700:0:0:0:0:
64,192,33800,1,2,0:0:0:0:
320,192,34000,128,2,34100:0:0:0:0:
192,192,34000,1,2,0:0:0:0:
448,192,34000,1,2,0:0:0:0:
320,192,34200,1,2,0:0:0:0:
192,192,34400,128,2,34500:0:0:0:0:
320,192,34400,1,2,0:0:0:0:
448,192,34400,1,2,0:0:0:0:
320,192,34600,1,2,0:0:0:0:
192,192,34800,128,2,34900:0:0:0:0:
64,192,34800,1,2,0:0:0:0:
448,192,34800,1,2,0:0:0:0:
320,192,35000,1,2,0:0:0:0:
448,192,35200,128,2,35300:0:0:0:0:
192,192,35200,1,2,0:0:0:0:
64,192,35200,1,2,0:0:0:0:
192,192,35400,1,2,0:0:0:0:
448,192,35600,128,2,35700:0:0:0:0:
192,192,35600,1,2,0:0:0:0:
320,192,35600,1,2,0:0:0:0:
192,192,35800,1,2,0:0:0:0:
64,192,36000,128,2,36100:0:0:0:0:
320,192,36000,1,2,0:0:0:0:
448,192,36100,1,2,0:0:0:0:
192,192,36200,1,2,0:0:0:0:
64,192,36400,128,2,36500:0:0:0:0:
192,192,36400,1,2,0:0:0:0:
448,192,36400,1,2,0:0:0:0:
320,192,36600,1,2,0:0:0:0:
192,192,36800,128,2,36900:0:0:0:0:
320,192,36800,1,2,0:0:0:0:
64,192,36800,1,2,0:0:0:0:
448,192,37000,1,2,0:0:0:0:
320,192,37200,1,2,0:0:0:0:
192,192,37200,128,2,37300:0:0:0:0:
64,192,37200,1,2,0:0:0:0:
320,192,37400,1,2,0:0:0:0:
448,192,37600,128,2,37700:0:0:0:0:
64,192,37600,1,2,0:0:0:0:
192,192,37600,1,2,0:0:0:0:
320,192,37800,1,2,0:0:0:0:
448,192,38000,128,2,38100:0:0:0:0:
192,192,38000,1,2,0:0:0:0:
64,192,38000,1,2,0:0:0:0:
192,192,38200,1,2,0:0:0:0:
64,192,38400,128,2,38500:0:0:0:0:
320,192,38400,1,2,0:0:0:0:
192,192,38400,1,2,0:0:0:0:
320,192,38600,1,2,0:0:0:0:
64,192,38800,128,2,38900:0:0:0:0:
448,192,38800,1,2,0:0:0:0:
320,192,38800,1,2,0:0:0:0:
192,192,39000,1,2,0:0:0:0:
320,192,39200,128,2,39300:0:0:0:0:
192,192,39200,1,2,0:0:0:0:
64,192,39200,1,2,0:0:0:0:
448,192,39300,1,2,0:0:0:0:
192,192,39400,1,2,0:0:0:0:
64,192,39500,1,2,0:0:0:0:
320,192,39600,128,2,39700:0:0:0:0:
192,192,39600,1,2,0:0:0:0:
448,192,39600,1,2,0:0:0:0:
192,192,39800,1,2,0:0:0:0:
448,192,39800,1,2,0:0:0:0:
448,192,40000,1,2,0:0:0:0:
320,192,40000,1,2,0:0:0:0:
64,192,40000,1,2,0:0:0:0:
192,192,40000,128,2,40100:0:0:0:0:
448,192,40200,1,2,0:0:0:0:
192,192,40400,128,2,40500:0:0:0:0:
320,192,40400,1,2,0:0:0:0:
64,192,40400,1,2,0:0:0:0:
192,192,40600,1,2,0:0:0:0:
320,192,40800,128,2,40900:0:0:0:0:
192,192,40800,1,2,0:0:0:0:
64,192,40800,1,2,0:0:0:0:
192,192,41000,1,2,0:0:0:0:
320,192,41200,128,2,41300:0:0:0:0:
448,192,41200,1,2,0:0:0:0:
64,192,41200,1,2,0:0:0:0:
192,192,41400,1,2,0:0:0:0:
64,192,41600,128,2,41700:0:0:0:0:
320,192,41600,1,2,0:0:0:0:
448,192,41600,1,2,0:0:0:0:
320,192,41800,1,2,0:0:0:0:
64,192,42000,128,2,42100:0:0:0:0:
320,192,42000,1,2,0:0:0:0:
192,192,42000,1,2,0:0:0:0:
320,192,42200,1,2,0:0:0:0:
448,192,42400,128,2,42500:0:0:0:0:
64,192,42400,1,2,0:0:0:0:
192,192,42500,1,2,0:0:0:0:
320,192,42600,1,2,0:0:0:0:
448,192,42800,128,2,42900:0:0:0:0:
320,192,42800,1,2,0:0:0:0:
64,192,42800,1,2,0:0:0:0:
192,192,43000,1,2,0:0:0:0:
320,192,43200,128,2,43300:0:0:0:0:
192,192,43200,1,2,0:0:0:0:
448,192,43200,1,2,0:0:0:0:
64,192,43400,1,2,0:0:0:0:
192,192,43600,1,2,0:0:0:0:
320,192,43600,128,2,43700:0:0:0:0:
448,192,43600,1,2,0:0:0:0:
192,192,43800,1,2,0:0:0:0:
64,192,44000,128,2,44100:0:0:0:0:
320,192,44000,1,2,0:0:0:0:
448,192,44100,1,2,0:0:0:0:
192,192,44200,1,2,0:0:0:0:
64,192,44400,128,2,44500:0:0:0:0:
320,192,44400,1,2,0:0:0:0:
448,192,44400,1,2,0:0:0:0:
320,192,44600,1,2,0:0:0:0:
448,192,44800,128,2,44900:0:0:0:0:
192,192,44800,1,2,0:0:0:0:
320,192,44800,1,2,0:0:0:0:
192,192,45000,1,2,0:0:0:0:
448,192,45200,128,2,45300:0:0:0:0:
64,192,45200,1,2,0:0:0:0:
192,192,45200,1,2,0:0:0:0:
320,192,45400,1,2,0:0:0:0:
192,192,45600,128,2,45700:0:0:0:0:
320,192,45600,1,2,0:0:0:0:
448,192,45600,1,2,0:0:0:0:
64,192,45700,1,2,0:0:0:0:
320,192,45800,1,2,0:0:0:0:
448,192,45900,1,2,0:0:0:0:
192,192,46000,128,2,46100:0:0:0:0:
320,192,46000,1,2,0:0:0:0:
64,192,46000,1,2,0:0:0:0:
320,192,46200,1,2,0:0:0:0:
64,192,46200,1,2,0:0:0:0:
448,192,46400,128,2,46500:0:0:0:0:
192,192,46400,1,2,0:0:0:0:
64,192,46400,1,2,0:0:0:0:
320,192,46600,1,2,0:0:0:0:
64,192,46800,128,2,46900:0:0:0:0:
192,192,46800,1,2,0:0:0:0:
448,192,46800,1,2,0:0:0:0:
320,192,47000,1,2,0:0:0:0:
192,192,47200,128,2,47300:0:0:0:0:
64,192,47200,1,2,0:0:0:0:
320,192,47200,1,2,0:0:0:0:
448,192,47400,1,2,0:0:0:0:
320,192,47600,128,2,47700:0:0:0:0:
192,192,47600,1,2,0:0:0:0:
64,192,47600,1,2,0:0:0:0:
192,192,47800,1,2,0:0:0:0:
320,192,48000,128,2,48100:0:0:0:0:
64,192,48000,1,2,0:0:0:0:
448,192,48000,1,2,0:0:0:0:
192,192,48200,1,2,0:0:0:0:
64,192,48400,128,2,48500:0:0:0:0:
320,192,48400,1,2,0:0:0:0:
192,192,48600,1,2,0:0:0:0:
192,192,48800,128,2,48900:0:0:0:0:
448,192,48800,1,2,0:0:0:0:
64,192,48800,1,2,0:0:0:0:
320,192,48900,1,2,0:0:0:0:
320,192,49000,1,2,0:0:0:0:
448,192,49200,128,2,49300:0:0:0:0:
320,192,49200,1,2,0:0:0:0:
192,192,49200,1,2,0:0:0:0:
192,192,49400,1,2,0:0:0:0:
320,192,49600,128,2,49700:0:0:0:0:
64,192,49600,1,2,0:0:0:0:
192,192,49600,1,2,0:0:0:0:
192,192,49800,1,2,0:0:0:0:
320,192,50000,128,2,50100:0:0:0:0:
448,192,50000,1,2,0:0:0:0:
192,192,50000,1,2,0:0:0:0:
192,192,50200,1,2,0:0:0:0:
192,192,50400,128,2,50500:0:0:0:0:
64,192,50400,1,2,0:0:0:0:
320,192,50400,1,2,0:0:0:0:
448,192,50600,1,2,0:0:0:0:
192,192,50800,128,2,50900:0:0:0:0:
320,192,50800,1,2,0:0:0:0:
448,192,50800,1,2,0:0:0:0:
64,192,51000,1,2,0:0:0:0:
320,192,51200,128,2,51300:0:0:0:0:
192,192,51200,1,2,0:0:0:0:
448,192,51200,1,2,0:0:0:0:
192,192,51400,1,2,0:0:0:0:
192,192,51600,128,2,51700:0:0:0:0:
64,192,51600,1,2,0:0:0:0:
448,192,51600,1,2,0:0:0:0:
448,192,51800,1,2,0:0:0:0:
64,192,52000,128,2,52100:0:0:0:0:
192,192,52000,1,2,0:0:0:0:
448,192,52000,1,2,0:0:0:0:
192,192,52100,1,2,0:0:0:0:
448,192,52200,1,2,0:0:0:0:
320,192,52300,1,2,0:0:0:0:
192,192,52400,1,2,0:0:0:0:
320,192,52400,1,2,0:0:0:0:
192,192,52600,1,2,0:0:0:0:
320,192,52600,1,2,0:0:0:0:
64,192,52800,128,2,52900:0:0:0:0:
320,192,52800,1,2,0:0:0:0:
448,192,52800,1,2,0:0:0:0:
192,192,53000,1,2,0:0:0:0:
448,192,53200,128,2,53300:0:0:0:0:
320,192,53200,1,2,0:0:0:0:
64,192,53200,1,2,0:0:0:0:
192,192,53400,1,2,0:0:0:0:
320,192,53600,128,2,53700:0:0:0:0:
192,192,53600,1,2,0:0:0:0:
448,192,53700,1,2,0:0:0:0:
64,192,53800,1,2,0:0:0:0:
192,192,54000,128,2,54100:0:0:0:0:
320,192,54000,1,2,0:0:0:0:
448,192,54000,1,2,0:0:0:0:
320,192,54200,1,2,0:0:0:0:
192,192,54400,128,2,54500:0:0:0:0:
448,192,54400,1,2,0:0:0:0:
64,192,54400,1,2,0:0:0:0:
320,192,54600,1,2,0:0:0:0:
448,192,54800,128,2,54900:0:0:0:0:
192,192,54800,1,2,0:0:0:0:
320,192,55000,1,2,0:0:0:0:
320,192,55200,128,2,55300:0:0:0:0:
64,192,55200,1,2,0:0:0:0:
448,192,55300,1,2,0:0:0:0:
192,192,55400,1,2,0:0:0:0:
64,192,55600,128,2,55700:0:0:0:0:
192,192,55600,1,2,0:0:0:0:
320,192,55600,1,2,0:0:0:0:
320,192,55800,1,2,0:0:0:0:
448,192,56000,1,2,0:0:0:0:
320,192,56000,1,2,0:0:0:0:
64,192,56000,1,2,0:0:0:0:
192,192,56200,1,2,0:0:0:0:
64,192,56200,1,2,0:0:0:0:
320,192,56600,1,2,0:0:0:0:
448,192,56600,1,2,0:0:0:0:
64,192,57000,1,2,0:0:0:0:
192,192,57000,1,2,0:0:0:0:
320,192,57400,1,2,0:0:0:0:
448,192,57400,1,2,0:0:0:0:
320,192,57600,1,2,0:0:0:0:
64,192,57600,1,2,0:0:0:0:
192,192,57700,1,2,0:0:0:0:
64,192,57800,1,2,0:0:0:0:
320,192,57800,1,2,0:0:0:0:
448,192,57900,1,2,0:0:0:0:
320,192,58000,1,2,0:0:0:0:
192,192,58100,1,2,0:0:0:0:
64,192,58200,1,2,0:0:0:0:
448,192,58200,1,2,0:0:0:0:
320,192,58300,1,2,0:0:0:0:
192,192,58400,1,2,0:0:0:0:
320,192,58500,1,2,0:0:0:0:
448,192,58600,1,2,0:0:0:0:
64,192,58600,1,2,0:0:0:0:
192,192,58800,1,2,0:0:0:0:
320,192,58800,1,2,0:0:0:0:
64,192,59000,1,2,0:0:0:0:
448,192,59000,1,2,0:0:0:0:
64,192,59200,1,2,0:0:0:0:
448,192,59200,1,2,0:0:0:0:
320,192,59200,128,2,59400:0:0:0:0:
192,192,59400,1,2,0:0:0:0:
320,192,59600,128,2,59800:0:0:0:0:
448,192,59600,1,2,0:0:0:0:
64,192,59600,1,2,0:0:0:0:
192,192,59800,1,2,0:0:0:0:
320,192,60000,128,2,60200:0:0:0:0:
192,192,60000,1,2,0:0:0:0:
448,192,60000,1,2,0:0:0:0:
64,192,60200,1,2,0:0:0:0:
320,192,60400,128,2,60600:0:0:0:0:
448,192,60400,1,2,0:0:0:0:
192,192,60400,1,2,0:0:0:0:
448,192,60600,1,2,0:0:0:0:
192,192,60800,128,2,61000:0:0:0:0:
64,192,60800,1,2,0:0:0:0:
320,192,60800,1,2,0:0:0:0:
448,192,61000,1,2,0:0:0:0:
192,192,61200,128,2,61400:0:0:0:0:
448,192,61200,1,2,0:0:0:0:
64,192,61200,1,2,0:0:0:0:
320,192,61400,1,2,0:0:0:0:
64,192,61400,1,2,0:0:0:0:
448,192,61500,1,2,0:0:0:0:
192,192,61600,128,2,61800:0:0:0:0:
448,192,61600,128,2,62000:0:0:0:0:
320,192,61600,1,2,0:0:0:0:
64,192,61600,1,2,0:0:0:0:
64,192,61800,1,2,0:0:0:0:
320,192,62000,128,2,62400:0:0:0:0:
192,192,62000,128,2,62200:0:0:0:0:
64,192,62000,1,2,0:0:0:0:
448,192,62200,1,2,0:0:0:0:
64,192,62400,128,2,63800:0:0:0:0:
448,192,62400,128,2,62600:0:0:0:0:
192,192,62400,1,2,0:0:0:0:
320,192,62600,1,2,0:0:0:0:
448,192,62800,128,2,63000:0:0:0:0:
192,192,62800,1,2,0:0:0:0:
320,192,63000,1,2,0:0:0:0:
192,192,63000,1,2,0:0:0:0:
448,192,63200,128,2,63400:0:0:0:0:
320,192,63200,1,2,0:0:0:0:
192,192,63400,1,2,0:0:0:0:
448,192,63600,128,2,63800:0:0:0:0:
192,192,63600,1,2,0:0:0:0:
320,192,63800,1,2,0:0:0:0:
192,192,63800,1,2,0:0:0:0:
64,192,64000,128,2,64200:0:0:0:0:
320,192,64000,1,2,0:0:0:0:
192,192,64200,1,2,0:0:0:0:
448,192,64200,1,2,0:0:0:0:
64,192,64400,128,2,64600:0:0:0:0:
320,192,64400,1,2,0:0:0:0:
192,192,64600,1,2,0:0:0:0:
192,192,64700,1,2,0:0:0:0:
320,192,64800,1,2,0:0:0:0:
64,192,64800,128,2,65000:0:0:0:0:
448,192,65000,1,2,0:0:0:0:
448,192,65200,1,2,0:0:0:0:
320,192,65250,1,2,0:0:0:0:
192,192,65300,1,2,0:0:0:0:
64,192,65350,1,2,0:0:0:0:
448,192,65400,1,2,0:0:0:0:
320,192,65450,1,2,0:0:0:0:
192,192,65500,1,2,0:0:0:0:
64,192,65550,1,2,0:0:0:0:
192,192,65600,1,2,0:0:0:0:
320,192,65600,1,2,0:0:0:0:
448,192,65600,128,2,66000:0:0:0:0:
192,192,65800,1,2,0:0:0:0:
320,192,65800,1,2,0:0:0:0:
320,192,66000,128,2,66400:0:0:0:0:
64,192,66000,1,2,0:0:0:0:
192,192,66200,1,2,0:0:0:0:
448,192,66200,1,2,0:0:0:0:
192,192,66400,128,2,66800:0:0:0:0:
64,192,66400,1,2,0:0:0:0:
448,192,66400,1,2,0:0:0:0:
320,192,66600,1,2,0:0:0:0:
64,192,66800,128,2,67200:0:0:0:0:
320,192,66800,1,2,0:0:0:0:
448,192,66800,1,2,0:0:0:0:
320,192,67000,1,2,0:0:0:0:
448,192,67200,128,2,67600:0:0:0:0:
192,192,67200,1,2,0:0:0:0:
320,192,67200,1,2,0:0:0:0:
192,192,67400,1,2,0:0:0:0:
320,192,67600,128,2,68000:0:0:0:0:
192,192,67600,1,2,0:0:0:0:
64,192,67600,1,2,0:0:0:0:
192,192,67800,1,2,0:0:0:0:
192,192,68000,128,2,68400:0:0:0:0:
448,192,68000,1,2,0:0:0:0:
64,192,68000,1,2,0:0:0:0:
64,192,68200,1,2,0:0:0:0:
64,192,68400,128,2,68800:0:0:0:0:
320,192,68400,1,2,0:0:0:0:
448,192,68400,1,2,0:0:0:0:
448,192,68600,1,2,0:0:0:0:
192,192,68800,1,2,0:0:0:0:
320,192,68900,1,2,0:0:0:0:
448,192,68900,1,2,0:0:0:0:
192,192,69000,1,2,0:0:0:0:
64,192,69000,1,2,0:0:0:0:
320,192,69100,1,2,0:0:0:0:
448,192,69100,1,2,0:0:0:0:
64,192,69200,1,2,0:0:0:0:
448,192,69200,1,2,0:0:0:0:
320,192,69300,1,2,0:0:0:0:
192,192,69300,1,2,0:0:0:0:
448,192,69400,1,2,0:0:0:0:
64,192,69400,1,2,0:0:0:0:
192,192,69500,1,2,0:0:0:0:
320,192,69500,1,2,0:0:0:0:
64,192,69600,1,2,0:0:0:0:
192,192,69600,1,2,0:0:0:0:
320,192,69700,1,2,0:0:0:0:
448,192,69700,1,2,0:0:0:0:
192,192,69800,1,2,0:0:0:0:
64,192,69800,1,2,0:0:0:0:
320,192,69900,1,2,0:0:0:0:
448,192,69900,1,2,0:0:0:0:
64,192,70000,1,2,0:0:0:0:
192,192,70000,1,2,0:0:0:0:
448,192,70100,1,2,0:0:0:0:
320,192,70200,1,2,0:0:0:0:
192,192,70300,1,2,0:0:0:0:
64,192,70400,1,2,0:0:0:0:
448,192,70400,1,2,0:0:0:0:
320,192,70400,1,2,0:0:0:0:
64,192,70700,1,2,0:0:0:0:
448,192,70700,1,2,0:0:0:0:
192,192,70700,1,2,0:0:0:0:
64,192,71000,1,2,0:0:0:0:
192,192,71000,1,2,0:0:0:0:
320,192,71000,1,2,0:0:0:0:
448,192,71000,1,2,0:0:0:0:
192,192,72000,1,2,0:0:0:0:
64,192,72000,1,2,0:0:0:0:
448,192,72000,1,2,0:0:0:0:
64,192,72100,1,2,0:0:0:0:
192,192,72200,1,2,0:0:0:0:
448,192,72200,1,2,0:0:0:0:
320,192,72200,1,2,0:0:0:0:
320,192,72300,1,2,0:0:0:0:
64,192,72400,1,2,0:0:0:0:
192,192,72400,1,2,0:0:0:0:
448,192,72400,1,2,0:0:0:0:
320,192,72500,1,2,0:0:0:0:
192,192,72600,1,2,0:0:0:0:
64,192,72600,1,2,0:0:0:0:
448,192,72600,1,2,0:0:0:0:
192,192,72700,1,2,0:0:0:0:
320,192,72800,1,2,0:0:0:0:
192,192,72800,1,2,0:0:0:0:
448,192,72800,1,2,0:0:0:0:
64,192,72900,1,2,0:0:0:0:
448,192,73000,1,2,0:0:0:0:
192,192,73000,1,2,0:0:0:0:
320,192,73100,1,2,0:0:0:0:
64,192,73200,1,2,0:0:0:0:
192,192,73200,1,2,0:0:0:0:
448,192,73200,1,2,0:0:0:0:
320,192,73300,1,2,0:0:0:0:
320,192,73400,1,2,0:0:0:0:
192,192,73400,1,2,0:0:0:0:
64,192,73400,1,2,0:0:0:0:
448,192,73500,1,2,0:0:0:0:
64,192,73600,1,2,0:0:0:0:
192,192,73600,1,2,0:0:0:0:
320,192,73600,1,2,0:0:0:0:
64,192,73700,1,2,0:0:0:0:
320,192,73800,1,2,0:0:0:0:
192,192,73800,1,2,0:0:0:0:
64,192,73900,1,2,0:0:0:0:
192,192,74000,1,2,0:0:0:0:
320,192,74000,1,2,0:0:0:0:
448,192,74000,1,2,0:0:0:0:
192,192,74100,1,2,0:0:0:0:
320,192,74200,1,2,0:0:0:0:
64,192,74200,1,2,0:0:0:0:
448,192,74300,1,2,0:0:0:0:
320,192,74400,1,2,0:0:0:0:
192,192,74400,1,2,0:0:0:0:
320,192,74500,1,2,0:0:0:0:
192,192,74600,1,2,0:0:0:0:
64,192,74600,1,2,0:0:0:0:
448,192,74600,1,2,0:0:0:0:
320,192,74700,1,2,0:0:0:0:
192,192,74800,1,2,0:0:0:0:
320,192,74800,1,2,0:0:0:0:
448,192,74800,1,2,0:0:0:0:
64,192,74900,1,2,0:0:0:0:
192,192,75000,1,2,0:0:0:0:
64,192,75000,1,2,0:0:0:0:
320,192,75000,1,2,0:0:0:0:
448,192,75100,1,2,0:0:0:0:
320,192,75200,1,2,0:0:0:0:
64,192,75200,1,2,0:0:0:0:
192,192,75200,1,2,0:0:0:0:
192,192,75300,1,2,0:0:0:0:
64,192,75400,1,2,0:0:0:0:
320,192,75400,1,2,0:0:0:0:
448,192,75400,1,2,0:0:0:0:
192,192,75500,1,2,0:0:0:0:
64,192,75600,1,2,0:0:0:0:
448,192,75600,1,2,0:0:0:0:
192,192,75700,1,2,0:0:0:0:
64,192,75800,1,2,0:0:0:0:
192,192,75800,1,2,0:0:0:0:
320,192,75800,1,2,0:0:0:0:
192,192,75900,1,2,0:0:0:0:
448,192,76000,1,2,0:0:0:0:
320,192,76000,1,2,0:0:0:0:
64,192,76000,1,2,0:0:0:0:
320,192,76100,1,2,0:0:0:0:
448,192,76200,1,2,0:0:0:0:
192,192,76200,1,2,0:0:0:0:
64,192,76200,1,2,0:0:0:0:
320,192,76300,1,2,0:0:0:0:
192,192,76400,1,2,0:0:0:0:
64,192,76400,1,2,0:0:0:0:
320,192,76400,1,2,0:0:0:0:
448,192,76500,1,2,0:0:0:0:
320,192,76600,1,2,0:0:0:0:
192,192,76600,1,2,0:0:0:0:
320,192,76700,1,2,0:0:0:0:
192,192,76800,1,2,0:0:0:0:
448,192,76800,1,2,0:0:0:0:
64,192,76800,1,2,0:0:0:0:
448,192,76900,1,2,0:0:0:0:
192,192,77000,1,2,0:0:0:0:
64,192,77000,1,2,0:0:0:0:
320,192,77000,1,2,0:0:0:0:
192,192,77100,1,2,0:0:0:0:
64,192,77200,1,2,0:0:0:0:
320,192,77200,1,2,0:0:0:0:
448,192,77200,1,2,0:0:0:0:
320,192,77300,1,2,0:0:0:0:
192,192,77400,1,2,0:0:0:0:
64,192,77400,1,2,0:0:0:0:
192,192,77500,1,2,0:0:0:0:
448,192,77500,1,2,0:0:0:0:
64,192,77600,1,2,0:0:0:0:
448,192,77600,1,2,0:0:0:0:
320,192,77600,1,2,0:0:0:0:
320,192,77700,1,2,0:0:0:0:
192,192,77800,1,2,0:0:0:0:
64,192,77800,1,2,0:0:0:0:
448,192,77800,1,2,0:0:0:0:
320,192,77900,1,2,0:0:0:0:
192,192,78000,1,2,0:0:0:0:
64,192,78000,1,2,0:0:0:0:
192,192,78100,1,2,0:0:0:0:
64,192,78200,1,2,0:0:0:0:
320,192,78200,1,2,0:0:0:0:
448,192,78200,1,2,0:0:0:0:
448,192,78300,1,2,0:0:0:0:
320,192,78400,1,2,0:0:0:0:
64,192,78400,1,2,0:0:0:0:
192,192,78400,1,2,0:0:0:0:
448,192,78400,1,2,0:0:0:0:
192,192,78500,1,2,0:0:0:0:
64,192,78600,1,2,0:0:0:0:
192,192,78600,1,2,0:0:0:0:
320,192,78600,1,2,0:0:0:0:
448,192,78700,1,2,0:0:0:0:
448,192,78800,1,2,0:0:0:0:
320,192,78800,1,2,0:0:0:0:
192,192,78800,1,2,0:0:0:0:
320,192,78900,1,2,0:0:0:0:
192,192,79000,1,2,0:0:0:0:
64,192,79000,1,2,0:0:0:0:
192,192,79100,1,2,0:0:0:0:
64,192,79200,1,2,0:0:0:0:
320,192,79200,1,2,0:0:0:0:
448,192,79300,1,2,0:0:0:0:
448,192,79400,1,2,0:0:0:0:
192,192,79400,1,2,0:0:0:0:
320,192,79400,1,2,0:0:0:0:
64,192,79500,1,2,0:0:0:0:
64,192,79600,1,2,0:0:0:0:
320,192,79600,1,2,0:0:0:0:
192,192,79600,1,2,0:0:0:0:
192,192,79700,1,2,0:0:0:0:
320,192,79800,1,2,0:0:0:0:
64,192,79800,1,2,0:0:0:0:
448,192,79800,1,2,0:0:0:0:
192,192,79900,1,2,0:0:0:0:
64,192,80000,1,2,0:0:0:0:
192,192,80000,1,2,0:0:0:0:
448,192,80000,1,2,0:0:0:0:
320,192,80100,1,2,0:0:0:0:
320,192,80200,1,2,0:0:0:0:
192,192,80200,1,2,0:0:0:0:
448,192,80200,1,2,0:0:0:0:
320,192,80300,1,2,0:0:0:0:
320,192,80400,1,2,0:0:0:0:
192,192,80400,1,2,0:0:0:0:
64,192,80400,1,2,0:0:0:0:
192,192,80500,1,2,0:0:0:0:
192,192,80600,1,2,0:0:0:0:
64,192,80600,1,2,0:0:0:0:
448,192,80600,1,2,0:0:0:0:
320,192,80700,1,2,0:0:0:0:
192,192,80800,1,2,0:0:0:0:
448,192,80800,1,2,0:0:0:0:
320,192,80800,1,2,0:0:0:0:
64,192,80900,1,2,0:0:0:0:
192,192,81000,1,2,0:0:0:0:
448,192,81000,1,2,0:0:0:0:
320,192,81000,1,2,0:0:0:0:
320,192,81100,1,2,0:0:0:0:
64,192,81200,1,2,0:0:0:0:
192,192,81200,1,2,0:0:0:0:
448,192,81200,1,2,0:0:0:0:
192,192,81300,1,2,0:0:0:0:
192,192,81400,1,2,0:0:0:0:
448,192,81400,1,2,0:0:0:0:
64,192,81400,1,2,0:0:0:0:
320,192,81500,1,2,0:0:0:0:
192,192,81600,1,2,0:0:0:0:
64,192,81600,1,2,0:0:0:0:
320,192,81600,1,2,0:0:0:0:
448,192,81600,1,2,0:0:0:0:
448,192,81800,1,2,0:0:0:0:
448,192,82200,1,2,0:0:0:0:
192,192,82200,1,2,0:0:0:0:
192,192,82400,1,2,0:0:0:0:
320,192,82400,1,2,0:0:0:0:
448,192,82600,1,2,0:0:0:0:
448,192,83000,1,2,0:0:0:0:
64,192,83200,1,2,0:0:0:0:
192,192,83200,1,2,0:0:0:0:
320,192,83300,1,2,0:0:0:0:
448,192,83300,1,2,0:0:0:0:
64,192,83400,1,2,0:0:0:0:
192,192,83400,1,2,0:0:0:0:
320,192,83500,1,2,0:0:0:0:
448,192,83500,1,2,0:0:0:0:
64,192,83600,1,2,0:0:0:0:
192,192,83600,1,2,0:0:0:0:
320,192,83700,1,2,0:0:0:0:
448,192,83700,1,2,0:0:0:0:
64,192,83800,1,2,0:0:0:0:
192,192,83800,1,2,0:0:0:0:
320,192,83900,1,2,0:0:0:0:
448,192,83900,1,2,0:0:0:0:
64,192,84000,1,2,0:0:0:0:
192,192,84000,1,2,0:0:0:0:
320,192,84050,1,2,0:0:0:0:
448,192,84050,1,2,0:0:0:0:
64,192,84100,1,2,0:0:0:0:
192,192,84100,1,2,0:0:0:0:
320,192,84150,1,2,0:0:0:0:
448,192,84150,1,2,0:0:0:0:
64,192,84200,1,2,0:0:0:0:
192,192,84200,1,2,0:0:0:0:
320,192,84250,1,2,0:0:0:0:
448,192,84250,1,2,0:0:0:0:
64,192,84300,1,2,0:0:0:0:
192,192,84300,1,2,0:0:0:0:
320,192,84350,1,2,0:0:0:0:
448,192,84350,1,2,0:0:0:0:
64,192,84400,1,2,0:0:0:0:
192,192,84400,1,2,0:0:0:0:
320,192,84450,1,2,0:0:0:0:
448,192,84450,1,2,0:0:0:0:
64,192,84500,1,2,0:0:0:0:
192,192,84500,1,2,0:0:0:0:
320,192,84550,1,2,0:0:0:0:
448,192,84550,1,2,0:0:0:0:
64,192,84600,1,2,0:0:0:0:
192,192,84600,1,2,0:0:0:0:
448,192,84650,1,2,0:0:0:0:
320,192,84650,1,2,0:0:0:0:
64,192,84700,1,2,0:0:0:0:
192,192,84700,1,2,0:0:0:0:
320,192,84750,1,2,0:0:0:0:
448,192,84750,1,2,0:0:0:0:
64,192,84800,1,2,0:0:0:0:
192,192,84800,1,2,0:0:0:0:
320,192,84900,1,2,0:0:0:0:
192,192,85000,1,2,0:0:0:0:
448,192,85000,1,2,0:0:0:0:
64,192,85100,1,2,0:0:0:0:
320,192,85200,1,2,0:0:0:0:
192,192,85300,1,2,0:0:0:0:
64,192,85300,1,2,0:0:0:0:
448,192,85400,1,2,0:0:0:0:
320,192,85400,1,2,0:0:0:0:
192,192,85500,1,2,0:0:0:0:
320,192,85600,1,2,0:0:0:0:
64,192,85600,1,2,0:0:0:0:
448,192,85700,1,2,0:0:0:0:
192,192,85800,1,2,0:0:0:0:
64,192,85800,1,2,0:0:0:0:
320,192,85900,1,2,0:0:0:0:
192,192,86000,1,2,0:0:0:0:
448,192,86000,1,2,0:0:0:0:
320,192,86100,1,2,0:0:0:0:
64,192,86200,128,2,86300:0:0:0:0:
448,192,86200,128,2,86300:0:0:0:0:
320,192,86300,1,2,0:0:0:0:
192,192,86400,1,2,0:0:0:0:
320,192,86500,1,2,0:0:0:0:
64,192,86600,1,2,0:0:0:0:
448,192,86600,1,2,0:0:0:0:
320,192,86700,1,2,0:0:0:0:
64,192,86800,1,2,0:0:0:0:
448,192,86900,1,2,0:0:0:0:
192,192,86900,1,2,0:0:0:0:
320,192,87000,1,2,0:0:0:0:
192,192,87100,1,2,0:0:0:0:
64,192,87200,1,2,0:0:0:0:
320,192,87300,1,2,0:0:0:0:
192,192,87300,1,2,0:0:0:0:
64,192,87400,1,2,0:0:0:0:
448,192,87400,1,2,0:0:0:0:
192,192,87500,1,2,0:0:0:0:
448,192,87600,128,2,87700:0:0:0:0:
64,192,87600,1,2,0:0:0:0:
320,192,87700,128,2,87800:0:0:0:0:
192,192,87700,1,2,0:0:0:0:
192,192,87800,128,2,87900:0:0:0:0:
448,192,87800,1,2,0:0:0:0:
64,192,87900,128,2,88000:0:0:0:0:
320,192,87900,1,2,0:0:0:0:
448,192,88000,1,2,0:0:0:0:
192,192,88100,1,2,0:0:0:0:
448,192,88100,1,2,0:0:0:0:
320,192,88200,1,2,0:0:0:0:
64,192,88300,1,2,0:0:0:0:
192,192,88300,1,2,0:0:0:0:
448,192,88300,1,2,0:0:0:0:
320,192,88400,1,2,0:0:0:0:
64,192,88500,1,2,0:0:0:0:
192,192,88600,1,2,0:0:0:0:
448,192,88600,1,2,0:0:0:0:
64,192,88700,1,2,0:0:0:0:
320,192,88800,1,2,0:0:0:0:
192,192,88800,1,2,0:0:0:0:
448,192,88900,1,2,0:0:0:0:
192,192,89000,1,2,0:0:0:0:
64,192,89100,1,2,0:0:0:0:
320,192,89100,1,2,0:0:0:0:
448,192,89200,128,2,89300:0:0:0:0:
192,192,89200,128,2,89300:0:0:0:0:
320,192,89300,1,2,0:0:0:0:
64,192,89300,1,2,0:0:0:0:
192,192,89400,1,2,0:0:0:0:
320,192,89500,1,2,0:0:0:0:
448,192,89600,1,2,0:0:0:0:
64,192,89600,1,2,0:0:0:0:
192,192,89700,1,2,0:0:0:0:
448,192,89800,1,2,0:0:0:0:
192,192,89900,1,2,0:0:0:0:
448,192,89900,1,2,0:0:0:0:
320,192,90000,1,2,0:0:0:0:
64,192,90000,1,2,0:0:0:0:
64,192,90100,1,2,0:0:0:0:
192,192,90200,1,2,0:0:0:0:
448,192,90200,1,2,0:0:0:0:
320,192,90300,1,2,0:0:0:0:
64,192,90400,1,2,0:0:0:0:
448,192,90400,1,2,0:0:0:0:
192,192,90500,1,2,0:0:0:0:
64,192,90600,1,2,0:0:0:0:
448,192,90600,1,2,0:0:0:0:
320,192,90700,1,2,0:0:0:0:
64,192,90800,128,2,90900:0:0:0:0:
448,192,90800,1,2,0:0:0:0:
192,192,90900,128,2,91000:0:0:0:0:
320,192,90900,1,2,0:0:0:0:
320,192,91000,128,2,91100:0:0:0:0:
448,192,91100,128,2,91200:0:0:0:0:
192,192,91100,1,2,0:0:0:0:
64,192,91200,1,2,0:0:0:0:
320,192,91300,1,2,0:0:0:0:
192,192,91400,1,2,0:0:0:0:
64,192,91500,1,2,0:0:0:0:
448,192,91500,1,2,0:0:0:0:
320,192,91600,1,2,0:0:0:0:
192,192,91700,1,2,0:0:0:0:
64,192,91800,1,2,0:0:0:0:
448,192,91800,1,2,0:0:0:0:
192,192,91900,1,2,0:0:0:0:
64,192,92000,1,2,0:0:0:0:
192,192,92100,1,2,0:0:0:0:
320,192,92200,1,2,0:0:0:0:
448,192,92300,1,2,0:0:0:0:
64,192,92300,1,2,0:0:0:0:
192,192,92400,1,2,0:0:0:0:
320,192,92500,1,2,0:0:0:0:
448,192,92600,1,2,0:0:0:0:
320,192,92700,1,2,0:0:0:0:
64,192,92700,1,2,0:0:0:0:
192,192,92800,1,2,0:0:0:0:
448,192,92900,1,2,0:0:0:0:
64,192,93000,1,2,0:0:0:0:
320,192,93000,1,2,0:0:0:0:
192,192,93100,1,2,0:0:0:0:
448,192,93100,1,2,0:0:0:0:
320,192,93200,1,2,0:0:0:0:
64,192,93300,1,2,0:0:0:0:
448,192,93400,1,2,0:0:0:0:
320,192,93400,1,2,0:0:0:0:
192,192,93500,1,2,0:0:0:0:
320,192,93600,1,2,0:0:0:0:
448,192,93600,128,2,93700:0:0:0:0:
64,192,93600,128,2,93700:0:0:0:0:
320,192,93800,128,2,93900:0:0:0:0:
192,192,93800,128,2,93900:0:0:0:0:
64,192,94000,128,2,94100:0:0:0:0:
448,192,94000,128,2,94100:0:0:0:0:
192,192,94200,1,2,0:0:0:0:
320,192,94200,1,2,0:0:0:0:
192,192,94300,1,2,0:0:0:0:
320,192,94300,1,2,0:0:0:0:
64,192,94400,1,2,0:0:0:0:
192,192,94400,1,2,0:0:0:0:
320,192,94400,1,2,0:0:0:0:
448,192,94400,1,2,0:0:0:0:
448,192,94600,1,2,0:0:0:0:
320,192,95000,1,2,0:0:0:0:
192,192,95400,1,2,0:0:0:0:
64,192,95800,1,2,0:0:0:0:
448,192,96000,1,2,0:0:0:0:
64,192,96000,1,2,0:0:0:0:
320,192,96100,1,2,0:0:0:0:
192,192,96100,1,2,0:0:0:0:
448,192,96200,1,2,0:0:0:0:
64,192,96200,1,2,0:0:0:0:
192,192,96300,1,2,0:0:0:0:
320,192,96300,1,2,0:0:0:0:
64,192,96400,1,2,0:0:0:0:
448,192,96400,1,2,0:0:0:0:
320,192,96500,1,2,0:0:0:0:
192,192,96500,1,2,0:0:0:0:
64,192,96600,1,2,0:0:0:0:
448,192,96600,1,2,0:0:0:0:
192,192,96700,1,2,0:0:0:0:
320,192,96700,1,2,0:0:0:0:
64,192,96800,1,2,0:0:0:0:
448,192,96800,128,2,97600:0:0:0:0:
320,192,96900,1,2,0:0:0:0:
192,192,97000,1,2,0:0:0:0:
64,192,97100,1,2,0:0:0:0:
192,192,97200,1,2,0:0:0:0:
320,192,97200,1,2,0:0:0:0:
64,192,97400,1,2,0:0:0:0:
320,192,97400,1,2,0:0:0:0:
64,192,97600,1,2,0:0:0:0:
192,192,97600,1,2,0:0:0:0:
320,192,97600,128,2,97700:0:0:0:0:
448,192,97800,1,2,0:0:0:0:
192,192,97800,1,2,0:0:0:0:
192,192,98000,128,2,98100:0:0:0:0:
64,192,98000,1,2,0:0:0:0:
320,192,98000,1,2,0:0:0:0:
448,192,98000,1,2,0:0:0:0:
320,192,98200,1,2,0:0:0:0:
192,192,98200,1,2,0:0:0:0:
448,192,98400,128,2,98500:0:0:0:0:
64,192,98400,1,2,0:0:0:0:
192,192,98400,1,2,0:0:0:0:
192,192,98500,1,2,0:0:0:0:
320,192,98600,1,2,0:0:0:0:
64,192,98600,1,2,0:0:0:0:
192,192,98800,128,2,98900:0:0:0:0:
64,192,98800,1,2,0:0:0:0:
320,192,98800,1,2,0:0:0:0:
192,192,99000,1,2,0:0:0:0:
320,192,99000,1,2,0:0:0:0:
64,192,99200,128,2,99300:0:0:0:0:
448,192,99200,1,2,0:0:0:0:
320,192,99200,1,2,0:0:0:0:
320,192,99400,1,2,0:0:0:0:
64,192,99400,1,2,0:0:0:0:
192,192,99600,128,2,99700:0:0:0:0:
64,192,99600,1,2,0:0:0:0:
320,192,99600,1,2,0:0:0:0:
448,192,99800,1,2,0:0:0:0:
320,192,99800,1,2,0:0:0:0:
192,192,100000,1,2,0:0:0:0:
320,192,100000,128,2,100100:0:0:0:0:
64,192,100000,1,2,0:0:0:0:
64,192,100100,1,2,0:0:0:0:
192,192,100200,1,2,0:0:0:0:
320,192,100200,1,2,0:0:0:0:
320,192,100300,1,2,0:0:0:0:
448,192,100400,128,2,100500:0:0:0:0:
320,192,100400,1,2,0:0:0:0:
64,192,100400,1,2,0:0:0:0:
192,192,100500,1,2,0:0:0:0:
192,192,100600,1,2,0:0:0:0:
320,192,100600,1,2,0:0:0:0:
448,192,100700,1,2,0:0:0:0:
448,192,100800,128,2,100900:0:0:0:0:
64,192,100800,1,2,0:0:0:0:
192,192,100800,1,2,0:0:0:0:
64,192,101000,1,2,0:0:0:0:
448,192,101000,1,2,0:0:0:0:
448,192,101200,128,2,101300:0:0:0:0:
64,192,101200,1,2,0:0:0:0:
320,192,101200,1,2,0:0:0:0:
448,192,101400,1,2,0:0:0:0:
192,192,101400,1,2,0:0:0:0:
64,192,101600,128,2,101700:0:0:0:0:
320,192,101600,1,2,0:0:0:0:
192,192,101600,1,2,0:0:0:0:
448,192,101700,1,2,0:0:0:0:
320,192,101800,1,2,0:0:0:0:
64,192,101800,1,2,0:0:0:0:
64,192,102000,128,2,102100:0:0:0:0:
448,192,102000,1,2,0:0:0:0:
192,192,102000,1,2,0:0:0:0:
320,192,102200,1,2,0:0:0:0:
192,192,102200,1,2,0:0:0:0:
192,192,102400,128,2,102500:0:0:0:0:
448,192,102400,1,2,0:0:0:0:
64,192,102400,1,2,0:0:0:0:
192,192,102600,1,2,0:0:0:0:
64,192,102600,1,2,0:0:0:0:
192,192,102800,128,2,102900:0:0:0:0:
64,192,102800,1,2,0:0:0:0:
320,192,102800,1,2,0:0:0:0:
320,192,103000,1,2,0:0:0:0:
448,192,103000,1,2,0:0:0:0:
192,192,103200,1,2,0:0:0:0:
320,192,103200,1,2,0:0:0:0:
64,192,103300,1,2,0:0:0:0:
448,192,103300,1,2,0:0:0:0:
192,192,103400,1,2,0:0:0:0:
320,192,103400,1,2,0:0:0:0:
192,192,103500,1,2,0:0:0:0:
320,192,103500,1,2,0:0:0:0:
64,192,103600,1,2,0:0:0:0:
320,192,103600,1,2,0:0:0:0:
192,192,103800,1,2,0:0:0:0:
448,192,103800,1,2,0:0:0:0:
64,192,104000,1,2,0:0:0:0:
192,192,104000,1,2,0:0:0:0:
448,192,104000,1,2,0:0:0:0:
320,192,104000,128,2,104100:0:0:0:0:
192,192,104200,1,2,0:0:0:0:
448,192,104200,1,2,0:0:0:0:
320,192,104400,128,2,104500:0:0:0:0:
192,192,104400,1,2,0:0:0:0:
64,192,104400,1,2,0:0:0:0:
448,192,104400,1,2,0:0:0:0:
192,192,104600,1,2,0:0:0:0:
320,192,104800,128,2,104900:0:0:0:0:
448,192,104800,1,2,0:0:0:0:
192,192,104800,1,2,0:0:0:0:
64,192,104900,1,2,0:0:0:0:
192,192,105000,1,2,0:0:0:0:
64,192,105000,1,2,0:0:0:0:
320,192,105200,128,2,105300:0:0:0:0:
192,192,105200,1,2,0:0:0:0:
64,192,105200,1,2,0:0:0:0:
192,192,105400,1,2,0:0:0:0:
448,192,105400,1,2,0:0:0:0:
320,192,105600,128,2,105700:0:0:0:0:
448,192,105600,1,2,0:0:0:0:
192,192,105800,1,2,0:0:0:0:
320,192,105800,1,2,0:0:0:0:
320,192,106000,128,2,106100:0:0:0:0:
192,192,106000,1,2,0:0:0:0:
320,192,106200,1,2,0:0:0:0:
448,192,106200,1,2,0:0:0:0:
320,192,106400,1,2,0:0:0:0:
448,192,106400,1,2,0:0:0:0:
320,192,106500,1,2,0:0:0:0:
192,192,106500,1,2,0:0:0:0:
192,192,106600,1,2,0:0:0:0:
64,192,106600,1,2,0:0:0:0:
320,192,106700,1,2,0:0:0:0:
192,192,106800,1,2,0:0:0:0:
448,192,106800,1,2,0:0:0:0:
320,192,106900,1,2,0:0:0:0:
64,192,107000,1,2,0:0:0:0:
320,192,107000,1,2,0:0:0:0:
192,192,107000,1,2,0:0:0:0:
192,192,107100,1,2,0:0:0:0:
192,192,107200,128,2,107300:0:0:0:0:
448,192,107200,1,2,0:0:0:0:
320,192,107200,1,2,0:0:0:0:
192,192,107400,1,2,0:0:0:0:
320,192,107400,1,2,0:0:0:0:
192,192,107600,128,2,107700:0:0:0:0:
320,192,107600,1,2,0:0:0:0:
64,192,107600,1,2,0:0:0:0:
320,192,107800,1,2,0:0:0:0:
64,192,108000,128,2,108100:0:0:0:0:
192,192,108000,1,2,0:0:0:0:
448,192,108000,1,2,0:0:0:0:
320,192,108100,1,2,0:0:0:0:
320,192,108200,1,2,0:0:0:0:
448,192,108200,1,2,0:0:0:0:
64,192,108400,128,2,108500:0:0:0:0:
320,192,108400,1,2,0:0:0:0:
192,192,108400,1,2,0:0:0:0:
192,192,108600,1,2,0:0:0:0:
64,192,108600,1,2,0:0:0:0:
192,192,108800,128,2,108900:0:0:0:0:
448,192,108800,1,2,0:0:0:0:
64,192,108800,1,2,0:0:0:0:
320,192,109000,1,2,0:0:0:0:
448,192,109000,1,2,0:0:0:0:
192,192,109200,128,2,109300:0:0:0:0:
320,192,109200,1,2,0:0:0:0:
64,192,109200,1,2,0:0:0:0:
192,192,109400,1,2,0:0:0:0:
320,192,109400,1,2,0:0:0:0:
448,192,109600,1,2,0:0:0:0:
192,192,109600,1,2,0:0:0:0:
192,192,109700,1,2,0:0:0:0:
320,192,109700,1,2,0:0:0:0:
64,192,109800,1,2,0:0:0:0:
320,192,109800,1,2,0:0:0:0:
192,192,109900,1,2,0:0:0:0:
448,192,109900,1,2,0:0:0:0:
192,192,110000,1,2,0:0:0:0:
320,192,110000,1,2,0:0:0:0:
64,192,110200,1,2,0:0:0:0:
448,192,110200,1,2,0:0:0:0:
64,192,110400,1,2,0:0:0:0:
192,192,110400,1,2,0:0:0:0:
320,192,110400,1,2,0:0:0:0:
448,192,110400,128,2,110500:0:0:0:0:
320,192,110600,1,2,0:0:0:0:
448,192,110600,1,2,0:0:0:0:
448,192,110800,128,2,110900:0:0:0:0:
64,192,110800,1,2,0:0:0:0:
192,192,110800,1,2,0:0:0:0:
320,192,111000,1,2,0:0:0:0:
448,192,111000,1,2,0:0:0:0:
64,192,111200,128,2,111300:0:0:0:0:
320,192,111200,1,2,0:0:0:0:
448,192,111200,1,2,0:0:0:0:
192,192,111300,1,2,0:0:0:0:
320,192,111300,1,2,0:0:0:0:
64,192,111400,1,2,0:0:0:0:
192,192,111400,1,2,0:0:0:0:
64,192,111600,128,2,111700:0:0:0:0:
192,192,111600,1,2,0:0:0:0:
320,192,111600,1,2,0:0:0:0:
64,192,111800,1,2,0:0:0:0:
448,192,111800,1,2,0:0:0:0:
320,192,112000,128,2,112100:0:0:0:0:
192,192,112000,1,2,0:0:0:0:
448,192,112000,1,2,0:0:0:0:
64,192,112200,1,2,0:0:0:0:
320,192,112200,1,2,0:0:0:0:
320,192,112400,128,2,112500:0:0:0:0:
192,192,112400,1,2,0:0:0:0:
448,192,112400,1,2,0:0:0:0:
64,192,112600,1,2,0:0:0:0:
320,192,112600,1,2,0:0:0:0:
192,192,112800,128,2,112900:0:0:0:0:
64,192,112800,1,2,0:0:0:0:
320,192,112800,1,2,0:0:0:0:
448,192,112900,1,2,0:0:0:0:
192,192,113000,1,2,0:0:0:0:
448,192,113000,1,2,0:0:0:0:
192,192,113200,128,2,113300:0:0:0:0:
64,192,113200,1,2,0:0:0:0:
320,192,113200,1,2,0:0:0:0:
192,192,113400,1,2,0:0:0:0:
448,192,113400,1,2,0:0:0:0:
448,192,113600,128,2,113700:0:0:0:0:
64,192,113600,1,2,0:0:0:0:
320,192,113600,1,2,0:0:0:0:
192,192,113800,1,2,0:0:0:0:
320,192,113800,1,2,0:0:0:0:
64,192,114000,128,2,114100:0:0:0:0:
192,192,114000,1,2,0:0:0:0:
448,192,114000,1,2,0:0:0:0:
320,192,114200,1,2,0:0:0:0:
192,192,114200,1,2,0:0:0:0:
320,192,114400,128,2,114500:0:0:0:0:
64,192,114400,1,2,0:0:0:0:
448,192,114400,1,2,0:0:0:0:
192,192,114600,1,2,0:0:0:0:
320,192,114600,1,2,0:0:0:0:
192,192,114800,128,2,114900:0:0:0:0:
64,192,114800,1,2,0:0:0:0:
448,192,114800,1,2,0:0:0:0:
192,192,115000,1,2,0:0:0:0:
320,192,115000,1,2,0:0:0:0:
320,192,115200,128,2,115300:0:0:0:0:
192,192,115200,1,2,0:0:0:0:
448,192,115200,1,2,0:0:0:0:
192,192,115400,1,2,0:0:0:0:
320,192,115400,1,2,0:0:0:0:
192,192,115600,128,2,115700:0:0:0:0:
64,192,115600,1,2,0:0:0:0:
320,192,115600,1,2,0:0:0:0:
192,192,115800,1,2,0:0:0:0:
320,192,115800,1,2,0:0:0:0:
320,192,116000,1,2,0:0:0:0:
448,192,116000,1,2,0:0:0:0:
64,192,116100,1,2,0:0:0:0:
192,192,116100,1,2,0:0:0:0:
192,192,116200,1,2,0:0:0:0:
320,192,116200,1,2,0:0:0:0:
64,192,116300,1,2,0:0:0:0:
448,192,116300,1,2,0:0:0:0:
192,192,116400,1,2,0:0:0:0:
320,192,116400,1,2,0:0:0:0:
64,192,116600,1,2,0:0:0:0:
448,192,116600,1,2,0:0:0:0:
64,192,116800,1,2,0:0:0:0:
320,192,116800,1,2,0:0:0:0:
448,192,116800,1,2,0:0:0:0:
192,192,116800,128,2,116900:0:0:0:0:
448,192,117000,1,2,0:0:0:0:
320,192,117000,1,2,0:0:0:0:
192,192,117200,128,2,117300:0:0:0:0:
64,192,117200,1,2,0:0:0:0:
320,192,117200,1,2,0:0:0:0:
320,192,117400,1,2,0:0:0:0:
448,192,117400,1,2,0:0:0:0:
320,192,117600,128,2,117700:0:0:0:0:
192,192,117600,1,2,0:0:0:0:
448,192,117600,1,2,0:0:0:0:
192,192,117700,1,2,0:0:0:0:
64,192,117800,1,2,0:0:0:0:
192,192,117800,1,2,0:0:0:0:
320,192,118000,128,2,118100:0:0:0:0:
192,192,118000,1,2,0:0:0:0:
448,192,118000,1,2,0:0:0:0:
64,192,118200,1,2,0:0:0:0:
192,192,118200,1,2,0:0:0:0:
64,192,118400,128,2,118500:0:0:0:0:
192,192,118400,1,2,0:0:0:0:
448,192,118400,1,2,0:0:0:0:
320,192,118600,1,2,0:0:0:0:
64,192,118600,1,2,0:0:0:0:
64,192,118800,128,2,118900:0:0:0:0:
192,192,118800,1,2,0:0:0:0:
448,192,118800,1,2,0:0:0:0:
320,192,119000,1,2,0:0:0:0:
64,192,119000,1,2,0:0:0:0:
448,192,119200,128,2,119300:0:0:0:0:
64,192,119200,1,2,0:0:0:0:
320,192,119200,1,2,0:0:0:0:
192,192,119300,1,2,0:0:0:0:
192,192,119400,1,2,0:0:0:0:
448,192,119400,1,2,0:0:0:0:
448,192,119600,128,2,119700:0:0:0:0:
64,192,119600,1,2,0:0:0:0:
320,192,119600,1,2,0:0:0:0:
192,192,119800,1,2,0:0:0:0:
448,192,119800,1,2,0:0:0:0:
192,192,120000,1,2,0:0:0:0:
320,192,120000,1,2,0:0:0:0:
64,192,120200,1,2,0:0:0:0:
448,192,120200,1,2,0:0:0:0:
64,192,120600,1,2,0:0:0:0:
448,192,120600,1,2,0:0:0:0:
64,192,121000,1,2,0:0:0:0:
448,192,121000,1,2,0:0:0:0:
64,192,121400,1,2,0:0:0:0:
448,192,121400,1,2,0:0:0:0:
448,192,121600,1,2,0:0:0:0:
192,192,121600,1,2,0:0:0:0:
320,192,121700,1,2,0:0:0:0:
64,192,121800,1,2,0:0:0:0:
320,192,121800,1,2,0:0:0:0:
192,192,121900,1,2,0:0:0:0:
192,192,122000,1,2,0:0:0:0:
64,192,122100,1,2,0:0:0:0:
448,192,122100,1,2,0:0:0:0:
448,192,122200,1,2,0:0:0:0:
64,192,122300,1,2,0:0:0:0:
320,192,122300,1,2,0:0:0:0:
64,192,122400,1,2,0:0:0:0:
192,192,122500,1,2,0:0:0:0:
320,192,122500,1,2,0:0:0:0:
192,192,122600,1,2,0:0:0:0:
320,192,122600,1,2,0:0:0:0:
64,192,122700,1,2,0:0:0:0:
448,192,122700,1,2,0:0:0:0:
64,192,122800,1,2,0:0:0:0:
448,192,122800,1,2,0:0:0:0:
320,192,122900,1,2,0:0:0:0:
192,192,123000,1,2,0:0:0:0:
64,192,123100,1,2,0:0:0:0:
192,192,123200,1,2,0:0:0:0:
320,192,123200,1,2,0:0:0:0:
448,192,123400,1,2,0:0:0:0:
192,192,123600,1,2,0:0:0:0:
320,192,123600,1,2,0:0:0:0:
448,192,123800,1,2,0:0:0:0:
64,192,124000,1,2,0:0:0:0:
320,192,124000,1,2,0:0:0:0:
448,192,124000,1,2,0:0:0:0:
192,192,124200,1,2,0:0:0:0:
64,192,124400,1,2,0:0:0:0:
320,192,124400,1,2,0:0:0:0:
448,192,124400,1,2,0:0:0:0:
192,192,124600,1,2,0:0:0:0:
64,192,124800,1,2,0:0:0:0:
192,192,124800,1,2,0:0:0:0:
320,192,124800,1,2,0:0:0:0:
192,192,125000,1,2,0:0:0:0:
64,192,125200,1,2,0:0:0:0:
192,192,125200,1,2,0:0:0:0:
320,192,125200,1,2,0:0:0:0:
192,192,125400,1,2,0:0:0:0:
320,192,125500,1,2,0:0:0:0:
64,192,125600,1,2,0:0:0:0:
448,192,125600,128,2,126000:0:0:0:0:
320,192,125800,1,2,0:0:0:0:
192,192,126000,1,2,0:0:0:0:
320,192,126000,128,2,126400:0:0:0:0:
64,192,126200,1,2,0:0:0:0:
64,192,126400,128,2,128000:0:0:0:0:
192,192,126400,1,2,0:0:0:0:
448,192,126400,1,2,0:0:0:0:
320,192,126600,1,2,0:0:0:0:
192,192,126800,1,2,0:0:0:0:
448,192,126800,1,2,0:0:0:0:
320,192,127000,1,2,0:0:0:0:
192,192,127200,1,2,0:0:0:0:
320,192,127200,1,2,0:0:0:0:
448,192,127400,1,2,0:0:0:0:
192,192,127600,1,2,0:0:0:0:
320,192,127600,1,2,0:0:0:0:
448,192,127800,1,2,0:0:0:0:
192,192,128000,1,2,0:0:0:0:
320,192,128000,1,2,0:0:0:0:
448,192,128000,1,2,0:0:0:0:
192,192,128200,1,2,0:0:0:0:
320,192,128200,1,2,0:0:0:0:
64,192,128400,1,2,0:0:0:0:
448,192,128400,1,2,0:0:0:0:
192,192,128600,1,2,0:0:0:0:
320,192,128600,1,2,0:0:0:0:
192,192,128700,1,2,0:0:0:0:
320,192,128700,1,2,0:0:0:0:
64,192,128800,1,2,0:0:0:0:
320,192,128800,1,2,0:0:0:0:
192,192,129000,1,2,0:0:0:0:
448,192,129000,1,2,0:0:0:0:
320,192,129200,1,2,0:0:0:0:
64,192,129200,1,2,0:0:0:0:
192,192,129400,1,2,0:0:0:0:
320,192,129400,1,2,0:0:0:0:
64,192,129600,1,2,0:0:0:0:
192,192,129600,1,2,0:0:0:0:
448,192,129600,1,2,0:0:0:0:
320,192,129700,1,2,0:0:0:0:
448,192,129800,1,2,0:0:0:0:
64,192,129800,1,2,0:0:0:0:
320,192,129900,1,2,0:0:0:0:
192,192,130000,1,2,0:0:0:0:
448,192,130000,1,2,0:0:0:0:
320,192,130100,1,2,0:0:0:0:
192,192,130200,1,2,0:0:0:0:
64,192,130200,1,2,0:0:0:0:
320,192,130300,1,2,0:0:0:0:
192,192,130400,1,2,0:0:0:0:
448,192,130400,1,2,0:0:0:0:
64,192,130500,1,2,0:0:0:0:
192,192,130600,1,2,0:0:0:0:
320,192,130600,1,2,0:0:0:0:
64,192,130700,1,2,0:0:0:0:
448,192,130800,1,2,0:0:0:0:
192,192,130800,1,2,0:0:0:0:
64,192,130900,1,2,0:0:0:0:
448,192,131000,1,2,0:0:0:0:
192,192,131000,1,2,0:0:0:0:
64,192,131100,1,2,0:0:0:0:
320,192,131200,1,2,0:0:0:0:
64,192,131300,1,2,0:0:0:0:
320,192,131400,1,2,0:0:0:0:
448,192,131400,1,2,0:0:0:0:
64,192,131500,1,2,0:0:0:0:
192,192,131600,1,2,0:0:0:0:
320,192,131600,1,2,0:0:0:0:
448,192,131700,1,2,0:0:0:0:
192,192,131800,1,2,0:0:0:0:
448,192,131900,1,2,0:0:0:0:
64,192,132000,1,2,0:0:0:0:
448,192,132000,1,2,0:0:0:0:
320,192,132100,1,2,0:0:0:0:
192,192,132100,1,2,0:0:0:0:
64,192,132200,1,2,0:0:0:0:
448,192,132200,1,2,0:0:0:0:
192,192,132300,1,2,0:0:0:0:
320,192,132300,1,2,0:0:0:0:
64,192,132400,1,2,0:0:0:0:
448,192,132400,1,2,0:0:0:0:
192,192,132500,1,2,0:0:0:0:
320,192,132500,1,2,0:0:0:0:
64,192,132600,1,2,0:0:0:0:
448,192,132600,1,2,0:0:0:0:
192,192,132700,1,2,0:0:0:0:
320,192,132700,1,2,0:0:0:0:
64,192,132800,1,2,0:0:0:0:
448,192,132800,1,2,0:0:0:0:
320,192,132900,1,2,0:0:0:0:
192,192,133000,1,2,0:0:0:0:
64,192,133100,1,2,0:0:0:0:
192,192,133200,1,2,0:0:0:0:
320,192,133300,1,2,0:0:0:0:
448,192,133400,1,2,0:0:0:0:
320,192,133500,1,2,0:0:0:0:
192,192,133600,1,2,0:0:0:0:
448,192,133600,1,2,0:0:0:0:
320,192,133700,1,2,0:0:0:0:
192,192,133800,1,2,0:0:0:0:
64,192,133900,1,2,0:0:0:0:
192,192,134000,1,2,0:0:0:0:
320,192,134100,1,2,0:0:0:0:
448,192,134100,1,2,0:0:0:0:
64,192,134200,1,2,0:0:0:0:
192,192,134200,1,2,0:0:0:0:
320,192,134300,1,2,0:0:0:0:
448,192,134300,1,2,0:0:0:0:
64,192,134400,1,2,0:0:0:0:
192,192,134400,1,2,0:0:0:0:
320,192,134400,1,2,0:0:0:0:
448,192,134400,1,2,0:0:0:0:
64,192,134700,1,2,0:0:0:0:
320,192,134700,1,2,0:0:0:0:
448,192,134700,1,2,0:0:0:0:
64,192,135000,1,2,0:0:0:0:
192,192,135000,1,2,0:0:0:0:
448,192,135000,1,2,0:0:0:0:
320,192,136000,1,2,0:0:0:0:
448,192,136000,1,2,0:0:0:0:
64,192,136000,1,2,0:0:0:0:
448,192,136100,1,2,0:0:0:0:
320,192,136200,1,2,0:0:0:0:
64,192,136200,1,2,0:0:0:0:
192,192,136200,1,2,0:0:0:0:
192,192,136300,1,2,0:0:0:0:
448,192,136400,1,2,0:0:0:0:
320,192,136400,1,2,0:0:0:0:
64,192,136400,1,2,0:0:0:0:
192,192,136500,1,2,0:0:0:0:
320,192,136600,1,2,0:0:0:0:
448,192,136600,1,2,0:0:0:0:
64,192,136600,1,2,0:0:0:0:
320,192,136700,1,2,0:0:0:0:
192,192,136800,1,2,0:0:0:0:
320,192,136800,1,2,0:0:0:0:
64,192,136800,1,2,0:0:0:0:
448,192,136900,1,2,0:0:0:0:
64,192,137000,1,2,0:0:0:0:
320,192,137000,1,2,0:0:0:0:
192,192,137100,1,2,0:0:0:0:
448,192,137200,1,2,0:0:0:0:
320,192,137200,1,2,0:0:0:0:
64,192,137200,1,2,0:0:0:0:
192,192,137300,1,2,0:0:0:0:
192,192,137400,1,2,0:0:0:0:
320,192,137400,1,2,0:0:0:0:
448,192,137400,1,2,0:0:0:0:
64,192,137500,1,2,0:0:0:0:
448,192,137600,1,2,0:0:0:0:
320,192,137600,1,2,0:0:0:0:
192,192,137600,1,2,0:0:0:0:
448,192,137700,1,2,0:0:0:0:
192,192,137800,1,2,0:0:0:0:
320,192,137800,1,2,0:0:0:0:
448,192,137900,1,2,0:0:0:0:
320,192,138000,1,2,0:0:0:0:
192,192,138000,1,2,0:0:0:0:
64,192,138000,1,2,0:0:0:0:
320,192,138100,1,2,0:0:0:0:
192,192,138200,1,2,0:0:0:0:
448,192,138200,1,2,0:0:0:0:
64,192,138300,1,2,0:0:0:0:
192,192,138400,1,2,0:0:0:0:
320,192,138400,1,2,0:0:0:0:
192,192,138500,1,2,0:0:0:0:
320,192,138600,1,2,0:0:0:0:
448,192,138600,1,2,0:0:0:0:
64,192,138600,1,2,0:0:0:0:
192,192,138700,1,2,0:0:0:0:
320,192,138800,1,2,0:0:0:0:
192,192,138800,1,2,0:0:0:0:
64,192,138800,1,2,0:0:0:0:
448,192,138900,1,2,0:0:0:0:
320,192,139000,1,2,0:0:0:0:
448,192,139000,1,2,0:0:0:0:
192,192,139000,1,2,0:0:0:0:
64,192,139100,1,2,0:0:0:0:
192,192,139200,1,2,0:0:0:0:
448,192,139200,1,2,0:0:0:0:
320,192,139200,1,2,0:0:0:0:
320,192,139300,1,2,0:0:0:0:
448,192,139400,1,2,0:0:0:0:
192,192,139400,1,2,0:0:0:0:
64,192,139400,1,2,0:0:0:0:
320,192,139500,1,2,0:0:0:0:
448,192,139600,1,2,0:0:0:0:
64,192,139600,1,2,0:0:0:0:
320,192,139700,1,2,0:0:0:0:
448,192,139800,1,2,0:0:0:0:
320,192,139800,1,2,0:0:0:0:
192,192,139800,1,2,0:0:0:0:
320,192,139900,1,2,0:0:0:0:
64,192,140000,1,2,0:0:0:0:
192,192,140000,1,2,0:0:0:0:
448,192,140000,1,2,0:0:0:0:
192,192,140100,1,2,0:0:0:0:
64,192,140200,1,2,0:0:0:0:
320,192,140200,1,2,0:0:0:0:
448,192,140200,1,2,0:0:0:0:
192,192,140300,1,2,0:0:0:0:
320,192,140400,1,2,0:0:0:0:
448,192,140400,1,2,0:0:0:0:
192,192,140400,1,2,0:0:0:0:
64,192,140500,1,2,0:0:0:0:
192,192,140600,1,2,0:0:0:0:
320,192,140600,1,2,0:0:0:0:
192,192,140700,1,2,0:0:0:0:
320,192,140800,1,2,0:0:0:0:
64,192,140800,1,2,0:0:0:0:
448,192,140800,1,2,0:0:0:0:
64,192,140900,1,2,0:0:0:0:
320,192,141000,1,2,0:0:0:0:
448,192,141000,1,2,0:0:0:0:
192,192,141000,1,2,0:0:0:0:
320,192,141100,1,2,0:0:0:0:
448,192,141200,1,2,0:0:0:0:
192,192,141200,1,2,0:0:0:0:
64,192,141200,1,2,0:0:0:0:
192,192,141300,1,2,0:0:0:0:
320,192,141400,1,2,0:0:0:0:
448,192,141400,1,2,0:0:0:0:
320,192,141500,1,2,0:0:0:0:
64,192,141500,1,2,0:0:0:0:
448,192,141600,1,2,0:0:0:0:
64,192,141600,1,2,0:0:0:0:
192,192,141600,1,2,0:0:0:0:
192,192,141700,1,2,0:0:0:0:
320,192,141800,1,2,0:0:0:0:
448,192,141800,1,2,0:0:0:0:
64,192,141800,1,2,0:0:0:0:
192,192,141900,1,2,0:0:0:0:
320,192,142000,1,2,0:0:0:0:
448,192,142000,1,2,0:0:0:0:
320,192,142100,1,2,0:0:0:0:
448,192,142200,1,2,0:0:0:0:
192,192,142200,1,2,0:0:0:0:
64,192,142200,1,2,0:0:0:0:
64,192,142300,1,2,0:0:0:0:
192,192,142400,1,2,0:0:0:0:
448,192,142400,1,2,0:0:0:0:
320,192,142400,1,2,0:0:0:0:
64,192,142400,1,2,0:0:0:0:
320,192,142500,1,2,0:0:0:0:
448,192,142600,1,2,0:0:0:0:
320,192,142600,1,2,0:0:0:0:
192,192,142600,1,2,0:0:0:0:
64,192,142700,1,2,0:0:0:0:
64,192,142800,1,2,0:0:0:0:
192,192,142800,1,2,0:0:0:0:
320,192,142800,1,2,0:0:0:0:
192,192,142900,1,2,0:0:0:0:
320,192,143000,1,2,0:0:0:0:
448,192,143000,1,2,0:0:0:0:
320,192,143100,1,2,0:0:0:0:
448,192,143200,1,2,0:0:0:0:
192,192,143200,1,2,0:0:0:0:
64,192,143300,1,2,0:0:0:0:
64,192,143400,1,2,0:0:0:0:
320,192,143400,1,2,0:0:0:0:
192,192,143400,1,2,0:0:0:0:
448,192,143500,1,2,0:0:0:0:
448,192,143600,1,2,0:0:0:0:
192,192,143600,1,2,0:0:0:0:
320,192,143600,1,2,0:0:0:0:
320,192,143700,1,2,0:0:0:0:
192,192,143800,1,2,0:0:0:0:
448,192,143800,1,2,0:0:0:0:
64,192,143800,1,2,0:0:0:0:
320,192,143900,1,2,0:0:0:0:
448,192,144000,1,2,0:0:0:0:
320,192,144000,1,2,0:0:0:0:
64,192,144000,1,2,0:0:0:0:
192,192,144100,1,2,0:0:0:0:
192,192,144200,1,2,0:0:0:0:
320,192,144200,1,2,0:0:0:0:
64,192,144200,1,2,0:0:0:0:
192,192,144300,1,2,0:0:0:0:
192,192,144400,1,2,0:0:0:0:
320,192,144400,1,2,0:0:0:0:
448,192,144400,1,2,0:0:0:0:
320,192,144500,1,2,0:0:0:0:
320,192,144600,1,2,0:0:0:0:
448,192,144600,1,2,0:0:0:0:
64,192,144600,1,2,0:0:0:0:
192,192,144700,1,2,0:0:0:0:
320,192,144800,1,2,0:0:0:0:
64,192,144800,1,2,0:0:0:0:
192,192,144800,1,2,0:0:0:0:
448,192,144900,1,2,0:0:0:0:
320,192,145000,1,2,0:0:0:0:
64,192,145000,1,2,0:0:0:0:
192,192,145000,1,2,0:0:0:0:
192,192,145100,1,2,0:0:0:0:
448,192,145200,1,2,0:0:0:0:
320,192,145200,1,2,0:0:0:0:
64,192,145200,1,2,0:0:0:0:
320,192,145300,1,2,0:0:0:0:
320,192,145400,1,2,0:0:0:0:
64,192,145400,1,2,0:0:0:0:
448,192,145400,1,2,0:0:0:0:
192,192,145500,1,2,0:0:0:0:
320,192,145600,1,2,0:0:0:0:
448,192,145600,1,2,0:0:0:0:
192,192,145600,1,2,0:0:0:0:
64,192,145600,1,2,0:0:0:0:
64,192,145800,1,2,0:0:0:0:
448,192,146200,1,2,0:0:0:0:
192,192,146200,1,2,0:0:0:0:
192,192,146400,1,2,0:0:0:0:
320,192,146400,1,2,0:0:0:0:
448,192,146600,1,2,0:0:0:0:
448,192,147000,1,2,0:0:0:0:
64,192,147200,1,2,0:0:0:0:
192,192,147200,1,2,0:0:0:0:
320,192,147300,1,2,0:0:0:0:
448,192,147300,1,2,0:0:0:0:
64,192,147400,1,2,0:0:0:0:
192,192,147400,1,2,0:0:0:0:
320,192,147500,1,2,0:0:0:0:
448,192,147500,1,2,0:0:0:0:
64,192,147600,1,2,0:0:0:0:
192,192,147600,1,2,0:0:0:0:
320,192,147700,1,2,0:0:0:0:
448,192,147700,1,2,0:0:0:0:
64,192,147800,1,2,0:0:0:0:
192,192,147800,1,2,0:0:0:0:
320,192,147900,1,2,0:0:0:0:
448,192,147900,1,2,0:0:0:0:
64,192,148000,1,2,0:0:0:0:
192,192,148000,1,2,0:0:0:0:
320,192,148050,1,2,0:0:0:0:
448,192,148050,1,2,0:0:0:0:
64,192,148100,1,2,0:0:0:0:
192,192,148100,1,2,0:0:0:0:
320,192,148150,1,2,0:0:0:0:
448,192,148150,1,2,0:0:0:0:
64,192,148200,1,2,0:0:0:0:
192,192,148200,1,2,0:0:0:0:
320,192,148250,1,2,0:0:0:0:
448,192,148250,1,2,0:0:0:0:
64,192,148300,1,2,0:0:0:0:
192,192,148300,1,2,0:0:0:0:
320,192,148350,1,2,0:0:0:0:
448,192,148350,1,2,0:0:0:0:
64,192,148400,1,2,0:0:0:0:
192,192,148400,1,2,0:0:0:0:
320,192,148450,1,2,0:0:0:0:
448,192,148450,1,2,0:0:0:0:
64,192,148500,1,2,0:0:0:0:
192,192,148500,1,2,0:0:0:0:
320,192,148550,1,2,0:0:0:0:
448,192,148550,1,2,0:0:0:0:
64,192,148600,1,2,0:0:0:0:
192,192,148600,1,2,0:0:0:0:
448,192,148650,1,2,0:0:0:0:
320,192,148650,1,2,0:0:0:0:
64,192,148700,1,2,0:0:0:0:
192,192,148700,1,2,0:0:0:0:
320,192,148750,1,2,0:0:0:0:
448,192,148750,1,2,0:0:0:0:
64,192,148800,1,2,0:0:0:0:
192,192,148800,1,2,0:0:0:0:
192,192,148900,1,2,0:0:0:0:
320,192,149000,1,2,0:0:0:0:
64,192,149000,1,2,0:0:0:0:
448,192,149100,1,2,0:0:0:0:
192,192,149200,1,2,0:0:0:0:
320,192,149300,1,2,0:0:0:0:
448,192,149300,1,2,0:0:0:0:
64,192,149400,1,2,0:0:0:0:
192,192,149400,1,2,0:0:0:0:
320,192,149500,1,2,0:0:0:0:
192,192,149600,1,2,0:0:0:0:
448,192,149600,1,2,0:0:0:0:
64,192,149700,1,2,0:0:0:0:
320,192,149800,1,2,0:0:0:0:
448,192,149800,1,2,0:0:0:0:
192,192,149900,1,2,0:0:0:0:
320,192,150000,1,2,0:0:0:0:
64,192,150000,1,2,0:0:0:0:
192,192,150100,1,2,0:0:0:0:
320,192,150200,1,2,0:0:0:0:
448,192,150200,1,2,0:0:0:0:
192,192,150300,1,2,0:0:0:0:
320,192,150400,1,2,0:0:0:0:
192,192,150500,1,2,0:0:0:0:
448,192,150600,1,2,0:0:0:0:
64,192,150600,1,2,0:0:0:0:
192,192,150700,1,2,0:0:0:0:
448,192,150800,1,2,0:0:0:0:
64,192,150900,1,2,0:0:0:0:
320,192,150900,1,2,0:0:0:0:
192,192,151000,1,2,0:0:0:0:
320,192,151100,1,2,0:0:0:0:
448,192,151200,1,2,0:0:0:0:
192,192,151300,1,2,0:0:0:0:
320,192,151300,1,2,0:0:0:0:
448,192,151400,1,2,0:0:0:0:
64,192,151400,1,2,0:0:0:0:
320,192,151500,1,2,0:0:0:0:
448,192,151600,1,2,0:0:0:0:
64,192,151600,1,2,0:0:0:0:
320,192,151700,1,2,0:0:0:0:
64,192,151800,1,2,0:0:0:0:
448,192,151800,1,2,0:0:0:0:
192,192,151900,1,2,0:0:0:0:
64,192,152000,1,2,0:0:0:0:
320,192,152100,1,2,0:0:0:0:
64,192,152100,1,2,0:0:0:0:
192,192,152200,1,2,0:0:0:0:
448,192,152300,1,2,0:0:0:0:
320,192,152300,1,2,0:0:0:0:
64,192,152300,1,2,0:0:0:0:
192,192,152400,1,2,0:0:0:0:
448,192,152500,1,2,0:0:0:0:
320,192,152600,1,2,0:0:0:0:
64,192,152600,1,2,0:0:0:0:
448,192,152700,1,2,0:0:0:0:
192,192,152800,1,2,0:0:0:0:
320,192,152800,1,2,0:0:0:0:
64,192,152900,1,2,0:0:0:0:
320,192,153000,1,2,0:0:0:0:
448,192,153100,1,2,0:0:0:0:
192,192,153100,1,2,0:0:0:0:
64,192,153200,1,2,0:0:0:0:
320,192,153200,1,2,0:0:0:0:
192,192,153300,1,2,0:0:0:0:
320,192,153400,1,2,0:0:0:0:
192,192,153500,1,2,0:0:0:0:
64,192,153600,1,2,0:0:0:0:
448,192,153600,1,2,0:0:0:0:
320,192,153700,1,2,0:0:0:0:
64,192,153800,1,2,0:0:0:0:
320,192,153900,1,2,0:0:0:0:
64,192,153900,1,2,0:0:0:0:
192,192,154000,1,2,0:0:0:0:
448,192,154000,1,2,0:0:0:0:
448,192,154100,1,2,0:0:0:0:
320,192,154200,1,2,0:0:0:0:
64,192,154200,1,2,0:0:0:0:
192,192,154300,1,2,0:0:0:0:
448,192,154400,1,2,0:0:0:0:
64,192,154400,1,2,0:0:0:0:
320,192,154500,1,2,0:0:0:0:
448,192,154600,1,2,0:0:0:0:
64,192,154600,1,2,0:0:0:0:
192,192,154700,1,2,0:0:0:0:
64,192,154800,1,2,0:0:0:0:
320,192,154800,1,2,0:0:0:0:
192,192,154900,1,2,0:0:0:0:
448,192,155000,1,2,0:0:0:0:
320,192,155100,1,2,0:0:0:0:
64,192,155100,1,2,0:0:0:0:
448,192,155200,1,2,0:0:0:0:
192,192,155300,1,2,0:0:0:0:
320,192,155400,1,2,0:0:0:0:
448,192,155500,1,2,0:0:0:0:
64,192,155500,1,2,0:0:0:0:
192,192,155600,1,2,0:0:0:0:
320,192,155700,1,2,0:0:0:0:
448,192,155800,1,2,0:0:0:0:
64,192,155800,1,2,0:0:0:0:
320,192,155900,1,2,0:0:0:0:
448,192,156000,1,2,0:0:0:0:
320,192,156100,1,2,0:0:0:0:
192,192,156200,1,2,0:0:0:0:
64,192,156300,1,2,0:0:0:0:
448,192,156300,1,2,0:0:0:0:
320,192,156400,1,2,0:0:0:0:
192,192,156500,1,2,0:0:0:0:
64,192,156600,1,2,0:0:0:0:
192,192,156700,1,2,0:0:0:0:
448,192,156700,1,2,0:0:0:0:
320,192,156800,1,2,0:0:0:0:
64,192,156900,1,2,0:0:0:0:
448,192,157000,1,2,0:0:0:0:
192,192,157000,1,2,0:0:0:0:
320,192,157100,1,2,0:0:0:0:
64,192,157100,1,2,0:0:0:0:
192,192,157200,1,2,0:0:0:0:
448,192,157300,1,2,0:0:0:0:
64,192,157400,1,2,0:0:0:0:
192,192,157400,1,2,0:0:0:0:
320,192,157500,1,2,0:0:0:0:
192,192,157600,1,2,0:0:0:0:
64,192,157700,1,2,0:0:0:0:
448,192,157700,1,2,0:0:0:0:
320,192,157800,1,2,0:0:0:0:
192,192,157900,1,2,0:0:0:0:
320,192,158000,1,2,0:0:0:0:
448,192,158000,1,2,0:0:0:0:
64,192,158000,1,2,0:0:0:0:
192,192,158100,1,2,0:0:0:0:
320,192,158200,1,2,0:0:0:0:
64,192,158200,1,2,0:0:0:0:
448,192,158300,1,2,0:0:0:0:
320,192,158400,1,2,0:0:0:0:
192,192,158400,1,2,0:0:0:0:
448,192,158600,1,2,0:0:0:0:
448,192,159000,1,2,0:0:0:0:
64,192,159400,1,2,0:0:0:0:
64,192,159800,1,2,0:0:0:0:
448,192,160000,1,2,0:0:0:0:
192,192,160000,1,2,0:0:0:0:
320,192,160100,1,2,0:0:0:0:
64,192,160200,1,2,0:0:0:0:
320,192,160300,1,2,0:0:0:0:
64,192,160400,1,2,0:0:0:0:
448,192,160400,1,2,0:0:0:0:
192,192,160500,1,2,0:0:0:0:
320,192,160600,1,2,0:0:0:0:
448,192,160700,1,2,0:0:0:0:
192,192,160700,1,2,0:0:0:0:
64,192,160800,1,2,0:0:0:0:
320,192,160800,1,2,0:0:0:0:
192,192,160900,1,2,0:0:0:0:
320,192,161000,1,2,0:0:0:0:
448,192,161100,1,2,0:0:0:0:
64,192,161200,1,2,0:0:0:0:
192,192,161200,1,2,0:0:0:0:
448,192,161200,1,2,0:0:0:0:
64,192,161400,1,2,0:0:0:0:
320,192,161400,1,2,0:0:0:0:
448,192,161400,1,2,0:0:0:0:
448,192,174400,5,2,0:0:0:0:
192,192,174400,1,2,0:0:0:0:
64,192,174400,1,2,0:0:0:0:
192,192,174600,1,2,0:0:0:0:
320,192,174600,1,2,0:0:0:0:
64,192,174800,1,2,0:0:0:0:
448,192,174800,1,2,0:0:0:0:
64,192,175000,1,2,0:0:0:0:
320,192,175000,1,2,0:0:0:0:
192,192,175200,1,2,0:0:0:0:
448,192,175200,1,2,0:0:0:0:
320,192,175200,1,2,0:0:0:0:
64,192,175300,1,2,0:0:0:0:
320,192,175400,1,2,0:0:0:0:
192,192,175400,1,2,0:0:0:0:
64,192,175600,1,2,0:0:0:0:
320,192,175600,1,2,0:0:0:0:
192,192,175800,1,2,0:0:0:0:
64,192,175800,1,2,0:0:0:0:
192,192,176000,1,2,0:0:0:0:
320,192,176000,1,2,0:0:0:0:
448,192,176000,1,2,0:0:0:0:
64,192,176200,1,2,0:0:0:0:
320,192,176200,1,2,0:0:0:0:
448,192,176200,1,2,0:0:0:0:
64,192,176400,1,2,0:0:0:0:
192,192,176400,1,2,0:0:0:0:
448,192,176400,1,2,0:0:0:0:
320,192,176600,1,2,0:0:0:0:
192,192,176600,1,2,0:0:0:0:
64,192,176800,1,2,0:0:0:0:
192,192,176800,1,2,0:0:0:0:
320,192,176900,1,2,0:0:0:0:
192,192,177000,1,2,0:0:0:0:
448,192,177000,1,2,0:0:0:0:
64,192,177000,1,2,0:0:0:0:
192,192,177100,1,2,0:0:0:0:
320,192,177200,1,2,0:0:0:0:
64,192,177200,1,2,0:0:0:0:
448,192,177200,1,2,0:0:0:0:
320,192,177300,1,2,0:0:0:0:
192,192,177400,1,2,0:0:0:0:
448,192,177400,1,2,0:0:0:0:
64,192,177400,1,2,0:0:0:0:
64,192,177500,1,2,0:0:0:0:
192,192,177600,1,2,0:0:0:0:
320,192,177600,1,2,0:0:0:0:
448,192,177600,1,2,0:0:0:0:
192,192,177800,1,2,0:0:0:0:
320,192,177800,1,2,0:0:0:0:
448,192,177800,1,2,0:0:0:0:
64,192,178000,1,2,0:0:0:0:
192,192,178000,1,2,0:0:0:0:
320,192,178000,1,2,0:0:0:0:
192,192,178200,1,2,0:0:0:0:
448,192,178200,1,2,0:0:0:0:
64,192,178400,1,2,0:0:0:0:
192,192,178400,1,2,0:0:0:0:
320,192,178400,1,2,0:0:0:0:
192,192,178500,1,2,0:0:0:0:
64,192,178600,1,2,0:0:0:0:
320,192,178600,1,2,0:0:0:0:
448,192,178600,1,2,0:0:0:0:
192,192,178800,1,2,0:0:0:0:
320,192,178800,1,2,0:0:0:0:
64,192,178800,1,2,0:0:0:0:
192,192,179000,1,2,0:0:0:0:
448,192,179000,1,2,0:0:0:0:
64,192,179000,1,2,0:0:0:0:
192,192,179200,1,2,0:0:0:0:
320,192,179200,1,2,0:0:0:0:
448,192,179200,1,2,0:0:0:0:
192,192,179400,1,2,0:0:0:0:
64,192,179400,1,2,0:0:0:0:
320,192,179600,1,2,0:0:0:0:
448,192,179600,1,2,0:0:0:0:
192,192,179800,1,2,0:0:0:0:
64,192,179800,1,2,0:0:0:0:
448,192,179800,1,2,0:0:0:0:
192,192,180000,1,2,0:0:0:0:
320,192,180000,1,2,0:0:0:0:
64,192,180000,1,2,0:0:0:0:
192,192,180100,1,2,0:0:0:0:
64,192,180200,1,2,0:0:0:0:
320,192,180200,1,2,0:0:0:0:
448,192,180200,1,2,0:0:0:0:
320,192,180300,1,2,0:0:0:0:
192,192,180400,1,2,0:0:0:0:
64,192,180400,1,2,0:0:0:0:
64,192,180500,1,2,0:0:0:0:
320,192,180600,1,2,0:0:0:0:
448,192,180600,1,2,0:0:0:0:
448,192,180700,1,2,0:0:0:0:
64,192,180800,1,2,0:0:0:0:
192,192,180800,1,2,0:0:0:0:
320,192,180800,1,2,0:0:0:0:
448,192,180800,1,2,0:0:0:0:
192,192,181000,1,2,0:0:0:0:
64,192,181000,1,2,0:0:0:0:
192,192,181200,1,2,0:0:0:0:
448,192,181200,1,2,0:0:0:0:
64,192,181200,1,2,0:0:0:0:
192,192,181400,1,2,0:0:0:0:
448,192,181400,1,2,0:0:0:0:
320,192,181400,1,2,0:0:0:0:
320,192,181600,1,2,0:0:0:0:
192,192,181600,1,2,0:0:0:0:
64,192,181600,1,2,0:0:0:0:
192,192,181700,1,2,0:0:0:0:
64,192,181800,1,2,0:0:0:0:
192,192,181800,1,2,0:0:0:0:
320,192,181800,1,2,0:0:0:0:
448,192,182000,1,2,0:0:0:0:
192,192,182000,1,2,0:0:0:0:
320,192,182000,1,2,0:0:0:0:
192,192,182200,1,2,0:0:0:0:
64,192,182200,1,2,0:0:0:0:
448,192,182200,1,2,0:0:0:0:
192,192,182400,1,2,0:0:0:0:
320,192,182400,1,2,0:0:0:0:
448,192,182400,1,2,0:0:0:0:
64,192,182600,1,2,0:0:0:0:
320,192,182600,1,2,0:0:0:0:
448,192,182600,1,2,0:0:0:0:
192,192,182800,1,2,0:0:0:0:
64,192,182800,1,2,0:0:0:0:
448,192,182800,1,2,0:0:0:0:
320,192,183000,1,2,0:0:0:0:
192,192,183000,1,2,0:0:0:0:
64,192,183000,1,2,0:0:0:0:
192,192,183200,1,2,0:0:0:0:
320,192,183200,1,2,0:0:0:0:
448,192,183200,1,2,0:0:0:0:
192,192,183300,1,2,0:0:0:0:
64,192,183400,1,2,0:0:0:0:
320,192,183400,1,2,0:0:0:0:
448,192,183400,1,2,0:0:0:0:
320,192,183500,1,2,0:0:0:0:
192,192,183600,1,2,0:0:0:0:
64,192,183600,1,2,0:0:0:0:
320,192,183600,1,2,0:0:0:0:
448,192,183700,1,2,0:0:0:0:
192,192,183800,1,2,0:0:0:0:
64,192,183800,1,2,0:0:0:0:
448,192,183800,1,2,0:0:0:0:
192,192,183900,1,2,0:0:0:0:
320,192,183900,1,2,0:0:0:0:
192,192,184000,1,2,0:0:0:0:
320,192,184000,1,2,0:0:0:0:
448,192,184200,1,2,0:0:0:0:
448,192,184600,1,2,0:0:0:0:
192,192,184800,1,2,0:0:0:0:
320,192,184800,1,2,0:0:0:0:
64,192,185000,1,2,0:0:0:0:
64,192,185400,1,2,0:0:0:0:
64,192,185600,1,2,0:0:0:0:
192,192,185600,1,2,0:0:0:0:
320,192,185700,1,2,0:0:0:0:
448,192,185700,1,2,0:0:0:0:
64,192,185800,1,2,0:0:0:0:
192,192,185800,1,2,0:0:0:0:
320,192,185900,1,2,0:0:0:0:
448,192,185900,1,2,0:0:0:0:
64,192,186000,1,2,0:0:0:0:
192,192,186000,1,2,0:0:0:0:
320,192,186100,1,2,0:0:0:0:
448,192,186100,1,2,0:0:0:0:
64,192,186200,1,2,0:0:0:0:
192,192,186200,1,2,0:0:0:0:
320,192,186300,1,2,0:0:0:0:
448,192,186300,1,2,0:0:0:0:
64,192,186400,1,2,0:0:0:0:
192,192,186450,1,2,0:0:0:0:
320,192,186500,1,2,0:0:0:0:
448,192,186550,1,2,0:0:0:0:
64,192,186600,1,2,0:0:0:0:
192,192,186650,1,2,0:0:0:0:
320,192,186700,1,2,0:0:0:0:
448,192,186750,1,2,0:0:0:0:
64,192,186800,1,2,0:0:0:0:
192,192,186850,1,2,0:0:0:0:
320,192,186900,1,2,0:0:0:0:
448,192,186950,1,2,0:0:0:0:
64,192,187000,1,2,0:0:0:0:
192,192,187050,1,2,0:0:0:0:
320,192,187100,1,2,0:0:0:0:
448,192,187150,1,2,0:0:0:0:
64,192,187200,1,2,0:0:0:0:
192,192,187200,1,2,0:0:0:0:
192,192,187400,1,2,0:0:0:0:
192,192,187600,1,2,0:0:0:0:
320,192,187600,1,2,0:0:0:0:
320,192,187800,1,2,0:0:0:0:
64,192,188000,1,2,0:0:0:0:
192,192,188000,1,2,0:0:0:0:
320,192,188000,1,2,0:0:0:0:
448,192,188000,1,2,0:0:0:0:
320,192,188200,1,2,0:0:0:0:
192,192,188400,1,2,0:0:0:0:
448,192,188600,1,2,0:0:0:0:
192,192,188800,1,2,0:0:0:0:
320,192,188800,1,2,0:0:0:0:
64,192,188800,1,2,0:0:0:0:
192,192,189000,1,2,0:0:0:0:
64,192,189200,1,2,0:0:0:0:
320,192,189400,1,2,0:0:0:0:
192,192,189400,1,2,0:0:0:0:
448,192,189400,1,2,0:0:0:0:
192,192,189500,1,2,0:0:0:0:
320,192,189500,1,2,0:0:0:0:
448,192,189500,1,2,0:0:0:0:
64,192,189600,1,2,0:0:0:0:
192,192,189800,1,2,0:0:0:0:
64,192,190000,1,2,0:0:0:0:
320,192,190000,1,2,0:0:0:0:
192,192,190200,1,2,0:0:0:0:
320,192,190200,1,2,0:0:0:0:
448,192,190200,1,2,0:0:0:0:
192,192,190400,1,2,0:0:0:0:
320,192,190400,1,2,0:0:0:0:
448,192,190600,1,2,0:0:0:0:
64,192,190800,1,2,0:0:0:0:
320,192,190800,1,2,0:0:0:0:
192,192,191000,1,2,0:0:0:0:
320,192,191200,1,2,0:0:0:0:
192,192,191200,1,2,0:0:0:0:
448,192,191200,1,2,0:0:0:0:
320,192,191400,1,2,0:0:0:0:
192,192,191600,1,2,0:0:0:0:
448,192,191600,1,2,0:0:0:0:
320,192,191800,1,2,0:0:0:0:
192,192,192000,1,2,0:0:0:0:
320,192,192000,1,2,0:0:0:0:
192,192,192200,1,2,0:0:0:0:
64,192,192400,1,2,0:0:0:0:
448,192,192400,1,2,0:0:0:0:
64,192,192600,1,2,0:0:0:0:
448,192,192600,1,2,0:0:0:0:
448,192,192700,1,2,0:0:0:0:
64,192,192700,1,2,0:0:0:0:
192,192,192800,1,2,0:0:0:0:
320,192,192800,1,2,0:0:0:0:
192,192,193200,1,2,0:0:0:0:
320,192,193200,1,2,0:0:0:0:
448,192,193600,128,2,194000:0:0:0:0:
64,192,193600,1,2,0:0:0:0:
320,192,193600,1,2,0:0:0:0:
192,192,193600,1,2,0:0:0:0:
192,192,193800,1,2,0:0:0:0:
320,192,193800,1,2,0:0:0:0:
64,192,194000,128,2,194400:0:0:0:0:
192,192,194000,1,2,0:0:0:0:
320,192,194000,1,2,0:0:0:0:
320,192,194200,1,2,0:0:0:0:
192,192,194200,1,2,0:0:0:0:
192,192,194400,128,2,194800:0:0:0:0:
320,192,194400,1,2,0:0:0:0:
448,192,194400,1,2,0:0:0:0:
64,192,194600,1,2,0:0:0:0:
320,192,194600,1,2,0:0:0:0:
448,192,194600,1,2,0:0:0:0:
320,192,194800,128,2,195200:0:0:0:0:
64,192,194800,1,2,0:0:0:0:
448,192,194800,1,2,0:0:0:0:
192,192,195000,1,2,0:0:0:0:
448,192,195000,1,2,0:0:0:0:
192,192,195200,128,2,195600:0:0:0:0:
64,192,195200,1,2,0:0:0:0:
320,192,195400,1,2,0:0:0:0:
448,192,195400,1,2,0:0:0:0:
448,192,195600,128,2,196000:0:0:0:0:
64,192,195600,1,2,0:0:0:0:
320,192,195600,1,2,0:0:0:0:
192,192,195800,1,2,0:0:0:0:
320,192,195800,1,2,0:0:0:0:
64,192,196000,128,2,196400:0:0:0:0:
192,192,196000,1,2,0:0:0:0:
320,192,196000,1,2,0:0:0:0:
192,192,196200,1,2,0:0:0:0:
320,192,196200,1,2,0:0:0:0:
448,192,196200,1,2,0:0:0:0:
320,192,196400,128,2,196800:0:0:0:0:
192,192,196400,1,2,0:0:0:0:
448,192,196400,1,2,0:0:0:0:
64,192,196600,1,2,0:0:0:0:
192,192,196600,1,2,0:0:0:0:
448,192,196600,1,2,0:0:0:0:
64,192,196800,1,2,0:0:0:0:
192,192,196800,1,2,0:0:0:0:
448,192,196800,1,2,0:0:0:0:
192,192,196900,1,2,0:0:0:0:
320,192,197000,1,2,0:0:0:0:
448,192,197100,1,2,0:0:0:0:
192,192,197100,1,2,0:0:0:0:
320,192,197200,1,2,0:0:0:0:
64,192,197300,1,2,0:0:0:0:
192,192,197400,1,2,0:0:0:0:
320,192,197500,1,2,0:0:0:0:
448,192,197600,1,2,0:0:0:0:
320,192,197700,1,2,0:0:0:0:
192,192,197800,1,2,0:0:0:0:
64,192,197900,1,2,0:0:0:0:
448,192,197900,1,2,0:0:0:0:
320,192,198000,1,2,0:0:0:0:
192,192,198100,1,2,0:0:0:0:
320,192,198200,1,2,0:0:0:0:
64,192,198300,1,2,0:0:0:0:
192,192,198400,1,2,0:0:0:0:
320,192,198400,1,2,0:0:0:0:
192,192,198700,1,2,0:0:0:0:
320,192,198700,1,2,0:0:0:0:
64,192,199000,1,2,0:0:0:0:
448,192,199000,1,2,0:0:0:0:
448,192,200000,128,2,200800:0:0:0:0:
192,192,200000,1,2,0:0:0:0:
64,192,200400,1,2,0:0:0:0:
192,192,200800,128,2,201600:0:0:0:0:
320,192,201200,1,2,0:0:0:0:
448,192,201200,1,2,0:0:0:0:
64,192,201600,128,2,202400:0:0:0:0:
192,192,202000,1,2,0:0:0:0:
320,192,202000,1,2,0:0:0:0:
448,192,202000,1,2,0:0:0:0:
192,192,202400,1,2,0:0:0:0:
448,192,202400,1,2,0:0:0:0:
320,192,202400,128,2,203200:0:0:0:0:
64,192,202500,1,2,0:0:0:0:
64,192,202600,1,2,0:0:0:0:
64,192,202700,1,2,0:0:0:0:
64,192,202800,1,2,0:0:0:0:
192,192,202800,1,2,0:0:0:0:
192,192,202900,1,2,0:0:0:0:
192,192,203000,1,2,0:0:0:0:
192,192,203100,1,2,0:0:0:0:
448,192,203200,128,2,204000:0:0:0:0:
64,192,203200,1,2,0:0:0:0:
192,192,203200,1,2,0:0:0:0:
192,192,203600,1,2,0:0:0:0:
192,192,204000,128,2,204800:0:0:0:0:
64,192,204400,1,2,0:0:0:0:
320,192,204400,1,2,0:0:0:0:
64,192,204800,128,2,205600:0:0:0:0:
320,192,205200,1,2,0:0:0:0:
192,192,205200,1,2,0:0:0:0:
448,192,205600,128,2,206400:0:0:0:0:
320,192,205600,1,2,0:0:0:0:
192,192,205700,1,2,0:0:0:0:
64,192,205800,1,2,0:0:0:0:
320,192,205800,1,2,0:0:0:0:
192,192,206000,1,2,0:0:0:0:
64,192,206200,1,2,0:0:0:0:
64,192,206400,128,2,207200:0:0:0:0:
192,192,206800,1,2,0:0:0:0:
448,192,206800,1,2,0:0:0:0:
320,192,207200,128,2,208000:0:0:0:0:
192,192,207600,1,2,0:0:0:0:
448,192,208000,128,2,208800:0:0:0:0:
192,192,208400,1,2,0:0:0:0:
320,192,208400,1,2,0:0:0:0:
64,192,208800,128,2,209600:0:0:0:0:
192,192,209200,1,2,0:0:0:0:
320,192,209200,1,2,0:0:0:0:
192,192,209600,1,2,0:0:0:0:
320,192,209600,1,2,0:0:0:0:
448,192,209600,1,2,0:0:0:0:
320,192,209800,1,2,0:0:0:0:
192,192,210200,1,2,0:0:0:0:
192,192,210400,1,2,0:0:0:0:
64,192,210400,1,2,0:0:0:0:
320,192,210400,1,2,0:0:0:0:
448,192,210400,1,2,0:0:0:0:
448,192,210600,1,2,0:0:0:0:
64,192,211000,1,2,0:0:0:0:
64,192,211200,1,2,0:0:0:0:
192,192,211200,1,2,0:0:0:0:
320,192,211200,1,2,0:0:0:0:
448,192,211200,1,2,0:0:0:0:
64,192,211300,1,2,0:0:0:0:
192,192,211300,1,2,0:0:0:0:
64,192,211400,1,2,0:0:0:0:
192,192,211400,1,2,0:0:0:0:
64,192,211500,1,2,0:0:0:0:
192,192,211500,1,2,0:0:0:0:
64,192,211600,1,2,0:0:0:0:
192,192,211600,1,2,0:0:0:0:
320,192,211600,1,2,0:0:0:0:
448,192,211600,1,2,0:0:0:0:
320,192,211700,1,2,0:0:0:0:
448,192,211700,1,2,0:0:0:0:
320,192,211800,1,2,0:0:0:0:
448,192,211800,1,2,0:0:0:0:
320,192,211900,1,2,0:0:0:0:
448,192,211900,1,2,0:0:0:0:
64,192,212000,1,2,0:0:0:0:
192,192,212000,1,2,0:0:0:0:
320,192,212050,1,2,0:0:0:0:
448,192,212050,1,2,0:0:0:0:
64,192,212100,1,2,0:0:0:0:
192,192,212100,1,2,0:0:0:0:
320,192,212150,1,2,0:0:0:0:
448,192,212150,1,2,0:0:0:0:
64,192,212200,1,2,0:0:0:0:
192,192,212200,1,2,0:0:0:0:
320,192,212250,1,2,0:0:0:0:
448,192,212250,1,2,0:0:0:0:
64,192,212300,1,2,0:0:0:0:
192,192,212300,1,2,0:0:0:0:
320,192,212350,1,2,0:0:0:0:
448,192,212350,1,2,0:0:0:0:
64,192,212400,1,2,0:0:0:0:
192,192,212400,1,2,0:0:0:0:
192,192,212600,1,2,0:0:0:0:
320,192,212600,1,2,0:0:0:0:
64,192,212800,1,2,0:0:0:0:
192,192,212800,1,2,0:0:0:0:
320,192,212800,1,2,0:0:0:0:
448,192,212800,1,2,0:0:0:0:
320,192,213000,1,2,0:0:0:0:
64,192,213000,1,2,0:0:0:0:
192,192,213200,1,2,0:0:0:0:
64,192,213200,1,2,0:0:0:0:
448,192,213200,1,2,0:0:0:0:
192,192,213400,1,2,0:0:0:0:
320,192,213400,1,2,0:0:0:0:
192,192,213600,1,2,0:0:0:0:
320,192,213600,1,2,0:0:0:0:
448,192,213600,1,2,0:0:0:0:
320,192,213700,1,2,0:0:0:0:
64,192,213800,1,2,0:0:0:0:
448,192,213800,1,2,0:0:0:0:
192,192,214000,1,2,0:0:0:0:
320,192,214000,1,2,0:0:0:0:
448,192,214000,1,2,0:0:0:0:
192,192,214200,1,2,0:0:0:0:
64,192,214200,1,2,0:0:0:0:
320,192,214200,1,2,0:0:0:0:
64,192,214400,1,2,0:0:0:0:
192,192,214400,1,2,0:0:0:0:
320,192,214400,1,2,0:0:0:0:
448,192,214400,1,2,0:0:0:0:
192,192,214600,1,2,0:0:0:0:
320,192,214600,1,2,0:0:0:0:
64,192,214800,1,2,0:0:0:0:
192,192,214800,1,2,0:0:0:0:
448,192,214800,1,2,0:0:0:0:
192,192,215000,1,2,0:0:0:0:
320,192,215000,1,2,0:0:0:0:
448,192,215000,1,2,0:0:0:0:
64,192,215200,1,2,0:0:0:0:
192,192,215200,1,2,0:0:0:0:
320,192,215200,1,2,0:0:0:0:
320,192,215300,1,2,0:0:0:0:
192,192,215400,1,2,0:0:0:0:
448,192,215400,1,2,0:0:0:0:
64,192,215400,1,2,0:0:0:0:
192,192,215500,1,2,0:0:0:0:
320,192,215600,1,2,0:0:0:0:
64,192,215600,1,2,0:0:0:0:
448,192,215600,1,2,0:0:0:0:
320,192,215700,1,2,0:0:0:0:
64,192,215800,1,2,0:0:0:0:
192,192,215800,1,2,0:0:0:0:
64,192,215900,1,2,0:0:0:0:
192,192,216000,1,2,0:0:0:0:
320,192,216000,1,2,0:0:0:0:
448,192,216000,1,2,0:0:0:0:
320,192,216200,1,2,0:0:0:0:
64,192,216200,1,2,0:0:0:0:
192,192,216200,1,2,0:0:0:0:
192,192,216400,1,2,0:0:0:0:
448,192,216400,1,2,0:0:0:0:
64,192,216400,1,2,0:0:0:0:
64,192,216600,1,2,0:0:0:0:
320,192,216600,1,2,0:0:0:0:
448,192,216600,1,2,0:0:0:0:
192,192,216800,1,2,0:0:0:0:
64,192,216800,1,2,0:0:0:0:
448,192,216800,1,2,0:0:0:0:
320,192,216900,1,2,0:0:0:0:
192,192,217000,1,2,0:0:0:0:
320,192,217000,1,2,0:0:0:0:
448,192,217000,1,2,0:0:0:0:
64,192,217200,1,2,0:0:0:0:
192,192,217200,1,2,0:0:0:0:
320,192,217200,1,2,0:0:0:0:
64,192,217400,1,2,0:0:0:0:
320,192,217400,1,2,0:0:0:0:
448,192,217400,1,2,0:0:0:0:
64,192,217600,1,2,0:0:0:0:
192,192,217600,1,2,0:0:0:0:
320,192,217600,1,2,0:0:0:0:
64,192,217800,1,2,0:0:0:0:
320,192,217800,1,2,0:0:0:0:
448,192,217800,1,2,0:0:0:0:
64,192,218000,1,2,0:0:0:0:
192,192,218000,1,2,0:0:0:0:
448,192,218000,1,2,0:0:0:0:
64,192,218200,1,2,0:0:0:0:
320,192,218200,1,2,0:0:0:0:
448,192,218200,1,2,0:0:0:0:
192,192,218400,1,2,0:0:0:0:
320,192,218400,1,2,0:0:0:0:
448,192,218400,1,2,0:0:0:0:
192,192,218500,1,2,0:0:0:0:
320,192,218600,1,2,0:0:0:0:
64,192,218600,1,2,0:0:0:0:
448,192,218600,1,2,0:0:0:0:
320,192,218700,1,2,0:0:0:0:
192,192,218800,1,2,0:0:0:0:
320,192,218800,1,2,0:0:0:0:
64,192,219000,1,2,0:0:0:0:
448,192,219000,1,2,0:0:0:0:
64,192,219200,1,2,0:0:0:0:
192,192,219200,1,2,0:0:0:0:
320,192,219200,1,2,0:0:0:0:
448,192,219200,1,2,0:0:0:0:
192,192,219400,1,2,0:0:0:0:
320,192,219400,1,2,0:0:0:0:
448,192,219400,1,2,0:0:0:0:
64,192,219600,1,2,0:0:0:0:
320,192,219600,1,2,0:0:0:0:
448,192,219600,1,2,0:0:0:0:
64,192,219800,1,2,0:0:0:0:
192,192,219800,1,2,0:0:0:0:
320,192,219800,1,2,0:0:0:0:
192,192,220000,1,2,0:0:0:0:
320,192,220000,1,2,0:0:0:0:
448,192,220000,1,2,0:0:0:0:
320,192,220100,1,2,0:0:0:0:
64,192,220200,1,2,0:0:0:0:
192,192,220200,1,2,0:0:0:0:
448,192,220200,1,2,0:0:0:0:
192,192,220400,1,2,0:0:0:0:
320,192,220400,1,2,0:0:0:0:
448,192,220400,1,2,0:0:0:0:
64,192,220600,1,2,0:0:0:0:
320,192,220600,1,2,0:0:0:0:
448,192,220600,1,2,0:0:0:0:
192,192,220800,1,2,0:0:0:0:
64,192,220800,1,2,0:0:0:0:
320,192,220800,1,2,0:0:0:0:
192,192,221000,1,2,0:0:0:0:
320,192,221000,1,2,0:0:0:0:
448,192,221000,1,2,0:0:0:0:
64,192,221200,1,2,0:0:0:0:
320,192,221200,1,2,0:0:0:0:
448,192,221200,1,2,0:0:0:0:
192,192,221400,1,2,0:0:0:0:
320,192,221400,1,2,0:0:0:0:
448,192,221400,1,2,0:0:0:0:
64,192,221600,1,2,0:0:0:0:
192,192,221600,1,2,0:0:0:0:
320,192,221600,1,2,0:0:0:0:
448,192,221600,1,2,0:0:0:0:
192,192,221700,1,2,0:0:0:0:
192,192,221800,1,2,0:0:0:0:
192,192,221900,1,2,0:0:0:0:
192,192,222000,1,2,0:0:0:0:
320,192,222000,1,2,0:0:0:0:
448,192,222000,1,2,0:0:0:0:
64,192,222000,1,2,0:0:0:0:
320,192,222100,1,2,0:0:0:0:
320,192,222200,1,2,0:0:0:0:
320,192,222300,1,2,0:0:0:0:
320,192,222400,1,2,0:0:0:0:
448,192,222400,1,2,0:0:0:0:
192,192,222400,1,2,0:0:0:0:
64,192,222400,1,2,0:0:0:0:
64,192,223000,1,2,0:0:0:0:
448,192,223000,1,2,0:0:0:0:
192,192,223200,1,2,0:0:0:0:
320,192,223200,1,2,0:0:0:0:
192,192,223800,1,2,0:0:0:0:
320,192,223800,1,2,0:0:0:0:
64,192,224000,1,2,0:0:0:0:
192,192,224000,1,2,0:0:0:0:
320,192,224100,1,2,0:0:0:0:
448,192,224100,1,2,0:0:0:0:
64,192,224200,1,2,0:0:0:0:
192,192,224200,1,2,0:0:0:0:
320,192,224300,1,2,0:0:0:0:
448,192,224300,1,2,0:0:0:0:
64,192,224400,1,2,0:0:0:0:
192,192,224400,1,2,0:0:0:0:
320,192,224500,1,2,0:0:0:0:
448,192,224500,1,2,0:0:0:0:
64,192,224600,1,2,0:0:0:0:
192,192,224600,1,2,0:0:0:0:
320,192,224700,1,2,0:0:0:0:
448,192,224700,1,2,0:0:0:0:
64,192,224800,1,2,0:0:0:0:
192,192,224800,1,2,0:0:0:0:
320,192,224800,1,2,0:0:0:0:
448,192,224800,1,2,0:0:0:0:
320,192,224900,1,2,0:0:0:0:
192,192,224900,1,2,0:0:0:0:
64,192,225000,1,2,0:0:0:0:
192,192,225000,1,2,0:0:0:0:
320,192,225100,1,2,0:0:0:0:
448,192,225100,1,2,0:0:0:0:
192,192,225200,1,2,0:0:0:0:
320,192,225200,1,2,0:0:0:0:
192,192,225400,1,2,0:0:0:0:
320,192,225400,1,2,0:0:0:0:
320,192,225600,1,2,0:0:0:0:
64,192,225600,1,2,0:0:0:0:
448,192,225600,1,2,0:0:0:0:
192,192,225700,1,2,0:0:0:0:
64,192,225800,1,2,0:0:0:0:
448,192,225800,1,2,0:0:0:0:
320,192,225800,1,2,0:0:0:0:
320,192,225900,1,2,0:0:0:0:
64,192,226000,1,2,0:0:0:0:
320,192,226000,1,2,0:0:0:0:
448,192,226000,1,2,0:0:0:0:
192,192,226100,1,2,0:0:0:0:
320,192,226200,1,2,0:0:0:0:
64,192,226200,1,2,0:0:0:0:
448,192,226200,1,2,0:0:0:0:
192,192,226300,1,2,0:0:0:0:
320,192,226400,1,2,0:0:0:0:
192,192,226400,1,2,0:0:0:0:
448,192,226400,1,2,0:0:0:0:
64,192,226500,1,2,0:0:0:0:
448,192,226600,1,2,0:0:0:0:
192,192,226600,1,2,0:0:0:0:
320,192,226700,1,2,0:0:0:0:
64,192,226800,1,2,0:0:0:0:
192,192,226800,1,2,0:0:0:0:
448,192,226800,1,2,0:0:0:0:
448,192,226900,1,2,0:0:0:0:
320,192,227000,1,2,0:0:0:0:
192,192,227000,1,2,0:0:0:0:
64,192,227000,1,2,0:0:0:0:
448,192,227100,1,2,0:0:0:0:
64,192,227200,1,2,0:0:0:0:
448,192,227200,1,2,0:0:0:0:
320,192,227200,1,2,0:0:0:0:
192,192,227300,1,2,0:0:0:0:
320,192,227400,1,2,0:0:0:0:
448,192,227400,1,2,0:0:0:0:
64,192,227500,1,2,0:0:0:0:
192,192,227600,1,2,0:0:0:0:
320,192,227600,1,2,0:0:0:0:
448,192,227600,1,2,0:0:0:0:
192,192,227700,1,2,0:0:0:0:
320,192,227800,1,2,0:0:0:0:
64,192,227800,1,2,0:0:0:0:
448,192,227900,1,2,0:0:0:0:
320,192,228000,1,2,0:0:0:0:
192,192,228000,1,2,0:0:0:0:
320,192,228100,1,2,0:0:0:0:
192,192,228200,1,2,0:0:0:0:
64,192,228200,1,2,0:0:0:0:
448,192,228200,1,2,0:0:0:0:
320,192,228300,1,2,0:0:0:0:
192,192,228400,1,2,0:0:0:0:
320,192,228400,1,2,0:0:0:0:
448,192,228400,1,2,0:0:0:0:
64,192,228500,1,2,0:0:0:0:
192,192,228600,1,2,0:0:0:0:
64,192,228600,1,2,0:0:0:0:
320,192,228600,1,2,0:0:0:0:
448,192,228700,1,2,0:0:0:0:
320,192,228800,1,2,0:0:0:0:
64,192,228800,1,2,0:0:0:0:
448,192,228800,1,2,0:0:0:0:
192,192,228900,1,2,0:0:0:0:
64,192,229000,1,2,0:0:0:0:
320,192,229000,1,2,0:0:0:0:
448,192,229000,1,2,0:0:0:0:
64,192,229100,1,2,0:0:0:0:
64,192,229200,1,2,0:0:0:0:
320,192,229200,1,2,0:0:0:0:
192,192,229200,1,2,0:0:0:0:
320,192,229300,1,2,0:0:0:0:
64,192,229400,1,2,0:0:0:0:
448,192,229400,1,2,0:0:0:0:
320,192,229400,1,2,0:0:0:0:
192,192,229500,1,2,0:0:0:0:
448,192,229600,1,2,0:0:0:0:
320,192,229600,1,2,0:0:0:0:
64,192,229600,1,2,0:0:0:0:
320,192,229700,1,2,0:0:0:0:
448,192,229800,1,2,0:0:0:0:
192,192,229800,1,2,0:0:0:0:
64,192,229800,1,2,0:0:0:0:
320,192,229900,1,2,0:0:0:0:
192,192,230000,1,2,0:0:0:0:
64,192,230000,1,2,0:0:0:0:
320,192,230000,1,2,0:0:0:0:
448,192,230100,1,2,0:0:0:0:
320,192,230200,1,2,0:0:0:0:
192,192,230200,1,2,0:0:0:0:
320,192,230300,1,2,0:0:0:0:
192,192,230400,1,2,0:0:0:0:
448,192,230400,1,2,0:0:0:0:
64,192,230400,1,2,0:0:0:0:
448,192,230500,1,2,0:0:0:0:
192,192,230600,1,2,0:0:0:0:
64,192,230600,1,2,0:0:0:0:
320,192,230600,1,2,0:0:0:0:
64,192,230700,1,2,0:0:0:0:
64,192,230800,1,2,0:0:0:0:
320,192,230800,1,2,0:0:0:0:
448,192,230800,1,2,0:0:0:0:
320,192,230900,1,2,0:0:0:0:
192,192,231000,1,2,0:0:0:0:
64,192,231000,1,2,0:0:0:0:
192,192,231100,1,2,0:0:0:0:
448,192,231100,1,2,0:0:0:0:
64,192,231200,1,2,0:0:0:0:
448,192,231200,1,2,0:0:0:0:
320,192,231200,1,2,0:0:0:0:
320,192,231300,1,2,0:0:0:0:
192,192,231400,1,2,0:0:0:0:
64,192,231400,1,2,0:0:0:0:
448,192,231400,1,2,0:0:0:0:
320,192,231500,1,2,0:0:0:0:
192,192,231600,1,2,0:0:0:0:
64,192,231600,1,2,0:0:0:0:
192,192,231700,1,2,0:0:0:0:
64,192,231800,1,2,0:0:0:0:
320,192,231800,1,2,0:0:0:0:
448,192,231800,1,2,0:0:0:0:
448,192,231900,1,2,0:0:0:0:
320,192,232000,1,2,0:0:0:0:
64,192,232000,1,2,0:0:0:0:
192,192,232000,1,2,0:0:0:0:
448,192,232000,1,2,0:0:0:0:
320,192,232100,1,2,0:0:0:0:
64,192,232200,1,2,0:0:0:0:
192,192,232200,1,2,0:0:0:0:
320,192,232200,1,2,0:0:0:0:
448,192,232300,1,2,0:0:0:0:
448,192,232400,1,2,0:0:0:0:
320,192,232400,1,2,0:0:0:0:
192,192,232400,1,2,0:0:0:0:
192,192,232500,1,2,0:0:0:0:
448,192,232600,1,2,0:0:0:0:
64,192,232600,1,2,0:0:0:0:
320,192,232600,1,2,0:0:0:0:
192,192,232700,1,2,0:0:0:0:
64,192,232800,1,2,0:0:0:0:
320,192,232800,1,2,0:0:0:0:
448,192,232900,1,2,0:0:0:0:
448,192,233000,1,2,0:0:0:0:
192,192,233000,1,2,0:0:0:0:
320,192,233000,1,2,0:0:0:0:
64,192,233100,1,2,0:0:0:0:
64,192,233200,1,2,0:0:0:0:
320,192,233200,1,2,0:0:0:0:
192,192,233200,1,2,0:0:0:0:
192,192,233300,1,2,0:0:0:0:
320,192,233400,1,2,0:0:0:0:
64,192,233400,1,2,0:0:0:0:
448,192,233400,1,2,0:0:0:0:
192,192,233500,1,2,0:0:0:0:
64,192,233600,1,2,0:0:0:0:
192,192,233600,1,2,0:0:0:0:
448,192,233600,1,2,0:0:0:0:
320,192,233700,1,2,0:0:0:0:
320,192,233800,1,2,0:0:0:0:
192,192,233800,1,2,0:0:0:0:
448,192,233800,1,2,0:0:0:0:
320,192,233900,1,2,0:0:0:0:
320,192,234000,1,2,0:0:0:0:
192,192,234000,1,2,0:0:0:0:
64,192,234000,1,2,0:0:0:0:
448,192,234100,1,2,0:0:0:0:
320,192,234200,1,2,0:0:0:0:
64,192,234200,1,2,0:0:0:0:
448,192,234200,1,2,0:0:0:0:
192,192,234300,1,2,0:0:0:0:
192,192,234400,1,2,0:0:0:0:
320,192,234400,1,2,0:0:0:0:
64,192,234400,1,2,0:0:0:0:
192,192,234500,1,2,0:0:0:0:
192,192,234600,1,2,0:0:0:0:
448,192,234600,1,2,0:0:0:0:
320,192,234600,1,2,0:0:0:0:
320,192,234700,1,2,0:0:0:0:
64,192,234800,1,2,0:0:0:0:
192,192,234800,1,2,0:0:0:0:
448,192,234800,1,2,0:0:0:0:
192,192,234900,1,2,0:0:0:0:
192,192,235000,1,2,0:0:0:0:
448,192,235000,1,2,0:0:0:0:
64,192,235000,1,2,0:0:0:0:
320,192,235100,1,2,0:0:0:0:
192,192,235200,1,2,0:0:0:0:
64,192,235200,1,2,0:0:0:0:
320,192,235200,1,2,0:0:0:0:
448,192,235200,1,2,0:0:0:0:
320,192,235800,1,2,0:0:0:0:
448,192,235800,1,2,0:0:0:0:
64,192,236000,1,2,0:0:0:0:
192,192,236000,1,2,0:0:0:0:
64,192,236600,1,2,0:0:0:0:
192,192,236600,1,2,0:0:0:0:
448,192,236800,1,2,0:0:0:0:
320,192,236800,1,2,0:0:0:0:
192,192,236900,1,2,0:0:0:0:
64,192,236900,1,2,0:0:0:0:
448,192,237000,1,2,0:0:0:0:
320,192,237000,1,2,0:0:0:0:
192,192,237100,1,2,0:0:0:0:
64,192,237100,1,2,0:0:0:0:
448,192,237200,1,2,0:0:0:0:
320,192,237200,1,2,0:0:0:0:
192,192,237300,1,2,0:0:0:0:
64,192,237300,1,2,0:0:0:0:
448,192,237400,1,2,0:0:0:0:
320,192,237400,1,2,0:0:0:0:
192,192,237500,1,2,0:0:0:0:
64,192,237500,1,2,0:0:0:0:
448,192,237600,1,2,0:0:0:0:
320,192,237600,1,2,0:0:0:0:
192,192,237600,1,2,0:0:0:0:
64,192,237600,1,2,0:0:0:0:
192,192,237700,1,2,0:0:0:0:
320,192,237700,1,2,0:0:0:0:
448,192,237800,1,2,0:0:0:0:
320,192,237800,1,2,0:0:0:0:
192,192,237900,1,2,0:0:0:0:
64,192,237900,1,2,0:0:0:0:
320,192,238000,1,2,0:0:0:0:
192,192,238000,1,2,0:0:0:0:
320,192,238200,1,2,0:0:0:0:
192,192,238200,1,2,0:0:0:0:
192,192,238400,1,2,0:0:0:0:
448,192,238400,1,2,0:0:0:0:
64,192,238400,1,2,0:0:0:0:
320,192,238500,1,2,0:0:0:0:
448,192,238600,1,2,0:0:0:0:
64,192,238600,1,2,0:0:0:0:
192,192,238600,1,2,0:0:0:0:
192,192,238700,1,2,0:0:0:0:
448,192,238800,1,2,0:0:0:0:
192,192,238800,1,2,0:0:0:0:
64,192,238800,1,2,0:0:0:0:
320,192,238900,1,2,0:0:0:0:
192,192,239000,1,2,0:0:0:0:
448,192,239000,1,2,0:0:0:0:
64,192,239000,1,2,0:0:0:0:
320,192,239100,1,2,0:0:0:0:
192,192,239200,1,2,0:0:0:0:
320,192,239200,1,2,0:0:0:0:
64,192,239200,1,2,0:0:0:0:
448,192,239300,1,2,0:0:0:0:
64,192,239400,1,2,0:0:0:0:
320,192,239400,1,2,0:0:0:0:
192,192,239500,1,2,0:0:0:0:
448,192,239600,1,2,0:0:0:0:
320,192,239600,1,2,0:0:0:0:
64,192,239600,1,2,0:0:0:0:
64,192,239700,1,2,0:0:0:0:
192,192,239800,1,2,0:0:0:0:
320,192,239800,1,2,0:0:0:0:
448,192,239800,1,2,0:0:0:0:
64,192,239900,1,2,0:0:0:0:
448,192,240000,1,2,0:0:0:0:
64,192,240000,1,2,0:0:0:0:
192,192,240000,1,2,0:0:0:0:
320,192,240100,1,2,0:0:0:0:
192,192,240200,1,2,0:0:0:0:
64,192,240200,1,2,0:0:0:0:
448,192,240300,1,2,0:0:0:0:
320,192,240400,1,2,0:0:0:0:
192,192,240400,1,2,0:0:0:0:
64,192,240400,1,2,0:0:0:0:
320,192,240500,1,2,0:0:0:0:
192,192,240600,1,2,0:0:0:0:
448,192,240600,1,2,0:0:0:0:
64,192,240700,1,2,0:0:0:0:
192,192,240800,1,2,0:0:0:0:
320,192,240800,1,2,0:0:0:0:
192,192,240900,1,2,0:0:0:0:
320,192,241000,1,2,0:0:0:0:
448,192,241000,1,2,0:0:0:0:
64,192,241000,1,2,0:0:0:0:
192,192,241100,1,2,0:0:0:0:
320,192,241200,1,2,0:0:0:0:
192,192,241200,1,2,0:0:0:0:
64,192,241200,1,2,0:0:0:0:
448,192,241300,1,2,0:0:0:0:
320,192,241400,1,2,0:0:0:0:
448,192,241400,1,2,0:0:0:0:
192,192,241400,1,2,0:0:0:0:
64,192,241500,1,2,0:0:0:0:
192,192,241600,1,2,0:0:0:0:
448,192,241600,1,2,0:0:0:0:
64,192,241600,1,2,0:0:0:0:
320,192,241700,1,2,0:0:0:0:
448,192,241800,1,2,0:0:0:0:
192,192,241800,1,2,0:0:0:0:
64,192,241800,1,2,0:0:0:0:
448,192,241900,1,2,0:0:0:0:
448,192,242000,1,2,0:0:0:0:
192,192,242000,1,2,0:0:0:0:
320,192,242000,1,2,0:0:0:0:
192,192,242100,1,2,0:0:0:0:
448,192,242200,1,2,0:0:0:0:
64,192,242200,1,2,0:0:0:0:
192,192,242200,1,2,0:0:0:0:
320,192,242300,1,2,0:0:0:0:
64,192,242400,1,2,0:0:0:0:
192,192,242400,1,2,0:0:0:0:
448,192,242400,1,2,0:0:0:0:
192,192,242500,1,2,0:0:0:0:
64,192,242600,1,2,0:0:0:0:
320,192,242600,1,2,0:0:0:0:
448,192,242600,1,2,0:0:0:0:
192,192,242700,1,2,0:0:0:0:
320,192,242800,1,2,0:0:0:0:
448,192,242800,1,2,0:0:0:0:
192,192,242800,1,2,0:0:0:0:
64,192,242900,1,2,0:0:0:0:
192,192,243000,1,2,0:0:0:0:
320,192,243000,1,2,0:0:0:0:
192,192,243100,1,2,0:0:0:0:
320,192,243200,1,2,0:0:0:0:
64,192,243200,1,2,0:0:0:0:
448,192,243200,1,2,0:0:0:0:
64,192,243300,1,2,0:0:0:0:
320,192,243400,1,2,0:0:0:0:
448,192,243400,1,2,0:0:0:0:
192,192,243400,1,2,0:0:0:0:
320,192,243500,1,2,0:0:0:0:
448,192,243600,1,2,0:0:0:0:
192,192,243600,1,2,0:0:0:0:
64,192,243600,1,2,0:0:0:0:
192,192,243700,1,2,0:0:0:0:
320,192,243800,1,2,0:0:0:0:
448,192,243800,1,2,0:0:0:0:
320,192,243900,1,2,0:0:0:0:
64,192,243900,1,2,0:0:0:0:
448,192,244000,1,2,0:0:0:0:
64,192,244000,1,2,0:0:0:0:
192,192,244000,1,2,0:0:0:0:
192,192,244100,1,2,0:0:0:0:
320,192,244200,1,2,0:0:0:0:
448,192,244200,1,2,0:0:0:0:
64,192,244200,1,2,0:0:0:0:
192,192,244300,1,2,0:0:0:0:
320,192,244400,1,2,0:0:0:0:
448,192,244400,1,2,0:0:0:0:
320,192,244500,1,2,0:0:0:0:
448,192,244600,1,2,0:0:0:0:
192,192,244600,1,2,0:0:0:0:
64,192,244600,1,2,0:0:0:0:
64,192,244700,1,2,0:0:0:0:
192,192,244800,1,2,0:0:0:0:
448,192,244800,1,2,0:0:0:0:
320,192,244800,1,2,0:0:0:0:
64,192,244800,1,2,0:0:0:0:
320,192,244900,1,2,0:0:0:0:
448,192,245000,1,2,0:0:0:0:
320,192,245000,1,2,0:0:0:0:
192,192,245000,1,2,0:0:0:0:
64,192,245100,1,2,0:0:0:0:
64,192,245200,1,2,0:0:0:0:
192,192,245200,1,2,0:0:0:0:
320,192,245200,1,2,0:0:0:0:
192,192,245300,1,2,0:0:0:0:
320,192,245400,1,2,0:0:0:0:
448,192,245400,1,2,0:0:0:0:
320,192,245500,1,2,0:0:0:0:
448,192,245600,1,2,0:0:0:0:
192,192,245600,1,2,0:0:0:0:
64,192,245700,1,2,0:0:0:0:
64,192,245800,1,2,0:0:0:0:
320,192,245800,1,2,0:0:0:0:
192,192,245800,1,2,0:0:0:0:
448,192,245900,1,2,0:0:0:0:
448,192,246000,1,2,0:0:0:0:
192,192,246000,1,2,0:0:0:0:
320,192,246000,1,2,0:0:0:0:
320,192,246100,1,2,0:0:0:0:
192,192,246200,1,2,0:0:0:0:
448,192,246200,1,2,0:0:0:0:
64,192,246200,1,2,0:0:0:0:
320,192,246300,1,2,0:0:0:0:
448,192,246400,1,2,0:0:0:0:
320,192,246400,1,2,0:0:0:0:
64,192,246400,1,2,0:0:0:0:
192,192,246500,1,2,0:0:0:0:
192,192,246600,1,2,0:0:0:0:
320,192,246600,1,2,0:0:0:0:
64,192,246600,1,2,0:0:0:0:
192,192,246700,1,2,0:0:0:0:
192,192,246800,1,2,0:0:0:0:
320,192,246800,1,2,0:0:0:0:
448,192,246800,1,2,0:0:0:0:
320,192,246900,1,2,0:0:0:0:
320,192,247000,1,2,0:0:0:0:
448,192,247000,1,2,0:0:0:0:
64,192,247000,1,2,0:0:0:0:
192,192,247100,1,2,0:0:0:0:
320,192,247200,1,2,0:0:0:0:
192,192,247200,1,2,0:0:0:0:
448,192,247200,1,2,0:0:0:0:
320,192,247300,1,2,0:0:0:0:
320,192,247400,1,2,0:0:0:0:
64,192,247400,1,2,0:0:0:0:
192,192,247400,1,2,0:0:0:0:
192,192,247500,1,2,0:0:0:0:
448,192,247600,1,2,0:0:0:0:
320,192,247600,1,2,0:0:0:0:
64,192,247600,1,2,0:0:0:0:
320,192,247700,1,2,0:0:0:0:
320,192,247800,1,2,0:0:0:0:
64,192,247800,1,2,0:0:0:0:
448,192,247800,1,2,0:0:0:0:
192,192,247900,1,2,0:0:0:0:
320,192,248000,1,2,0:0:0:0:
448,192,248000,1,2,0:0:0:0:
192,192,248000,1,2,0:0:0:0:
64,192,248000,1,2,0:0:0:0:
192,192,248600,1,2,0:0:0:0:
64,192,248600,1,2,0:0:0:0:
448,192,248800,1,2,0:0:0:0:
320,192,248800,1,2,0:0:0:0:
64,192,249400,1,2,0:0:0:0:
448,192,249400,1,2,0:0:0:0:
320,192,249600,1,2,0:0:0:0:
448,192,249600,1,2,0:0:0:0:
448,192,249700,1,2,0:0:0:0:
320,192,249700,1,2,0:0:0:0:
448,192,249800,1,2,0:0:0:0:
320,192,249800,1,2,0:0:0:0:
448,192,249900,1,2,0:0:0:0:
320,192,249900,1,2,0:0:0:0:
192,192,250000,1,2,0:0:0:0:
64,192,250000,1,2,0:0:0:0:
192,192,250100,1,2,0:0:0:0:
64,192,250100,1,2,0:0:0:0:
192,192,250200,1,2,0:0:0:0:
64,192,250200,1,2,0:0:0:0:
192,192,250300,1,2,0:0:0:0:
64,192,250300,1,2,0:0:0:0:
448,192,250400,1,2,0:0:0:0:
320,192,250400,1,2,0:0:0:0:
192,192,250450,1,2,0:0:0:0:
64,192,250450,1,2,0:0:0:0:
448,192,250500,1,2,0:0:0:0:
320,192,250500,1,2,0:0:0:0:
192,192,250550,1,2,0:0:0:0:
64,192,250550,1,2,0:0:0:0:
448,192,250600,1,2,0:0:0:0:
320,192,250600,1,2,0:0:0:0:
192,192,250650,1,2,0:0:0:0:
64,192,250650,1,2,0:0:0:0:
448,192,250700,1,2,0:0:0:0:
320,192,250700,1,2,0:0:0:0:
192,192,250750,1,2,0:0:0:0:
64,192,250750,1,2,0:0:0:0:
448,192,250800,1,2,0:0:0:0:
320,192,250800,1,2,0:0:0:0:
192,192,251000,1,2,0:0:0:0:
320,192,251000,1,2,0:0:0:0:
64,192,251200,1,2,0:0:0:0:
192,192,251200,1,2,0:0:0:0:
320,192,251200,1,2,0:0:0:0:
448,192,251200,1,2,0:0:0:0:
