osu file format v14

[General]
AudioFilename: audio.mp3
AudioLeadIn: 0
PreviewTime: 68316
Countdown: 0
SampleSet: None
StackLeniency: 0.7
Mode: 0
LetterboxInBreaks: 0
WidescreenStoryboard: 1

[Editor]
Bookmarks: 1496,17405,31041,45587,74678,89223,103769
DistanceSpacing: 1.5
BeatDivisor: 4
GridSize: 8
TimelineZoom: 1

[Metadata]
Title:Deja Vu ft.MIKU x LUKA
TitleUnicode:Deja Vu ft.MIKU x LUKA
Artist:VocaCircus
ArtistUnicode:VocaCircus
Creator:nPHeaniX
Version:Hard
Source:
Tags:
BeatmapID:1927016
BeatmapSetID:922757

[Difficulty]
HPDrainRate:4
CircleSize:4
OverallDifficulty:4
ApproachRate:5
SliderMultiplier:1.4
SliderTickRate:1

[Events]
//Background and Video events
0,0,"973367-beautiful-anime-wallpaper-2560x1600-pc.jpg",0,0
//Break Periods
//Storyboard Layer 0 (Background)
//Storyboard Layer 1 (Fail)
//Storyboard Layer 2 (Pass)
//Storyboard Layer 3 (Foreground)
//Storyboard Sound Samples

[TimingPoints]
1498.53949878906,454.545454545455,4,2,0,50,1,0
1953,-200,4,2,0,50,0,0
18996,-153.846153846154,4,2,0,50,0,0
31041,-133.333333333333,4,2,0,75,0,0
43769,-1000,4,2,0,75,0,0
45587,-1000,4,2,0,50,0,0
45589,-100,4,2,0,50,0,0
74678,-100,4,3,0,100,0,1
81951,-100,4,3,0,100,0,0
82862,-166.666666666667,4,3,0,100,0,0
83771,-100,4,3,0,100,0,0
89223,-100,4,3,0,75,0,1
103769,-200,4,3,0,100,0,0

[HitObjects]
256,192,1498,5,0,0:0:0:0:
320,168,1953,2,0,L|360:232,1,70
160,152,3771,2,0,L|208:96,1,70
416,120,5589,2,0,L|336:144,1,70
160,240,7407,2,0,L|80:264,1,70
288,176,9225,5,0,0:0:0:0:
344,224,9680,2,0,P|312:256|280:272,1,70
232,232,10589,1,0,0:0:0:0:
200,168,11043,2,0,L|232:104,2,70
288,272,12862,1,0,0:0:0:0:
352,304,13316,2,0,L|392:240,1,70
464,128,14680,1,0,0:0:0:0:
464,128,15134,1,0,0:0:0:0:
264,56,16498,5,0,0:0:0:0:
208,104,16953,2,0,L|168:176,1,70
232,208,17862,2,0,L|304:192,1,70
312,120,18771,1,0,0:0:0:0:
312,120,18998,2,0,P|384:120|432:184,1,136.499993751526
392,248,20134,2,0,L|344:288,2,45.4999979171754
184,160,21725,6,0,L|128:160,2,45.4999979171754
200,232,22634,1,0,0:0:0:0:
200,232,22862,2,0,P|256:216|288:232,1,90.9999958343508
336,280,23543,1,0,0:0:0:0:
368,200,23771,6,0,L|384:144,2,45.4999979171754
280,176,24680,1,0,0:0:0:0:
200,128,25134,1,0,0:0:0:0:
136,192,25589,2,0,L|96:232,2,45.4999979171754
136,144,26271,2,0,P|128:96|56:48,1,136.499993751526
48,136,27407,1,0,0:0:0:0:
48,136,27634,2,0,L|48:192,1,45.4999979171754
176,328,28998,5,0,0:0:0:0:
176,328,29225,2,0,L|112:336,1,45.4999979171754
40,336,29907,1,0,0:0:0:0:
40,336,30134,2,0,P|64:280|104:256,1,90.9999958343508
208,216,31043,6,0,L|272:176,2,52.5000020027161
296,128,31953,2,0,P|368:136|392:168,1,105.000004005432
280,224,32862,1,0,0:0:0:0:
280,224,33089,2,0,L|192:168,1,105.000004005432
152,112,33771,2,0,P|208:64|240:72,1,105.000004005432
328,152,34680,1,0,0:0:0:0:
424,232,35134,1,0,0:0:0:0:
328,312,35589,6,0,P|304:256|264:248,1,105.000004005432
136,248,36498,1,0,0:0:0:0:
136,248,36725,2,0,L|216:168,1,105.000004005432
264,136,37407,1,0,0:0:0:0:
376,192,37862,1,0,0:0:0:0:
400,72,38316,2,0,P|344:48|296:48,1,105.000004005432
248,80,38998,2,0,L|272:136,1,52.5000020027161
176,216,39680,5,0,0:0:0:0:
176,88,40134,2,0,P|114:47|78:66,1,105.000004005432
64,112,40816,1,0,0:0:0:0:
64,112,41043,2,0,P|48:168|72:208,1,105.000004005432
192,176,41953,2,0,P|256:176|304:256,1,157.500006008148
320,312,42862,2,0,P|376:296|432:216,1,157.500006008148
344,128,43771,2,0,L|386:121,1,42
464,120,45589,5,0,0:0:0:0:
408,208,45816,1,0,0:0:0:0:
312,248,46043,2,0,P|256:256|224:232,1,70
160,184,46498,1,0,0:0:0:0:
120,88,46839,1,0,0:0:0:0:
192,64,47180,1,0,0:0:0:0:
264,144,47407,5,0,0:0:0:0:
368,152,47634,1,0,0:0:0:0:
464,120,47862,2,0,P|496:64|496:32,1,70
392,32,48316,1,0,0:0:0:0:
288,40,48657,1,0,0:0:0:0:
240,96,48998,1,0,0:0:0:0:
160,160,49225,6,0,P|112:192|96:216,1,70
80,304,49680,2,0,P|120:336|160:336,1,70
240,336,50134,1,0,0:0:0:0:
152,272,50475,1,0,0:0:0:0:
200,216,50816,1,0,0:0:0:0:
280,144,51043,5,0,0:0:0:0:
384,128,51271,1,0,0:0:0:0:
464,192,51498,2,0,P|488:240|488:288,1,70
400,312,51953,1,0,0:0:0:0:
296,288,52293,1,0,0:0:0:0:
256,224,52634,1,0,0:0:0:0:
224,120,52862,5,0,0:0:0:0:
160,32,53089,1,0,0:0:0:0:
56,56,53316,2,0,P|32:112|40:136,1,70
48,224,53771,1,0,0:0:0:0:
80,320,54112,1,0,0:0:0:0:
152,296,54453,1,0,0:0:0:0:
192,200,54680,5,0,0:0:0:0:
256,112,54907,1,0,0:0:0:0:
352,64,55134,2,0,P|408:80|432:112,1,70
400,192,55589,1,0,0:0:0:0:
296,224,55930,1,0,0:0:0:0:
232,184,56271,1,0,0:0:0:0:
296,96,56498,6,0,P|352:80|376:96,1,70
440,144,56953,2,0,P|456:200|448:224,1,70
376,280,57407,1,0,0:0:0:0:
360,176,57748,1,0,0:0:0:0:
288,160,58089,1,0,0:0:0:0:
176,128,58316,6,0,P|89:117|40:144,1,140
56,240,58998,1,0,0:0:0:0:
120,320,59225,2,0,P|176:344|232:320,1,105
280,296,59907,1,0,0:0:0:0:
312,160,60134,1,0,0:0:0:0:
312,160,61498,5,0,0:0:0:0:
176,120,61953,2,0,P|136:48|72:64,1,140
112,120,62634,2,0,P|152:192|216:176,1,140
336,144,63543,1,0,0:0:0:0:
400,176,63771,6,0,L|464:216,2,70
352,64,64680,2,0,P|288:40|240:48,2,105
328,168,65589,2,0,P|328:224|352:264,1,70
384,288,66271,1,0,0:0:0:0:
432,336,66498,2,0,P|480:304|488:256,2,105
296,312,67407,1,0,0:0:0:0:
296,312,68771,5,0,0:0:0:0:
192,216,69225,1,0,0:0:0:0:
192,216,69453,1,0,0:0:0:0:
192,216,69680,2,0,P|232:184|256:184,1,70
336,128,70134,2,0,P|320:80|272:48,2,105
264,128,71043,5,0,0:0:0:0:
320,200,71271,1,0,0:0:0:0:
408,176,71498,2,0,P|464:152|480:128,1,70
448,56,71953,1,0,0:0:0:0:
312,56,72293,1,0,0:0:0:0:
296,160,72634,1,0,0:0:0:0:
216,224,72862,2,0,P|112:176|96:128,1,140
200,128,73543,2,0,P|184:48|128:32,1,140
32,40,74225,2,0,L|32:136,1,70
136,112,74680,5,0,0:0:0:0:
136,112,74907,1,0,0:0:0:0:
208,32,75134,2,0,P|224:104|216:128,1,70
280,136,75589,1,0,0:0:0:0:
296,32,75930,2,0,P|336:56|368:128,1,105
448,40,76498,5,0,0:0:0:0:
448,40,76725,1,0,0:0:0:0:
448,112,76953,1,0,0:0:0:0:
448,112,77180,1,0,0:0:0:0:
448,184,77407,2,0,P|376:144|368:112,2,105
440,112,78316,2,0,P|392:64|360:64,2,70
360,176,78998,1,0,0:0:0:0:
304,136,79225,2,0,P|264:200|240:208,1,105
152,152,79907,1,0,0:0:0:0:
224,152,80134,5,0,0:0:0:0:
224,152,80362,1,0,0:0:0:0:
184,96,80589,2,0,P|128:88|104:104,1,70
24,144,81043,1,0,0:0:0:0:
128,160,81384,1,0,0:0:0:0:
128,160,81725,1,0,0:0:0:0:
64,192,81953,6,0,L|64:272,1,70
128,232,82407,1,0,0:0:0:0:
184,184,82634,1,0,0:0:0:0:
208,256,82862,2,0,L|272:208,1,62.9999980773926
280,160,83543,1,0,0:0:0:0:
352,232,83771,1,0,0:0:0:0:
352,232,83998,1,0,0:0:0:0:
424,224,84225,2,0,L|416:152,2,70
480,136,85021,1,0,0:0:0:0:
488,240,85362,5,0,0:0:0:0:
488,344,85589,2,0,L|432:288,1,70
392,344,86043,2,0,L|336:288,1,70
296,344,86498,1,0,0:0:0:0:
264,240,86839,1,0,0:0:0:0:
264,240,87180,1,0,0:0:0:0:
232,304,87407,2,0,P|168:288|152:264,1,70
184,216,87862,2,0,P|120:232|104:256,1,70
56,256,88316,2,0,P|64:312|127:343,1,105
240,256,88998,5,0,0:0:0:0:
240,256,89225,2,0,L|200:192,1,70
288,128,89680,1,0,0:0:0:0:
376,192,89907,2,0,P|304:240|344:272,1,140
424,272,90589,2,0,P|456:224|456:208,1,70
416,120,91043,1,0,0:0:0:0:
416,120,91271,1,0,0:0:0:0:
312,96,91498,1,0,0:0:0:0:
248,176,91725,2,0,P|320:200|384:184,1,140
312,104,92407,6,0,P|264:80|224:72,1,70
144,104,92862,2,0,P|96:80|64:80,1,70
120,176,93316,2,0,P|66:182|39:199,1,70
144,248,93771,2,0,P|104:284|92:314,1,70
328,248,94225,6,0,P|362:244|396:254,1,70
184,248,94680,2,0,P|149:244|115:254,1,70
328,152,95134,2,0,P|362:148|396:158,1,70
184,152,95589,2,0,P|149:148|115:158,1,70
136,256,96043,6,0,P|192:288|208:280,1,70
264,216,96498,2,0,P|304:208|344:216,1,70
392,296,96953,1,0,0:0:0:0:
392,296,97180,2,0,P|440:232|432:176,1,140
352,104,97862,2,0,P|384:64|416:56,1,70
400,160,98316,2,0,P|351:177|320:168,1,70
272,88,98771,1,0,0:0:0:0:
272,88,98998,2,0,P|224:152|232:208,1,140
176,296,99680,6,0,P|120:280|88:296,1,70
40,360,100134,2,0,P|32:264|64:224,1,140
144,184,100816,1,0,0:0:0:0:
248,184,101043,2,0,P|296:208|336:200,1,70
440,144,101498,6,0,P|426:112|399:90,1,70
232,88,101953,2,0,P|206:111|195:144,1,70
280,256,102407,2,0,P|314:256|345:240,1,70
385,131,102862,6,0,P|360:107|328:96,1,70
184,96,103316,2,0,P|144:112|120:144,1,70
256,192,103771,1,0,0:0:0:0:
