osu file format v14

[General]
AudioFilename: audio.mp3
AudioLeadIn: 0
PreviewTime: 51347
Countdown: 0
SampleSet: Normal
StackLeniency: 0.7
Mode: 1
LetterboxInBreaks: 0
WidescreenStoryboard: 1

[Editor]
Bookmarks: 5575,16547,27518,38490,46718,63175
DistanceSpacing: 1.1
BeatDivisor: 4
GridSize: 16
TimelineZoom: 0.6999997

[Metadata]
Title:Sing My Pleasure (TV Size)
TitleUnicode:Sing My Pleasure (TV Size)
Artist:Vivy (VO: Yagi Kairi)
ArtistUnicode:ヴィヴィ (VO: 八木海莉)
Creator:BlackBN
Version:Maruko's Kantan
Source:Vivy -Fluorite Eye's Song-
Tags:BlackBq anime op3 opening 3 three japanese j-pop jpop pop j-rock jrock rock ディーヴァ Diva ディーヴァ -フローライトアイズソング- 神前暁 MONACA Kousaki Satoru 種崎敦美 Tanezaki Atsumi -Maruko- iRedi
BeatmapID:3905284
BeatmapSetID:1876808

[Difficulty]
HPDrainRate:8
CircleSize:2
OverallDifficulty:3
ApproachRate:10
SliderMultiplier:1.4
SliderTickRate:1

[Events]
//Background and Video events
0,0,"vivy.jpg",0,100
Video,-352,"vivy.mp4"
//Break Periods
//Storyboard Layer 0 (Background)
//Storyboard Layer 1 (Fail)
//Storyboard Layer 2 (Pass)
//Storyboard Layer 3 (Foreground)
//Storyboard Layer 4 (Overlay)
//Storyboard Sound Samples

[TimingPoints]
90,342.857142857143,4,1,0,80,1,0
5490,-100,4,1,0,75,0,0
27432,-100,4,1,0,80,0,0
44061,-100,4,1,0,70,0,0
46632,-100,4,1,0,80,0,0
51347,-100,4,1,0,70,0,0
52118,-100,4,1,0,85,0,0
52204,-100,4,1,0,85,0,1
74147,-100,4,1,0,85,0,0
74232,-100,4,1,0,80,0,0
85632,-100,4,1,0,70,0,0
85975,-100,4,1,0,60,0,0
86318,-100,4,1,0,50,0,0
86661,-100,4,1,0,40,0,0
87004,-100,4,1,0,30,0,0

[HitObjects]
384,96,90,5,12,0:0:0:0:
384,96,604,1,4,0:0:0:0:
384,96,1118,1,12,0:0:0:0:
384,96,1632,1,12,0:0:0:0:
384,96,2147,1,12,0:0:0:0:
384,96,2661,1,4,0:0:0:0:
256,192,3004,8,0,4890,0:0:0:0:
256,192,5232,5,8,0:0:0:0:
256,192,5575,1,4,0:0:0:0:
256,192,6090,1,8,0:0:0:0:
256,192,6604,1,0,0:0:0:0:
256,192,7118,1,8,0:0:0:0:
256,192,7632,1,0,0:0:0:0:
256,192,8318,1,8,0:0:0:0:
256,192,8832,1,8,0:0:0:0:
256,192,9347,1,0,0:0:0:0:
256,192,9861,1,8,0:0:0:0:
256,192,11061,1,0,0:0:0:0:
256,192,11747,1,8,0:0:0:0:
256,192,12090,1,0,0:0:0:0:
256,192,12604,1,0,0:0:0:0:
256,192,13118,1,8,0:0:0:0:
256,192,13632,1,8,0:0:0:0:
256,192,14318,1,0,0:0:0:0:
256,192,14832,1,8,0:0:0:0:
256,192,15347,1,0,0:0:0:0:
256,192,15861,1,8,0:0:0:0:
256,192,16204,1,8,0:0:0:0:
256,192,16547,1,4,0:0:0:0:
256,192,17918,5,8,0:0:0:0:
256,192,18604,1,0,0:0:0:0:
256,192,19290,1,8,0:0:0:0:
256,192,19804,1,0,0:0:0:0:
256,192,20318,1,8,0:0:0:0:
256,192,21347,1,8,0:0:0:0:
256,192,22032,1,0,0:0:0:0:
256,192,23061,1,8,0:0:0:0:
256,192,23404,1,0,0:0:0:0:
256,192,23918,1,8,0:0:0:0:
256,192,24261,1,0,0:0:0:0:
256,192,24775,1,0,0:0:0:0:
256,192,25290,1,8,0:0:0:0:
256,192,25804,1,0,0:0:0:0:
256,192,26832,1,8,0:0:0:0:
256,192,27175,1,8,0:0:0:0:
256,192,27518,1,4,0:0:0:0:
256,192,28204,1,0,0:0:0:0:
256,192,28890,1,0,0:0:0:0:
256,192,29575,1,8,0:0:0:0:
256,192,30261,1,8,0:0:0:0:
256,192,30775,1,0,0:0:0:0:
256,192,31290,1,8,0:0:0:0:
256,192,32318,1,0,0:0:0:0:
256,192,33004,1,12,0:0:0:0:
256,192,34032,1,0,0:0:0:0:
256,192,34375,1,8,0:0:0:0:
256,192,34890,1,8,0:0:0:0:
256,192,35232,1,0,0:0:0:0:
256,192,35747,1,8,0:0:0:0:
256,192,36604,1,8,0:0:0:0:
256,192,37461,1,8,0:0:0:0:
256,192,37804,1,0,0:0:0:0:
256,192,38147,1,0,0:0:0:0:
256,192,38490,1,12,0:0:0:0:
256,192,39004,1,0,0:0:0:0:
256,192,39518,1,8,0:0:0:0:
256,192,40547,1,12,0:0:0:0:
256,192,41232,1,4,0:0:0:0:
256,192,41747,1,0,0:0:0:0:
256,192,42261,1,8,0:0:0:0:
256,192,43290,1,12,0:0:0:0:
256,192,43975,1,0,0:0:0:0:
256,192,45347,1,8,0:0:0:0:
256,192,46718,1,4,0:0:0:0:
256,192,47918,1,8,0:0:0:0:
256,192,48432,1,0,0:0:0:0:
256,192,48775,1,0,0:0:0:0:
256,192,49118,1,8,0:0:0:0:
256,192,49461,1,4,0:0:0:0:
256,192,49975,1,12,0:0:0:0:
256,192,50318,1,12,0:0:0:0:
256,192,50661,1,4,0:0:0:0:
256,192,52204,5,4,0:0:0:0:
256,192,52547,1,8,0:0:0:0:
256,192,53232,1,8,0:0:0:0:
256,192,53575,1,0,0:0:0:0:
256,192,54090,1,0,0:0:0:0:
256,192,54604,1,0,0:0:0:0:
256,192,54947,1,8,0:0:0:0:
256,192,55461,1,0,0:0:0:0:
256,192,55975,1,0,0:0:0:0:
256,192,56318,1,8,0:0:0:0:
256,192,57518,1,8,0:0:0:0:
256,192,58032,1,0,0:0:0:0:
256,192,58375,1,0,0:0:0:0:
256,192,58890,1,8,0:0:0:0:
256,192,59404,1,0,0:0:0:0:
256,192,59747,1,8,0:0:0:0:
256,192,60261,1,8,0:0:0:0:
256,192,60775,1,8,0:0:0:0:
256,192,61118,1,0,0:0:0:0:
256,192,61632,1,8,0:0:0:0:
256,192,62490,1,0,0:0:0:0:
256,192,62832,1,8,0:0:0:0:
256,192,63175,1,4,0:0:0:0:
256,192,64204,1,0,0:0:0:0:
256,192,64547,1,8,0:0:0:0:
256,192,65061,1,0,0:0:0:0:
256,192,65575,1,0,0:0:0:0:
256,192,65918,1,8,0:0:0:0:
256,192,66432,1,0,0:0:0:0:
256,192,66947,1,8,0:0:0:0:
256,192,67290,1,0,0:0:0:0:
256,192,68661,1,0,0:0:0:0:
256,192,69004,1,8,0:0:0:0:
256,192,69347,1,0,0:0:0:0:
256,192,70032,1,8,0:0:0:0:
256,192,70375,1,8,0:0:0:0:
256,192,70718,1,0,0:0:0:0:
256,192,71404,1,8,0:0:0:0:
256,192,71747,1,8,0:0:0:0:
256,192,72432,1,8,0:0:0:0:
256,192,72775,1,0,0:0:0:0:
256,192,73461,1,0,0:0:0:0:
256,192,73804,1,8,0:0:0:0:
256,192,74147,1,4,0:0:0:0:
256,192,75175,1,8,0:0:0:0:
256,192,75518,1,0,0:0:0:0:
256,192,76204,1,8,0:0:0:0:
256,192,76890,1,4,0:0:0:0:
256,192,77232,1,0,0:0:0:0:
256,192,77575,1,8,0:0:0:0:
256,192,77918,1,0,0:0:0:0:
256,192,78947,1,8,0:0:0:0:
256,192,79632,1,4,0:0:0:0:
256,192,80147,1,8,0:0:0:0:
256,192,80661,1,8,0:0:0:0:
256,192,81004,1,0,0:0:0:0:
256,192,81518,1,8,0:0:0:0:
256,192,82032,1,8,0:0:0:0:
256,192,82375,1,4,0:0:0:0:
256,192,82890,1,0,0:0:0:0:
256,192,83747,1,8,0:0:0:0:
256,192,84604,1,0,0:0:0:0:
256,192,85118,1,8,0:0:0:0:
256,192,85461,12,0,87175,0:0:0:0:
