osu file format v14

[General]
AudioFilename: audio.mp3
AudioLeadIn: 0
PreviewTime:131231
Countdown: 0
SampleSet: Soft
StackLeniency: 0.3
Mode: 0
LetterboxInBreaks: 0
WidescreenStoryboard: 1

[Editor]
Bookmarks: 52374,85288,164831,184031,211460,248488
DistanceSpacing: 0.8
BeatDivisor: 4
GridSize: 4
TimelineZoom: 2.299999

[Metadata]
Title:Sing My Pleasure
TitleUnicode:Sing My Pleasure
Artist:Vivy (VO: Yagi Kairi)
ArtistUnicode:ヴィヴィ (VO: 八木海莉)
Creator:Flask
Version:Normal
Source:Vivy -Fluorite Eye's Song-
Tags:WIT STUDIO Score Fluorite Eye Song anime opening op japanese j-pop jpop pop Diva ディーヴァ -フローライトアイズソング- 神前曉 MONACA Kousaki Satoru 種崎敦美 Tanezaki Atsumi Hey lululu Hey_lululu lu^3 bossandy GfMRT MiyohashiKoori Deppyforce arronchu1207 Amateurre Yogurtt Luscent [Karcher] Andrea osuplayer111 Skyflame
BeatmapID:3419305
BeatmapSetID:1616800

[Difficulty]
HPDrainRate:3
CircleSize:3
OverallDifficulty:4.5
ApproachRate:5.5
SliderMultiplier:1
SliderTickRate:1

[Events]
//Background and Video events
0,0,"BG.jpg",0,0
//Break Periods
2,44345,45763
2,88231,94888
2,170517,174677
//Storyboard Layer 0 (Background)
//Storyboard Layer 1 (Fail)
//Storyboard Layer 2 (Pass)
//Storyboard Layer 3 (Foreground)
//Storyboard Layer 4 (Overlay)
//Storyboard Sound Samples

[TimingPoints]
260,342.857142857143,4,2,1,70,1,0
3860,-100,4,2,1,5,0,0
4031,-100,4,2,1,50,0,0
5060,-100,4,2,1,5,0,0
5231,-100,4,2,1,50,0,0
5402,-100,4,2,1,60,0,0
5659,-100,4,2,1,5,0,0
5745,-100,4,2,1,60,0,0
14231,-100,4,2,1,5,0,0
14317,-100,4,2,1,60,0,0
21259,-100,4,2,1,5,0,0
21345,-100,4,2,1,60,0,0
21430,-100,4,2,1,5,0,0
21517,-100,4,2,1,60,0,0
27688,-100,4,2,1,70,0,0
27945,-100,4,2,1,5,0,0
28031,-100,4,2,1,70,0,0
30688,-100,4,2,1,5,0,0
30774,-100,4,2,1,70,0,0
33431,-100,4,2,1,5,0,0
33517,-100,4,2,1,70,0,0
44145,-100,4,2,1,50,0,0
46202,-100,4,2,1,40,0,0
46545,-100,4,2,1,50,0,0
46717,-100,4,2,1,60,0,0
46888,-100,4,2,1,70,0,0
47145,-100,4,2,1,5,0,0
47231,-100,4,2,1,70,0,0
51688,-100,4,2,1,60,0,0
52288,-100,4,2,1,5,0,0
52374,-100,4,2,2,80,0,1
56830,-100,4,2,1,80,0,1
63259,-100,4,2,1,5,0,1
63345,-100,4,2,2,80,0,1
67802,-100,4,2,1,80,0,1
74317,-100,4,2,1,60,0,0
79802,-100,4,2,1,70,0,1
85287,-100,4,2,1,60,0,0
92316,-100,4,2,1,5,0,0
92402,-100,4,2,1,60,0,0
92573,-100,4,2,1,5,0,0
92660,-100,4,2,1,60,0,0
92831,-100,4,2,1,5,0,0
92917,-100,4,2,1,60,0,0
93088,-100,4,2,1,5,0,0
93174,-100,4,2,1,60,0,0
93345,-100,4,2,1,5,0,0
93431,-100,4,2,1,60,0,0
99259,-100,4,2,1,5,0,0
99345,-100,4,2,1,60,0,0
107231,-100,4,2,1,70,0,0
121888,-100,4,2,1,5,0,0
121974,-100,4,2,1,70,0,0
123687,-100,4,2,1,50,0,0
125917,-100,4,2,1,60,0,0
126431,-100,4,2,1,70,0,0
126688,-100,4,2,1,5,0,0
126774,-100,4,2,1,70,0,0
131231,-100,4,2,1,60,0,0
131831,-100,4,2,1,5,0,0
131917,-100,4,2,2,80,0,1
136373,-100,4,2,1,80,0,1
142888,-100,4,2,2,80,0,1
145888,-100,4,2,1,5,0,1
145974,-100,4,2,1,80,0,1
153860,-100,4,2,1,60,0,0
159345,-100,4,2,1,70,0,1
164745,-100,4,2,1,5,0,1
164830,-100,4,2,1,50,0,0
175802,-100,4,2,1,60,0,0
182660,-100,4,2,1,70,0,0
187973,-100,4,2,1,5,0,0
188145,-100,4,2,1,70,0,0
195774,-100,4,2,1,5,0,0
195860,-100,4,2,1,70,0,0
197145,-100,4,2,1,5,0,0
197231,-100,4,2,1,70,0,0
198431,-100,4,2,1,80,0,0
199117,-100,4,2,1,70,0,0
211460,-100,4,2,1,60,0,0
220560,342.857142857143,4,2,1,60,1,0
222092,342.857142857143,4,2,1,60,1,0
222431,342.857142857143,4,2,1,60,1,0
227917,-100,4,2,1,70,0,0
240173,-100,4,2,1,5,0,0
240259,-100,4,2,1,70,0,0
243345,-100,4,2,2,70,0,1
245745,-100,4,2,1,70,0,1
248488,-100,4,2,2,80,0,1
249002,-100,4,2,1,80,0,1
259459,-100,4,2,1,60,0,0
264945,-100,4,2,1,70,0,0
270088,-100,4,2,1,70,0,1
270431,-100,4,2,2,60,0,0
273174,-100,4,2,1,60,0,0
278372,-100,4,2,1,5,0,0
278430,-100,4,2,1,60,0,0
278601,-100,4,2,1,5,0,0
278659,-100,4,2,1,60,0,0
282764,-100,4,2,1,40,0,0
282769,-100,4,2,1,40,0,0
284135,-100,4,2,1,30,0,0
284140,-100,4,2,1,30,0,0
284821,-100,4,2,1,20,0,0
284826,-100,4,2,1,20,0,0
285507,-100,4,2,1,10,0,0
285517,-100,4,2,1,10,0,0

[Colours]
Combo1 : 0,122,181
Combo2 : 165,74,255
Combo3 : 226,80,204
Combo4 : 0,232,232

[HitObjects]
150,144,260,6,0,P|133:187|162:235,1,100,14|0,2:0|1:0,2:0:0:0:
172,279,774,2,0,P|207:308|262:295,1,100,14|0,2:0|1:0,2:0:0:0:
307,299,1288,2,0,P|346:274|350:218,1,100,14|0,2:0|1:0,2:0:0:0:
367,176,1802,2,0,P|355:131|303:109,1,100,14|0,2:0|1:0,2:0:0:0:
268,80,2317,2,0,P|221:77|185:119,1,100,14|0,2:0|1:0,2:0:0:0:
150,144,2831,5,14,1:2:0:0:
256,192,3002,12,0,5060,2:0:0:0:
89,60,5745,6,0,P|56:116|96:199,1,150,6|2,1:2|2:0,2:0:0:0:
121,224,6431,1,2,1:2:0:0:
137,322,6774,2,0,L|302:296,1,150,2|2,1:2|2:0,2:0:0:0:
334,288,7460,1,0,1:0:0:0:
415,345,7802,2,0,P|436:307|427:250,1,100,2|2,1:2|1:2,2:0:0:0:
452,210,8317,1,2,2:0:0:0:
452,210,8488,6,0,L|483:53,1,150,2|2,1:2|2:0,2:0:0:0:
492,13,9174,1,2,1:2:0:0:
391,10,9517,2,0,P|338:17|298:105,1,150,2|2,1:2|2:0,2:0:0:0:
306,145,10202,1,2,1:2:0:0:
366,225,10545,2,2,P|322:250|267:244,1,100,2|0,1:0|1:0,2:1:0:0:
232,229,11060,1,8,2:0:0:0:
232,229,11231,6,0,L|72:272,1,150,6|2,1:2|2:0,2:0:0:0:
40,286,11917,1,0,1:0:0:0:
13,189,12260,2,0,P|2:142|80:70,1,150,2|2,1:2|2:0,2:0:0:0:
113,82,12945,1,0,1:0:0:0:
166,166,13288,2,0,L|150:229,2,50,2|10|2,1:2|2:0|1:2,2:0:0:0:
244,103,13974,6,0,P|282:87|368:144,1,150,6|2,1:2|2:0,2:0:0:0:
381,187,14660,1,0,1:0:0:0:
477,163,15002,2,0,P|481:226|415:281,1,150,2|10,1:2|2:3,2:0:0:0:
371,286,15688,1,8,2:3:0:0:
280,329,16031,2,0,L|290:379,2,50,2|0|2,2:1|2:0|1:0,2:0:0:0:
274,228,16717,6,0,L|297:111,1,100,6|0,1:2|1:0,2:0:0:0:
274,89,17231,1,2,2:0:0:0:
274,89,17402,2,0,P|226:70|172:89,1,100,2|0,1:2|1:0,2:0:0:0:
165,182,18088,2,0,L|146:297,1,100,2|0,1:2|1:0,2:0:0:0:
113,315,18602,1,2,2:0:0:0:
113,315,18773,2,0,P|63:320|16:288,1,100,2|0,1:2|1:0,2:0:0:0:
8,194,19460,6,0,L|26:80,1,100,2|2,1:2|1:2,2:0:0:0:
52,54,19974,2,0,P|93:36|146:54,1,100,2|2,2:0|2:0,2:0:0:0:
182,83,20488,1,2,1:2:0:0:
272,44,20831,1,0,1:0:0:0:
272,44,21002,2,2,B|353:29|330:90|432:57,1,150,2|2,1:0|1:2,2:1:0:0:
479,139,21860,2,0,L|470:194,1,50,2|2,1:2|2:0,2:0:0:0:
432,220,22202,6,0,L|444:327,2,100,0|0|0,1:0|1:0|1:0,2:0:0:0:
343,172,23231,1,2,1:2:0:0:
264,231,23574,1,2,1:2:0:0:
264,231,23745,1,2,2:0:0:0:
188,164,24088,2,0,L|211:51,2,100,2|2|2,2:0|2:0|2:0,2:0:0:0:
142,185,24945,6,0,P|116:223|132:289,1,100,2|2,1:2|1:0,2:0:0:0:
154,312,25460,2,0,L|256:297,1,100,2|2,2:0|2:1,2:0:0:0:
302,291,25974,1,2,1:2:0:0:
393,343,26317,1,0,1:0:0:0:
393,343,26488,2,0,P|411:311|403:247,1,100,2|0,2:0|2:0,2:0:0:0:
387,202,27002,2,0,L|402:152,2,50,2|0|8,1:0|1:0|2:0,2:0:0:0:
286,197,27688,5,6,1:2:0:0:
194,238,28031,2,0,P|148:230|114:184,1,100,10|2,1:0|1:2,2:0:0:0:
104,141,28545,1,8,1:3:0:0:
82,43,28888,2,0,P|144:47|200:123,1,150,10|8,2:1|2:0,2:0:0:0:
274,175,29745,2,0,P|309:175|356:130,1,100,2|8,1:2|2:0,2:0:0:0:
428,65,30431,6,0,P|476:71|510:125,1,100,2|10,1:2|2:0,2:0:0:0:
501,159,30945,1,2,2:0:0:0:
436,235,31288,1,2,1:2:0:0:
359,170,31631,2,0,P|312:164|255:239,1,150,8|8,2:0|2:0,2:0:0:0:
258,338,32488,1,2,1:0:0:0:
163,306,32831,2,0,L|110:298,1,50,10|10,2:0|2:0,2:0:0:0:
64,309,33174,6,0,P|31:290|22:228,1,100,4|8,1:2|2:0,2:0:0:0:
52,193,33688,1,2,2:0:0:0:
16,99,34031,1,8,1:3:0:0:
99,43,34374,2,0,B|184:36|148:89|254:72,1,150,8|10,2:0|2:0,2:0:0:0:
316,140,35231,2,0,L|372:129,2,50,0|2|8,1:0|1:2|2:0,2:0:0:0:
244,209,35917,6,0,L|260:322,1,100,2|10,1:2|2:0,2:0:0:0:
290,346,36431,2,0,P|338:360|383:339,1,100,2|2,1:2|1:2,2:0:0:0:
419,307,36945,2,0,L|473:322,1,50,2|8,2:0|2:0,2:0:0:0:
506,223,37460,1,0,1:0:0:0:
506,223,37631,2,0,L|403:193,2,100,10|2|10,2:0|2:1|2:0,2:0:0:0:
484,125,38660,6,0,P|464:76|370:58,1,150,6|2,1:2|1:2,2:0:0:0:
332,79,39345,1,8,2:0:0:0:
239,41,39688,1,2,1:2:0:0:
239,41,39860,1,0,1:0:0:0:
165,108,40202,2,0,L|180:163,2,50,2|2|2,1:2|2:0|1:2,2:0:0:0:
122,81,40717,2,0,P|89:67|17:88,1,100,14|10,2:0|2:3,2:0:0:0:
21,179,41402,6,0,L|30:231,1,50,6|0,1:2|2:0,2:0:0:0:
18,280,41745,1,2,2:0:0:0:
18,280,41917,2,0,P|65:319|156:296,1,150,2|2,1:2|1:2,2:0:0:0:
183,269,42602,1,2,1:2:0:0:
229,180,42945,2,0,L|218:124,2,50,10|2|2,2:0|2:0|1:2,2:0:0:0:
271,207,43460,2,0,L|330:220,1,50,14|10,2:0|2:0,2:0:0:0:
368,228,43802,1,10,2:0:0:0:
452,174,44145,5,2,2:0:0:0:
452,174,46888,6,0,B|427:136|438:76|438:76|420:136|366:152,1,200,6|8,1:2|2:0,2:0:0:0:
330,168,47745,2,0,P|304:164|283:145,1,50,10|10,2:0|2:0,2:0:0:0:
265,103,48088,2,0,P|224:82|150:142,1,150,6|8,1:2|2:0,2:0:0:0:
115,232,48945,2,0,L|64:221,2,50,8|8|8,2:0|2:0|2:0,2:0:0:0:
158,328,49631,5,10,2:0:0:0:
158,328,49802,1,2,1:2:0:0:
249,287,50145,1,10,2:0:0:0:
324,352,50488,1,10,2:0:0:0:
418,319,50831,2,0,L|449:214,1,100,14|8,2:0|1:3,2:0:0:0:
464,176,51345,1,8,1:3:0:0:
364,182,51688,6,0,P|324:168|322:112,1,100,2|2,2:0|2:0,2:0:0:0:
383,38,52374,6,0,L|437:54,2,50,6|2|10,1:2|2:0|2:0,2:0:0:0:
339,13,52888,2,0,L|222:27,1,100,2|0,1:2|1:0,2:0:0:0:
189,30,53402,1,10,2:0:0:0:
207,133,53745,1,2,1:2:0:0:
207,133,53917,2,0,L|319:120,1,100,2|2,1:2|1:2,2:0:0:0:
354,137,54431,2,0,P|382:181|374:235,1,100,2|10,2:0|2:0,2:0:0:0:
414,320,55117,6,0,P|372:330|322:304,1,100,2|8,1:2|2:0,2:0:0:0:
288,269,55631,1,2,1:2:0:0:
198,314,55974,2,0,L|207:377,2,50,2|10|2,1:2|2:0|2:0,2:0:0:0:
165,275,56488,2,0,L|175:170,1,100,2|12,1:2|2:0,2:0:0:0:
165,131,57002,1,2,1:2:0:0:
165,131,57174,2,0,P|125:103|71:110,1,100,2|12,1:2|2:0,2:0:0:0:
17,188,57860,6,0,L|29:292,1,100,4|10,1:2|2:0,2:0:0:0:
117,332,58545,2,0,L|101:382,2,50,2|2|8,2:0|1:2|2:0,2:0:0:0:
182,256,59231,6,0,L|284:237,1,100,4|10,1:2|2:0,2:0:0:0:
357,302,59917,2,0,L|390:244,1,50,2|2,2:0|1:2,2:0:0:0:
408,216,60260,1,8,2:0:0:0:
500,177,60602,6,0,L|461:81,1,100,4|10,1:2|2:0,2:0:0:0:
376,31,61288,2,0,L|420:-4,2,50,2|2|10,2:0|1:2|2:0,2:0:0:0:
312,109,61974,6,0,L|251:95,1,50,4|0,1:2|1:0,2:0:0:0:
215,111,62317,2,0,L|154:97,1,50,8|8,2:0|2:0,2:0:0:0:
118,116,62660,1,10,2:3:0:0:
102,214,63002,1,14,2:0:0:0:
175,281,63345,6,0,L|239:272,2,50,6|2|10,1:2|2:0|2:0,2:0:0:0:
152,325,63860,2,0,L|49:312,1,100,2|0,1:2|1:0,2:0:0:0:
4,304,64374,1,10,2:0:0:0:
6,208,64717,1,2,1:2:0:0:
6,208,64888,2,0,P|20:169|80:147,1,100,2|2,1:2|1:2,2:0:0:0:
114,169,65402,2,0,L|215:155,1,100,2|10,2:0|2:0,2:0:0:0:
289,89,66088,6,0,B|323:130|323:130|310:187,1,100,2|8,1:2|2:0,2:0:0:0:
300,224,66602,1,2,1:2:0:0:
226,291,66945,2,0,L|167:283,2,50,2|10|2,1:2|2:0|2:0,2:0:0:0:
254,332,67460,2,0,L|365:323,1,100,2|12,1:2|2:0,2:0:0:0:
404,345,67974,1,2,2:0:0:0:
404,345,68145,2,0,P|447:334|471:281,1,100,2|12,1:2|2:0,2:0:0:0:
432,194,68831,6,0,L|452:97,1,100,4|10,1:2|2:0,2:0:0:0:
363,48,69517,2,0,L|378:-11,2,50,2|2|8,2:0|1:2|2:0,2:0:0:0:
291,117,70202,6,0,L|311:214,1,100,4|10,1:2|2:0,2:0:0:0:
280,310,70888,2,0,L|219:319,1,50,2|2,1:2|1:2,2:0:0:0:
180,322,71231,1,8,2:0:0:0:
111,384,71574,6,0,B|76:347|76:347|82:289,1,100,4|10,1:2|2:0,2:0:0:0:
152,228,72260,2,0,L|162:170,2,50,2|2|10,2:0|1:2|2:0,2:0:0:0:
58,193,72945,6,0,P|47:172|44:128,1,50,4|0,1:2|1:0,2:0:0:0:
62,100,73288,2,0,P|74:79|111:55,1,50,12|0,2:0|1:0,2:0:0:0:
143,70,73631,2,0,L|254:51,1,100,8|6,2:3|2:3,2:0:0:0:
329,5,74317,6,0,P|360:42|340:148,1,150,6|0,1:2|1:0,2:0:0:0:
310,168,75002,2,0,L|329:271,1,100,12|2,2:0|2:0,2:0:0:0:
282,355,75688,2,0,P|329:371|375:355,1,100,2|0,1:2|2:0,2:0:0:0:
424,363,76202,2,0,P|468:332|470:242,1,150,2|6,1:2|2:3,2:0:0:0:
468,141,77060,5,6,1:2:0:0:
366,135,77402,2,0,P|343:111|336:41,1,100,2|10,1:2|2:0,2:0:0:0:
235,28,78088,2,0,P|243:141|295:215,1,200,2|0,1:2|1:0,2:0:0:0:
332,237,78945,2,0,L|301:348,1,100,2|2,1:2|1:2,2:0:0:0:
289,381,79460,1,14,2:0:0:0:
208,322,79802,6,0,L|199:271,2,50,6|2|10,1:2|2:0|2:0,2:0:0:0:
169,354,80317,2,0,P|126:359|80:316,1,100,2|2,1:2|1:2,2:0:0:0:
78,275,80831,1,10,2:0:0:0:
39,182,81174,6,0,L|-24:189,2,50,2|2|10,1:2|1:2|2:0,2:0:0:0:
72,144,81688,2,0,P|113:119|176:141,1,100,2|2,1:2|1:2,2:0:0:0:
200,160,82202,1,10,2:0:0:0:
291,199,82545,6,0,L|277:263,2,50,6|0|10,1:2|2:0|2:0,2:0:0:0:
336,178,83060,2,0,L|325:72,1,100,2|0,1:2|1:0,2:0:0:0:
322,28,83574,1,10,2:0:0:0:
422,5,83917,5,10,2:0:0:0:
422,5,84088,1,10,2:0:0:0:
485,82,84431,1,10,1:2:0:0:
427,164,84774,1,10,2:3:0:0:
427,164,84945,2,0,L|311:149,1,100,12|6,2:0|1:2,2:0:0:0:
256,192,85460,12,2,88031,1:2:0:0:
69,54,96088,5,10,2:0:0:0:
69,54,96260,2,0,L|87:173,1,100,2|4,2:0|1:2,2:0:0:0:
50,246,96945,6,0,P|99:256|143:230,1,100,2|0,1:2|1:0,2:0:0:0:
226,179,97631,2,0,L|335:199,1,100,2|0,1:2|1:0,2:0:0:0:
374,182,98145,1,2,2:0:0:0:
374,182,98317,2,0,P|403:217|404:280,1,100,2|0,1:2|1:0,2:0:0:0:
348,350,99002,6,0,P|303:357|248:326,1,100,2|2,1:2|1:2,2:0:0:0:
216,303,99517,2,0,L|113:322,1,100,2|2,2:0|2:0,2:0:0:0:
67,327,100031,1,0,1:2:0:0:
13,249,100374,1,2,1:2:0:0:
13,249,100545,2,2,L|28:146,1,100,2|2,1:0|2:0,1:0:0:0:
35,100,101060,1,2,1:2:0:0:
119,46,101402,2,0,L|173:56,1,50,2|2,1:2|1:2,2:0:0:0:
195,96,101745,6,0,P|251:111|289:84,2,100,4|2|0,1:2|1:2|1:0,2:0:0:0:
137,178,102774,1,2,1:2:0:0:
37,189,103117,2,0,L|59:299,1,100,2|2,1:2|1:2,2:0:0:0:
36,333,103631,2,0,P|79:359|124:348,1,100,2|2,2:0|2:0,2:0:0:0:
168,321,104145,1,0,1:0:0:0:
262,353,104488,6,0,P|299:346|327:284,1,100,2|2,1:2|1:0,2:0:0:0:
366,262,105002,2,0,L|356:155,1,100,2|2,2:0|1:0,2:0:0:0:
341,119,105517,1,2,1:2:0:0:
341,119,105688,2,0,P|386:73|462:120,1,150,12|8,2:0|2:0,2:0:0:0:
481,200,106545,2,0,L|531:216,2,50,10|8|4,1:0|2:3|2:3,2:0:0:0:
430,286,107231,6,0,L|328:309,1,100,6|10,1:2|1:0,2:0:0:0:
283,320,107745,1,2,2:0:0:0:
198,266,108088,1,0,1:0:0:0:
119,327,108431,2,0,P|71:319|44:225,1,150,10|8,2:1|2:0,2:0:0:0:
96,149,109288,2,0,L|86:97,2,50,2|0|8,1:2|1:0|2:0,2:0:0:0:
189,184,109974,6,0,L|299:203,1,100,2|10,1:2|2:0,2:0:0:0:
336,210,110488,1,2,2:0:0:0:
417,151,110831,1,2,1:2:0:0:
376,59,111174,2,0,P|349:27|242:36,1,150,8|8,2:0|2:0,2:0:0:0:
174,96,112031,1,10,2:1:0:0:
85,50,112374,2,0,P|74:76|80:108,1,50,10|10,1:2|2:0,2:0:0:0:
90,145,112717,6,0,P|128:185|173:189,1,100,4|8,1:2|2:0,2:0:0:0:
219,180,113231,1,0,1:0:0:0:
289,251,113574,1,0,1:0:0:0:
240,338,113917,2,0,L|84:361,1,150,12|10,1:2|2:0,2:0:0:0:
25,284,114774,2,0,L|-32:292,2,50,0|2|8,1:0|1:2|2:0,2:0:0:0:
98,215,115460,6,0,P|130:187|131:120,1,100,6|10,1:2|2:0,2:0:0:0:
120,84,115974,2,0,P|128:39|181:20,1,100,2|2,2:0|1:2,2:0:0:0:
221,36,116488,2,0,L|279:22,1,50,2|12,1:2|2:0,2:0:0:0:
355,86,117002,1,0,1:0:0:0:
355,86,117174,2,0,L|331:183,2,100,10|10|10,2:0|2:1|2:0,2:0:0:0:
443,40,118202,6,0,P|496:60|507:155,1,150,6|2,1:2|1:2,2:0:0:0:
486,187,118888,1,8,2:0:0:0:
386,198,119231,1,2,1:2:0:0:
386,198,119402,1,0,1:0:0:0:
346,289,119745,2,0,L|365:348,2,50,10|2|2,2:0|2:0|1:2,2:0:0:0:
300,267,120260,2,0,P|271:250|203:264,1,100,14|2,2:0|2:0,2:0:0:0:
180,356,120945,6,0,P|140:335|117:232,1,150,6|2,1:2|1:2,2:0:0:0:
135,192,121631,1,8,2:0:0:0:
216,132,121974,1,6,1:2:0:0:
216,132,122145,1,0,1:0:0:0:
162,47,122488,2,0,L|176:-5,2,50,10|2|2,2:0|2:0|1:2,2:0:0:0:
114,61,123002,2,0,L|51:74,1,50,10|10,2:0|1:3,2:0:0:0:
26,103,123345,2,0,L|42:219,1,100,10|2,2:0|2:0,2:0:0:0:
471,130,126431,6,0,B|405:120|405:120|399:110|399:110|274:93,1,200,6|8,1:2|2:0,2:0:0:0:
239,124,127288,2,0,L|237:187,1,50,10|10,2:0|2:0,2:0:0:0:
200,207,127631,2,0,L|197:363,1,150,14|8,2:0|2:0,2:0:0:0:
297,354,128488,2,0,L|351:361,2,50,8|8|8,2:0|2:0|2:0,2:0:0:0:
310,258,129174,5,10,2:0:0:0:
310,258,129345,1,2,1:2:0:0:
409,271,129688,1,10,2:0:0:0:
422,172,130031,1,2,1:2:0:0:
323,159,130374,2,0,L|211:142,1,100,14|8,2:0|1:3,2:0:0:0:
174,134,130888,1,8,1:3:0:0:
74,128,131231,6,0,P|80:81|126:46,1,100,2|2,2:0|2:0,2:0:0:0:
218,47,131917,6,0,L|234:-3,2,50,6|2|10,1:2|2:0|2:0,2:0:0:0:
249,85,132431,2,0,L|272:193,1,100,2|0,1:2|1:0,2:0:0:0:
284,230,132945,1,10,2:0:0:0:
353,309,133288,1,2,1:2:0:0:
353,309,133460,2,0,P|385:266|380:210,1,100,2|2,1:2|1:2,2:0:0:0:
414,180,133974,2,0,P|392:130|341:107,1,100,2|10,2:0|2:0,2:0:0:0:
301,23,134660,6,0,L|194:45,1,100,2|8,1:2|2:0,2:0:0:0:
154,55,135174,1,2,1:2:0:0:
88,130,135517,2,0,L|33:117,2,50,2|10|2,1:2|2:0|2:0,2:0:0:0:
102,177,136031,2,0,L|78:292,1,100,2|12,1:2|2:0,2:0:0:0:
102,326,136545,1,2,2:0:0:0:
102,326,136717,2,0,P|142:350|199:328,1,100,2|12,1:2|2:0,2:0:0:0:
288,316,137402,6,0,L|272:209,1,100,4|10,1:2|2:0,2:0:0:0:
330,134,138088,2,0,L|388:149,2,50,2|2|8,2:0|1:2|2:0,2:0:0:0:
273,51,138774,6,0,L|158:68,1,100,6|10,1:2|2:0,2:0:0:0:
97,130,139460,2,0,L|39:115,1,50,2|2,2:0|1:2,2:0:0:0:
0,105,139802,1,8,2:0:0:0:
8,204,140145,6,0,L|34:311,1,100,4|10,1:2|2:0,2:0:0:0:
80,329,140660,1,2,1:2:0:0:
80,329,140831,2,0,L|75:383,2,50,2|2|10,2:0|1:2|2:0,2:0:0:0:
172,289,141517,6,0,L|162:227,1,50,4|0,1:2|1:0,2:0:0:0:
191,197,141860,2,0,L|181:135,1,50,8|8,2:0|2:0,2:0:0:0:
202,101,142202,1,2,1:2:0:0:
279,37,142545,1,10,2:0:0:0:
365,86,142888,6,0,L|420:73,2,50,6|2|10,1:2|2:0|2:0,2:0:0:0:
335,126,143402,2,0,P|324:178|348:218,1,100,2|0,1:2|1:0,2:0:0:0:
389,243,143917,1,10,2:0:0:0:
343,334,144260,1,2,1:2:0:0:
343,334,144431,2,0,L|227:346,1,100,2|2,1:2|1:2,2:0:0:0:
198,366,144945,2,0,P|167:332|169:277,1,100,2|10,2:0|2:0,2:0:0:0:
76,238,145631,6,0,L|91:135,1,100,2|8,1:2|2:0,2:0:0:0:
98,89,146145,1,2,1:2:0:0:
189,49,146488,2,0,L|177:-7,2,50,2|10|2,1:2|2:0|2:0,2:0:0:0:
217,89,147002,2,0,P|264:105|320:76,1,100,2|12,1:2|2:0,2:0:0:0:
353,61,147517,1,2,1:2:0:0:
353,61,147688,2,0,L|460:85,1,100,2|12,1:2|2:0,2:0:0:0:
483,177,148374,6,0,L|458:275,1,100,4|10,1:2|2:0,2:0:0:0:
372,325,149060,2,0,L|384:383,2,50,2|2|8,2:0|1:2|2:0,2:0:0:0:
297,257,149745,6,0,P|271:215|276:163,1,100,4|10,1:2|2:0,2:0:0:0:
337,87,150431,2,0,P|319:73|290:64,1,50,2|2,2:0|1:2,2:0:0:0:
243,66,150774,1,8,2:0:0:0:
163,126,151117,6,0,L|57:149,1,100,4|10,1:2|2:0,2:0:0:0:
48,245,151802,2,0,L|-1:235,2,50,2|2|10,2:0|1:2|2:0,2:0:0:0:
81,339,152488,6,0,L|137:330,1,50,4|0,1:2|1:0,2:0:0:0:
169,299,152831,2,0,L|225:290,1,50,12|0,2:0|1:0,2:0:0:0:
252,254,153174,2,0,L|269:137,1,100,8|6,2:0|2:3,2:0:0:0:
270,54,153860,6,0,B|351:60|318:112|413:107,1,150,6|0,1:2|1:0,2:0:0:0:
454,98,154545,2,0,P|494:117|502:179,1,100,12|2,2:0|2:0,2:0:0:0:
474,263,155231,2,0,L|370:246,1,100,2|2,1:2|2:0,2:0:0:0:
330,268,155745,2,0,L|292:168,1,100,2|8,1:2|2:3,2:0:0:0:
274,128,156260,1,6,2:3:0:0:
177,107,156602,6,0,L|203:1,2,100,6|2|14,1:2|2:0|2:0,2:0:0:0:
76,102,157631,2,0,B|41:135|41:135|86:292,1,200,2|0,1:2|1:0,2:0:0:0:
52,320,158488,2,0,L|166:338,1,100,2|10,1:2|1:3,2:0:0:0:
200,343,159002,1,10,2:0:0:0:
289,298,159345,6,0,L|348:289,1,50,6|0,1:2|2:0,2:0:0:0:
391,305,159688,1,8,2:0:0:0:
391,305,159860,2,0,B|422:268|422:268|420:208,1,100,2|0,2:0|1:0,2:0:0:0:
418,166,160374,1,8,2:0:0:0:
472,81,160717,6,0,L|415:60,1,50,4|0,1:2|2:0,2:0:0:0:
387,39,161060,1,8,2:0:0:0:
387,39,161231,2,0,L|280:55,1,100,0|0,1:0|1:0,2:0:0:0:
238,61,161745,1,8,2:0:0:0:
238,161,162088,6,0,L|296:150,1,50,4|0,1:2|2:0,2:0:0:0:
340,146,162431,1,8,2:0:0:0:
340,146,162602,2,0,L|322:259,1,100,0|0,1:0|1:0,2:0:0:0:
314,294,163117,1,10,2:0:0:0:
240,360,163460,5,10,2:0:0:0:
240,360,163631,1,10,2:0:0:0:
146,325,163974,1,10,1:2:0:0:
56,364,164317,1,2,1:2:0:0:
56,364,164488,2,0,L|36:258,1,100,12|6,2:0|1:2,2:0:0:0:
256,192,165002,12,2,170317,2:0:0:0:
85,211,175802,6,0,P|4:160|5:52,1,200,6|2,1:2|1:2,2:0:0:0:
88,108,176831,1,0,1:0:0:0:
92,5,177174,2,0,P|172:55|171:163,1,200,2|2,1:2|1:2,2:0:0:0:
177,252,178202,1,0,1:0:0:0:
161,350,178545,6,0,B|269:354|226:271|352:291,1,200,2|2,1:2|1:2,2:0:0:0:
432,335,179574,1,0,1:0:0:0:
435,235,179917,2,0,B|416:118|499:161|495:53,1,200,2|2,1:2|1:2,2:0:0:0:
395,62,180945,1,0,1:0:0:0:
330,138,181288,6,0,B|286:106|288:51|288:51|249:99|187:91,1,200,6|2,1:2|1:2,2:0:0:0:
238,186,182317,1,0,1:0:0:0:
320,240,182660,2,0,B|298:282|247:288|247:288|215:277|215:277|199:298|199:298|194:269|194:269|163:258|163:258|134:222|145:178,1,300,2|8,1:2|2:0,2:0:0:0:
199,93,184031,6,0,P|242:76|290:105,1,100,6|8,1:2|2:0,2:0:0:0:
334,115,184545,2,0,P|363:150|350:205,1,100,6|8,1:2|2:0,2:0:0:0:
354,250,185059,2,0,P|329:289|273:293,1,100,6|8,1:2|2:0,2:0:0:0:
231,310,185573,2,0,P|186:298|164:246,1,100,6|8,1:2|2:0,2:0:0:0:
135,211,186088,2,0,P|132:164|174:128,1,100,6|8,1:2|2:0,2:0:0:0:
199,93,186602,5,6,1:2:0:0:
256,192,186774,12,8,188145,2:0:0:0:
82,70,189174,5,12,2:0:0:0:
41,161,189517,6,0,L|59:267,1,100,6|10,1:2|2:0,2:0:0:0:
71,312,190031,1,2,1:2:0:0:
71,312,190202,2,0,L|59:374,2,50,2|2|10,2:0|1:2|2:0,2:0:0:0:
160,267,190888,2,0,L|149:211,1,50,2|2,1:2|1:2,2:0:0:0:
139,168,191231,1,10,2:0:0:0:
204,92,191574,2,0,L|267:103,1,50,2|2,2:0|1:2,2:0:0:0:
292,132,191917,2,0,L|355:121,1,50,10|2,2:0|2:0,2:0:0:0:
380,92,192260,6,0,P|416:121|422:183,1,100,2|8,1:2|2:0,2:0:0:0:
454,219,192774,1,2,1:2:0:0:
454,219,192945,2,0,P|439:274|429:329,1,100,2|10,1:2|2:0,2:0:0:0:
330,320,193631,2,0,L|342:380,2,50,2|0|12,1:2|1:0|2:0,2:0:0:0:
299,287,194145,1,2,2:0:0:0:
299,287,194317,2,0,P|264:267|200:275,1,100,2|12,1:2|2:0,2:0:0:0:
120,322,195002,6,0,L|102:374,2,50,6|2|10,1:2|2:0|2:0,2:0:0:0:
97,277,195517,2,0,L|82:170,1,100,2|2,1:2|1:2,2:0:0:0:
76,128,196031,1,10,2:0:0:0:
152,63,196374,2,0,L|133:13,2,50,2|2|10,1:2|2:0|2:0,2:0:0:0:
195,87,196888,2,0,L|180:203,1,100,2|2,1:2|1:2,2:0:0:0:
176,235,197402,1,10,2:0:0:0:
251,300,197745,6,0,L|307:293,1,50,2|2,1:2|2:0,2:0:0:0:
350,292,198088,1,10,2:0:0:0:
431,234,198431,2,0,L|517:249,2,66.6666666666667,2|2|2,1:2|2:1|2:1,2:0:0:0:
392,179,199117,6,0,B|373:122|373:122|439:61|439:61|348:69|348:69|292:34,1,300,14|10,2:0|1:2,2:0:0:0:
198,47,200488,6,0,L|181:-2,2,50,6|2|10,1:2|2:0|2:0,2:0:0:0:
185,95,201002,1,2,1:2:0:0:
232,182,201345,2,0,L|291:205,2,50,2|10|2,1:2|2:0|1:2,2:0:0:0:
177,266,202031,2,0,L|118:279,2,50,2|10|2,1:2|2:0|1:2,2:0:0:0:
208,304,202545,2,0,L|258:327,1,50,2|2,2:0|1:2,2:0:0:0:
299,345,202888,1,10,2:0:0:0:
391,307,203231,6,0,L|449:335,2,50,2|2|10,1:2|2:0|2:0,2:0:0:0:
369,268,203745,1,2,1:2:0:0:
369,268,203917,2,0,L|390:213,2,50,2|2|10,1:2|1:2|1:2,2:0:0:0:
296,199,204602,2,0,L|280:96,1,100,2|12,1:2|2:0,2:0:0:0:
245,73,205117,1,2,1:2:0:0:
245,73,205288,2,0,P|197:55|144:81,1,100,2|14,1:2|1:2,2:0:0:0:
74,133,205974,6,0,L|17:121,2,50,6|2|10,1:2|2:0|2:0,2:0:0:0:
97,177,206488,2,0,L|121:294,1,100,2|2,1:2|1:2,2:0:0:0:
106,323,207002,1,10,1:2:0:0:
201,351,207345,2,0,L|261:345,1,50,6|0,1:2|2:0,2:0:0:0:
297,364,207688,2,0,P|324:330|311:263,1,100,10|2,2:0|1:2,2:0:0:0:
258,196,208374,2,0,L|248:137,1,50,10|2,2:0|2:0,2:0:0:0:
277,104,208717,6,0,L|262:-2,2,100,6|8|0,1:2|2:0|1:0,2:0:0:0:
374,127,209745,1,10,2:0:0:0:
462,79,210088,2,0,P|477:129|456:183,1,100,6|10,1:2|2:0,2:0:0:0:
437,217,210602,1,0,2:0:0:0:
437,217,210774,2,0,L|459:322,1,100,10|6,2:0|2:3,2:0:0:0:
371,366,211460,6,0,B|324:377|270:338|296:314|256:267|200:289,1,200,6|12,1:2|2:0,2:0:0:0:
124,349,212488,1,2,2:0:0:0:
34,303,212831,2,0,L|19:201,1,100,2|0,1:2|2:0,2:0:0:0:
42,159,213345,2,0,P|89:132|173:177,1,150,2|2,1:2|1:2,2:0:0:0:
255,220,214202,6,0,L|361:207,1,100,14|2,2:0|2:0,2:0:0:0:
447,245,214888,2,0,B|460:197|460:197|431:145,1,100,10|2,2:0|2:0,2:0:0:0:
483,66,215574,1,0,1:0:0:0:
483,66,215745,2,0,B|436:45|436:45|388:66,1,100,8|0,2:0|1:0,2:0:0:0:
349,93,216260,2,0,L|242:75,1,100,8|8,2:0|2:3,2:0:0:0:
178,7,216945,6,0,P|153:43|229:168,1,200,6|8,1:2|2:0,2:0:0:0:
315,178,217974,1,2,2:0:0:0:
393,240,218317,2,0,L|376:338,1,100,2|0,1:2|2:0,2:0:0:0:
334,366,218831,2,0,P|286:371|229:293,1,150,6|2,1:2|2:0,2:0:0:0:
147,239,219688,5,6,1:2:0:0:
57,283,220031,1,2,2:0:0:0:
25,188,220374,2,0,L|43:82,1,104.385964912281,10|2,2:0|2:0,2:0:0:0:
126,33,221074,1,2,1:2:0:0:
126,33,221245,2,0,B|192:50|192:50|197:62|197:62|275:82,1,150,8|10,2:0|2:0,2:0:0:0:
337,146,222092,1,12,2:0:0:0:
428,106,222431,6,0,P|473:123|486:221,1,150,6|0,1:2|1:0,2:0:0:0:
468,260,223117,2,0,L|358:284,1,100,12|0,2:0|2:0,2:0:0:0:
294,346,223802,2,0,B|267:304|267:304|279:245,1,100,2|0,1:2|2:0,2:0:0:0:
309,217,224317,1,2,1:2:0:0:
309,217,224488,2,0,L|285:104,1,100,12|6,2:0|2:3,2:0:0:0:
187,108,225174,6,0,L|203:1,2,100,6|2|14,1:2|1:2|2:0,2:0:0:0:
88,89,226202,1,2,2:0:0:0:
32,173,226545,1,0,1:0:0:0:
32,173,226717,2,0,L|64:288,1,100,10|2,2:0|1:2,2:0:0:0:
73,317,227231,1,8,2:0:0:0:
160,365,227574,1,14,2:0:0:0:
249,319,227917,6,0,L|309:339,2,50,6|0|2,1:2|2:0|1:2,2:0:0:0:
227,273,228431,2,0,L|209:174,1,100,2|2,2:0|2:0,2:0:0:0:
202,124,228945,1,2,1:2:0:0:
274,55,229288,6,0,L|286:0,2,50,2|2|2,1:2|2:0|1:2,2:0:0:0:
307,92,229802,2,0,B|355:110|355:110|409:90,1,100,2|2,2:0|2:0,2:0:0:0:
446,71,230317,1,2,1:2:0:0:
462,169,230660,6,0,L|514:165,2,50,6|2|2,1:2|2:0|1:2,2:0:0:0:
423,201,231174,2,0,B|405:239|405:239|426:308,1,100,10|10,2:0|2:0,2:0:0:0:
442,340,231688,1,2,1:2:0:0:
347,372,232031,6,2,B|299:360|299:360|286:340|286:340|268:351|268:351|207:335,1,150,2|10,1:0|2:0,2:1:0:0:
161,252,232888,2,0,L|98:262,2,50,10|2|10,2:0|1:2|2:0,2:0:0:0:
197,217,233402,6,0,B|242:125|167:171|251:74|104:82|197:-19|256:-29|322:12|292:91,1,350,2|8,1:2|2:0,2:0:0:0:
338,109,234774,2,0,B|391:77|456:140|424:199|369:253|349:172|301:221|317:174|240:221,1,300,2|8,1:2|2:0,2:0:0:0:
197,217,235974,1,8,2:0:0:0:
414,339,236831,6,0,B|445:340|460:356|460:356|461:330|478:309,1,100,10|14,2:3|2:0,2:0:0:0:
482,124,237860,6,0,P|473:82|423:61,1,100,6|2,1:2|2:0,2:0:0:0:
374,68,238374,1,6,1:2:0:0:
275,52,238717,2,0,P|243:80|249:134,1,100,6|6,1:2|1:2,2:0:0:0:
280,173,239231,1,6,1:2:0:0:
152,326,239917,1,14,2:0:0:0:
59,364,240260,6,0,L|24:210,1,150,6|2,1:2|1:2,2:0:0:0:
39,169,240945,2,0,P|69:144|129:161,1,100,12|6,2:0|2:3,2:0:0:0:
206,214,241631,2,0,L|264:205,1,50,14|0,2:0|1:0,2:0:0:0:
300,229,241974,2,0,L|358:220,1,50,0|10,1:0|2:0,2:0:0:0:
396,238,242317,2,0,L|406:294,2,50,10|8|8,1:2|2:0|2:0,2:0:0:0:
432,203,242831,1,10,2:0:0:0:
511,75,243345,6,0,P|477:41|426:46,1,100,14|2,2:0|2:0,2:0:0:0:
385,72,243860,2,0,L|324:58,1,50,2|8,1:2|2:0,2:0:0:0:
250,111,244374,6,0,P|201:117|160:83,1,100,2|10,1:2|2:0,2:0:0:0:
80,29,245060,2,0,P|62:51|56:80,1,50,2|2,2:0|1:2,2:0:0:0:
60,121,245402,1,8,2:0:0:0:
8,206,245745,6,0,P|27:241|42:303,1,100,4|10,1:2|2:0,2:0:0:0:
138,325,246431,2,0,L|131:377,2,50,2|2|10,2:0|1:2|2:0,2:0:0:0:
224,273,247117,6,0,L|214:216,1,50,12|0,2:0|1:0,2:0:0:0:
234,177,247460,2,0,L|224:120,1,50,0|12,1:0|2:0,2:0:0:0:
248,83,247802,2,0,P|279:56|336:70,1,100,2|14,1:2|2:0,2:0:0:0:
426,104,248488,6,0,L|480:97,2,50,6|2|10,1:2|2:0|2:0,2:0:0:0:
402,148,249002,2,0,P|390:190|409:250,1,100,6|0,1:2|1:0,2:0:0:0:
443,275,249517,1,10,2:0:0:0:
390,361,249860,1,2,1:2:0:0:
390,361,250031,2,0,L|286:344,1,100,2|2,1:2|1:2,2:0:0:0:
245,365,250545,2,0,B|216:323|216:323|225:270,1,100,2|10,2:0|2:0,2:0:0:0:
155,201,251231,6,0,L|47:214,1,100,2|8,1:2|2:0,2:0:0:0:
5,216,251745,1,2,1:2:0:0:
25,118,252088,2,0,L|-15:78,2,50,2|10|2,1:2|2:0|1:2,2:0:0:0:
74,125,252602,2,0,P|113:112|139:51,1,100,2|12,1:2|2:0,2:0:0:0:
177,28,253117,1,2,1:2:0:0:
177,28,253288,2,0,P|224:28|263:77,1,100,2|12,1:2|2:0,2:0:0:0:
217,155,253974,6,0,L|200:265,1,100,4|10,1:2|2:0,2:0:0:0:
277,319,254660,2,0,L|267:376,2,50,2|2|8,2:0|1:2|2:0,2:0:0:0:
374,294,255345,2,0,B|409:267|409:267|408:204,1,100,4|10,1:2|2:0,2:0:0:0:
492,156,256031,2,0,L|484:97,1,50,2|2,2:0|1:2,2:0:0:0:
480,56,256374,1,8,2:0:0:0:
395,3,256717,6,0,P|348:3|316:48,1,100,4|10,1:2|2:0,2:0:0:0:
272,131,257402,2,0,L|287:189,2,50,2|2|14,2:0|1:2|2:0,2:0:0:0:
195,66,258088,2,0,L|140:57,1,50,12|8,2:0|2:3,2:0:0:0:
105,87,258431,2,0,L|50:96,1,50,4|0,2:3|1:0,2:0:0:0:
13,68,258774,2,0,L|22:12,2,50,8|0|2,2:3|2:0|1:2,2:0:0:0:
5,168,259459,6,0,L|37:272,1,100,6|0,1:2|2:0,2:0:0:0:
26,316,259974,1,0,1:0:0:0:
26,316,260145,2,0,P|64:336|123:311,1,100,12|2,2:0|1:2,2:0:0:0:
203,270,260831,2,0,L|185:170,1,100,2|0,1:2|2:0,2:0:0:0:
207,126,261345,2,0,P|244:98|302:117,1,100,2|0,1:2|2:0,2:0:0:0:
325,147,261860,1,2,1:2:0:0:
421,119,262202,6,0,L|446:9,1,100,6|2,1:2|2:0,2:0:0:0:
342,19,262888,1,14,2:0:0:0:
241,20,263231,2,0,B|152:31|152:31|129:22|129:22|35:32,1,200,2|0,2:0|1:0,2:0:0:0:
4,123,264260,2,0,B|-7:170|-7:170|31:218,1,100,8|14,2:0|2:0,2:0:0:0:
18,310,264945,6,0,L|77:302,1,50,14|0,2:0|1:0,2:0:0:0:
103,338,265288,2,0,L|162:346,1,50,8|0,2:0|1:0,2:0:0:0:
186,308,265631,2,0,L|175:252,2,50,8|0|8,2:0|1:0|2:0,2:0:0:0:
279,344,266317,6,0,L|336:355,1,50,12|0,2:0|1:0,2:0:0:0:
369,324,266660,2,0,L|426:313,1,50,8|0,2:0|1:0,2:0:0:0:
463,336,267002,2,0,L|483:392,2,50,8|0|8,2:0|1:0|2:0,2:0:0:0:
482,237,267688,6,0,L|494:181,1,50,12|0,2:0|1:0,2:0:0:0:
480,139,268031,2,0,L|437:100,1,50,8|0,2:0|1:0,2:0:0:0:
394,92,268374,2,0,L|339:109,2,50,8|0|10,2:0|1:0|2:0,2:0:0:0:
394,196,269060,5,14,2:0:0:0:
394,196,269231,1,14,2:0:0:0:
342,281,269574,1,10,2:3:0:0:
255,242,269917,1,2,1:2:0:0:
255,242,270088,2,0,L|193:258,1,50,12|0,2:0|2:0,2:0:0:0:
168,287,270431,6,0,P|110:262|93:169,1,150,6|2,1:2|2:0,2:0:0:0:
106,135,271117,1,0,1:0:0:0:
35,63,271460,2,0,P|75:33|175:68,1,150,2|2,1:2|2:0,2:0:0:0:
204,89,272145,1,0,1:0:0:0:
303,83,272488,2,0,L|280:193,1,100,2|2,1:2|1:2,2:0:0:0:
281,234,273002,1,2,2:0:0:0:
281,234,273174,6,0,P|340:270|414:233,1,150,6|2,1:2|2:0,2:0:0:0:
438,200,273860,1,2,1:2:0:0:
467,104,274202,2,0,P|433:42|351:37,1,150,2|2,1:2|2:0,2:0:0:0:
313,53,274888,1,0,1:2:0:0:
234,114,275231,2,2,L|118:89,1,100,2|0,1:0|1:0,2:1:0:0:
91,85,275745,1,8,2:0:0:0:
91,85,275917,6,0,B|60:116|60:116|91:233,1,150,6|2,1:2|2:0,2:0:0:0:
103,265,276602,1,0,1:0:0:0:
118,363,276945,2,0,P|166:343|194:246,1,150,2|2,1:2|2:0,2:0:0:0:
187,206,277631,1,0,1:0:0:0:
269,149,277974,2,0,L|282:98,2,50,2|2|0,1:2|2:0|1:0,2:0:0:0:
339,220,278660,6,0,P|347:300|406:345,1,150,6|2,1:2|2:0,2:0:0:0:
446,348,279345,1,0,1:0:0:0:
509,270,279688,2,0,P|501:190|442:145,1,150,2|2,1:2|2:0,2:0:0:0:
402,142,280373,1,0,1:0:0:0:
338,64,280717,2,0,L|350:11,2,50,2|8|10,1:0|2:0|2:1,2:0:0:0:
246,104,281402,5,6,1:2:0:0:
256,192,281574,12,2,285517,2:0:0:0:
