osu file format v14

[General]
AudioFilename: audio.mp3
AudioLeadIn: 0
PreviewTime: 131231
Countdown: 0
SampleSet: Soft
StackLeniency: 0.3
Mode: 0
LetterboxInBreaks: 0
WidescreenStoryboard: 1

[Editor]
Bookmarks: 52374,85288,164831,184031,211460,248488
DistanceSpacing: 0.6
BeatDivisor: 4
GridSize: 4
TimelineZoom: 2.899999

[Metadata]
Title:Sing My Pleasure
TitleUnicode:Sing My Pleasure
Artist:Vivy (VO: Yagi Kairi)
ArtistUnicode:ヴィヴィ (VO: 八木海莉)
Creator:Flask
Version:Kokoro o Komete
Source:Vivy -Fluorite Eye's Song-
Tags:WIT STUDIO Score Fluorite Eye Song anime opening op japanese j-pop jpop pop Diva ディーヴァ -フローライトアイズソング- 神前曉 MONACA Kousaki Satoru 種崎敦美 Tanezaki Atsumi Hey lululu Hey_lululu lu^3 bossandy GfMRT MiyohashiKoori Deppyforce arronchu1207 Amateurre Yogurtt Luscent [Karcher] Andrea osuplayer111 Skyflame
BeatmapID:3638055
BeatmapSetID:1616800

[Difficulty]
HPDrainRate:5
CircleSize:4.2
OverallDifficulty:9
ApproachRate:9.5
SliderMultiplier:2.2
SliderTickRate:1

[Events]
//Background and Video events
0,0,"BG.jpg",0,0
//Break Periods
2,123888,125392
2,170517,175277
//Storyboard Layer 0 (Background)
//Storyboard Layer 1 (Fail)
//Storyboard Layer 2 (Pass)
//Storyboard Layer 3 (Foreground)
//Storyboard Layer 4 (Overlay)
//Storyboard Sound Samples

[TimingPoints]
260,342.857142857143,4,2,1,70,1,0
2831,-181.818181818181,4,2,1,70,0,0
3859,-181.818181818181,4,2,1,5,0,0
4031,-181.818181818181,4,2,1,50,0,0
5059,-181.818181818181,4,2,1,5,0,0
5231,-133.333333333333,4,2,1,50,0,0
5402,-83.3333333333333,4,2,1,60,0,0
5659,-83.3333333333333,4,2,1,5,0,0
5745,-133.333333333333,4,2,1,60,0,0
10545,-111.111111111111,4,2,1,60,0,0
11231,-133.333333333333,4,2,1,60,0,0
14231,-133.333333333333,4,2,1,5,0,0
14317,-133.333333333333,4,2,1,60,0,0
16717,-117.647058823529,4,2,1,60,0,0
21002,-100,4,2,1,60,0,0
21259,-100,4,2,1,5,0,0
21345,-117.647058823529,4,2,1,60,0,0
21430,-117.647058823529,4,2,1,5,0,0
21517,-117.647058823529,4,2,1,60,0,0
25288,-83.3333333333333,4,2,1,60,0,0
25802,-66.6666666666667,4,2,1,60,0,0
27002,-83.3333333333333,4,2,1,60,0,0
27688,-200,4,2,1,70,0,0
27945,-200,4,2,1,5,0,0
28031,-66.6666666666667,4,2,1,70,0,0
28888,-100,4,2,1,70,0,0
30688,-100,4,2,1,5,0,0
30774,-100,4,2,1,70,0,0
33431,-100,4,2,1,5,0,0
33517,-100,4,2,1,70,0,0
38660,-117.647058823529,4,2,1,70,0,0
44145,-117.647058823529,4,2,1,50,0,0
46202,-133.333333333333,4,2,1,40,0,0
46545,-133.333333333333,4,2,1,50,0,0
46717,-133.333333333333,4,2,1,60,0,0
46888,-83.3333333333333,4,2,1,70,0,0
47145,-83.3333333333333,4,2,1,5,0,0
47231,-83.3333333333333,4,2,1,70,0,0
48088,-66.6666666666667,4,2,1,70,0,0
50660,-100,4,2,1,70,0,0
50831,-66.6666666666667,4,2,1,70,0,0
51688,-125,4,2,1,60,0,0
52031,-100,4,2,1,60,0,0
52288,-100,4,2,1,5,0,0
52374,-100,4,2,2,80,0,1
52888,-90.9090909090909,4,2,2,80,0,1
56831,-90.9090909090909,4,2,1,80,0,1
61974,-66.6666666666667,4,2,1,80,0,1
62145,-76.9230769230769,4,2,1,80,0,1
62317,-66.6666666666667,4,2,1,80,0,1
63259,-66.6666666666667,4,2,1,5,0,1
63345,-66.6666666666667,4,2,2,80,0,1
63860,-90.9090909090909,4,2,2,80,0,1
65402,-76.9230769230769,4,2,2,80,0,1
66088,-90.9090909090909,4,2,2,80,0,1
67802,-71.4285714285714,4,2,1,80,0,1
68145,-90.9090909090909,4,2,1,80,0,1
74317,-111.111111111111,4,2,1,60,0,0
79802,-90.9090909090909,4,2,1,70,0,1
84945,-66.6666666666667,4,2,1,70,0,1
85288,-111.111111111111,4,2,1,60,0,0
92145,-76.9230769230769,4,2,1,60,0,0
92316,-76.9230769230769,4,2,1,5,0,0
92402,-76.9230769230769,4,2,1,60,0,0
92573,-76.9230769230769,4,2,1,5,0,0
92660,-76.9230769230769,4,2,1,60,0,0
92831,-76.9230769230769,4,2,1,5,0,0
92917,-76.9230769230769,4,2,1,60,0,0
93088,-76.9230769230769,4,2,1,5,0,0
93174,-76.9230769230769,4,2,1,60,0,0
93345,-76.9230769230769,4,2,1,5,0,0
93431,-76.9230769230769,4,2,1,60,0,0
93517,-111.111111111111,4,2,1,60,0,0
94717,-66.6666666666667,4,2,1,60,0,0
95060,-90.9090909090909,4,2,1,60,0,0
95231,-66.6666666666667,4,2,1,60,0,0
96260,-133.333333333333,4,2,1,60,0,0
96602,-50,4,2,1,60,0,0
96945,-111.111111111111,4,2,1,60,0,0
99259,-111.111111111111,4,2,1,5,0,0
99345,-111.111111111111,4,2,1,60,0,0
100545,-83.3333333333333,4,2,1,60,0,0
101060,-111.111111111111,4,2,1,60,0,0
104831,-83.3333333333333,4,2,1,60,0,0
105345,-66.6666666666667,4,2,1,60,0,0
107060,-90.9090909090909,4,2,1,60,0,0
107231,-111.111111111111,4,2,1,70,0,0
107574,-66.6666666666667,4,2,1,70,0,0
108431,-100,4,2,1,70,0,0
113917,-66.6666666666667,4,2,1,70,0,0
114431,-100,4,2,1,70,0,0
117345,-90.9090909090909,4,2,1,70,0,0
117517,-76.9230769230769,4,2,1,70,0,0
117860,-83.3333333333333,4,2,1,70,0,0
118031,-71.4285714285714,4,2,1,70,0,0
118202,-111.111111111111,4,2,1,70,0,0
121888,-111.111111111111,4,2,1,5,0,0
121974,-111.111111111111,4,2,1,70,0,0
123688,-111.111111111111,4,2,1,50,0,0
125917,-100,4,2,1,60,0,0
126431,-83.3333333333333,4,2,1,70,0,0
126688,-83.3333333333333,4,2,1,5,0,0
126774,-83.3333333333333,4,2,1,70,0,0
127631,-66.6666666666667,4,2,1,70,0,0
130202,-100,4,2,1,70,0,0
130374,-55.5555555555556,4,2,1,70,0,0
131231,-111.111111111111,4,2,1,60,0,0
131574,-90.9090909090909,4,2,1,60,0,0
131831,-90.9090909090909,4,2,1,5,0,0
131917,-90.9090909090909,4,2,2,80,0,1
136374,-90.9090909090909,4,2,1,80,0,1
141517,-66.6666666666667,4,2,1,80,0,1
141688,-76.9230769230769,4,2,1,80,0,1
142888,-90.9090909090909,4,2,2,80,0,1
144945,-76.9230769230769,4,2,2,80,0,1
145631,-90.9090909090909,4,2,2,80,0,1
145888,-90.9090909090909,4,2,2,5,0,1
145974,-90.9090909090909,4,2,2,80,0,1
147345,-76.9230769230769,4,2,1,80,0,1
147688,-90.9090909090909,4,2,1,80,0,1
153860,-111.111111111111,4,2,1,60,0,0
159345,-90.9090909090909,4,2,1,70,0,1
164488,-66.6666666666667,4,2,1,70,0,1
164745,-66.6666666666667,4,2,1,5,0,1
164831,-66.6666666666667,4,2,1,50,0,0
175802,-117.647058823529,4,2,1,60,0,0
182660,-117.647058823529,4,2,1,70,0,0
184031,-90.9090909090909,4,2,1,70,0,0
184545,-76.9230769230769,4,2,1,70,0,0
185060,-66.6666666666667,4,2,1,70,0,0
185574,-71.4285714285714,4,2,1,70,0,0
186088,-62.5,4,2,1,70,0,0
186602,-153.846153846154,4,2,1,70,0,0
187973,-153.846153846154,4,2,1,5,0,0
188145,-153.846153846154,4,2,1,70,0,0
189174,-66.6666666666667,4,2,1,70,0,0
189517,-83.3333333333333,4,2,1,70,0,0
192260,-71.4285714285714,4,2,1,70,0,0
193460,-83.3333333333333,4,2,1,70,0,0
193974,-71.4285714285714,4,2,1,70,0,0
194317,-83.3333333333333,4,2,1,70,0,0
195774,-83.3333333333333,4,2,1,5,0,0
195860,-83.3333333333333,4,2,1,70,0,0
197145,-83.3333333333333,4,2,1,5,0,0
197231,-83.3333333333333,4,2,1,70,0,0
197402,-76.9230769230769,4,2,1,70,0,0
198431,-76.9230769230769,4,2,1,80,0,0
198660,-66.6666666666667,4,2,1,80,0,0
198888,-62.5,4,2,1,80,0,0
199117,-55.5555555555556,4,2,1,70,0,0
200488,-83.3333333333333,4,2,1,70,0,0
208374,-66.6666666666667,4,2,1,70,0,0
208717,-83.3333333333333,4,2,1,70,0,0
211460,-117.647058823529,4,2,1,60,0,0
220560,342.857142857143,4,2,1,60,1,0
220560,-117.647058823529,4,2,1,60,0,0
222092,342.857142857143,4,2,1,60,1,0
222431,342.857142857143,4,2,1,60,1,0
222431,-117.647058823529,4,2,1,60,0,0
223116,-100,4,2,1,60,0,0
223287,-117.647058823529,4,2,1,60,0,0
225859,-100,4,2,1,60,0,0
226373,-117.647058823529,4,2,1,60,0,0
227573,-66.6666666666667,4,2,1,60,0,0
227916,-133.333333333333,4,2,1,70,0,0
229287,-100,4,2,1,70,0,0
230659,-80,4,2,1,70,0,0
232030,-50,4,2,1,70,0,0
232544,-68.9655172413793,4,2,1,70,0,0
235801,-71.4285714285714,4,2,1,70,0,0
235973,-58.8235294117647,4,2,1,70,0,0
237859,-66.6666666666667,4,2,1,70,0,0
240173,-66.6666666666667,4,2,1,5,0,0
240259,-100,4,2,1,70,0,0
241801,-90.9090909090909,4,2,1,70,0,0
241973,-83.3333333333333,4,2,1,70,0,0
242144,-76.9230769230769,4,2,1,70,0,0
243345,-66.6666666666667,4,2,2,70,0,1
243687,-90.9090909090909,4,2,2,70,0,1
245744,-90.9090909090909,4,2,1,70,0,1
248487,-90.9090909090909,4,2,2,80,0,1
248650,-90.9090909090909,4,2,1,80,0,1
250544,-76.9230769230769,4,2,1,80,0,1
251230,-90.9090909090909,4,2,1,80,0,1
252944,-71.4285714285714,4,2,1,80,0,1
253287,-90.9090909090909,4,2,1,80,0,1
259459,-111.111111111111,4,2,1,60,0,0
260144,-83.3333333333333,4,2,1,60,0,0
261001,-111.111111111111,4,2,1,60,0,0
264601,-58.8235294117647,4,2,1,60,0,0
264944,-58.8235294117647,4,2,1,70,0,0
270088,-50,4,2,1,70,0,1
270431,-111.111111111111,4,2,2,60,0,0
273173,-111.111111111111,4,2,1,60,0,0
275230,-90.9090909090909,4,2,1,60,0,0
275916,-111.111111111111,4,2,1,60,0,0
277973,-83.3333333333333,4,2,1,60,0,0
278144,-83.3333333333333,4,2,1,5,0,0
278201,-83.3333333333333,4,2,1,60,0,0
278372,-83.3333333333333,4,2,1,5,0,0
278430,-83.3333333333333,4,2,1,60,0,0
278601,-83.3333333333333,4,2,1,5,0,0
278659,-111.111111111111,4,2,1,60,0,0
280373,-76.9230769230769,4,2,1,60,0,0
282764,-76.9230769230769,4,2,1,40,0,0
284135,-76.9230769230769,4,2,1,30,0,0
284821,-76.9230769230769,4,2,1,20,0,0
285507,-76.9230769230769,4,2,1,10,0,0

[Colours]
Combo1 : 0,122,181
Combo2 : 165,74,255
Combo3 : 226,80,204
Combo4 : 0,232,232

[HitObjects]
232,124,260,5,14,2:0:0:0:
163,19,431,1,0,1:0:0:0:
411,173,602,1,0,1:0:0:0:
125,242,774,5,14,2:0:0:0:
326,62,945,1,0,1:0:0:0:
449,307,1117,1,0,1:0:0:0:
191,372,1288,5,14,2:0:0:0:
314,230,1460,1,0,1:0:0:0:
87,135,1631,1,0,1:0:0:0:
285,15,1802,5,14,2:0:0:0:
180,262,1974,1,0,1:0:0:0:
433,177,2145,1,0,1:0:0:0:
16,48,2317,5,14,2:0:0:0:
232,178,2488,1,0,1:0:0:0:
393,22,2660,1,0,1:0:0:0:
143,370,2831,6,0,B|77:388|11:325|53:277|-24:261|-24:261|24:221|24:221|51:274|101:268,1,363.000011077881,14|0,1:2|2:0,2:0:0:0:
97,182,4031,5,2,2:0:0:0:
118,194,4117,1,2,2:0:0:0:
152,183,4202,2,0,B|182:133|149:83|98:45|120:5|189:-21|230:16|236:70|173:107,1,302.500009231568,2|0,2:0|2:0,2:0:0:0:
38,131,5231,6,0,P|59:136|95:152,1,41.2500015735627,0|0,1:0|2:0,2:0:0:0:
228,228,5402,6,0,B|282:208|321:237|321:237|264:223|244:173,1,197.99999395752,12|0,2:0|2:0,2:0:0:0:
171,133,5745,6,0,P|156:181|136:217,1,82.5000031471254,6|0,1:2|2:0,2:0:0:0:
91,282,6088,1,0,1:0:0:0:
313,238,6260,1,2,2:0:0:0:
261,318,6431,1,2,1:2:0:0:
261,318,6602,1,2,2:0:0:0:
254,168,6774,1,2,1:2:0:0:
400,199,6945,1,2,2:0:0:0:
407,202,7031,1,2,2:0:0:0:
406,213,7117,6,0,P|446:199|488:188,1,82.5000031471254,0|2,1:0|2:0,2:0:0:0:
373,21,7460,1,0,1:0:0:0:
336,110,7631,1,2,2:0:0:0:
155,189,7802,5,2,1:2:0:0:
59,168,7974,1,2,2:0:0:0:
231,115,8145,1,2,1:2:0:0:
100,34,8317,1,2,2:0:0:0:
95,25,8402,1,2,2:0:0:0:
109,14,8488,6,0,P|117:55|133:104,1,82.5000031471254,2|0,1:2|2:0,2:0:0:0:
245,209,8831,1,0,1:0:0:0:
75,282,9002,2,0,P|94:282|119:270,1,41.2500015735627,2|0,2:0|2:0,2:0:0:0:
29,224,9174,2,0,P|71:201|118:196,1,82.5000031471254,2|0,1:2|2:0,2:0:0:0:
269,356,9517,1,2,1:2:0:0:
199,301,9688,1,0,2:0:0:0:
184,317,9774,1,2,2:0:0:0:
178,354,9860,5,0,1:0:0:0:
336,292,10031,1,2,2:0:0:0:
181,186,10202,1,2,1:2:0:0:
285,205,10374,2,0,P|299:193|316:175,1,41.2500015735627,2|0,2:0|2:0,2:0:0:0:
458,70,10545,6,2,B|396:45|332:86|332:86|368:86|386:116,1,197.99999395752,2|0,1:0|1:0,2:1:0:0:
433,301,11060,1,8,2:0:0:0:
446,313,11145,1,8,2:0:0:0:
441,354,11231,6,0,P|458:276|482:215,1,123.750004720688,6|0,1:2|2:0,2:0:0:0:
471,214,11574,1,2,1:2:0:0:
260,121,11745,1,2,2:0:0:0:
282,226,11917,1,0,1:0:0:0:
282,226,12088,1,2,2:0:0:0:
361,59,12260,1,2,1:2:0:0:
156,47,12431,1,0,1:0:0:0:
127,43,12517,1,0,1:0:0:0:
99,71,12602,6,0,P|108:112|121:163,1,82.5000031471254,2|2,1:2|2:0,2:0:0:0:
139,336,12945,1,0,1:0:0:0:
176,251,13117,1,2,2:0:0:0:
53,245,13288,5,2,1:2:0:0:
264,352,13460,1,10,2:0:0:0:
382,283,13631,5,2,1:2:0:0:
411,73,13802,1,10,2:0:0:0:
207,136,13974,6,0,P|267:154|333:177,1,123.750004720688,6|0,1:2|2:0,2:0:0:0:
341,172,14317,1,2,1:2:0:0:
157,42,14488,1,2,2:0:0:0:
173,52,14574,1,0,2:0:0:0:
205,45,14660,2,0,P|251:38|301:25,1,82.5000031471254,0|2,1:0|2:0,2:0:0:0:
107,185,15002,2,0,P|92:141|74:103,1,82.5000031471254,2|0,1:2|2:0,2:0:0:0:
225,225,15345,5,2,1:2:0:0:
180,370,15517,1,10,2:3:0:0:
204,343,15602,1,8,2:3:0:0:
182,295,15688,2,0,P|119:318|39:343,1,123.750004720688,8|4,2:3|2:3,2:0:0:0:
10,286,16031,5,2,2:1:0:0:
6,219,16117,1,2,2:0:0:0:
70,196,16202,1,0,2:0:0:0:
201,50,16374,5,2,1:0:0:0:
268,46,16460,1,0,1:0:0:0:
291,110,16545,1,2,1:2:0:0:
396,348,16717,6,0,B|447:368|447:368|511:333|479:245,1,187.000003566742,6|0,1:2|1:0,2:0:0:0:
379,143,17231,1,2,2:0:0:0:
316,189,17402,2,0,P|340:227|392:225,1,93.500001783371,2|0,1:2|2:0,2:0:0:0:
457,183,17745,1,0,1:0:0:0:
384,22,17917,1,2,2:0:0:0:
224,100,18088,6,0,B|172:100|140:61|140:61|160:112|133:159,1,187.000003566742,2|0,1:2|1:0,2:0:0:0:
224,313,18602,1,2,2:0:0:0:
231,321,18688,1,2,2:0:0:0:
220,335,18774,2,0,P|225:285|240:239,1,93.500001783371,2|0,1:2|2:0,2:0:0:0:
317,185,19117,1,0,1:0:0:0:
137,252,19288,1,2,2:0:0:0:
46,68,19460,6,0,P|106:88|186:130,1,140.250002675057,2|0,1:2|2:0,2:0:0:0:
172,136,19802,1,2,1:2:0:0:
344,338,19974,1,2,2:0:0:0:
324,338,20060,1,2,2:0:0:0:
313,363,20145,2,0,P|302:313|289:268,1,93.500001783371,0|2,1:0|2:0,2:0:0:0:
256,89,20488,2,0,L|277:48,2,46.7500008916855,2|0|0,1:2|2:0|2:0,2:0:0:0:
162,220,20831,5,0,1:0:0:0:
334,160,21002,2,2,B|257:180|257:180|248:197|248:197|182:215,1,165,2|2,1:0|2:1,2:1:0:0:
162,220,21345,2,0,P|187:224|218:232,1,46.7500008916855,2|0,2:1|2:0,2:0:0:0:
396,363,21517,2,0,B|438:342|480:362|480:362|527:326|493:269,1,187.000003566742,2|2,1:2|1:2,2:0:0:0:
450,206,21945,1,2,2:0:0:0:
447,186,22031,1,2,2:0:0:0:
468,178,22117,1,2,2:0:0:0:
460,148,22202,6,0,P|438:85|416:3,1,140.250002675057,0|0,1:0|2:0,2:0:0:0:
402,6,22545,1,0,1:0:0:0:
247,107,22717,1,0,2:0:0:0:
276,225,22888,2,0,P|322:197|367:185,1,93.500001783371,0|0,1:0|2:0,2:0:0:0:
171,21,23231,1,2,1:2:0:0:
343,63,23402,1,2,2:0:0:0:
357,84,23488,1,0,1:2:0:0:
342,111,23574,5,2,1:2:0:0:
193,239,23745,2,0,P|180:192|156:140,1,93.500001783371,2|0,2:0|1:0,2:0:0:0:
85,299,24088,1,2,2:0:0:0:
75,103,24260,5,0,1:0:0:0:
260,170,24431,1,2,2:0:0:0:
167,357,24602,1,0,1:0:0:0:
15,192,24774,2,0,L|71:200,1,46.7500008916855,2|0,2:0|2:0,2:0:0:0:
270,352,24945,6,0,B|313:362|339:331|320:317|355:282|402:300,1,140.250002675057,2|0,1:2|2:0,2:0:0:0:
466,311,25288,6,0,B|502:334|526:314|526:314|497:282|456:312,1,131.99999597168,2|2,1:0|2:0,2:0:0:0:
395,297,25545,1,0,2:0:0:0:
388,296,25631,1,0,1:0:0:0:
140,213,25802,6,0,B|121:219|104:199|104:199|128:188|146:207,1,82.5000031471254,2|0,2:1|2:0,2:0:0:0:
209,256,25974,1,2,1:2:0:0:
233,223,26060,1,2,2:0:0:0:
220,184,26145,1,0,2:0:0:0:
49,104,26317,5,0,1:0:0:0:
49,104,26488,1,0,2:0:0:0:
197,20,26660,1,0,1:0:0:0:
197,20,26831,1,0,2:0:0:0:
109,13,27002,6,0,P|112:48|141:81,1,65.9999979858399,2|0,1:0|2:0,2:0:0:0:
234,224,27174,1,0,1:0:0:0:
282,234,27260,1,8,2:0:0:0:
323,205,27345,1,8,2:0:0:0:
402,27,27517,1,10,2:0:0:0:
472,317,27688,6,0,B|470:341|478:359|478:359|467:343|442:329,1,82.5,6|0,1:2|2:0,2:0:0:0:
373,342,28031,6,0,P|438:320|515:250,1,165.000006294251,10|2,1:0|2:0,2:0:0:0:
475,187,28288,1,0,2:0:0:0:
469,197,28374,1,2,1:2:0:0:
164,116,28545,1,8,1:3:0:0:
164,116,28888,6,0,B|95:94|95:94|84:80|84:80|1:59,1,165,10|0,2:1|2:0,2:0:0:0:
0,69,29231,1,0,1:0:0:0:
82,311,29402,2,0,B|121:271|121:271|98:211,1,110,8|2,2:0|2:0,2:0:0:0:
199,25,29745,1,2,1:2:0:0:
199,25,29917,1,0,1:0:0:0:
101,220,30088,2,0,L|224:247,1,110,8|2,2:0|2:0,2:0:0:0:
279,315,30345,1,2,2:0:0:0:
268,342,30431,6,0,P|217:344|193:237,1,165,2|0,1:2|2:0,2:0:0:0:
182,250,30774,1,10,2:0:0:0:
353,95,30945,1,2,2:0:0:0:
372,120,31031,1,2,2:0:0:0:
369,163,31117,1,2,2:0:0:0:
474,341,31288,1,2,1:2:0:0:
474,341,31545,5,0,1:2:0:0:
486,352,31631,2,0,P|422:321|324:288,1,165,8|0,2:0|2:0,2:0:0:0:
278,336,31974,2,0,P|310:334|332:308,1,55,0|2,1:0|1:2,2:0:0:0:
477,155,32145,2,0,P|474:106|383:44,1,165,8|0,2:0|2:0,2:0:0:0:
269,91,32488,5,2,1:0:0:0:
325,111,32574,1,0,1:0:0:0:
370,76,32660,1,0,1:0:0:0:
35,240,32831,2,0,P|70:244|98:252,1,55,10|0,2:0|2:0,2:0:0:0:
159,354,33002,1,10,2:0:0:0:
210,344,33088,1,8,2:0:0:0:
257,334,33174,6,0,P|237:261|215:160,1,165,4|0,1:2|2:0,2:0:0:0:
203,168,33517,1,8,2:0:0:0:
329,38,33688,1,2,2:0:0:0:
329,38,34031,1,8,1:3:0:0:
391,117,34202,1,2,1:2:0:0:
202,11,34374,1,8,2:0:0:0:
42,223,34545,5,2,1:2:0:0:
140,156,34717,1,0,1:0:0:0:
34,25,34888,1,10,2:0:0:0:
247,130,35060,1,2,1:2:0:0:
262,145,35145,1,0,1:0:0:0:
266,179,35231,2,0,P|243:237|232:288,1,110,0|2,1:0|1:2,2:0:0:0:
34,359,35574,2,0,P|7:332|27:261,1,110,8|0,2:0|2:0,2:0:0:0:
118,336,35831,1,0,1:0:0:0:
131,342,35917,6,0,P|208:356|297:379,1,165,2|0,1:2|2:0,2:0:0:0:
361,352,36260,1,10,2:0:0:0:
427,149,36431,1,2,1:2:0:0:
464,175,36517,1,0,1:0:0:0:
462,219,36602,1,0,1:0:0:0:
246,134,36774,1,2,1:2:0:0:
372,262,36945,1,2,2:0:0:0:
469,16,37117,5,8,2:0:0:0:
469,16,37460,1,0,1:0:0:0:
363,54,37631,1,10,2:0:0:0:
323,190,37802,1,8,2:3:0:0:
83,112,37974,5,2,2:1:0:0:
146,209,38145,1,8,2:0:0:0:
197,185,38231,1,8,2:0:0:0:
194,128,38317,1,10,2:0:0:0:
67,3,38488,1,8,1:3:0:0:
22,271,38660,6,0,B|84:272|110:335|110:335|155:327|160:279,1,187.000003566742,6|0,1:2|2:0,2:0:0:0:
24,358,39174,1,2,1:2:0:0:
0,148,39345,1,8,2:0:0:0:
0,148,39688,5,2,1:2:0:0:
291,322,39860,1,0,1:0:0:0:
291,322,40202,1,2,1:2:0:0:
338,163,40374,1,2,2:0:0:0:
394,276,40545,2,0,L|342:254,1,46.7500008916855,2|0,1:2|1:0,2:0:0:0:
160,185,40717,5,14,2:0:0:0:
349,49,40888,1,2,2:0:0:0:
230,17,41060,5,10,2:3:0:0:
473,185,41231,1,6,1:3:0:0:
212,352,41402,6,0,P|185:336|177:311,1,46.7500008916855,6|0,1:2|2:0,2:0:0:0:
92,276,41574,2,0,P|92:244|110:225,1,46.7500008916855,0|0,2:0|2:0,2:0:0:0:
120,123,41745,1,2,2:0:0:0:
392,214,41917,1,2,1:2:0:0:
400,231,42002,1,0,1:0:0:0:
387,247,42088,2,0,P|319:223|233:201,1,140.250002675057,8|0,2:0|2:0,2:0:0:0:
231,218,42431,5,2,1:2:0:0:
432,37,42602,1,2,1:2:0:0:
432,37,42945,5,10,2:0:0:0:
301,118,43117,1,2,2:0:0:0:
422,264,43288,1,2,1:2:0:0:
442,242,43374,1,0,1:0:0:0:
433,195,43460,5,14,2:0:0:0:
193,319,43631,1,10,2:0:0:0:
86,71,43802,1,10,2:0:0:0:
44,70,43888,1,8,2:0:0:0:
17,39,43974,1,8,2:0:0:0:
26,81,44060,1,8,2:0:0:0:
0,114,44145,5,2,2:0:0:0:
80,160,44488,1,2,2:0:0:0:
80,160,44660,1,2,2:0:0:0:
462,328,45517,5,2,2:0:0:0:
331,285,45688,1,0,2:0:0:0:
380,362,45860,1,0,2:0:0:0:
416,252,46031,1,2,2:0:0:0:
247,230,46202,6,0,P|251:211|262:187,3,41.2500015735627,2|2|2|2,1:2|1:2|1:2|1:2,2:0:0:0:
331,140,46545,1,10,2:0:0:0:
343,115,46631,1,8,2:0:0:0:
339,69,46717,1,8,2:0:0:0:
300,29,46802,1,8,2:0:0:0:
223,30,46888,6,0,B|136:54|136:54|127:63|127:63|18:90,1,197.99999395752,6|0,1:2|2:0,2:0:0:0:
13,83,47231,1,0,1:0:0:0:
261,230,47402,1,0,1:0:0:0:
391,149,47574,5,8,2:0:0:0:
115,318,47745,1,10,2:0:0:0:
223,30,47917,1,10,2:0:0:0:
285,363,48088,6,0,B|252:312|278:252|295:276|325:243|320:185|270:165|224:185|220:210,1,247.500009441376,6|0,1:2|2:0,2:0:0:0:
155,226,48431,1,8,2:0:0:0:
168,260,48517,1,8,2:0:0:0:
201,274,48602,1,8,2:0:0:0:
438,98,48774,5,8,2:0:0:0:
419,47,48860,1,8,2:0:0:0:
363,35,48945,1,8,2:0:0:0:
323,330,49117,5,8,2:0:0:0:
325,342,49202,1,8,2:0:0:0:
335,353,49288,1,8,2:0:0:0:
367,362,49374,1,0,2:0:0:0:
419,350,49460,1,8,2:0:0:0:
445,289,49545,1,8,2:0:0:0:
427,218,49631,5,10,2:0:0:0:
160,34,49802,1,2,1:2:0:0:
107,365,50145,5,10,2:0:0:0:
426,90,50488,5,10,2:0:0:0:
300,215,50660,2,0,L|247:204,1,55,0|0,1:0|2:0,2:0:0:0:
83,203,50831,6,0,B|21:219|0:152|-21:141|-21:141|2:148|62:95|100:141,1,247.500009441376,14|0,2:0|2:0,2:0:0:0:
153,179,51174,5,8,1:3:0:0:
160,181,51231,5,8,2:3:0:0:
167,183,51288,5,8,2:3:0:0:
174,185,51345,5,8,1:3:0:0:
426,316,51688,6,0,B|438:283|469:266|469:266|437:280|395:278,1,132,2|0,2:0|2:0,2:0:0:0:
393,383,52031,6,0,B|414:351|398:292|373:308|347:274|358:228,1,165,2|0,2:0|2:0,2:0:0:0:
382,168,52374,5,6,1:2:0:0:
491,120,52545,1,2,2:0:0:0:
262,18,52717,1,10,2:0:0:0:
183,242,52888,2,0,B|137:246|106:206|110:200|117:197|87:149|30:169,1,181.500005538941,2|0,1:2|2:0,2:0:0:0:
18,175,53231,1,0,1:0:0:0:
212,142,53402,1,10,2:0:0:0:
9,330,53574,1,2,2:0:0:0:
26,353,53660,1,0,2:0:0:0:
11,373,53745,6,0,P|30:320|47:252,1,121.000003692627,2|2,1:2|1:2,2:0:0:0:
216,297,54088,1,8,2:0:0:0:
131,105,54260,1,2,1:2:0:0:
374,22,54431,2,0,B|449:36|434:128|434:128|413:114|384:116,1,181.500005538941,2|0,2:0|2:0,2:0:0:0:
337,203,54774,2,0,P|324:160|397:130,1,121.000003692627,10|0,2:0|2:0,2:0:0:0:
486,253,55031,1,0,1:0:0:0:
477,268,55117,6,0,P|390:287|297:321,1,181.500005538941,2|0,1:2|2:0,2:0:0:0:
234,364,55460,2,0,P|215:339|223:308,1,60.5000018463135,8|0,2:0|2:0,2:0:0:0:
444,363,55631,2,0,B|404:354|376:306|389:299|398:290|381:241|328:225,1,181.500005538941,2|0,1:2|2:0,2:0:0:0:
304,222,55974,1,2,1:2:0:0:
126,345,56145,1,10,2:0:0:0:
66,86,56317,1,2,2:0:0:0:
222,86,56488,6,0,P|213:119|210:151,1,60.5000018463135,2|0,1:2|2:0,2:0:0:0:
8,244,56660,2,0,P|38:254|72:274,1,60.5000018463135,0|0,1:0|1:0,2:0:0:0:
243,352,56831,1,12,2:0:0:0:
143,217,57002,1,2,1:2:0:0:
109,174,57088,1,0,1:0:0:0:
129,119,57174,5,2,1:2:0:0:
299,281,57345,1,0,1:0:0:0:
455,45,57517,1,12,2:0:0:0:
344,20,57688,6,0,P|367:81|387:143,1,121.000003692627,2|4,2:0|1:2,2:0:0:0:
488,204,58031,1,0,2:0:0:0:
347,367,58202,1,10,2:0:0:0:
347,367,58374,1,0,1:0:0:0:
480,296,58545,6,0,P|452:289|424:265,1,60.5000018463135,2|0,2:0|2:0,2:0:0:0:
278,208,58717,2,0,P|267:178|275:143,1,60.5000018463135,2|0,1:2|2:0,2:0:0:0:
411,39,58888,1,8,2:0:0:0:
350,241,59060,5,2,1:2:0:0:
314,283,59145,1,0,1:0:0:0:
256,285,59231,1,4,1:2:0:0:
140,198,59402,1,0,2:0:0:0:
31,342,59574,1,10,2:0:0:0:
31,342,59745,1,0,1:0:0:0:
154,379,59917,6,0,P|158:351|167:321,1,60.5000018463135,2|0,2:0|2:0,2:0:0:0:
29,138,60088,2,0,P|40:165|49:196,1,60.5000018463135,2|0,1:2|2:0,2:0:0:0:
252,103,60260,1,8,2:0:0:0:
15,52,60431,5,2,1:2:0:0:
0,97,60517,1,0,1:2:0:0:
29,138,60602,2,0,P|83:151|121:106,1,121.000003692627,4|0,1:2|2:0,2:0:0:0:
23,249,60945,5,10,2:0:0:0:
103,17,61117,1,2,1:2:0:0:
326,287,61288,5,2,2:0:0:0:
182,337,61460,1,2,1:2:0:0:
305,42,61631,5,10,2:0:0:0:
496,310,61802,1,2,2:0:0:0:
499,12,61974,6,0,P|458:13|428:40,1,82.5000031471254,4|0,1:2|2:0,2:0:0:0:
284,165,62145,2,0,P|286:206|314:234,1,71.4999967269899,0|0,1:0|2:0,2:0:0:0:
496,310,62317,6,0,P|498:263|473:235,1,82.5000031471254,8|0,2:0|2:0,2:0:0:0:
305,42,62488,5,8,2:0:0:0:
241,6,62574,1,8,2:0:0:0:
181,20,62660,1,10,2:3:0:0:
151,62,62745,1,8,2:3:0:0:
150,94,62831,1,4,2:3:0:0:
168,114,62917,1,4,2:3:0:0:
231,79,63002,6,0,B|214:211|214:211|217:219|217:219|204:333,1,247.500009441376,14|0,2:0|2:0,2:0:0:0:
200,352,63345,5,6,1:2:0:0:
116,232,63517,1,2,2:0:0:0:
318,139,63688,1,10,2:0:0:0:
104,34,63860,2,0,B|58:-9|-14:24|0:74|0:74|19:88|24:110,1,181.500005538941,2|0,1:2|2:0,2:0:0:0:
18,121,64202,1,0,1:0:0:0:
209,21,64374,1,10,2:0:0:0:
277,251,64545,1,2,2:0:0:0:
136,308,64717,5,2,1:2:0:0:
325,113,64888,2,0,P|381:144|444:172,1,121.000003692627,2|8,1:2|2:0,2:0:0:0:
508,102,65231,1,2,1:2:0:0:
301,362,65402,6,0,P|267:342|271:241,1,142.99999345398,2|0,2:0|1:0,2:0:0:0:
331,219,65660,2,0,B|359:229|359:229|363:232|363:232|399:245,1,71.4999967269899,0|10,2:0|2:0,2:0:0:0:
177,131,65917,1,0,2:0:0:0:
18,358,66088,6,0,P|90:329|93:226,1,181.500005538941,2|0,1:2|2:0,2:0:0:0:
52,165,66431,2,0,B|31:168|20:159|20:159|31:171|33:191,1,60.5000018463135,8|0,2:0|2:0,2:0:0:0:
270,282,66602,2,0,B|197:267|197:267|185:253|185:253|75:229,1,181.500005538941,2|0,1:2|2:0,2:0:0:0:
98,234,66945,1,2,1:2:0:0:
247,107,67117,1,10,2:0:0:0:
409,349,67288,1,2,2:0:0:0:
441,38,67460,5,2,1:2:0:0:
322,213,67631,1,0,1:0:0:0:
80,43,67802,2,0,B|128:34|158:72|151:78|143:83|175:124|216:119,1,153.999995300293,12|2,2:0|2:0,2:0:0:0:
283,27,68060,1,0,1:0:0:0:
275,11,68145,6,0,P|243:18|227:39,1,60.5000018463135,2|0,1:2|2:0,2:0:0:0:
76,134,68317,2,0,P|74:168|90:187,1,60.5000018463135,0|0,1:0|2:0,2:0:0:0:
258,313,68488,1,12,2:0:0:0:
146,362,68660,6,0,P|158:314|170:244,1,121.000003692627,2|4,1:2|1:2,2:0:0:0:
345,259,69002,1,2,2:0:0:0:
255,77,69174,1,10,2:0:0:0:
255,77,69345,1,2,1:2:0:0:
458,120,69517,2,0,P|465:154|453:181,1,60.5000018463135,2|0,2:0|2:0,2:0:0:0:
413,332,69688,2,0,P|387:355|357:358,1,60.5000018463135,2|0,1:2|2:0,2:0:0:0:
122,257,69860,1,8,2:0:0:0:
33,305,70031,1,2,1:2:0:0:
54,344,70117,1,0,1:0:0:0:
104,354,70202,5,4,1:2:0:0:
236,218,70374,1,2,1:2:0:0:
124,50,70545,2,0,P|77:31|27:73,1,121.000003692627,10|0,2:0|1:0,2:0:0:0:
13,145,70802,1,0,1:0:0:0:
27,155,70888,2,0,P|47:182|59:208,1,60.5000018463135,2|0,1:2|2:0,2:0:0:0:
233,345,71060,2,0,P|272:348|302:321,1,60.5000018463135,2|0,1:2|2:0,2:0:0:0:
347,97,71231,1,8,2:0:0:0:
375,19,71402,1,2,1:2:0:0:
416,32,71488,1,0,1:2:0:0:
430,76,71574,5,4,1:2:0:0:
191,230,71745,1,2,2:0:0:0:
227,18,71917,1,10,2:0:0:0:
227,18,72088,1,2,1:2:0:0:
486,258,72260,5,2,2:0:0:0:
276,95,72431,1,2,1:2:0:0:
227,18,72602,5,10,2:0:0:0:
12,183,72774,1,2,2:0:0:0:
99,21,72945,6,0,P|129:35|146:65,1,60.5000018463135,4|0,1:2|2:0,2:0:0:0:
277,199,73117,2,0,P|279:231|262:262,1,60.5000018463135,0|0,1:0|2:0,2:0:0:0:
89,365,73288,6,0,P|92:326|115:297,1,60.5000018463135,12|0,2:0|2:0,2:0:0:0:
163,150,73460,2,0,P|197:133|234:139,1,60.5000018463135,0|0,1:0|2:0,2:0:0:0:
393,323,73631,5,8,2:3:0:0:
473,317,73745,1,8,2:3:0:0:
502,241,73860,1,8,2:3:0:0:
404,170,73974,5,6,2:3:0:0:
398,209,74088,1,4,2:3:0:0:
421,243,74203,1,4,1:3:0:0:
487,153,74317,6,0,B|521:103|472:32|472:32|447:68|411:67,1,197.99999395752,6|0,1:2|2:0,2:0:0:0:
204,81,74831,2,0,B|191:86|178:84|178:84|192:90|201:103,1,49.4999984893799,0|0,1:0|2:0,2:0:0:0:
291,107,75002,2,0,B|199:90|199:90|193:85|193:85|89:65,1,197.99999395752,12|2,2:0|2:0,2:0:0:0:
88,168,75517,1,0,1:0:0:0:
112,177,75602,1,0,1:0:0:0:
140,159,75688,1,2,1:2:0:0:
34,12,75860,6,0,B|15:34|-9:50|-9:50|16:116|16:116|-7:148|7:190,1,197.99999395752,8|2,2:0|1:2,2:0:0:0:
35,354,76374,1,8,2:0:0:0:
191,379,76545,1,8,2:3:0:0:
297,319,76717,1,6,2:3:0:0:
309,236,76888,1,0,1:0:0:0:
175,72,77060,6,0,P|201:158|227:273,1,197.99999395752,6|2,1:2|1:2,2:0:0:0:
407,136,77574,2,0,P|406:112|421:93,1,49.4999984893799,0|0,1:0|2:0,2:0:0:0:
493,131,77745,2,0,P|433:119|306:30,1,197.99999395752,10|2,2:0|1:2,2:0:0:0:
488,329,78260,1,8,2:0:0:0:
509,300,78345,1,0,1:0:0:0:
498,255,78431,1,0,1:0:0:0:
326,248,78602,6,0,B|371:233|399:247|418:272|405:287|429:322|459:340|503:325,1,197.99999395752,8|2,2:0|1:2,2:0:0:0:
391,157,79117,1,8,2:0:0:0:
347,325,79288,1,2,1:2:0:0:
151,370,79460,1,14,2:0:0:0:
3,234,79631,1,10,2:0:0:0:
21,197,79717,1,8,2:0:0:0:
4,131,79802,6,0,L|61:265,1,121.000003692627,6|2,1:2|2:0,2:0:0:0:
359,154,80145,1,10,2:0:0:0:
258,19,80317,2,0,P|237:108|225:201,1,181.500005538941,2|0,1:2|2:0,2:0:0:0:
188,264,80660,2,0,P|214:279|243:273,1,60.5000018463135,2|0,1:2|2:0,2:0:0:0:
436,172,80831,1,10,2:0:0:0:
435,118,80917,1,2,2:0:0:0:
394,82,81002,1,2,2:0:0:0:
138,190,81174,5,2,1:2:0:0:
359,154,81345,1,2,1:2:0:0:
448,363,81517,1,10,2:0:0:0:
433,9,81688,2,0,P|341:10|311:96,1,181.500005538941,2|0,1:2|2:0,2:0:0:0:
342,210,82031,2,0,B|350:190|350:190|348:181|348:181|360:150,1,60.5000018463135,2|0,1:2|2:0,2:0:0:0:
155,37,82202,1,10,2:0:0:0:
112,50,82288,1,2,2:0:0:0:
64,41,82374,1,2,2:0:0:0:
40,80,82460,1,0,2:0:0:0:
0,114,82545,5,6,1:2:0:0:
198,215,82717,1,0,2:0:0:0:
34,358,82888,1,10,2:0:0:0:
131,127,83060,2,0,B|208:110|208:110|224:79|224:79|299:73,1,181.500005538941,2|0,1:2|2:0,2:0:0:0:
369,43,83402,2,0,B|381:75|381:75|366:114,1,60.5000018463135,0|0,1:0|2:0,2:0:0:0:
187,312,83574,1,10,2:0:0:0:
480,370,83745,1,0,1:0:0:0:
489,325,83831,1,0,1:0:0:0:
453,282,83917,5,10,2:0:0:0:
309,358,84088,1,10,2:0:0:0:
467,158,84260,1,0,2:0:0:0:
106,41,84431,1,10,1:2:0:0:
106,41,84774,2,0,B|95:30|78:23|78:23|84:39|87:60,1,60.5000018463135,10|0,2:3|2:0,2:0:0:0:
130,195,84945,6,0,B|120:219|102:236|102:236|181:248|232:177|232:177|209:184|171:163,1,247.500009441376,12|0,2:0|2:0,2:0:0:0:
127,120,85288,6,0,B|170:216|170:216|168:222|168:222|207:309,1,197.99999395752,6|2,1:2|1:2,2:0:0:0:
288,363,85802,1,2,2:0:0:0:
110,341,85974,2,0,B|67:310|64:353|16:326,1,98.9999969787599,0|2,1:0|2:0,2:0:0:0:
203,300,86317,1,2,1:2:0:0:
270,211,86488,1,2,2:0:0:0:
280,180,86574,1,2,2:0:0:0:
248,148,86660,5,0,1:0:0:0:
47,96,86831,1,2,2:0:0:0:
179,18,87002,2,0,B|169:62|169:62|161:67|161:67|153:112,1,98.9999969787599,0|2,1:0|2:0,2:0:0:0:
138,179,87260,1,0,2:0:0:0:
133,196,87345,1,2,1:2:0:0:
341,370,87517,1,8,2:3:0:0:
384,360,87602,1,8,2:3:0:0:
404,320,87688,1,8,2:3:0:0:
372,288,87774,1,8,2:3:0:0:
327,285,87860,2,0,P|334:258|334:235,1,49.4999984893799,10|12,2:3|2:3,2:0:0:0:
441,52,88031,6,0,P|460:123|485:193,1,148.49999546814,2|0,1:2|2:0,2:0:0:0:
498,221,88374,1,2,1:2:0:0:
220,138,88545,1,2,2:0:0:0:
235,150,88631,1,2,2:0:0:0:
262,142,88717,2,0,P|312:126|375:114,1,98.9999969787599,0|2,1:0|2:0,2:0:0:0:
273,343,89060,1,2,1:2:0:0:
229,350,89145,1,2,2:0:0:0:
193,322,89231,1,0,2:0:0:0:
150,334,89317,1,2,2:0:0:0:
113,310,89402,5,2,1:2:0:0:
43,167,89574,2,0,P|38:199|32:228,1,49.4999984893799,2|0,2:0|2:0,2:0:0:0:
113,310,89745,2,0,P|163:281|165:236,1,98.9999969787599,0|0,1:0|2:0,2:0:0:0:
149,175,90002,1,2,2:0:0:0:
142,165,90088,5,2,1:0:0:0:
314,309,90260,2,0,B|331:304|343:305|343:305|349:293|366:288,1,49.4999984893799,2|0,2:0|2:0,2:0:0:0:
441,117,90431,1,0,1:0:0:0:
266,2,90602,1,10,2:0:0:0:
257,17,90688,1,8,2:0:0:0:
289,61,90774,6,0,B|282:138|282:138|275:145|275:145|271:227,1,148.49999546814,6|0,1:2|2:0,2:0:0:0:
271,228,91117,1,2,1:2:0:0:
93,96,91288,1,2,2:0:0:0:
191,69,91460,1,0,1:0:0:0:
191,69,91631,1,2,2:0:0:0:
42,182,91802,1,2,1:2:0:0:
27,15,91974,1,0,2:0:0:0:
73,6,92060,1,2,2:0:0:0:
109,35,92145,6,0,B|96:79|118:116|118:116|158:128|167:172,1,142.99999345398,2|0,1:2|2:0,2:0:0:0:
48,209,92402,2,0,P|49:152|119:114,1,142.99999345398,2|0,2:0|2:0,2:0:0:0:
272,123,92660,6,0,B|299:159|291:202|291:202|257:227|264:271,1,142.99999345398,2|0,2:0|2:0,2:0:0:0:
388,265,92917,2,0,P|367:211|288:200,1,142.99999345398,2|0,2:0|2:0,2:0:0:0:
140,295,93174,6,0,B|174:279|211:298|191:314|230:346|284:333,1,142.99999345398,2|8,1:2|2:3,2:0:0:0:
346,370,93431,1,8,2:3:0:0:
369,363,93517,6,0,B|418:343|471:376|471:376|449:348|455:323,1,148.49999546814,6|0,1:2|2:0,2:0:0:0:
482,274,93860,1,2,1:2:0:0:
354,163,94031,1,2,2:0:0:0:
328,182,94117,1,2,2:0:0:0:
343,227,94202,1,0,1:0:0:0:
448,56,94374,1,2,2:0:0:0:
229,90,94545,6,0,P|249:106|276:119,1,49.4999984893799,2|0,1:2|2:0,2:0:0:0:
494,171,94717,2,0,P|454:189|411:218,1,82.5000031471254,12|0,2:0|2:0,2:0:0:0:
261,358,94888,1,0,1:0:0:0:
73,205,95060,6,0,B|62:198|64:176|64:176|82:181|92:206,1,60.5000018463135,2|0,2:0|2:0,2:0:0:0:
46,289,95231,2,0,B|91:277|128:301|128:301|127:254|163:233,1,165.000006294251,0|10,1:0|2:0,2:0:0:0:
239,247,95488,1,8,2:0:0:0:
256,259,95574,5,2,1:0:0:0:
313,213,95660,1,0,1:0:0:0:
289,145,95745,1,4,2:3:0:0:
16,25,95917,5,2,1:0:0:0:
19,41,96002,1,8,2:0:0:0:
27,81,96088,1,10,2:0:0:0:
36,141,96174,1,8,2:0:0:0:
51,218,96260,6,0,B|77:215|88:201|88:201|88:229|60:236,1,82.5000031471254,2|0,2:0|2:0,2:0:0:0:
51,218,96602,6,0,B|106:216|124:178|118:132|118:132|174:175|143:209|105:228|96:274|135:329,1,330,4|0,1:2|2:0,2:0:0:0:
118,331,96945,6,0,P|169:341|217:364,2,98.9999969787599,2|0|0,1:2|2:0|1:0,2:0:0:0:
235,266,97460,1,2,2:0:0:0:
251,286,97545,1,2,2:0:0:0:
282,292,97631,2,0,P|262:228|236:128,1,148.49999546814,2|0,1:2|2:0,2:0:0:0:
214,152,97974,2,0,P|256:139|264:84,1,98.9999969787599,0|2,1:0|2:0,2:0:0:0:
425,47,98317,2,0,P|473:67|527:85,1,98.9999969787599,2|0,1:2|2:0,2:0:0:0:
348,129,98660,1,0,1:0:0:0:
493,336,98917,1,2,2:0:0:0:
493,336,99002,6,0,B|400:336|433:386|350:383,1,148.49999546814,2|0,1:2|2:0,2:0:0:0:
331,368,99345,1,2,1:2:0:0:
211,254,99517,2,0,P|219:233|229:201,1,49.4999984893799,2|2,2:0|2:0,2:0:0:0:
229,275,99688,2,0,P|175:283|131:299,1,98.9999969787599,0|2,1:0|2:0,2:0:0:0:
163,67,100031,1,0,1:2:0:0:
180,86,100117,1,2,2:0:0:0:
203,97,100203,1,2,2:0:0:0:
228,102,100288,1,0,2:0:0:0:
253,102,100374,1,2,1:2:0:0:
21,210,100545,6,2,B|45:147|14:109|14:109|19:83|19:83|40:95|40:95|36:156|109:192,1,263.99999194336,2|2,1:0|2:0,1:0:0:0:
15,289,100974,1,2,2:0:0:0:
13,298,101060,2,0,B|56:274|82:275|102:259|167:244,1,148.49999546814,2|0,1:2|2:0,2:0:0:0:
178,261,101402,1,2,1:2:0:0:
282,59,101574,5,2,1:2:0:0:
292,65,101631,5,2,1:2:0:0:
305,64,101688,5,2,1:2:0:0:
317,74,101745,6,0,P|302:143|295:182,1,98.9999969787599,4|0,1:2|2:0,2:0:0:0:
242,221,102002,2,0,L|271:273,1,49.4999984893799,0|2,2:0|1:2,2:0:0:0:
480,314,102260,1,0,2:0:0:0:
364,356,102431,1,0,1:0:0:0:
370,347,102602,1,0,2:0:0:0:
491,141,102774,2,0,B|441:132|441:132|413:183,1,98.9999969787599,2|0,1:2|2:0,2:0:0:0:
366,229,103031,1,2,2:0:0:0:
355,234,103117,6,0,B|289:212|289:212|278:186|278:186|223:167,1,148.49999546814,2|0,1:2|2:0,2:0:0:0:
230,169,103460,1,2,1:2:0:0:
116,230,103631,1,2,2:0:0:0:
7,66,103802,6,0,P|28:79|67:93,1,49.4999984893799,0|2,1:2|2:0,2:0:0:0:
146,140,103974,1,2,2:0:0:0:
16,348,104145,2,0,P|61:331|125:320,1,98.9999969787599,0|0,1:0|2:0,2:0:0:0:
178,352,104402,1,2,2:0:0:0:
178,352,104488,6,0,B|107:321|107:321|139:243,1,148.49999546814,2|2,1:2|2:0,2:0:0:0:
287,241,104831,6,0,B|308:209|308:209|339:216|339:216|328:243|328:243|290:248,1,131.99999597168,2|2,1:0|2:0,2:0:0:0:
220,276,105088,1,0,1:0:0:0:
213,279,105174,1,0,1:0:0:0:
67,77,105345,6,0,B|59:60|59:60|33:68|33:68|45:88|45:88|68:87,1,82.5000031471254,2|0,1:0|2:0,2:0:0:0:
203,155,105517,2,0,B|210:171|210:171|237:164|237:164|225:144|225:144|202:145,1,82.5000031471254,2|0,1:2|2:0,2:0:0:0:
361,17,105688,1,12,2:0:0:0:
133,118,105860,5,0,2:0:0:0:
173,19,106031,1,0,1:0:0:0:
92,214,106202,5,8,2:0:0:0:
274,306,106374,1,0,1:0:0:0:
500,113,106545,5,10,1:0:0:0:
447,163,106631,1,8,2:0:0:0:
378,146,106717,1,8,2:3:0:0:
347,84,106802,1,0,1:0:0:0:
330,59,106888,1,4,2:3:0:0:
302,53,106974,1,0,1:0:0:0:
283,64,107060,2,0,P|269:96|275:125,1,60.5000018463135,10|8,2:0|2:0,2:0:0:0:
427,311,107231,6,0,P|425:252|360:276,1,148.49999546814,6|0,1:2|2:0,2:0:0:0:
505,328,107574,6,0,P|412:338|320:361,1,165.000006294251,10|2,1:0|2:0,2:0:0:0:
269,353,107831,1,0,2:0:0:0:
256,347,107917,1,2,1:2:0:0:
188,58,108088,1,0,1:0:0:0:
188,58,108431,6,0,B|144:57|104:25|104:25|73:61|101:109,1,165,10|0,2:1|2:0,2:0:0:0:
81,110,108774,1,0,1:0:0:0:
53,355,108945,2,0,P|105:352|140:277,1,110,8|10,2:0|2:0,2:0:0:0:
142,235,109202,1,8,2:0:0:0:
122,219,109288,1,2,1:2:0:0:
264,319,109460,1,0,1:0:0:0:
346,91,109631,1,8,2:0:0:0:
420,213,109802,1,10,2:3:0:0:
397,224,109888,1,4,2:3:0:0:
367,206,109974,6,0,B|348:149|348:149|349:140|349:140|333:102,1,110,2|0,1:2|2:0,2:0:0:0:
167,48,110317,1,10,2:0:0:0:
228,254,110488,1,2,2:0:0:0:
248,285,110574,1,2,2:0:0:0:
304,281,110660,1,0,2:0:0:0:
449,73,110831,1,2,1:2:0:0:
449,73,111088,5,2,1:2:0:0:
457,83,111174,2,0,P|373:60|292:32,1,165,8|0,2:0|2:0,2:0:0:0:
282,16,111517,1,2,1:2:0:0:
42,211,111688,2,0,B|61:216|81:224|81:224|148:204|142:122,1,165,8|0,2:0|2:0,2:0:0:0:
89,0,112031,5,10,2:1:0:0:
40,33,112117,1,0,1:2:0:0:
46,84,112202,2,0,P|56:113|67:144,1,55,0|0,1:2|1:2,2:0:0:0:
244,242,112374,2,0,P|252:213|267:181,1,55,10|8,1:2|2:0,2:0:0:0:
36,356,112545,1,10,2:0:0:0:
69,307,112631,1,8,2:0:0:0:
127,319,112717,6,0,B|180:300|210:337|206:347|218:377|289:368,1,165,4|0,1:2|2:0,2:0:0:0:
296,361,113060,1,8,2:0:0:0:
439,165,113231,1,0,1:0:0:0:
466,195,113317,1,0,1:0:0:0:
451,241,113402,2,0,B|395:228|395:228|390:223|390:223|332:208,1,110,0|0,1:0|1:0,2:0:0:0:
401,16,113745,1,2,2:0:0:0:
306,276,113917,6,0,B|260:250|260:250|272:172|272:172|278:162|278:162|288:95|288:95|247:71,1,247.500009441376,12|0,1:2|2:0,2:0:0:0:
236,70,114260,1,0,1:0:0:0:
39,232,114431,2,0,B|89:264|89:264|98:199,1,110,10|2,2:0|1:2,2:0:0:0:
44,160,114688,1,8,2:0:0:0:
39,150,114774,5,0,1:0:0:0:
267,294,114945,1,2,1:2:0:0:
157,345,115117,2,0,P|164:318|174:285,1,55,8|0,2:0|2:0,2:0:0:0:
272,95,115288,1,8,2:0:0:0:
320,73,115374,1,8,2:0:0:0:
370,105,115460,6,0,P|387:166|408:218,1,110,6|0,1:2|2:0,2:0:0:0:
494,304,115802,1,10,2:0:0:0:
317,215,115974,1,2,2:0:0:0:
285,217,116060,1,2,2:0:0:0:
265,255,116145,1,0,2:0:0:0:
472,168,116317,1,2,1:2:0:0:
358,346,116488,1,2,1:2:0:0:
154,105,116660,5,12,2:0:0:0:
154,105,117002,1,0,1:0:0:0:
310,213,117174,1,10,2:0:0:0:
367,42,117345,6,0,B|343:59|343:59|308:66,1,60.5000018463135,8|8,2:0|2:0,2:0:0:0:
193,242,117517,2,0,B|142:226|142:226|123:207|123:207|58:203,1,142.99999345398,10|8,2:1|2:0,2:0:0:0:
20,336,117774,1,8,2:0:0:0:
36,358,117860,6,0,B|45:326|45:326|43:318|43:318|55:280,1,65.9999979858399,10|0,2:0|2:0,2:0:0:0:
212,148,118031,2,0,B|202:116|202:116|205:106|205:106|195:74,1,76.9999976501466,8|0,2:0|2:0,2:0:0:0:
7,16,118202,6,0,B|-13:63|-13:63|26:212,1,197.99999395752,6|0,1:2|2:0,2:0:0:0:
253,314,118717,1,2,1:2:0:0:
149,354,118888,2,0,B|190:342|190:342|199:332|199:332|249:319,1,98.9999969787599,8|0,2:0|2:0,2:0:0:0:
379,220,119231,5,2,1:2:0:0:
234,84,119402,1,0,1:0:0:0:
234,84,119745,5,10,2:0:0:0:
207,187,119917,1,2,2:0:0:0:
336,115,120088,1,2,1:2:0:0:
349,102,120174,1,0,1:0:0:0:
341,62,120260,5,14,2:0:0:0:
480,191,120431,1,2,1:2:0:0:
374,248,120602,1,2,2:0:0:0:
485,47,120774,1,2,1:2:0:0:
258,16,120945,6,0,P|236:29|211:36,1,49.4999984893799,6|0,1:2|2:0,2:0:0:0:
138,190,121117,2,0,P|117:179|91:170,1,49.4999984893799,0|0,2:0|2:0,2:0:0:0:
41,36,121288,1,2,2:0:0:0:
223,127,121460,1,2,1:2:0:0:
242,138,121545,1,0,1:0:0:0:
244,168,121631,2,0,P|221:251|203:337,1,148.49999546814,8|0,2:0|2:0,2:0:0:0:
191,381,121974,5,6,1:2:0:0:
51,204,122145,1,0,1:0:0:0:
51,204,122488,5,10,2:0:0:0:
186,156,122660,1,2,2:0:0:0:
48,21,122831,1,2,1:2:0:0:
18,47,122917,1,0,1:0:0:0:
28,84,123002,5,10,2:0:0:0:
161,299,123174,1,10,1:3:0:0:
402,252,123345,1,10,2:0:0:0:
429,216,123431,1,8,2:0:0:0:
416,163,123517,1,8,2:0:0:0:
462,134,123602,1,8,2:0:0:0:
468,88,123688,5,2,2:0:0:0:
448,288,125917,6,0,B|465:267|465:267|438:264,1,55,2|2,1:2|1:2,2:0:0:0:
365,303,126088,5,10,2:3:0:0:
340,310,126174,1,4,2:3:0:0:
304,321,126260,1,0,1:0:0:0:
252,340,126345,1,0,1:0:0:0:
182,368,126431,6,0,B|155:316|155:316|180:233|180:233|151:169,1,197.99999395752,6|0,1:2|2:0,2:0:0:0:
123,123,126774,1,0,1:0:0:0:
36,232,126945,1,0,1:0:0:0:
48,32,127117,5,8,2:0:0:0:
256,259,127288,1,10,2:0:0:0:
403,22,127460,1,10,2:0:0:0:
230,334,127631,6,0,B|113:282|113:282|138:215|138:215|192:238,1,247.500009441376,14|0,2:0|2:0,2:0:0:0:
251,180,127974,1,8,2:0:0:0:
269,153,128060,1,8,2:0:0:0:
259,112,128145,1,8,2:0:0:0:
41,39,128317,5,8,2:0:0:0:
37,89,128402,1,8,2:0:0:0:
76,124,128488,1,8,2:0:0:0:
29,356,128660,5,8,2:0:0:0:
50,365,128745,1,8,2:0:0:0:
80,365,128831,1,8,2:0:0:0:
120,340,128917,1,0,1:0:0:0:
129,279,129002,1,4,1:3:0:0:
184,236,129088,1,0,1:0:0:0:
252,265,129174,6,0,B|291:261|291:261|307:208,1,82.5000031471254,10|0,2:0|2:0,2:0:0:0:
481,16,129345,1,2,1:2:0:0:
311,363,129688,5,10,2:0:0:0:
25,84,130031,5,2,1:2:0:0:
259,267,130202,2,0,P|291:271|317:253,1,55,0|0,1:0|2:0,2:0:0:0:
245,50,130374,6,0,B|234:8|166:0|133:62|174:121|230:126|230:126|274:150|274:197,1,296.99999093628,14|0,2:0|2:0,2:0:0:0:
259,267,130717,5,8,1:3:0:0:
257,278,130774,5,0,1:0:0:0:
255,289,130831,5,0,1:0:0:0:
253,300,130888,5,8,1:3:0:0:
443,249,131231,6,0,B|457:232|488:235|507:278|507:278|477:263|445:288,1,148.49999546814,2|0,2:0|2:0,2:0:0:0:
485,351,131574,6,0,B|470:270|470:270|473:261|473:261|454:154,1,181.500005538941,2|0,2:0|2:0,2:0:0:0:
445,101,131917,5,6,1:2:0:0:
285,247,132088,1,2,2:0:0:0:
373,311,132260,1,10,2:0:0:0:
262,96,132431,2,0,B|207:50|145:87|145:87|128:125|91:121,1,181.500005538941,2|0,1:2|2:0,2:0:0:0:
82,118,132774,1,0,1:0:0:0:
212,302,132945,1,10,2:0:0:0:
67,368,133117,1,2,2:0:0:0:
30,364,133202,1,0,2:0:0:0:
15,325,133288,6,0,P|23:285|93:269,1,121.000003692627,2|2,1:2|1:2,2:0:0:0:
286,207,133631,1,8,2:0:0:0:
73,35,133802,2,0,B|49:42|21:32|21:32|118:117,1,181.500005538941,2|0,1:2|2:0,2:0:0:0:
131,144,134145,1,0,1:0:0:0:
300,63,134317,2,0,P|356:74|375:129,1,121.000003692627,10|0,2:0|2:0,2:0:0:0:
292,321,134574,1,0,1:0:0:0:
266,311,134660,6,0,P|348:260|445:230,1,181.500005538941,2|0,1:2|2:0,2:0:0:0:
503,223,135002,2,0,P|494:189|473:171,1,60.5000018463135,8|0,2:0|2:0,2:0:0:0:
301,198,135174,2,0,B|291:246|331:282|342:270|362:261|400:287|396:336,1,181.500005538941,2|0,1:2|2:0,2:0:0:0:
394,352,135517,1,2,1:2:0:0:
202,133,135688,2,0,P|142:149|82:193,1,121.000003692627,10|2,2:0|2:0,2:0:0:0:
73,250,135945,1,0,1:0:0:0:
57,246,136031,6,0,P|32:228|23:192,1,60.5000018463135,2|0,1:2|2:0,2:0:0:0:
242,70,136202,2,0,P|266:87|275:123,1,60.5000018463135,0|0,1:0|2:0,2:0:0:0:
212,301,136374,1,12,2:0:0:0:
93,33,136545,2,0,P|86:62|82:92,1,60.5000018463135,2|0,2:0|2:0,2:0:0:0:
21,336,136717,5,2,1:2:0:0:
156,177,136888,1,0,1:0:0:0:
369,365,137060,1,12,2:0:0:0:
451,25,137231,6,0,B|407:79|452:91|412:147,1,121.000003692627,2|4,2:0|1:2,2:0:0:0:
341,199,137574,1,2,2:0:0:0:
502,152,137745,1,10,2:0:0:0:
348,35,137917,1,2,1:2:0:0:
267,274,138088,6,0,P|245:253|238:225,1,60.5000018463135,2|0,2:0|2:0,2:0:0:0:
127,96,138260,2,0,P|134:66|155:45,1,60.5000018463135,2|0,1:2|2:0,2:0:0:0:
407,122,138431,1,8,2:0:0:0:
353,323,138602,1,2,1:2:0:0:
320,365,138688,1,0,1:0:0:0:
269,366,138774,5,6,1:2:0:0:
121,182,138945,1,2,1:2:0:0:
14,369,139117,2,0,B|63:379|91:334|81:323|74:312|113:269|157:283,1,181.500005538941,10|0,2:0|2:0,2:0:0:0:
206,228,139460,6,0,P|230:260|231:289,1,60.5000018463135,2|0,2:0|2:0,2:0:0:0:
21,192,139631,2,0,P|30:165|38:133,1,60.5000018463135,2|0,1:2|2:0,2:0:0:0:
180,4,139802,1,8,2:0:0:0:
422,161,139974,1,2,1:2:0:0:
440,115,140060,1,0,1:0:0:0:
412,75,140145,6,0,P|314:105|229:123,1,181.500005538941,4|0,1:2|2:0,2:0:0:0:
211,125,140488,1,10,2:0:0:0:
428,307,140660,1,2,1:2:0:0:
424,193,140831,5,2,2:0:0:0:
323,361,141002,1,2,1:2:0:0:
151,35,141174,5,10,2:0:0:0:
291,238,141345,1,2,2:0:0:0:
45,358,141517,6,0,P|24:333|24:283,1,82.5000031471254,4|0,1:2|2:0,2:0:0:0:
207,179,141688,2,0,P|194:217|189:254,1,71.4999967269899,0|0,1:0|2:0,2:0:0:0:
25,11,141860,2,0,B|104:7|76:71|160:65,1,142.99999345398,8|8,2:0|2:0,2:0:0:0:
221,97,142117,1,8,2:0:0:0:
242,95,142202,5,2,1:2:0:0:
477,0,142374,1,8,2:0:0:0:
486,27,142460,1,8,2:0:0:0:
478,58,142545,1,10,2:0:0:0:
441,77,142631,1,8,2:0:0:0:
387,124,142717,1,8,2:0:0:0:
391,196,142802,1,8,2:0:0:0:
451,245,142888,6,0,P|490:227|476:154,1,121.000003692627,6|2,1:2|2:0,2:0:0:0:
311,59,143231,1,10,2:0:0:0:
482,158,143402,2,0,B|421:132|421:132|409:92|409:92|335:64,1,181.500005538941,2|0,1:2|2:0,2:0:0:0:
311,59,143745,1,0,1:0:0:0:
181,245,143917,1,10,2:0:0:0:
319,308,144088,1,2,2:0:0:0:
162,61,144260,5,2,1:2:0:0:
7,264,144431,2,0,P|37:323|56:381,1,121.000003692627,2|8,1:2|2:0,2:0:0:0:
269,168,144774,1,2,1:2:0:0:
73,14,144945,6,0,B|27:9|-5:48|-5:48|10:73|20:110,1,142.99999345398,2|0,2:0|1:0,2:0:0:0:
26,179,145202,2,0,P|31:142|41:107,1,71.4999967269899,2|10,1:2|2:0,2:0:0:0:
257,58,145460,1,2,2:0:0:0:
454,235,145631,6,0,B|481:268|461:319|461:319|407:325|384:274,1,181.500005538941,2|0,1:2|2:0,2:0:0:0:
333,119,145974,2,0,B|340:105|337:88|337:88|349:99|370:104,1,60.5000018463135,8|0,2:0|2:0,2:0:0:0:
458,140,146145,2,0,B|383:182|383:182|378:193|378:193|298:242,1,181.500005538941,2|0,1:2|2:0,2:0:0:0:
297,256,146488,1,2,1:2:0:0:
138,91,146660,1,10,2:0:0:0:
33,357,146831,1,2,2:0:0:0:
15,191,147002,6,0,P|48:206|81:214,1,60.5000018463135,2|0,1:2|2:0,2:0:0:0:
196,364,147174,2,0,P|229:349|262:341,1,60.5000018463135,0|0,1:0|2:0,2:0:0:0:
453,154,147345,2,0,B|470:177|497:202|497:202|484:245|442:273,1,142.99999345398,12|2,2:0|1:2,2:0:0:0:
388,293,147602,1,0,1:2:0:0:
365,285,147688,6,0,B|333:274|333:274|330:268|330:268|304:255,1,60.5000018463135,2|0,1:2|2:0,2:0:0:0:
145,116,147860,2,0,B|170:108|170:108|175:98|175:98|205:87,1,60.5000018463135,0|0,1:0|2:0,2:0:0:0:
372,10,148031,1,12,2:0:0:0:
199,256,148202,1,2,1:2:0:0:
170,296,148288,1,0,1:0:0:0:
114,295,148374,6,0,P|90:234|53:171,1,121.000003692627,4|0,1:2|2:0,2:0:0:0:
7,16,148717,1,10,2:0:0:0:
145,116,148888,1,0,1:0:0:0:
6,333,149060,2,0,P|38:346|66:362,1,60.5000018463135,2|0,2:0|2:0,2:0:0:0:
210,241,149231,2,0,P|241:228|270:212,1,60.5000018463135,2|0,1:2|2:0,2:0:0:0:
485,363,149402,1,8,2:0:0:0:
476,127,149574,1,2,1:2:0:0:
433,121,149660,1,0,1:0:0:0:
396,161,149745,5,4,1:2:0:0:
478,249,149917,1,2,1:2:0:0:
232,212,150088,2,0,P|255:161|273:89,1,121.000003692627,10|0,2:0|1:0,2:0:0:0:
193,25,150345,1,0,1:0:0:0:
176,39,150431,2,0,P|176:71|199:99,1,60.5000018463135,2|0,2:0|2:0,2:0:0:0:
189,283,150602,2,0,P|216:299|252:293,1,60.5000018463135,2|0,1:2|2:0,2:0:0:0:
397,245,150774,1,8,2:0:0:0:
130,187,150945,1,2,1:2:0:0:
93,204,151031,1,0,1:0:0:0:
55,185,151117,6,0,B|41:131|41:131|37:127|37:127|23:60,1,121.000003692627,4|2,1:2|2:0,2:0:0:0:
238,121,151460,1,10,2:0:0:0:
347,313,151631,1,2,1:2:0:0:
91,340,151802,5,2,2:0:0:0:
194,266,151974,1,2,1:2:0:0:
158,30,152145,5,10,2:0:0:0:
448,149,152317,1,2,2:0:0:0:
286,348,152488,6,0,P|294:321|299:280,1,60.5000018463135,4|0,1:2|2:0,2:0:0:0:
448,149,152660,2,0,P|440:122|435:81,1,60.5000018463135,0|0,1:0|2:0,2:0:0:0:
262,126,152831,6,0,P|291:142|327:151,1,60.5000018463135,12|0,2:0|2:0,2:0:0:0:
502,302,153002,2,0,P|479:305|446:321,1,60.5000018463135,0|0,1:0|2:0,2:0:0:0:
94,367,153174,5,8,2:0:0:0:
17,337,153288,2,0,P|7:297|-6:252,1,80.6666691284181,8|8,2:0|2:3,2:0:0:0:
73,159,153517,5,6,2:3:0:0:
142,195,153631,1,4,1:3:0:0:
78,241,153745,1,0,1:0:0:0:
0,118,153860,6,0,B|33:63|105:77|105:77|131:119|166:122,1,197.99999395752,6|0,1:2|2:0,2:0:0:0:
239,183,154374,1,0,1:0:0:0:
297,24,154545,2,0,B|391:51|391:51|398:58|398:58|498:87,1,197.99999395752,12|2,2:0|2:0,2:0:0:0:
379,209,155060,1,8,2:0:0:0:
371,196,155146,1,0,1:0:0:0:
376,180,155231,5,2,1:2:0:0:
476,322,155402,2,0,P|490:274|519:220,1,98.9999969787599,8|2,2:0|2:0,2:0:0:0:
303,369,155745,2,0,P|293:345|278:314,1,49.4999984893799,2|0,1:2|1:0,2:0:0:0:
242,251,155917,1,12,2:0:0:0:
370,107,156088,1,8,2:3:0:0:
358,127,156174,1,0,1:0:0:0:
347,109,156260,1,6,2:3:0:0:
348,86,156346,1,4,2:3:0:0:
321,79,156431,1,0,1:0:0:0:
331,99,156517,1,0,1:0:0:0:
319,116,156602,6,0,B|278:138|222:99|243:78|207:37|118:67,1,197.99999395752,6|2,1:2|2:0,2:0:0:0:
39,170,157117,2,0,P|66:171|86:157,1,49.4999984893799,0|0,1:0|2:0,2:0:0:0:
40,87,157288,2,0,P|67:193|91:297,1,197.99999395752,14|2,2:0|1:2,2:0:0:0:
242,345,157802,1,8,2:0:0:0:
249,315,157888,1,0,1:0:0:0:
227,284,157974,5,4,1:2:0:0:
21,356,158145,1,8,2:0:0:0:
154,233,158317,2,0,B|108:226|108:226|71:263,1,98.9999969787599,0|2,1:0|1:2,2:0:0:0:
141,327,158660,5,12,2:0:0:0:
346,366,158831,2,0,P|377:356|391:339,1,49.4999984893799,10|0,1:3|1:0,2:0:0:0:
481,182,159002,1,10,2:0:0:0:
483,128,159088,1,8,2:0:0:0:
438,100,159174,1,10,2:0:0:0:
212,219,159345,6,0,P|228:164|242:98,1,121.000003692627,6|0,1:2|2:0,2:0:0:0:
319,258,159688,1,8,2:0:0:0:
186,23,159860,1,2,2:0:0:0:
309,5,160031,5,0,2:0:0:0:
134,164,160202,1,0,1:0:0:0:
10,22,160374,2,0,P|39:19|69:44,1,60.5000018463135,8|0,2:0|2:0,2:0:0:0:
250,180,160545,1,8,2:3:0:0:
241,219,160631,1,4,2:3:0:0:
231,255,160717,6,0,B|248:319|248:319|246:330|246:330|258:381,1,121.000003692627,4|0,1:2|2:0,2:0:0:0:
362,188,161060,1,8,2:0:0:0:
99,308,161231,1,0,1:0:0:0:
55,275,161317,1,8,2:3:0:0:
69,217,161402,1,0,1:0:0:0:
169,45,161574,2,0,P|199:55|237:66,1,60.5000018463135,0|0,1:0|2:0,2:0:0:0:
449,195,161745,1,8,2:0:0:0:
489,168,161831,1,0,1:0:0:0:
494,119,161917,1,0,1:0:0:0:
450,99,162002,1,0,1:0:0:0:
403,114,162088,5,4,1:2:0:0:
202,206,162260,1,0,2:0:0:0:
338,31,162431,1,8,2:0:0:0:
493,260,162602,1,0,1:0:0:0:
499,303,162688,1,8,2:3:0:0:
469,333,162774,2,0,P|436:319|396:310,1,60.5000018463135,0|4,1:0|2:3,2:0:0:0:
186,346,162945,1,0,1:0:0:0:
281,137,163117,1,10,2:0:0:0:
322,372,163288,2,0,L|309:307,1,60.5000018463135,0|0,1:0|2:0,2:0:0:0:
267,39,163460,5,10,2:0:0:0:
104,247,163631,1,10,2:0:0:0:
93,71,163802,1,0,1:0:0:0:
398,363,163974,1,10,1:2:0:0:
398,363,164317,6,0,B|409:339|409:339|409:324|409:324|419:302,1,60.5000018463135,2|0,1:2|2:0,2:0:0:0:
511,185,164488,6,0,B|535:146|535:146|515:99|515:99|512:67|512:67|487:90|487:90|440:114|440:114|435:159,1,247.500009441376,12|0,2:0|2:0,2:0:0:0:
442,229,164831,5,6,1:2:0:0:
256,192,164917,12,2,170317,2:0:0:0:
37,49,175802,6,0,P|32:96|61:129,1,93.500001783371,6|0,1:2|2:0,2:0:0:0:
115,22,176145,2,0,P|143:57|138:102,1,93.500001783371,0|0,1:0|2:0,2:0:0:0:
120,170,176402,1,2,2:0:0:0:
122,179,176488,2,0,L|230:206,1,93.500001783371,2|0,1:2|2:0,2:0:0:0:
341,327,176831,2,0,P|367:319|387:310,2,46.7500008916855,0|0|0,1:0|2:0|2:0,2:0:0:0:
218,345,177174,5,2,1:2:0:0:
320,203,177345,1,2,2:0:0:0:
336,221,177431,1,2,2:0:0:0:
317,242,177517,2,0,P|310:190|301:143,1,93.500001783371,0|0,1:0|2:0,2:0:0:0:
458,41,177860,1,2,1:2:0:0:
491,116,178031,1,0,2:0:0:0:
409,108,178202,1,0,1:0:0:0:
287,44,178374,2,0,P|263:50|235:56,1,46.7500008916855,0|0,2:0|2:0,2:0:0:0:
161,156,178545,6,0,B|77:143|118:94|34:85,1,140.250002675057,2|0,1:2|2:0,2:0:0:0:
25,77,178888,2,0,P|-9:110|5:154,1,93.500001783371,0|0,1:0|2:0,2:0:0:0:
36,337,179231,1,2,1:2:0:0:
145,306,179402,1,2,2:0:0:0:
162,320,179488,1,2,2:0:0:0:
156,340,179574,2,0,L|56:317,1,93.500001783371,0|0,1:0|2:0,2:0:0:0:
218,222,179917,5,2,1:2:0:0:
285,361,180088,2,0,P|279:334|277:309,1,46.7500008916855,0|0,2:0|2:0,2:0:0:0:
218,222,180260,2,0,P|224:176|232:113,1,93.500001783371,0|0,1:0|2:0,2:0:0:0:
370,207,180602,1,2,1:2:0:0:
413,36,180774,1,2,2:0:0:0:
442,36,180860,1,2,2:0:0:0:
461,51,180945,2,0,P|482:89|462:141,1,93.500001783371,0|0,1:0|2:0,2:0:0:0:
491,320,181288,6,0,B|472:302|438:306|438:306|360:285|360:285|333:296|307:281,1,187.000003566742,6|0,1:2|1:0,2:0:0:0:
179,368,181802,2,0,L|189:318,1,46.7500008916855,0|0,2:0|2:0,2:0:0:0:
179,224,181974,2,0,P|149:262|169:309,1,93.500001783371,2|0,1:2|2:0,2:0:0:0:
283,188,182317,2,0,P|267:138|259:91,1,93.500001783371,0|0,1:0|2:0,2:0:0:0:
143,16,182660,1,2,1:2:0:0:
36,203,182831,5,8,2:0:0:0:
33,214,182917,1,8,2:0:0:0:
45,212,183002,1,8,1:2:0:0:
43,201,183088,1,8,2:0:0:0:
29,200,183174,1,8,2:0:0:0:
27,212,183260,1,8,2:0:0:0:
36,222,183345,5,10,2:0:0:0:
59,237,183431,1,8,2:0:0:0:
105,236,183517,1,8,2:0:0:0:
151,278,183602,1,8,2:0:0:0:
212,275,183688,1,8,2:0:0:0:
256,310,183774,1,8,2:0:0:0:
304,305,183860,1,8,2:0:0:0:
331,325,183945,1,8,2:0:0:0:
352,326,184031,6,0,P|382:271|419:154,1,181.500005538941,6|0,1:2|2:0,2:0:0:0:
457,96,184374,2,0,B|441:81|441:68|441:68|433:79|408:91,1,60.5000018463135,8|0,2:0|2:0,2:0:0:0:
476,316,184545,6,0,B|468:252|404:236|402:248|398:261|336:243|320:174,1,214.49999018097,6|0,1:2|2:0,2:0:0:0:
262,141,184888,2,0,P|279:117|320:111,1,71.4999967269899,8|0,2:0|2:0,2:0:0:0:
107,354,185060,6,0,B|37:384|-22:298|18:239|18:239|47:252|75:239,1,247.500009441376,6|0,1:2|2:0,2:0:0:0:
87,164,185402,2,0,B|109:152|116:136|116:136|132:157|116:181,1,82.5000031471254,8|0,2:0|2:0,2:0:0:0:
107,354,185574,6,0,B|178:359|246:379|246:379|277:355|290:326|257:292,1,230.99999295044,6|0,1:2|2:0,2:0:0:0:
238,224,185917,2,0,P|216:261|233:297,1,76.9999976501466,8|0,2:0|2:0,2:0:0:0:
468,142,186088,6,0,B|417:152|381:105|387:94|395:85|370:45|326:34|287:66|287:66|316:65|332:85,1,264,6|0,1:2|2:0,2:0:0:0:
374,188,186431,2,0,P|403:169|400:115,1,88,8|0,2:0|2:0,2:0:0:0:
66,29,186602,6,0,B|36:73|36:73|-2:82|-2:82|34:91|34:91|82:159|82:159|98:193|98:193|101:223|101:223|100:193|100:193|106:158|106:158|129:85|129:85|171:67|171:67|131:67|131:67|80:20,1,571.999973815919,6|0,1:2|2:0,2:0:0:0:
381,33,188145,5,8,2:0:0:0:
452,49,188231,1,8,2:3:0:0:
473,105,188317,1,4,2:3:0:0:
462,146,188402,1,0,1:0:0:0:
435,167,188488,1,0,1:0:0:0:
411,166,188574,1,0,1:0:0:0:
340,129,188660,5,8,2:0:0:0:
269,145,188746,1,8,2:3:0:0:
248,201,188832,1,4,2:3:0:0:
259,242,188917,1,4,2:3:0:0:
286,263,189003,1,0,1:0:0:0:
310,262,189089,1,0,1:0:0:0:
388,268,189174,6,0,B|260:300|260:300|256:306|256:306|129:334,1,247.500009441376,12|8,2:0|1:2,2:0:0:0:
78,379,189517,6,0,B|52:356|52:356|68:323,1,65.9999979858399,6|0,1:2|2:0,2:0:0:0:
162,107,189688,1,2,2:0:0:0:
195,150,189774,1,2,2:0:0:0:
168,199,189860,2,0,B|135:194|135:194|126:196|126:196|100:191,1,65.9999979858399,10|0,2:0|2:0,2:0:0:0:
0,11,190031,2,0,B|23:5|23:5|31:8|31:8|64:3,1,65.9999979858399,2|0,1:2|2:0,2:0:0:0:
230,263,190202,5,2,2:0:0:0:
70,102,190374,1,2,1:2:0:0:
20,206,190545,1,10,2:0:0:0:
233,31,190717,1,2,2:0:0:0:
454,311,190888,5,2,1:2:0:0:
307,238,191060,1,2,1:2:0:0:
394,66,191231,1,10,2:0:0:0:
154,140,191402,1,2,1:2:0:0:
294,359,191574,5,2,2:0:0:0:
461,175,191745,1,2,1:2:0:0:
227,31,191917,1,10,2:0:0:0:
31,225,192088,2,0,P|66:228|112:239,1,65.9999979858399,2|2,2:0|2:0,2:0:0:0:
376,372,192260,6,0,B|385:319|342:290|342:290|293:268|266:216|289:153|361:148|385:188,1,307.999990600586,2|8,1:2|2:0,2:0:0:0:
237,357,192774,1,2,1:2:0:0:
176,372,192860,1,2,1:2:0:0:
118,345,192945,2,0,B|113:272|183:274|147:178,1,153.999995300293,2|2,1:2|1:2,2:0:0:0:
122,134,193202,1,2,1:2:0:0:
118,123,193288,1,10,2:0:0:0:
40,33,193460,2,0,P|22:68|38:96,1,65.9999979858399,2|0,2:0|2:0,2:0:0:0:
252,237,193631,5,2,1:2:0:0:
213,67,193802,1,0,1:0:0:0:
4,266,193974,2,0,B|59:288|59:288|68:305|68:305|146:341,1,153.999995300293,12|2,2:0|2:0,2:0:0:0:
210,364,194231,1,0,1:0:0:0:
221,350,194317,6,0,P|217:316|196:280,1,65.9999979858399,2|0,1:2|2:0,2:0:0:0:
410,214,194488,2,0,P|414:181|429:152,1,65.9999979858399,0|0,1:0|2:0,2:0:0:0:
263,44,194660,1,12,2:0:0:0:
311,289,194831,1,2,2:0:0:0:
338,342,194917,1,2,2:0:0:0:
389,350,195002,6,0,B|458:372|446:299|532:326,1,131.99999597168,6|2,1:2|2:0,2:0:0:0:
238,217,195345,1,10,2:0:0:0:
498,112,195517,2,0,B|419:86|419:86|400:45|400:45|324:26,1,197.99999395752,2|0,1:2|2:0,2:0:0:0:
306,22,195860,1,2,1:2:0:0:
367,202,196031,1,10,2:0:0:0:
207,307,196202,1,2,2:0:0:0:
162,290,196288,1,2,2:0:0:0:
150,242,196374,5,2,1:2:0:0:
226,100,196545,1,2,2:0:0:0:
16,210,196717,1,10,2:0:0:0:
276,380,196888,2,0,P|282:325|315:179,1,197.99999395752,2|0,1:2|2:0,2:0:0:0:
323,164,197231,1,2,1:2:0:0:
270,85,197402,2,0,P|240:107|235:155,1,71.4999967269899,10|0,2:0|2:0,2:0:0:0:
372,247,197574,2,0,P|402:225|407:177,1,71.4999967269899,2|0,2:0|2:0,2:0:0:0:
430,24,197745,5,2,1:2:0:0:
323,164,197916,1,2,2:0:0:0:
280,206,198002,1,2,2:0:0:0:
283,266,198087,1,10,2:0:0:0:
71,15,198260,1,2,1:2:0:0:
92,72,198345,1,2,2:0:0:0:
49,114,198431,6,0,B|42:152|70:183|70:183|109:182|131:218,1,142.99999345398,2|2,1:2|2:0,2:0:0:0:
268,207,198660,6,0,B|232:163|182:176|182:176|156:213|116:213,1,165.000006294251,2|0,2:1|2:0,2:0:0:0:
61,350,198888,6,0,B|112:335|125:298|125:298|102:247|128:211,1,176,2|0,2:1|2:0,2:0:0:0:
292,79,199117,6,0,P|259:45|212:53,1,98.9999969787599,14|8,2:0|2:0,2:0:0:0:
212,293,199288,1,8,2:0:0:0:
221,297,199374,1,8,2:0:0:0:
228,284,199460,1,8,1:2:0:0:
242,291,199545,1,8,2:0:0:0:
248,275,199631,1,8,2:0:0:0:
270,284,199717,1,8,2:0:0:0:
292,254,199802,5,8,1:2:0:0:
336,266,199888,1,8,2:0:0:0:
371,225,199974,1,8,2:0:0:0:
417,245,200060,1,8,2:0:0:0:
460,206,200145,5,10,1:2:0:0:
511,253,200231,1,10,2:0:0:0:
503,322,200317,1,10,2:0:0:0:
446,360,200402,1,10,2:0:0:0:
374,348,200488,6,0,B|318:364|318:364|300:357|300:357|234:380,1,131.99999597168,6|2,1:2|2:0,2:0:0:0:
38,268,200831,1,10,2:0:0:0:
176,101,201002,2,0,B|220:130|271:109|271:109|249:161|278:212,1,197.99999395752,2|0,1:2|2:0,2:0:0:0:
288,226,201345,1,2,1:2:0:0:
231,27,201517,1,10,2:0:0:0:
69,134,201688,1,2,1:2:0:0:
53,165,201774,1,0,1:2:0:0:
75,196,201860,6,0,B|136:226|136:226|193:181,1,131.99999597168,0|2,1:0|1:2,2:0:0:0:
429,218,202202,1,10,2:0:0:0:
341,27,202374,1,2,1:2:0:0:
475,108,202545,5,2,2:0:0:0:
307,283,202717,1,2,1:2:0:0:
408,360,202888,1,10,2:0:0:0:
103,305,203060,1,2,2:0:0:0:
195,43,203231,5,2,1:2:0:0:
292,133,203402,1,2,2:0:0:0:
103,305,203574,1,10,2:0:0:0:
16,158,203745,2,0,P|49:154|85:145,1,65.9999979858399,2|2,1:2|1:2,2:0:0:0:
244,226,203917,5,2,1:2:0:0:
24,44,204088,1,2,1:2:0:0:
182,361,204260,1,10,1:2:0:0:
413,138,204431,1,2,2:0:0:0:
104,252,204602,6,0,B|41:267|41:267|33:274|33:274|-41:289,1,131.99999597168,2|0,1:2|2:0,2:0:0:0:
249,67,204945,1,12,2:0:0:0:
353,352,205117,1,2,1:2:0:0:
399,371,205202,1,2,1:2:0:0:
442,354,205288,2,0,P|487:317|473:245,1,131.99999597168,2|0,1:2|1:0,2:0:0:0:
388,165,205545,1,0,1:2:0:0:
376,155,205631,5,14,1:2:0:0:
365,120,205717,1,2,1:2:0:0:
384,66,205802,1,2,1:2:0:0:
459,52,205888,1,2,1:2:0:0:
509,111,205974,6,0,P|488:151|461:242,1,131.99999597168,6|2,1:2|2:0,2:0:0:0:
146,300,206317,1,10,2:0:0:0:
247,15,206488,2,0,B|294:138|214:103|259:219,1,197.99999395752,2|0,1:2|2:0,2:0:0:0:
276,226,206831,1,2,1:2:0:0:
144,77,207002,1,10,1:2:0:0:
455,104,207174,1,2,1:2:0:0:
489,148,207260,1,2,1:2:0:0:
461,193,207345,6,0,P|393:173|325:161,1,131.99999597168,6|0,1:2|2:0,2:0:0:0:
39,327,207688,1,10,2:0:0:0:
51,352,207774,1,2,2:0:0:0:
91,375,207860,1,2,2:0:0:0:
157,363,207945,1,2,2:0:0:0:
180,296,208031,2,0,P|169:265|159:226,1,65.9999979858399,2|0,1:2|2:0,2:0:0:0:
265,72,208202,1,2,1:2:0:0:
63,82,208374,6,0,B|98:94|98:94|108:102|108:102|151:111,1,82.5000031471254,10|0,2:0|2:0,2:0:0:0:
291,280,208545,2,0,B|326:268|326:268|336:260|336:260|379:251,1,82.5000031471254,2|0,2:0|2:0,2:0:0:0:
467,22,208717,6,0,B|491:41|518:61|518:61|487:136,1,131.99999597168,6|0,1:2|2:0,2:0:0:0:
302,173,209060,1,8,2:0:0:0:
413,343,209231,1,0,1:0:0:0:
455,347,209317,1,0,1:0:0:0:
472,310,209402,1,0,1:0:0:0:
278,326,209574,1,2,1:2:0:0:
429,205,209745,1,10,2:0:0:0:
147,57,209917,1,2,2:0:0:0:
322,4,210088,6,0,P|311:36|306:67,1,65.9999979858399,6|0,1:2|2:0,2:0:0:0:
103,144,210260,1,0,2:0:0:0:
59,165,210345,1,2,2:0:0:0:
16,144,210431,2,0,P|35:177|51:215,1,65.9999979858399,10|0,2:0|2:0,2:0:0:0:
207,355,210602,1,0,2:0:0:0:
231,359,210688,1,0,2:0:0:0:
264,349,210774,6,0,P|224:349|201:309,1,87.9999973144532,10|8,2:0|2:3,2:0:0:0:
284,182,211002,5,8,2:3:0:0:
351,143,211117,2,0,P|371:177|347:217,1,87.9999973144532,6|4,2:3|2:3,2:0:0:0:
108,184,211345,5,4,1:3:0:0:
37,181,211460,6,0,P|137:209|226:244,1,187.000003566742,6|0,1:2|2:0,2:0:0:0:
390,347,211974,1,0,1:0:0:0:
468,370,212145,2,0,P|502:333|462:214,1,187.000003566742,12|2,2:0|2:0,2:0:0:0:
302,213,212660,2,0,P|313:235|318:256,2,46.7500008916855,8|8|2,2:3|2:3|1:2,2:0:0:0:
489,50,213002,6,0,B|511:92|463:124|443:110|433:103|382:127|379:178,1,187.000003566742,8|2,2:0|1:2,2:0:0:0:
452,241,213517,2,0,P|375:199|272:170,1,187.000003566742,12|2,2:0|1:2,2:0:0:0:
109,70,214031,1,2,1:2:0:0:
48,113,214202,6,0,P|110:106|135:-13,1,187.000003566742,14|2,2:0|2:0,2:0:0:0:
14,9,214717,1,0,1:0:0:0:
21,18,214802,1,0,1:0:0:0:
13,40,214888,2,0,P|31:123|46:227,1,187.000003566742,10|2,2:0|2:0,2:0:0:0:
165,351,215402,2,0,P|193:348|216:323,1,46.7500008916855,8|8,2:0|2:0,2:0:0:0:
287,341,215574,5,0,1:0:0:0:
179,148,215745,1,8,2:0:0:0:
175,243,215917,1,2,2:0:0:0:
258,200,216088,1,0,1:0:0:0:
380,98,216260,5,8,2:0:0:0:
483,168,216431,1,0,1:0:0:0:
500,271,216602,1,8,2:3:0:0:
475,347,216774,1,0,1:0:0:0:
250,356,216945,6,0,B|209:345|160:364|160:364|213:354|247:321,1,187.000003566742,6|2,1:2|2:0,2:0:0:0:
328,331,217460,1,0,1:0:0:0:
370,187,217631,2,0,P|359:148|226:119,1,187.000003566742,8|2,2:0|2:0,2:0:0:0:
85,194,218145,2,0,P|59:187|40:175,2,46.7500008916855,0|0|2,1:0|1:0|1:2,2:0:0:0:
155,24,218488,6,0,B|206:46|206:46|247:112|204:176,1,187.000003566742,8|6,2:0|1:2,2:0:0:0:
85,194,219002,1,8,2:0:0:0:
154,252,219174,2,0,B|196:262|196:262|205:269|205:269|259:280,1,93.500001783371,4|2,1:2|2:0,2:0:0:0:
433,190,219517,1,0,1:0:0:0:
488,135,219688,6,0,B|504:112|504:112|489:19|386:27,1,187.000003566742,6|2,1:2|2:0,2:0:0:0:
317,126,220202,1,0,1:0:0:0:
307,113,220288,1,0,1:0:0:0:
316,98,220374,1,10,2:0:0:0:
357,250,220560,2,0,P|273:233|164:212,1,187.000003566742,8|0,2:0|1:0,2:0:0:0:
27,288,221075,5,2,1:2:0:0:
53,364,221246,1,8,2:0:0:0:
173,213,221417,1,0,2:0:0:0:
196,134,221589,1,2,1:2:0:0:
18,10,221760,5,10,2:0:0:0:
1,47,221846,1,8,2:0:0:0:
27,79,221932,1,0,1:0:0:0:
255,197,222092,5,12,2:0:0:0:
276,188,222177,1,0,2:0:0:0:
328,198,222263,1,2,2:0:0:0:
365,247,222349,1,2,2:0:0:0:
370,312,222431,6,0,P|385:249|427:133,1,187.000003566742,6|0,1:2|1:0,2:0:0:0:
501,99,222945,1,0,1:0:0:0:
255,28,223116,6,0,B|261:59|261:59|261:66|261:66|264:84,1,55,12|0,2:0|2:0,2:0:0:0:
333,104,223287,2,0,P|269:105|246:216,1,187.000003566742,0|0,1:0|2:0,2:0:0:0:
267,277,223716,1,0,1:0:0:0:
258,284,223801,5,2,1:2:0:0:
144,332,223973,2,0,P|129:283|75:156,1,187.000003566742,8|2,2:0|1:2,2:0:0:0:
174,133,224487,1,12,2:0:0:0:
128,50,224659,1,8,2:3:0:0:
35,69,224830,1,6,2:3:0:0:
16,225,225001,2,0,P|43:233|69:244,1,46.7500008916855,0|0,1:0|2:0,2:0:0:0:
236,346,225173,6,0,B|284:336|331:364|331:364|375:343|348:267,1,187.000003566742,6|2,1:2|1:2,2:0:0:0:
396,164,225687,1,0,1:0:0:0:
436,165,225773,1,0,1:0:0:0:
461,201,225859,2,0,P|454:297|348:279,1,220,14|2,2:0|2:0,2:0:0:0:
210,187,226373,2,0,P|217:163|222:133,1,46.7500008916855,8|0,2:0|2:0,2:0:0:0:
279,81,226544,5,0,1:0:0:0:
127,154,226716,1,10,2:0:0:0:
256,260,226887,1,0,2:0:0:0:
230,337,227059,1,2,1:2:0:0:
224,352,227144,1,2,1:2:0:0:
241,367,227230,6,0,L|216:258,1,93.500001783371,8|2,2:0|1:2,2:0:0:0:
210,187,227487,1,0,1:0:0:0:
234,197,227573,6,0,B|202:186|162:206|143:240|143:240|60:188|104:108,1,247.500009441376,14|0,2:0|2:0,2:0:0:0:
144,62,227916,6,0,P|126:51|106:47,1,41.2500015735627,6|0,1:2|2:0,2:0:0:0:
96,123,228087,1,0,2:0:0:0:
126,196,228259,6,0,P|144:186|158:171,1,41.2500015735627,2|0,1:2|2:0,2:0:0:0:
96,123,228430,1,2,2:0:0:0:
19,112,228601,6,0,P|18:132|24:152,1,41.2500015735627,0|0,1:0|2:0,2:0:0:0:
96,123,228773,1,2,2:0:0:0:
83,285,228944,5,2,1:2:0:0:
235,322,229116,1,2,2:0:0:0:
269,332,229201,1,0,2:0:0:0:
286,361,229287,6,0,P|314:352|330:324,1,55,2|0,1:2|2:0,2:0:0:0:
362,248,229459,1,2,2:0:0:0:
498,258,229630,6,0,P|476:238|443:238,1,55,2|0,1:2|2:0,2:0:0:0:
362,248,229802,1,2,2:0:0:0:
303,126,229973,6,0,P|296:154|313:182,1,55,0|0,2:0|2:0,2:0:0:0:
362,248,230145,1,2,2:0:0:0:
460,154,230316,5,2,1:2:0:0:
380,34,230487,1,2,2:0:0:0:
174,66,230659,6,0,B|154:65|148:46|148:46|167:42|180:60,1,68.75,6|0,1:2|2:0,2:0:0:0:
303,126,230830,1,2,2:0:0:0:
316,268,231001,6,0,B|325:285|311:300|311:300|298:286|307:265,1,68.75,2|0,1:2|2:0,2:0:0:0:
303,126,231172,1,10,2:0:0:0:
420,44,231344,6,0,B|430:27|450:31|450:31|444:49|422:52,1,68.75,0|0,1:0|2:0,2:0:0:0:
303,126,231515,1,10,2:0:0:0:
191,201,231687,6,0,B|149:212|141:266|141:266|132:278|132:278|147:273|147:273|208:272|212:222,1,206.25,2|0,1:2|2:0,2:0:0:0:
160,136,232030,6,2,B|142:142|128:152|128:152|126:157|112:159|112:159|106:166|106:166|97:175|97:175|93:187|89:198|89:198|79:212|79:212|78:214|76:222|76:222|72:221|67:237|67:237|68:246|68:246|70:250|70:250|63:263|61:270|61:270|60:275|60:291|61:299|61:299|60:312|61:317|64:334|64:334|78:344|93:344|98:344|98:344|110:349|118:344|118:344|124:350|145:348|145:348|152:352|160:344|160:344|173:348|186:339|186:339|196:351|202:341|210:339|210:339|216:337|216:337|213:331|218:331|223:327|223:327|230:331|230:331|232:323|239:322|249:314|249:314|255:308|256:299|256:299|266:299|271:276|271:276|276:272|278:261|278:261|278:246|278:246|280:229,1,550,2|2,1:0|2:0,2:1:0:0:
335,57,232544,6,0,B|409:14|404:50|453:28|453:28|456:110|392:135,1,239.250007301331,10|0,2:0|2:0,2:0:0:0:
302,129,232887,2,0,P|269:113|258:70,1,79.7500024337769,10|8,2:0|2:0,2:0:0:0:
24,25,233059,2,0,B|5:28|-13:19|-13:19|3:35|21:39,1,79.7500024337769,2|8,1:2|2:0,2:0:0:0:
187,39,233230,1,10,2:0:0:0:
136,19,233316,1,8,2:0:0:0:
98,53,233401,6,0,P|118:123|136:223,1,159.500004867554,2|8,1:2|2:0,2:0:0:0:
127,338,233659,1,8,2:0:0:0:
106,348,233744,1,8,2:0:0:0:
71,346,233830,1,8,2:0:0:0:
40,327,233916,1,8,2:0:0:0:
28,280,234001,1,8,2:0:0:0:
50,236,234087,1,8,1:2:0:0:
101,221,234173,1,8,2:0:0:0:
152,236,234259,1,8,2:0:0:0:
183,284,234344,1,8,2:0:0:0:
236,333,234430,1,8,2:0:0:0:
313,340,234516,1,8,2:0:0:0:
379,297,234601,2,0,P|390:260|369:225,1,79.7500024337769,8|8,2:0|2:0,2:0:0:0:
288,23,234773,5,2,1:2:0:0:
359,1,234858,1,8,2:0:0:0:
430,21,234944,1,8,2:0:0:0:
477,81,235030,1,8,2:0:0:0:
484,155,235115,1,0,1:0:0:0:
446,221,235201,1,8,2:0:0:0:
379,254,235287,1,8,2:0:0:0:
304,243,235373,1,8,2:0:0:0:
254,188,235459,6,0,B|215:194|215:194|208:202|208:202|171:210,1,79.7500024337769,0|8,1:0|2:3,2:0:0:0:
0,334,235630,1,4,2:3:0:0:
56,376,235716,1,0,1:0:0:0:
117,339,235801,6,0,B|117:307|117:307|111:297|111:297|109:258,1,76.9999976501466,8|0,2:0|2:0,2:0:0:0:
362,146,235973,6,0,B|369:109|369:109|380:98|380:98|389:51,1,93.500001783371,8|0,2:0|2:0,2:0:0:0:
368,53,236830,5,10,2:3:0:0:
341,61,236916,1,8,2:3:0:0:
297,76,237001,1,4,2:3:0:0:
235,100,237087,1,4,2:3:0:0:
179,154,237173,2,0,B|160:175|160:175|121:176|93:194|93:194|74:195|53:209|53:209|74:194|81:179|81:179|109:165|126:135|126:135|159:123,1,280.500005350113,14|0,2:0|2:0,2:0:0:0:
476,353,237859,6,0,B|418:357|388:292|388:292|359:207|263:228|263:228|296:241|312:271,1,330.000012588501,6|2,1:2|2:0,2:0:0:0:
75,347,238373,1,6,1:2:0:0:
476,353,238716,6,0,B|529:283|476:220|476:220|453:212|453:212|412:183|418:139,1,247.500009441376,6|0,1:2|2:0,2:0:0:0:
422,127,239059,1,6,1:2:0:0:
75,347,239230,1,6,1:2:0:0:
75,347,239744,1,0,1:0:0:0:
125,366,239830,1,0,1:0:0:0:
173,344,239916,6,0,B|253:281|183:187|183:187|158:219|113:219,1,247.500009441376,14|0,2:0|2:0,2:0:0:0:
19,166,240259,6,0,B|-11:105|19:40|66:25|66:25|44:48|49:81,1,220,6|0,1:2|2:0,2:0:0:0:
228,52,240773,1,2,1:2:0:0:
200,84,240858,1,0,1:0:0:0:
155,83,240944,1,12,2:0:0:0:
357,279,241116,1,10,2:3:0:0:
377,68,241287,1,6,2:3:0:0:
168,8,241459,1,2,1:2:0:0:
35,305,241630,6,0,P|63:309|91:317,1,55,14|0,2:0|2:0,2:0:0:0:
119,235,241801,2,0,P|149:233|180:221,1,60.5000018463135,0|0,1:0|2:0,2:0:0:0:
258,366,241973,6,0,P|293:373|325:387,1,65.9999979858399,0|0,1:0|2:0,2:0:0:0:
361,151,242144,2,0,P|396:144|428:130,1,71.4999967269899,10|0,2:0|2:0,2:0:0:0:
512,345,242316,5,10,1:2:0:0:
479,327,242401,1,8,2:0:0:0:
426,321,242487,1,8,2:0:0:0:
375,286,242573,1,8,2:0:0:0:
331,285,242659,1,8,2:0:0:0:
290,253,242744,1,8,2:0:0:0:
228,249,242830,1,10,2:0:0:0:
174,218,242916,1,0,1:2:0:0:
174,218,243345,6,0,B|171:179|120:132|94:146|86:153|80:157|29:150|-4:117|0:68,1,247.500009441376,14|0,2:0|2:0,2:0:0:0:
63,14,243687,2,0,P|83:48|79:75,1,60.5000018463135,2|0,2:0|2:0,2:0:0:0:
10,296,243859,2,0,P|7:266|-3:230,1,60.5000018463135,2|0,1:2|2:0,2:0:0:0:
239,84,244030,1,8,2:0:0:0:
336,330,244201,1,2,2:0:0:0:
379,359,244287,1,2,2:0:0:0:
433,346,244373,5,0,1:2:0:0:
237,207,244544,1,2,1:2:0:0:
489,102,244716,2,0,B|442:82|442:82|420:47|420:47|327:16,1,181.500005538941,10|0,2:0|2:0,2:0:0:0:
245,9,245059,6,0,B|244:45|244:45|264:75,1,60.5000018463135,2|0,2:0|2:0,2:0:0:0:
430,229,245230,2,0,L|367:210,1,60.5000018463135,2|0,1:2|2:0,2:0:0:0:
134,84,245401,1,8,2:0:0:0:
104,348,245573,1,2,2:0:0:0:
61,379,245659,1,2,2:0:0:0:
9,365,245744,6,0,P|-8:326|32:264,1,121.000003692627,4|2,1:2|1:2,2:0:0:0:
263,292,246087,1,10,2:0:0:0:
209,74,246259,1,2,1:2:0:0:
130,188,246430,5,2,2:0:0:0:
411,269,246601,1,2,1:2:0:0:
472,28,246773,5,10,2:0:0:0:
247,369,246944,1,2,1:2:0:0:
22,67,247116,6,0,P|52:82|101:96,1,60.5000018463135,12|0,2:0|2:0,2:0:0:0:
231,207,247287,1,0,1:0:0:0:
418,137,247459,1,0,1:0:0:0:
38,276,247630,6,0,P|66:259|99:247,1,60.5000018463135,12|0,2:0|2:0,2:0:0:0:
231,61,247801,1,2,1:2:0:0:
390,277,247973,1,0,1:0:0:0:
110,356,248144,1,14,2:0:0:0:
90,25,248316,1,8,2:0:0:0:
41,48,248401,1,8,2:0:0:0:
27,100,248487,6,0,P|87:129|138:173,1,121.000003692627,6|2,1:2|2:0,2:0:0:0:
342,101,248830,1,10,2:0:0:0:
292,360,249001,2,0,B|291:252|233:305|244:156,1,181.500005538941,6|0,1:2|2:0,2:0:0:0:
245,161,249344,1,0,1:0:0:0:
90,25,249516,1,10,2:0:0:0:
17,227,249687,1,2,2:0:0:0:
39,268,249773,1,0,2:0:0:0:
91,268,249859,5,2,1:2:0:0:
231,16,250030,2,0,B|285:27|285:27|300:38|300:38|358:53,1,121.000003692627,2|8,1:2|2:0,2:0:0:0:
487,368,250373,1,2,1:2:0:0:
500,210,250544,6,0,B|462:213|437:179|437:179|438:225|397:250,1,142.99999345398,2|0,2:0|1:0,2:0:0:0:
380,137,250801,2,0,P|406:112|461:116,1,71.4999967269899,0|10,1:0|2:0,2:0:0:0:
302,360,251059,1,0,2:0:0:0:
120,261,251230,6,0,P|110:197|60:83,1,181.500005538941,2|0,1:2|2:0,2:0:0:0:
54,13,251573,2,0,B|32:17|20:8|20:8|19:21|4:39,1,60.5000018463135,8|0,2:0|2:0,2:0:0:0:
35,189,251744,2,0,B|84:202|124:163|116:150|108:139|154:100|203:123,1,181.500005538941,2|0,1:2|2:0,2:0:0:0:
210,128,252087,1,2,1:2:0:0:
463,35,252259,1,10,2:0:0:0:
380,332,252430,1,2,1:2:0:0:
261,11,252601,6,0,P|283:31|323:50,1,60.5000018463135,2|0,1:2|2:0,2:0:0:0:
512,171,252773,2,0,P|481:181|445:200,1,60.5000018463135,0|0,1:0|2:0,2:0:0:0:
210,363,252944,2,0,B|221:300|221:300|215:284|215:284|231:205,1,153.999995300293,12|2,2:0|1:2,2:0:0:0:
264,139,253201,1,0,1:2:0:0:
283,142,253287,6,0,B|310:167|310:167|309:202,1,60.5000018463135,2|0,1:2|2:0,2:0:0:0:
129,328,253459,2,0,L|69:309,1,60.5000018463135,0|0,1:0|2:0,2:0:0:0:
42,43,253630,1,12,2:0:0:0:
29,188,253801,1,2,1:2:0:0:
86,209,253887,1,0,1:2:0:0:
140,183,253973,6,0,P|165:140|141:72,1,121.000003692627,4|0,1:2|2:0,2:0:0:0:
287,8,254316,1,10,2:0:0:0:
84,126,254487,1,2,1:2:0:0:
281,317,254659,2,0,P|288:284|297:257,1,60.5000018463135,2|0,2:0|2:0,2:0:0:0:
200,78,254830,2,0,P|193:111|184:138,1,60.5000018463135,2|0,1:2|2:0,2:0:0:0:
471,276,255001,1,8,2:0:0:0:
433,9,255173,1,2,1:2:0:0:
485,32,255259,1,0,1:0:0:0:
487,81,255344,5,4,1:2:0:0:
296,180,255516,1,0,2:0:0:0:
129,22,255687,2,0,B|72:32|72:32|62:41|62:41|4:53,1,121.000003692627,10|0,2:0|1:0,2:0:0:0:
57,142,255944,1,0,1:0:0:0:
69,154,256030,6,0,P|103:163|136:175,1,60.5000018463135,2|0,2:0|2:0,2:0:0:0:
271,304,256201,2,0,P|237:313|204:325,1,60.5000018463135,2|0,1:2|2:0,2:0:0:0:
259,90,256373,1,8,2:0:0:0:
83,317,256544,1,2,1:2:0:0:
49,342,256630,1,0,1:0:0:0:
64,378,256716,6,0,P|53:323|38:254,1,121.000003692627,4|0,1:2|2:0,2:0:0:0:
36,83,257059,1,10,2:0:0:0:
253,195,257230,1,2,1:2:0:0:
314,315,257401,5,2,2:0:0:0:
223,364,257573,1,2,1:2:0:0:
361,17,257744,5,14,2:0:0:0:
497,336,257916,1,2,1:2:0:0:
120,275,258087,6,0,P|129:248|140:214,1,60.5000018463135,12|0,2:0|2:0,2:0:0:0:
362,190,258259,2,0,P|352:163|342:129,1,60.5000018463135,8|0,2:3|2:0,2:0:0:0:
188,27,258430,6,0,B|190:60|190:60|195:69|195:69|198:96,1,60.5000018463135,4|0,2:3|2:0,2:0:0:0:
293,259,258601,2,0,B|290:293|290:293|286:301|286:301|284:318,1,60.5000018463135,0|0,1:0|2:0,2:0:0:0:
58,356,258773,5,8,2:3:0:0:
4,308,258887,1,2,1:2:0:0:
51,253,259001,1,2,1:2:0:0:
106,300,259116,6,0,P|147:288|161:243,1,80.6666691284181,2|0,1:2|2:0,2:0:0:0:
115,105,259344,1,2,1:2:0:0:
31,119,259459,6,0,P|104:127|232:167,1,197.99999395752,6|0,1:2|2:0,2:0:0:0:
408,103,259973,1,0,1:0:0:0:
438,108,260059,1,0,1:0:0:0:
464,151,260144,6,0,B|492:147|513:129|513:129|553:210|483:273|483:273|471:245|440:235,1,263.99999194336,12|2,2:0|1:2,2:0:0:0:
308,149,260659,1,8,2:0:0:0:
292,177,260745,1,8,2:0:0:0:
300,205,260830,1,2,1:2:0:0:
362,276,261001,6,0,P|383:179|404:83,1,197.99999395752,8|2,2:0|1:2,2:0:0:0:
470,20,261516,6,0,P|494:56|479:91,1,65.9999979858399,8|8,2:0|2:3,2:0:0:0:
344,38,261744,5,4,2:3:0:0:
319,113,261859,6,0,P|286:101|249:95,1,65.9999979858399,2|0,1:2|1:0,2:0:0:0:
148,175,262087,5,0,1:0:0:0:
212,226,262201,6,0,B|186:148|186:148|189:136|189:136|157:37,1,197.99999395752,6|2,1:2|2:0,2:0:0:0:
385,11,262716,1,0,1:0:0:0:
416,41,262801,1,0,1:0:0:0:
404,82,262887,1,14,2:0:0:0:
391,244,263059,1,8,2:0:0:0:
391,244,263401,6,0,P|329:274|273:349,1,148.49999546814,0|0,1:0|2:0,2:0:0:0:
293,352,263744,1,8,2:0:0:0:
164,372,263916,1,0,1:0:0:0:
73,281,264087,1,2,1:2:0:0:
16,65,264259,5,8,2:0:0:0:
11,128,264344,1,8,2:0:0:0:
58,151,264430,1,2,1:2:0:0:
100,135,264516,1,0,1:0:0:0:
114,111,264601,6,0,B|139:61|187:52|242:83|233:93|224:105|273:152|318:156|358:116,1,280.500005350113,14|0,2:0|2:0,2:0:0:0:
394,56,264944,5,14,2:0:0:0:
507,150,265116,1,0,1:0:0:0:
333,243,265287,5,8,2:0:0:0:
298,23,265459,1,0,1:0:0:0:
494,44,265630,5,8,2:0:0:0:
204,171,265801,1,0,1:0:0:0:
427,356,265973,1,8,2:0:0:0:
436,207,266144,1,0,1:0:0:0:
391,187,266230,1,0,1:0:0:0:
354,226,266316,5,12,2:0:0:0:
133,79,266487,1,0,1:0:0:0:
87,215,266659,5,8,2:0:0:0:
286,17,266830,1,0,1:0:0:0:
21,28,267001,5,8,2:0:0:0:
262,221,267173,1,0,1:0:0:0:
87,367,267344,1,8,2:0:0:0:
34,361,267430,1,0,1:0:0:0:
0,314,267516,1,0,1:0:0:0:
6,258,267601,1,0,1:0:0:0:
49,223,267687,5,12,2:0:0:0:
344,312,267859,1,0,1:0:0:0:
178,348,268030,5,8,2:0:0:0:
359,94,268201,1,0,1:0:0:0:
483,318,268373,5,8,2:0:0:0:
202,180,268544,1,0,1:0:0:0:
470,14,268716,1,10,2:0:0:0:
335,327,268887,1,0,1:0:0:0:
318,353,268973,1,0,1:0:0:0:
271,354,269059,5,14,2:0:0:0:
175,41,269230,1,14,2:0:0:0:
53,329,269401,1,0,1:0:0:0:
453,242,269573,1,10,2:3:0:0:
453,242,269916,5,2,1:2:0:0:
434,174,270001,1,0,1:0:0:0:
419,103,270088,2,0,B|424:74|451:56|451:56|441:10|385:-21|385:-21|341:32|361:82|361:82|389:83|413:105,1,330,12|0,2:0|1:0,2:0:0:0:
512,133,270431,6,0,P|410:139|330:202,1,197.99999395752,6|0,1:2|1:0,2:0:0:0:
276,347,270944,1,2,2:0:0:0:
191,287,271116,2,0,B|253:296|231:318|291:334,1,98.9999969787599,0|2,1:0|2:0,2:0:0:0:
390,311,271459,1,2,1:2:0:0:
239,201,271630,1,2,2:0:0:0:
213,173,271716,1,2,2:0:0:0:
228,127,271801,5,2,1:2:0:0:
306,65,271973,1,2,2:0:0:0:
70,20,272144,1,0,1:0:0:0:
70,20,272316,1,2,2:0:0:0:
37,117,272487,2,0,B|85:85|71:28|71:28|95:83|142:83,1,197.99999395752,2|2,1:2|1:2,2:0:0:0:
109,165,273001,1,2,2:0:0:0:
45,349,273173,6,0,B|18:336|-12:330|-12:330|-30:246|41:210,1,197.99999395752,6|0,1:2|1:0,2:0:0:0:
204,192,273687,1,2,2:0:0:0:
221,206,273773,1,2,2:0:0:0:
212,236,273859,2,0,P|260:218|323:207,1,98.9999969787599,2|0,1:2|2:0,2:0:0:0:
476,112,274201,1,2,1:2:0:0:
484,93,274287,1,2,2:0:0:0:
464,71,274373,1,0,2:0:0:0:
486,44,274459,1,2,2:0:0:0:
457,10,274544,5,0,1:0:0:0:
316,130,274716,2,0,P|288:123|266:112,1,49.4999984893799,2|0,2:0|2:0,2:0:0:0:
217,54,274887,1,2,1:2:0:0:
175,197,275059,1,2,2:0:0:0:
135,337,275230,6,2,B|219:325|280:367|280:367|315:335|277:301|239:330,1,242.000007385254,2|0,1:0|1:0,2:1:0:0:
51,376,275744,1,8,2:0:0:0:
30,357,275830,1,8,2:0:0:0:
44,319,275916,6,0,P|60:252|77:166,1,148.49999546814,6|0,1:2|2:0,2:0:0:0:
79,150,276259,1,2,1:2:0:0:
253,43,276430,1,2,2:0:0:0:
153,12,276601,2,0,P|174:64|190:116,1,98.9999969787599,0|2,1:0|2:0,2:0:0:0:
328,229,276944,1,2,1:2:0:0:
200,312,277116,1,2,2:0:0:0:
189,296,277201,1,2,2:0:0:0:
207,268,277287,5,2,1:2:0:0:
411,365,277459,2,0,P|456:356|474:225,1,197.99999395752,2|2,2:0|2:0,2:0:0:0:
486,75,277973,6,0,B|429:130|430:77|368:140,1,131.99999597168,2|2,1:2|2:0,2:0:0:0:
355,151,278201,2,0,B|337:74|382:102|359:17,1,131.99999597168,2|0,2:0|2:0,2:0:0:0:
354,0,278430,2,0,B|430:22|383:47|469:69,1,131.99999597168,2|0,2:0|2:0,2:0:0:0:
355,151,278659,6,0,P|277:131|202:118,1,148.49999546814,6|0,1:2|2:0,2:0:0:0:
193,104,279001,1,2,1:2:0:0:
157,270,279173,1,2,2:0:0:0:
174,287,279259,1,2,2:0:0:0:
209,292,279344,2,0,P|238:273|232:212,1,98.9999969787599,0|2,1:0|2:0,2:0:0:0:
88,140,279687,1,2,1:2:0:0:
42,349,279944,1,0,1:0:0:0:
58,359,280030,6,0,B|42:290|42:290|36:281|36:281|20:201,1,148.49999546814,2|0,1:2|2:0,2:0:0:0:
129,74,280373,6,0,B|80:48|18:72|4:141|4:141|34:131|59:150,1,214.49999018097,0|8,1:0|2:0,2:0:0:0:
165,223,280716,5,2,1:0:0:0:
233,248,280801,1,0,1:2:0:0:
289,204,280887,2,0,P|316:182|355:187,1,71.4999967269899,8|8,2:0|2:0,2:0:0:0:
493,375,281059,5,10,2:1:0:0:
467,363,281144,1,8,2:0:0:0:
411,348,281230,1,10,2:0:0:0:
339,342,281316,1,8,2:0:0:0:
255,359,281401,5,6,1:2:0:0:
256,192,281573,12,2,285516,2:0:0:0:
