osu file format v14

[General]
AudioFilename: audio.mp3
AudioLeadIn: 0
PreviewTime:131231
Countdown: 0
SampleSet: Soft
StackLeniency: 0.3
Mode: 0
LetterboxInBreaks: 0
WidescreenStoryboard: 1

[Editor]
Bookmarks: 16717,27688,38660,52374,79802,96260,107231,118202,131231,159345,175802,189517,199117,211460,222431,235974,259460,273174
DistanceSpacing: 0.8
BeatDivisor: 4
GridSize: 32
TimelineZoom: 2.899999

[Metadata]
Title:Sing My Pleasure
TitleUnicode:Sing My Pleasure
Artist:Vivy (VO: Yagi Kairi)
ArtistUnicode:ヴィヴィ (VO: 八木海莉)
Creator:Flask
Version:GfChuRiPpy's Insane
Source:Vivy -Fluorite Eye's Song-
Tags:WIT STUDIO Score Fluorite Eye Song anime opening op japanese j-pop jpop pop Diva ディーヴァ -フローライトアイズソング- 神前曉 MONACA Kousaki Satoru 種崎敦美 Tanezaki Atsumi Hey lululu Hey_lululu lu^3 bossandy GfMRT MiyohashiKoori Deppyforce arronchu1207 Amateurre Yogurtt Luscent [Karcher] Andrea osuplayer111 Skyflame
BeatmapID:3447074
BeatmapSetID:1616800

[Difficulty]
HPDrainRate:5
CircleSize:3.8
OverallDifficulty:8
ApproachRate:9
SliderMultiplier:1.75
SliderTickRate:1

[Events]
//Background and Video events
0,0,"BG.jpg",0,0
//Break Periods
2,167060,174689
//Storyboard Layer 0 (Background)
//Storyboard Layer 1 (Fail)
//Storyboard Layer 2 (Pass)
//Storyboard Layer 3 (Foreground)
//Storyboard Layer 4 (Overlay)
//Storyboard Sound Samples

[TimingPoints]
260,342.857142857143,4,2,1,70,1,0
2831,-133.333333333333,4,2,1,70,0,0
3859,-133.333333333333,4,2,1,5,0,0
4031,-133.333333333333,4,2,1,50,0,0
5059,-133.333333333333,4,2,1,5,0,0
5231,-133.333333333333,4,2,1,50,0,0
5402,-80,4,2,1,60,0,0
5659,-80,4,2,1,5,0,0
5745,-200,4,2,1,60,0,0
10545,-100,4,2,1,60,0,0
11574,-200,4,2,1,60,0,0
14231,-200,4,2,1,5,0,0
14317,-200,4,2,1,60,0,0
16717,-100,4,2,1,60,0,0
17402,-133.333333333333,4,2,1,60,0,0
18088,-100,4,2,1,60,0,0
18774,-133.333333333333,4,2,1,60,0,0
21174,-83.3333333333333,4,2,1,60,0,0
21259,-83.3333333333333,4,2,1,5,0,0
21345,-83.3333333333333,4,2,1,60,0,0
21430,-83.3333333333333,4,2,1,5,0,0
21517,-133.333333333333,4,2,1,60,0,0
22202,-100,4,2,1,60,0,0
22545,-133.333333333333,4,2,1,60,0,0
23745,-100,4,2,1,60,0,0
26317,-133.333333333333,4,2,1,60,0,0
27688,-100,4,2,1,70,0,0
27945,-100,4,2,1,5,0,0
28031,-100,4,2,1,70,0,0
30688,-100,4,2,1,5,0,0
30774,-100,4,2,1,70,0,0
33431,-100,4,2,1,5,0,0
33517,-100,4,2,1,70,0,0
35917,-80,4,2,1,70,0,0
37631,-100,4,2,1,70,0,0
39345,-125,4,2,1,70,0,0
40717,-76.9230769230769,4,2,1,70,0,0
41402,-100,4,2,1,70,0,0
42088,-125,4,2,1,70,0,0
43460,-76.9230769230769,4,2,1,70,0,0
44145,-200,4,2,1,50,0,0
46202,-200,4,2,1,40,0,0
46545,-100,4,2,1,50,0,0
46717,-100,4,2,1,60,0,0
46888,-100,4,2,1,70,0,0
47145,-100,4,2,1,5,0,0
47231,-100,4,2,1,70,0,0
51688,-100,4,2,1,60,0,0
52288,-100,4,2,1,5,0,0
52374,-100,4,2,2,80,0,1
52888,-90.9090909090909,4,2,2,80,0,1
56831,-90.9090909090909,4,2,1,80,0,1
63003,-200,4,2,1,80,0,1
63260,-200,4,2,1,5,0,1
63345,-200,4,2,2,80,0,1
63859,-90.9090909090909,4,2,2,80,0,1
67802,-90.9090909090909,4,2,1,80,0,1
74317,-100,4,2,1,60,0,0
74745,-100,4,2,1,5,0,0
74831,-100,4,2,1,60,0,0
75259,-100,4,2,1,5,0,0
75345,-100,4,2,1,60,0,0
79802,-90.9090909090909,4,2,1,70,0,1
85288,-166.666666666667,4,2,1,60,0,0
86831,-133.333333333333,4,2,1,60,0,0
88031,-166.666666666667,4,2,1,60,0,0
90088,-90.9090909090909,4,2,1,60,0,0
90774,-133.333333333333,4,2,1,60,0,0
92316,-133.333333333333,4,2,1,5,0,0
92402,-133.333333333333,4,2,1,60,0,0
92573,-133.333333333333,4,2,1,5,0,0
92660,-133.333333333333,4,2,1,60,0,0
96602,-86.9565217391304,4,2,1,60,0,0
97631,-133.333333333333,4,2,1,60,0,0
99259,-133.333333333333,4,2,1,5,0,0
99345,-133.333333333333,4,2,1,60,0,0
100545,-80,4,2,1,60,0,0
101060,-100,4,2,1,60,0,0
101745,-133.333333333333,4,2,1,60,0,0
105688,-80,4,2,1,60,0,0
106202,-100,4,2,1,60,0,0
107231,-100,4,2,1,70,0,0
107574,-76.9230769230769,4,2,1,70,0,0
108088,-100,4,2,1,70,0,0
110231,-100,4,2,1,5,0,0
110317,-100,4,2,1,70,0,0
118888,-125,4,2,1,70,0,0
120260,-76.9230769230769,4,2,1,70,0,0
120945,-100,4,2,1,70,0,0
121631,-125,4,2,1,70,0,0
121888,-125,4,2,1,5,0,0
121974,-125,4,2,1,70,0,0
123003,-76.9230769230769,4,2,1,70,0,0
123688,-200,4,2,1,50,0,0
125916,-200,4,2,1,60,0,0
126088,-100,4,2,1,60,0,0
126431,-100,4,2,1,70,0,0
126688,-100,4,2,1,5,0,0
126774,-100,4,2,1,70,0,0
131231,-100,4,2,1,60,0,0
131831,-100,4,2,1,5,0,0
131917,-100,4,2,2,80,0,1
132431,-90.9090909090909,4,2,2,80,0,1
136374,-90.9090909090909,4,2,1,80,0,1
142887,-90.9090909090909,4,2,2,80,0,1
145888,-90.9090909090909,4,2,1,5,0,1
145974,-90.9090909090909,4,2,1,80,0,1
153860,-111.111111111111,4,2,1,60,0,0
155917,-100,4,2,1,60,0,0
159345,-100,4,2,1,70,0,0
164488,-66.6666666666667,4,2,1,70,0,0
164745,-66.6666666666667,4,2,1,5,0,0
164831,-66.6666666666667,4,2,1,50,0,0
175802,-125,4,2,1,60,0,0
181117,-76.9230769230769,4,2,1,60,0,0
181288,-125,4,2,1,60,0,0
182660,-125,4,2,1,70,0,0
184031,-76.9230769230769,4,2,1,70,0,0
186002,-76.9230769230769,4,2,1,5,0,0
186088,-76.9230769230769,4,2,1,70,0,0
186602,-153.846153846154,4,2,1,70,0,0
187973,-153.846153846154,4,2,1,5,0,0
188059,-153.846153846154,4,2,1,5,0,0
188145,-100,4,2,1,70,0,0
192517,-100,4,2,1,5,0,0
192602,-100,4,2,1,70,0,0
195774,-100,4,2,1,5,0,0
195860,-100,4,2,1,70,0,0
197145,-100,4,2,1,5,0,0
197231,-100,4,2,1,70,0,0
200488,-86.9565217391304,4,2,1,70,0,0
205631,-76.9230769230769,4,2,1,70,0,0
205974,-86.9565217391304,4,2,1,70,0,0
210774,-66.6666666666667,4,2,1,70,0,0
211117,-200,4,2,1,70,0,0
211460,-113.636363636364,4,2,1,60,0,0
220560,342.857142857143,4,2,1,60,1,0
220732,-113.636363636364,4,2,1,60,0,0
222092,342.857142857143,4,2,1,60,1,0
222431,342.857142857143,4,2,1,60,1,0
222431,-113.636363636364,4,2,1,60,0,0
227917,-113.636363636364,4,2,1,70,0,0
237174,-66.6666666666667,4,2,1,70,0,0
238717,-90.9090909090909,4,2,1,70,0,0
239917,-200,4,2,1,70,0,0
240174,-200,4,2,1,5,0,0
240260,-100,4,2,1,70,0,0
243345,-66.6666666666667,4,2,2,70,0,1
244374,-90.9090909090909,4,2,2,70,0,1
245745,-90.9090909090909,4,2,1,70,0,1
248488,-90.9090909090909,4,2,2,80,0,1
249002,-90.9090909090909,4,2,1,80,0,1
259459,-113.636363636364,4,2,1,60,0,0
264945,-90.9090909090909,4,2,1,70,0,1
270431,-113.636363636364,4,2,2,60,0,0
273174,-113.636363636364,4,2,1,60,0,0
275232,-100,4,2,1,60,0,0
278372,-100,4,2,1,5,0,0
278430,-100,4,2,1,60,0,0
278601,-100,4,2,1,5,0,0
278659,-100,4,2,1,60,0,0
282764,-100,4,2,1,40,0,0
282769,-100,4,2,1,40,0,0
284135,-100,4,2,1,30,0,0
284140,-100,4,2,1,30,0,0
284821,-100,4,2,1,20,0,0
284826,-100,4,2,1,20,0,0
285507,-100,4,2,1,10,0,0
285517,-100,4,2,1,10,0,0

[Colours]
Combo1 : 0,122,181
Combo2 : 165,74,255
Combo3 : 226,80,204
Combo4 : 0,232,232

[HitObjects]
60,115,260,5,14,2:0:0:0:
201,124,431,1,0,1:0:0:0:
286,131,602,1,0,1:0:0:0:
264,251,774,5,14,2:0:0:0:
201,124,945,1,0,1:0:0:0:
164,47,1116,1,0,1:0:0:0:
280,6,1288,5,14,2:0:0:0:
201,124,1459,1,0,1:0:0:0:
153,194,1630,1,0,1:0:0:0:
344,276,1802,6,0,B|349:231|349:231|323:186,2,87.5,14|0|0,2:0|1:0|1:0,2:0:0:0:
191,356,2318,5,14,2:0:0:0:
264,251,2489,1,0,1:0:0:0:
153,194,2660,1,0,1:0:0:0:
34,338,2831,6,0,B|111:367|191:360|182:306|217:221|302:225|407:286|354:376|354:376|323:335|257:337|295:360|221:363|175:305|219:330|137:339|95:251|154:194|154:194|131:237|162:277,1,853.125032544137,14|0,1:2|2:0,2:0:0:0:
159,272,5231,1,0,1:0:0:0:
98,167,5402,2,0,B|137:164|160:117|160:117|135:164|157:199,1,164.0625,12|0,2:0|2:0,2:0:0:0:
228,163,5745,6,0,L|279:149,1,43.75,6|0,1:2|2:0,2:0:0:0:
284,129,6088,2,0,L|335:115,1,43.75,0|2,1:0|2:0,2:0:0:0:
431,62,6431,1,2,1:2:0:0:
420,80,6517,1,0,2:0:0:0:
412,59,6602,1,2,2:0:0:0:
320,30,6774,5,2,1:2:0:0:
388,178,6945,1,2,2:0:0:0:
431,62,7117,1,0,1:0:0:0:
284,129,7288,2,0,L|241:117,2,43.75,2|0|2,2:0|1:0|2:0,2:0:0:0:
379,255,7802,1,2,1:2:0:0:
400,258,7888,1,0,2:0:0:0:
421,253,7974,1,2,2:0:0:0:
466,191,8145,1,2,1:2:0:0:
512,348,8317,1,2,2:0:0:0:
477,345,8402,1,2,2:0:0:0:
442,342,8488,6,0,B|411:338|411:338|403:343|403:343|345:338,1,87.5,2|0,1:2|1:0,2:0:0:0:
261,233,9002,2,0,L|258:203,1,21.875,2|0,2:0|2:0,2:0:0:0:
333,184,9174,2,0,L|339:245,1,43.75,2|0,1:2|2:0,2:0:0:0:
267,298,9431,1,0,2:0:0:0:
267,298,9517,2,0,L|259:223,1,65.625,2|0,1:2|2:0,2:0:0:0:
253,156,9860,6,0,P|239:141|202:141,1,43.75,0|2,1:0|2:0,2:0:0:0:
324,69,10202,2,0,P|318:88|336:120,1,43.75,2|2,1:2|2:0,2:0:0:0:
191,50,10545,2,2,P|223:45|244:-9,1,87.5,2|0,1:0|2:0,2:1:0:0:
118,6,10888,1,0,1:0:0:0:
49,156,11060,1,8,2:0:0:0:
39,136,11145,1,8,2:0:0:0:
46,115,11231,6,0,B|93:92|93:92|148:105|136:158,1,131.25,6|0,1:2|2:0,2:0:0:0:
151,222,11574,2,0,P|132:225|102:217,1,43.75,2|2,1:2|2:0,2:0:0:0:
67,287,11917,2,0,P|50:277|32:251,1,43.75,0|2,1:0|2:0,2:0:0:0:
49,156,12260,1,2,1:2:0:0:
160,306,12431,1,0,1:0:0:0:
164,328,12517,1,0,1:0:0:0:
143,320,12602,5,2,1:2:0:0:
264,268,12774,2,0,L|259:315,1,43.75,2|0,2:0|1:0,2:0:0:0:
258,330,13117,1,2,2:0:0:0:
286,359,13288,1,2,1:2:0:0:
369,360,13460,1,10,2:0:0:0:
447,288,13631,1,2,1:2:0:0:
446,174,13802,1,10,2:0:0:0:
329,92,13974,6,0,L|317:45,1,43.75,6|0,1:2|2:0,2:0:0:0:
419,32,14317,1,2,1:2:0:0:
419,32,14488,2,0,P|405:48|393:53,1,21.875,2|0,2:0|2:0,2:0:0:0:
330,181,14660,2,0,P|293:172|275:157,1,43.75,0|2,1:0|2:0,2:0:0:0:
195,77,15002,2,0,L|254:66,1,43.75,2|0,1:2|2:0,2:0:0:0:
323,32,15345,5,2,1:2:0:0:
196,199,15602,1,8,2:3:0:0:
188,182,15688,2,0,L|191:156,1,21.875,8|0,2:3|2:0,2:0:0:0:
90,105,15860,2,0,L|93:131,1,21.875,0|4,2:0|2:3,2:0:0:0:
78,237,16031,5,2,2:1:0:0:
111,249,16117,1,2,2:0:0:0:
107,215,16202,1,0,2:0:0:0:
65,241,16374,5,2,1:0:0:0:
121,261,16460,1,0,1:0:0:0:
113,202,16545,1,2,1:2:0:0:
199,319,16717,6,0,B|297:339|273:237|367:306|367:306,1,175,6|0,1:2|1:0,2:0:0:0:
435,360,17231,1,2,2:0:0:0:
510,302,17402,2,0,B|487:268|484:231|484:231|468:259|439:268,1,131.25000500679,2|0,1:2|1:0,2:0:0:0:
404,185,17917,1,2,2:0:0:0:
363,303,18088,2,0,B|304:289|304:289|281:251|281:251|201:229,1,175,2|0,1:2|1:0,2:0:0:0:
63,192,18602,1,2,2:0:0:0:
114,119,18774,2,0,B|139:117|162:99|162:99|146:121|141:156|152:199,1,131.25000500679,2|0,1:2|1:0,2:0:0:0:
138,263,19288,1,2,2:0:0:0:
305,252,19460,6,0,P|285:210|238:210,1,98.4375037550928,2|0,1:2|2:0,2:0:0:0:
213,232,19802,1,2,1:2:0:0:
125,342,19974,2,0,B|93:343|94:326|60:334,2,65.6250025033952,2|0|2,2:0|1:0|2:0,2:0:0:0:
210,350,20488,2,0,P|243:334|275:329,1,65.6250025033952,2|0,1:2|2:0,2:0:0:0:
429,327,20831,1,0,1:0:0:0:
409,355,21002,1,2,1:0:0:0:
350,287,21174,2,0,B|349:235|363:188|363:188|337:217|312:227,1,157.499995193482,0|0,2:0|2:0,2:0:0:0:
237,247,21517,6,0,P|194:225|198:192,1,65.6250025033952,2|0,1:2|2:0,2:0:0:0:
271,329,21860,1,2,1:2:0:0:
254,106,22031,1,2,2:0:0:0:
256,129,22117,1,2,2:0:0:0:
263,150,22202,6,0,B|299:202|362:175|362:175|376:131,1,131.25,0|0,1:0|2:0,2:0:0:0:
425,93,22545,2,0,P|406:79|360:72,1,65.6250025033952,0|0,1:0|2:0,2:0:0:0:
170,132,22888,1,0,1:0:0:0:
233,0,23060,1,0,2:0:0:0:
150,44,23231,2,0,L|170:134,1,65.6250025033952,2|2,1:2|2:0,2:0:0:0:
197,219,23574,5,2,1:2:0:0:
350,101,23745,2,0,B|345:79|322:63|322:63|264:82,1,87.5,2|0,2:0|1:0,2:0:0:0:
277,161,24088,1,2,2:0:0:0:
277,161,24260,2,0,L|294:247,1,87.5,0|2,1:0|2:0,2:0:0:0:
334,331,24602,1,0,1:0:0:0:
307,343,24774,1,2,2:0:0:0:
124,330,24945,6,0,P|136:272|194:285,1,131.25,2|0,1:2|2:0,2:0:0:0:
217,311,25288,1,2,1:0:0:0:
294,247,25460,2,0,L|278:162,1,87.5,2|0,2:0|1:0,2:0:0:0:
160,61,25802,1,2,2:1:0:0:
58,135,25974,2,0,B|130:114|111:154|164:159|200:132,1,131.25,2|0,1:2|2:0,2:0:0:0:
248,77,26317,2,0,P|262:42|298:8,1,65.6250025033952,0|0,1:0|2:0,2:0:0:0:
395,63,26660,2,0,P|363:71|336:89,1,65.6250025033952,0|0,1:0|2:0,2:0:0:0:
330,176,27002,5,2,1:0:0:0:
327,227,27174,2,0,L|321:194,1,32.8125012516976,0|8,1:0|2:0,2:0:0:0:
235,210,27345,1,8,2:0:0:0:
220,240,27431,1,8,2:0:0:0:
244,265,27517,1,10,2:0:0:0:
433,320,27688,6,0,B|475:275|471:198|471:198|467:224|450:243,1,175,6|10,1:2|1:0,2:0:0:0:
319,311,28202,1,2,2:0:0:0:
244,265,28374,1,2,1:2:0:0:
244,265,28545,1,8,1:3:0:0:
32,375,28888,6,0,P|12:354|95:252,1,175,10|0,2:1|1:0,2:0:0:0:
159,286,29402,2,0,L|56:275,1,87.5,8|2,2:0|2:0,2:0:0:0:
0,181,29745,1,2,1:2:0:0:
128,188,29917,1,0,1:0:0:0:
56,92,30088,2,0,P|11:110|-4:155,1,87.5,8|2,2:0|2:0,2:0:0:0:
133,197,30431,6,0,B|176:166|226:166|264:182|264:182|292:231,1,175,2|10,1:2|2:0,2:0:0:0:
177,322,30945,1,2,2:0:0:0:
159,286,31031,1,2,2:0:0:0:
189,307,31117,1,2,2:0:0:0:
278,337,31288,1,2,1:2:0:0:
327,129,31631,6,0,B|342:67|410:73|410:73|431:103|480:104,1,175,8|0,2:0|1:0,2:0:0:0:
332,217,32145,2,0,P|327:161|358:134,1,87.5,8|0,2:0|2:0,2:0:0:0:
420,173,32402,1,0,2:0:0:0:
420,173,32488,2,0,L|430:226,2,43.75,2|0|0,1:0|2:0|2:1,2:0:0:0:
378,331,32831,1,10,2:0:0:0:
332,217,33002,1,10,2:0:0:0:
332,217,33088,1,8,2:0:0:0:
332,217,33174,6,0,B|287:217|218:222|285:286|163:271,1,175,4|8,1:2|2:0,2:0:0:0:
75,140,33688,2,0,B|121:142|156:114|156:114|129:151|147:199,1,175,0|8,2:0|1:3,2:0:0:0:
106,321,34202,1,2,1:2:0:0:
219,369,34374,2,0,P|249:297|175:273,1,175,8|0,2:0|1:0,2:0:0:0:
24,328,34888,2,0,L|113:338,1,87.5,10|2,2:0|1:2,2:0:0:0:
120,356,35145,1,0,1:0:0:0:
120,356,35231,1,0,1:0:0:0:
175,273,35402,1,2,1:2:0:0:
75,140,35573,1,8,2:0:0:0:
67,150,35917,6,0,B|73:170|73:170|143:191|225:135|210:43,1,218.75,2|10,1:2|2:0,2:0:0:0:
305,130,36431,1,2,1:2:0:0:
305,130,36517,1,0,1:0:0:0:
305,130,36602,1,0,1:0:0:0:
266,271,36774,1,2,1:2:0:0:
375,254,36945,1,2,2:0:0:0:
484,237,37117,1,8,2:0:0:0:
498,253,37460,5,0,1:0:0:0:
354,241,37631,2,0,P|348:177|305:130,1,131.25,10|0,2:0|2:0,2:0:0:0:
334,96,37974,2,0,P|293:64|256:57,1,87.5,2|8,2:1|2:0,2:0:0:0:
188,95,38231,1,8,2:0:0:0:
142,82,38317,1,10,2:0:0:0:
93,177,38488,1,8,1:3:0:0:
21,29,38660,6,0,P|96:9|141:85,1,175,6|0,1:2|2:0,2:0:0:0:
93,177,39174,1,2,1:2:0:0:
86,180,39345,2,0,L|14:169,1,70,8|0,2:0|2:0,2:0:0:0:
204,332,39688,1,2,1:2:0:0:
123,384,39860,6,0,P|109:348|144:258,1,140,0|2,1:0|1:2,2:0:0:0:
286,189,40374,1,2,2:0:0:0:
153,28,40545,2,0,P|160:60|153:81,1,35,2|0,1:2|1:0,2:0:0:0:
155,70,40717,6,0,B|179:93|217:97|256:88|283:62|284:13|253:9|217:22|220:51|229:74|258:96|268:101,1,227.499989585877,14|10,2:0|2:3,2:0:0:0:
344,131,41145,1,0,1:0:0:0:
351,129,41231,1,6,1:3:0:0:
358,127,41317,1,0,1:0:0:0:
383,100,41402,6,0,L|362:274,1,175,6|2,1:2|2:0,2:0:0:0:
237,373,41917,1,2,1:2:0:0:
232,368,42088,2,0,P|219:329|225:295,1,70,8|0,2:0|2:0,2:0:0:0:
281,135,42431,1,2,1:2:0:0:
186,176,42602,6,0,L|41:160,1,140,2|10,1:2|2:0,2:0:0:0:
217,40,43117,1,2,2:0:0:0:
281,135,43288,2,0,L|288:175,1,35,2|0,1:2|1:0,2:0:0:0:
289,181,43460,6,0,P|340:140|341:251,1,227.499989585877,14|10,2:0|2:0,2:0:0:0:
275,273,43888,1,8,2:0:0:0:
268,271,43974,1,8,2:0:0:0:
261,269,44060,1,8,2:0:0:0:
230,289,44145,6,0,L|238:345,1,43.75,2|0,2:0|2:0,2:0:0:0:
147,322,44488,2,0,L|155:378,1,43.75,2|2,2:0|2:0,2:0:0:0:
49,122,45517,6,0,P|37:87|41:62,1,43.75,2|0,2:0|2:0,2:0:0:0:
125,80,45860,2,0,P|149:52|172:43,1,43.75,0|2,2:0|2:0,2:0:0:0:
239,75,46202,1,2,1:2:0:0:
237,85,46287,1,2,1:2:0:0:
236,96,46373,1,2,1:2:0:0:
235,107,46459,1,2,1:2:0:0:
234,118,46545,6,0,P|266:110|276:109,1,43.75,10|8,2:0|2:0,2:0:0:0:
347,55,46717,2,0,P|379:63|389:64,1,43.75,8|8,2:0|2:0,2:0:0:0:
486,140,46888,6,0,P|503:197|471:282,1,131.25,6|0,1:2|2:0,2:0:0:0:
404,302,47231,1,0,1:0:0:0:
397,299,47402,1,0,1:0:0:0:
200,173,47574,5,8,2:0:0:0:
381,203,47745,1,10,2:0:0:0:
351,384,47917,1,10,2:0:0:0:
170,354,48088,1,6,1:2:0:0:
262,305,48431,6,0,L|256:259,2,43.75,8|8|8,2:0|2:0|2:0,2:0:0:0:
103,207,48774,2,0,L|97:250,2,43.75,8|8|8,2:0|2:0|2:0,2:0:0:0:
218,87,49117,1,8,2:0:0:0:
227,85,49202,1,8,2:0:0:0:
236,83,49288,1,8,2:0:0:0:
380,195,49460,2,0,P|408:204|426:203,1,43.75,8|8,2:0|2:0,2:0:0:0:
507,171,49631,5,10,2:0:0:0:
509,165,49802,2,0,L|498:268,1,87.5,2|0,1:2|2:0,2:0:0:0:
318,25,50145,2,0,L|329:128,1,87.5,10|0,2:0|2:0,2:0:0:0:
208,266,50488,2,0,P|197:217|214:178,1,87.5,10|0,2:0|1:0,2:0:0:0:
376,344,50831,6,0,B|340:318|299:322|299:322|286:349|252:362,1,131.25,14|0,2:0|2:0,2:0:0:0:
180,373,51174,2,0,P|144:364|124:341,1,43.75,8|0,1:3|2:0,2:0:0:0:
118,275,51345,1,8,1:3:0:0:
118,275,51688,6,0,B|147:268|164:244|164:244|134:384,1,175,2|2,2:0|2:0,2:0:0:0:
4,214,52374,5,6,1:2:0:0:
93,180,52545,1,2,2:0:0:0:
165,244,52717,1,10,2:0:0:0:
277,97,52888,2,0,B|244:65|244:65|245:61|245:61|175:53|158:121|179:155,1,192.500005874634,2|0,1:2|1:0,2:0:0:0:
361,72,53402,5,10,2:0:0:0:
301,185,53574,1,2,2:0:0:0:
457,258,53745,5,2,1:2:0:0:
420,130,53917,1,2,1:2:0:0:
500,55,54088,1,8,2:0:0:0:
486,182,54260,2,0,B|480:126|419:130|419:130|389:165|389:165|411:194|395:232,1,192.500005874634,2|0,1:2|2:0,2:0:0:0:
359,383,54774,1,10,2:0:0:0:
318,212,54945,1,0,2:0:0:0:
226,341,55117,6,0,B|143:340|191:311|94:312|94:312|133:314|162:276,1,192.500005874634,2|8,1:2|2:0,2:0:0:0:
38,167,55631,2,0,P|81:186|94:251,1,96.250002937317,2|0,1:2|2:0,2:0:0:0:
9,289,55974,2,0,L|23:237,1,48.1250014686585,2|0,1:2|2:0,2:0:0:0:
0,87,56145,5,10,2:0:0:0:
115,166,56317,1,2,2:0:0:0:
264,120,56488,5,2,1:2:0:0:
264,120,56660,1,0,1:0:0:0:
144,9,56831,2,0,B|201:5|236:43|236:43|238:21|258:4,1,144.375004405975,12|0,2:0|1:0,2:0:0:0:
317,54,57174,1,2,1:2:0:0:
365,161,57345,1,0,1:0:0:0:
294,276,57517,1,12,2:0:0:0:
225,230,57688,1,2,2:0:0:0:
411,237,57860,6,0,L|514:228,1,96.250002937317,4|0,1:2|2:0,2:0:0:0:
262,156,58202,1,10,2:0:0:0:
294,276,58374,1,0,1:0:0:0:
241,340,58545,1,2,2:0:0:0:
366,324,58717,1,2,1:2:0:0:
225,230,58888,2,0,L|214:131,1,96.250002937317,8|2,2:0|1:2,2:0:0:0:
437,150,59231,5,4,1:2:0:0:
437,150,59402,1,0,2:0:0:0:
347,199,59574,1,10,2:0:0:0:
261,85,59745,2,0,L|146:61,1,96.250002937317,0|2,1:0|2:0,2:0:0:0:
18,236,60088,1,2,1:2:0:0:
87,271,60260,2,0,P|138:270|202:247,1,96.250002937317,8|2,2:0|1:2,2:0:0:0:
0,144,60602,6,0,P|99:124|176:53,1,192.500005874634,4|10,1:2|2:0,2:0:0:0:
247,61,61117,1,2,1:2:0:0:
280,250,61288,5,2,2:0:0:0:
149,194,61460,1,2,1:2:0:0:
240,329,61631,5,10,2:0:0:0:
442,276,61802,1,2,2:0:0:0:
348,179,61974,5,4,1:2:0:0:
348,179,62145,1,0,1:0:0:0:
422,113,62317,1,8,2:0:0:0:
365,269,62488,1,8,2:0:0:0:
365,269,62574,1,8,2:0:0:0:
365,269,62660,2,0,P|357:297|355:320,1,48.1250014686585,10|8,2:3|2:3,2:0:0:0:
253,137,62831,5,4,2:3:0:0:
253,137,62917,1,4,2:3:0:0:
253,137,63003,2,0,P|261:165|259:214,1,65.625,14|0,2:0|2:0,2:0:0:0:
244,235,63345,5,6,1:2:0:0:
153,218,63516,1,2,2:0:0:0:
64,262,63688,1,10,2:0:0:0:
0,136,63859,2,0,B|43:137|65:104|65:104|34:161|63:189|113:172|88:134,1,192.500005874634,2|0,1:2|1:0,2:0:0:0:
279,74,64373,5,10,2:0:0:0:
179,28,64545,1,2,2:0:0:0:
153,218,64716,5,2,1:2:0:0:
318,180,64888,1,2,1:2:0:0:
272,256,65060,1,8,2:0:0:0:
478,219,65231,2,0,B|492:145|393:137|393:137|420:186|374:226,1,192.500005874634,2|0,1:2|1:0,2:0:0:0:
400,190,65661,1,0,1:0:0:0:
400,190,65745,1,10,2:0:0:0:
347,288,65918,1,0,2:0:0:0:
349,96,66088,6,0,B|347:302,1,192.500005874634,2|8,1:2|2:0,2:0:0:0:
195,299,66602,2,0,B|225:257|225:257|278:248,1,96.250002937317,2|0,1:2|2:0,2:0:0:0:
329,361,66945,2,0,B|303:358|303:358|286:337,1,48.1250014686585,2|0,1:2|2:0,2:0:0:0:
168,200,67116,5,10,2:0:0:0:
115,344,67288,1,2,2:0:0:0:
35,258,67459,5,2,1:2:0:0:
35,258,67631,1,0,1:0:0:0:
73,70,67802,2,0,B|119:89|108:146|108:146|81:176|92:208,1,144.375004405975,12|0,2:0|1:0,2:0:0:0:
168,200,68145,1,2,1:2:0:0:
276,119,68316,1,0,1:0:0:0:
143,15,68488,1,12,2:0:0:0:
180,190,68659,1,2,1:2:0:0:
357,125,68831,6,0,P|351:78|298:43,1,96.250002937317,4|2,1:2|2:0,2:0:0:0:
289,202,69173,1,10,2:0:0:0:
377,208,69345,1,2,1:2:0:0:
276,119,69516,1,2,2:0:0:0:
351,278,69688,2,0,P|400:280|442:248,1,96.250002937317,2|8,1:2|2:0,2:0:0:0:
256,279,70031,1,2,1:2:0:0:
160,158,70202,5,4,1:2:0:0:
131,300,70373,1,2,1:2:0:0:
260,188,70545,2,0,L|151:165,1,96.250002937317,10|0,2:0|1:0,2:0:0:0:
30,316,70888,5,2,1:2:0:0:
0,163,71059,1,2,1:2:0:0:
144,308,71231,2,0,L|253:285,1,96.250002937317,8|2,2:0|1:2,2:0:0:0:
319,144,71574,6,0,B|299:189|299:189|313:240,1,96.250002937317,4|2,1:2|2:0,2:0:0:0:
467,317,71917,1,10,2:0:0:0:
388,199,72088,1,2,1:2:0:0:
512,68,72260,2,0,B|528:114|528:114|509:164,1,96.250002937317,2|2,2:0|1:2,2:0:0:0:
341,54,72602,1,10,2:0:0:0:
396,190,72773,1,2,2:0:0:0:
423,15,72945,5,4,1:2:0:0:
320,200,73117,1,0,1:0:0:0:
229,54,73288,2,0,L|340:40,1,96.250002937317,12|0,2:0|1:0,2:0:0:0:
68,37,73631,6,0,P|62:68|71:98,1,64.166668624878,8|8,2:3|2:3,2:0:0:0:
133,149,73860,5,8,2:3:0:0:
190,214,73974,6,0,P|195:245|186:275,1,64.166668624878,6|4,2:3|2:3,2:0:0:0:
124,325,74203,5,4,1:3:0:0:
54,242,74317,6,0,L|307:246,1,218.75,6|0,1:2|2:0,2:0:0:0:
296,246,74831,1,0,1:0:0:0:
449,113,75002,2,0,B|453:145|433:177|433:177|442:136|405:103,1,131.25,12|0,2:0|2:0,2:0:0:0:
358,163,75345,1,2,2:0:0:0:
163,85,75688,5,2,1:2:0:0:
172,65,75860,1,8,2:0:0:0:
217,39,76031,1,0,2:0:0:0:
291,64,76202,1,2,1:2:0:0:
281,206,76374,5,8,2:0:0:0:
341,137,76545,1,8,2:3:0:0:
476,268,76717,5,6,2:3:0:0:
479,140,76888,1,0,1:0:0:0:
483,54,77060,6,0,B|435:46|388:93|429:95|388:143|322:136,1,175,6|2,1:2|1:2,2:0:0:0:
336,58,77574,1,0,1:0:0:0:
346,232,77745,2,0,L|334:40,1,175,10|2,2:0|1:2,2:0:0:0:
86,186,78431,5,0,1:0:0:0:
139,131,78602,2,0,L|149:38,1,87.5,8|0,2:0|2:0,2:0:0:0:
226,118,78945,1,2,1:2:0:0:
67,80,79117,1,8,2:0:0:0:
196,201,79288,1,2,1:2:0:0:
254,45,79460,1,14,2:0:0:0:
398,118,79631,1,10,2:0:0:0:
373,135,79717,1,8,2:0:0:0:
345,121,79802,6,0,L|334:221,1,96.250002937317,6|2,1:2|2:0,2:0:0:0:
384,279,80145,1,10,2:0:0:0:
199,342,80317,2,0,B|247:356|282:332|299:286|299:286|306:324|331:343,1,192.500005874634,2|2,1:2|1:2,2:0:0:0:
132,302,80831,1,10,2:0:0:0:
118,384,81002,1,2,2:0:0:0:
8,241,81174,6,0,B|31:251|55:250|55:250|78:224|115:217,1,96.250002937317,2|2,1:2|1:2,2:0:0:0:
173,227,81517,1,10,2:0:0:0:
227,60,81688,2,0,B|189:57|166:32|166:32|166:107|136:162,1,192.500005874634,2|2,1:2|1:2,2:0:0:0:
307,81,82202,1,10,2:0:0:0:
296,0,82374,1,2,2:0:0:0:
242,146,82545,5,6,1:2:0:0:
332,256,82717,1,0,2:0:0:0:
391,116,82889,1,10,2:0:0:0:
501,294,83060,2,0,B|518:241|471:215|471:215|418:231|418:231|427:267|411:293,1,192.500005874634,2|0,1:2|1:0,2:0:0:0:
365,359,83574,1,10,2:0:0:0:
198,303,83745,1,0,1:0:0:0:
198,303,83831,1,0,1:0:0:0:
198,303,83917,5,10,2:0:0:0:
327,172,84088,1,10,2:0:0:0:
283,331,84260,1,0,2:0:0:0:
195,156,84431,2,0,B|167:148|167:148|137:156|137:156|102:145,1,96.250002937317,10|0,1:2|2:0,2:0:0:0:
241,86,84774,2,0,P|265:77|287:72,1,48.1250014686585,10|0,2:3|2:0,2:0:0:0:
398,125,84945,2,0,P|374:58|300:79,1,144.375004405975,12|0,2:0|2:0,2:0:0:0:
309,149,85288,6,0,L|322:221,1,52.4999983978272,6|0,1:2|2:0,2:0:0:0:
241,226,85631,2,0,L|250:277,1,52.4999983978272,2|2,1:2|2:0,2:0:0:0:
284,357,85974,1,0,1:0:0:0:
284,357,86145,1,2,2:0:0:0:
335,286,86317,2,0,P|377:268|397:265,2,52.4999983978272,2|2|0,1:2|2:0|1:0,2:0:0:0:
185,335,86831,2,0,P|129:316|130:273,1,98.4375037550928,2|0,2:0|2:0,2:0:0:0:
144,255,87174,1,2,2:0:0:0:
130,167,87345,5,2,1:2:0:0:
0,170,87517,2,0,L|10:215,1,32.8125012516976,8|8,2:3|2:3,2:0:0:0:
47,270,87688,1,8,2:3:0:0:
44,286,87774,1,8,2:3:0:0:
41,302,87860,1,10,2:3:0:0:
38,318,87945,1,12,2:3:0:0:
35,334,88031,6,0,L|49:384,1,52.4999983978272,2|0,1:2|2:0,2:0:0:0:
131,306,88374,2,0,L|146:231,1,52.4999983978272,2|2,1:2|2:0,2:0:0:0:
58,218,88631,1,2,2:0:0:0:
58,218,88717,2,0,L|45:272,1,52.4999983978272,0|2,1:0|2:0,2:0:0:0:
130,174,89060,1,2,1:2:0:0:
231,227,89231,1,0,2:0:0:0:
222,203,89317,1,2,2:0:0:0:
213,179,89402,6,0,P|245:158|260:135,1,52.4999983978272,2|2,1:2|2:0,2:0:0:0:
180,81,89745,2,0,P|165:97|173:78,1,52.4999983978272,0|0,1:0|2:0,2:0:0:0:
277,67,90088,2,0,B|292:65|311:35|311:35|327:52|354:57,1,96.250002937317,2|2,1:0|2:0,2:0:0:0:
426,0,90431,1,0,1:0:0:0:
460,116,90602,1,10,2:0:0:0:
428,124,90688,1,8,2:0:0:0:
396,133,90774,6,0,L|409:229,1,65.6250025033952,6|0,1:2|2:0,2:0:0:0:
501,325,91117,1,2,1:2:0:0:
469,252,91288,2,0,P|438:230|401:228,1,65.6250025033952,2|0,2:0|1:0,2:0:0:0:
407,310,91631,1,2,2:0:0:0:
236,304,91802,2,0,B|258:280|258:280|298:288,1,65.6250025033952,2|0,1:2|2:0,2:0:0:0:
332,356,92060,1,2,2:0:0:0:
332,356,92145,6,0,P|318:301|322:268,1,65.6250025033952,2|0,1:2|2:0,2:0:0:0:
459,273,92488,2,0,P|437:297|406:309,1,65.6250025033952,2|0,2:0|2:0,2:0:0:0:
385,228,92831,1,2,2:0:0:0:
352,135,93002,1,0,2:0:0:0:
271,111,93174,1,2,1:2:0:0:
166,158,93345,1,8,2:3:0:0:
177,178,93431,1,8,2:3:0:0:
189,197,93517,6,0,B|222:179|249:185|244:197|279:204|318:179,1,131.25000500679,6|2,1:2|1:2,2:0:0:0:
292,49,94031,2,0,P|278:78|271:110,1,65.6250025033952,2|0,2:0|1:0,2:0:0:0:
403,157,94374,1,2,2:0:0:0:
403,157,94545,2,0,P|386:129|361:107,1,65.6250025033952,2|12,1:2|2:0,2:0:0:0:
313,26,94888,1,0,1:0:0:0:
436,27,95060,2,0,L|420:151,1,98.4375037550928,2|0,2:0|2:0,2:0:0:0:
323,183,95402,2,0,P|359:179|379:186,1,32.8125012516976,10|8,2:0|2:0,2:0:0:0:
427,227,95574,5,2,1:0:0:0:
460,239,95660,1,0,1:0:0:0:
456,205,95745,1,4,2:3:0:0:
512,311,95917,5,2,1:0:0:0:
463,290,96002,1,8,2:0:0:0:
413,308,96088,1,10,2:0:0:0:
390,356,96174,1,8,2:0:0:0:
396,366,96602,6,0,B|302:380|302:380|293:366|293:366|205:382,1,201.250003838539,4|2,1:2|1:2,2:0:0:0:
147,314,97117,1,0,2:0:0:0:
147,314,97288,1,0,1:0:0:0:
243,158,97459,1,2,2:0:0:0:
278,278,97631,2,0,P|336:222|319:178,1,131.25000500679,2|0,1:2|1:0,2:0:0:0:
202,41,98145,1,2,2:0:0:0:
127,108,98317,2,0,B|203:108|177:158|247:158,1,131.25000500679,2|0,1:2|1:0,2:0:0:0:
408,211,98832,5,0,2:0:0:0:
408,211,98917,1,2,2:0:0:0:
408,211,99002,2,0,L|329:202,2,65.6250025033952,2|0|2,1:2|2:0|1:2,2:0:0:0:
252,283,99517,2,0,B|231:246|231:246|243:158,1,131.25000500679,2|2,2:0|2:0,2:0:0:0:
284,79,100030,1,0,1:2:0:0:
0,0,100374,5,2,1:2:0:0:
58,159,100545,2,2,B|111:198|169:139|145:65|79:28,1,218.75,2|2,1:0|2:0,1:0:0:0:
58,159,101060,2,0,P|-3:182|5:99,1,175,2|2,1:2|1:2,2:0:0:0:
240,131,101573,1,2,1:2:0:0:
243,158,101660,1,0,2:0:0:0:
246,185,101745,6,0,L|230:329,2,131.25000500679,4|2|0,1:2|1:2|1:0,2:0:0:0:
154,167,102602,1,0,2:0:0:0:
67,201,102774,2,0,P|41:252|65:296,1,98.4375037550928,2|2,1:2|2:0,2:0:0:0:
49,307,103117,2,0,L|118:295,1,65.6250025033952,2|0,1:2|2:0,2:0:0:0:
274,389,103460,1,2,1:2:0:0:
232,315,103631,2,0,L|187:261,1,65.6250025033952,2|0,2:0|1:2,2:0:0:0:
196,241,103889,1,2,2:0:0:0:
196,217,103974,2,0,L|151:163,2,65.6250025033952,2|0|0,2:0|1:0|2:0,2:0:0:0:
258,173,104402,5,0,2:0:0:0:
295,191,104488,2,0,P|345:178|363:100,1,131.25000500679,2|2,1:2|1:0,2:0:0:0:
239,0,105002,2,0,P|196:32|196:88,1,98.4375037550928,2|0,2:0|2:0,2:0:0:0:
201,97,105345,1,2,1:0:0:0:
154,167,105517,1,2,1:2:0:0:
296,288,105688,6,0,B|322:344|322:344|295:191,1,218.75,12|0,2:0|1:0,2:0:0:0:
104,280,106202,2,0,L|190:264,1,87.5,8|0,2:0|1:0,2:0:0:0:
377,201,106546,1,10,1:0:0:0:
337,181,106631,2,0,L|295:190,3,43.75,8|8|0|4,2:0|2:3|1:0|2:3,2:0:0:0:
115,92,107060,1,10,2:0:0:0:
159,69,107145,1,8,2:0:0:0:
201,97,107231,6,0,P|196:151|191:247,1,131.25,6|0,1:2|2:0,2:0:0:0:
121,293,107574,2,0,P|80:303|42:239,1,113.749994792938,10|2,1:0|2:0,2:0:0:0:
115,92,107917,1,2,1:2:0:0:
19,60,108088,2,0,P|26:105|32:158,1,87.5,0|0,1:0|2:0,2:0:0:0:
157,196,108431,1,10,2:1:0:0:
218,123,108602,6,0,P|223:79|229:36,1,87.5,0|0,2:0|1:0,2:0:0:0:
157,196,108945,1,8,2:0:0:0:
286,276,109117,1,10,2:0:0:0:
306,272,109202,1,8,2:0:0:0:
318,256,109288,5,2,1:2:0:0:
196,322,109460,1,0,1:0:0:0:
370,380,109631,2,0,P|417:368|456:364,1,87.5,8|10,2:0|2:3,2:0:0:0:
503,287,109888,1,4,2:3:0:0:
505,279,109974,6,0,P|511:231|447:168,1,131.25,2|0,1:2|2:0,2:0:0:0:
372,183,110317,1,10,2:0:0:0:
281,61,110488,2,0,L|291:11,2,43.75,2|2|0,2:0|2:0|2:0,2:0:0:0:
221,211,110831,2,0,L|207:121,1,87.5,2|0,1:2|2:0,2:0:0:0:
154,287,111174,6,0,P|184:255|306:272,1,175,8|0,2:0|1:0,2:0:0:0:
402,384,111688,2,0,L|313:369,1,87.5,8|0,2:0|2:0,2:0:0:0:
449,298,112031,1,10,2:1:0:0:
455,288,112116,1,0,1:2:0:0:
458,278,112202,1,0,1:2:0:0:
460,267,112288,1,0,1:2:0:0:
458,257,112374,5,10,1:2:0:0:
426,227,112459,1,8,2:0:0:0:
410,186,112545,1,10,2:0:0:0:
425,144,112631,1,8,2:0:0:0:
436,135,112717,6,0,B|392:150|349:123|349:123|290:123|278:179,1,175,4|8,1:2|2:0,2:0:0:0:
229,322,113231,1,0,1:0:0:0:
228,340,113317,1,0,1:0:0:0:
233,357,113402,1,0,1:0:0:0:
311,260,113574,1,0,1:0:0:0:
180,198,113745,1,2,2:0:0:0:
336,81,113917,1,12,1:2:0:0:
154,0,114088,6,0,L|172:99,1,87.5,0|0,2:0|1:0,2:0:0:0:
282,164,114431,1,10,2:0:0:0:
47,268,114688,1,8,2:0:0:0:
53,262,114774,2,0,P|92:248|145:264,1,87.5,0|2,1:0|1:2,2:0:0:0:
220,369,115117,1,8,2:0:0:0:
327,239,115288,1,8,2:0:0:0:
362,226,115374,1,8,2:0:0:0:
383,252,115460,6,0,P|376:295|372:341,1,87.5,6|0,1:2|2:0,2:0:0:0:
252,178,115802,1,10,2:0:0:0:
326,101,115974,2,0,P|353:97|382:108,2,43.75,2|0|0,2:0|2:0|2:0,2:0:0:0:
252,178,116317,1,2,1:2:0:0:
151,41,116488,1,2,1:2:0:0:
23,136,116660,1,12,2:0:0:0:
144,29,116831,6,0,L|157:124,1,87.5,0|0,2:0|1:0,2:0:0:0:
56,274,117174,2,0,P|83:229|163:233,1,131.25,10|8,2:0|2:0,2:0:0:0:
223,285,117517,1,10,2:1:0:0:
344,195,117688,1,8,2:0:0:0:
349,174,117774,1,8,2:0:0:0:
339,155,117860,1,10,2:0:0:0:
268,64,118031,1,8,2:0:0:0:
487,34,118202,6,0,P|447:25|455:126,1,175,6|0,1:2|2:0,2:0:0:0:
391,241,118717,1,2,1:2:0:0:
391,241,118888,2,0,P|426:248|461:258,1,70,8|0,2:0|2:0,2:0:0:0:
339,155,119231,1,2,1:2:0:0:
267,321,119403,6,0,B|243:328|216:316|208:292|208:289|209:286|190:265|159:261|133:275,1,140,0|10,1:0|2:0,2:0:0:0:
88,322,119917,1,2,2:0:0:0:
0,204,120088,2,0,P|18:201|33:194,1,35,2|0,1:2|1:0,2:0:0:0:
98,132,120260,6,0,B|143:106|182:127|206:134|165:166|227:207|280:151|242:88|190:93|182:128|200:156,1,227.499989585877,14|2,2:0|2:0,2:0:0:0:
167,46,120688,1,2,2:0:0:0:
165,39,120774,1,2,1:2:0:0:
163,32,120860,1,2,2:0:0:0:
171,7,120945,6,0,B|239:3|271:48|271:48|292:11|334:9,1,175,6|2,1:2|2:0,2:0:0:0:
424,93,121460,1,2,1:2:0:0:
416,101,121631,2,0,L|343:85,1,70,8|0,2:0|2:0,2:0:0:0:
249,178,121974,1,6,1:2:0:0:
359,322,122145,6,0,B|373:260|373:260|380:254|380:254|394:185,1,140,0|10,1:0|2:0,2:0:0:0:
458,327,122660,1,2,2:0:0:0:
289,253,122831,2,0,L|232:258,1,35,2|0,1:2|1:0,2:0:0:0:
109,216,123003,6,0,B|93:208|93:208|132:208|157:175|157:175|125:206|104:246|119:289|137:307,1,227.499989585877,10|10,2:0|2:0,2:0:0:0:
187,371,123431,1,8,2:0:0:0:
194,373,123517,1,8,2:0:0:0:
201,375,123603,1,8,2:0:0:0:
220,350,123688,6,0,P|219:337|195:306,1,43.75,2|0,2:0|2:0,2:0:0:0:
128,296,124031,1,2,2:0:0:0:
128,296,124202,1,2,2:0:0:0:
62,52,125060,6,0,L|42:157,1,87.5,2|0,2:0|2:0,2:0:0:0:
53,38,125574,1,2,2:0:0:0:
180,134,125745,1,2,2:0:0:0:
182,124,125830,1,2,2:0:0:0:
183,113,125916,1,2,1:2:0:0:
184,102,126002,1,2,1:2:0:0:
185,91,126088,6,0,P|153:99|143:100,1,43.75,10|4,2:3|2:3,2:0:0:0:
34,155,126260,2,0,P|66:163|76:164,1,43.75,0|0,1:0|1:0,2:0:0:0:
233,227,126431,6,0,P|163:244|151:314,1,131.25,6|0,1:2|2:0,2:0:0:0:
205,341,126774,1,0,1:0:0:0:
213,347,126945,1,0,1:0:0:0:
66,280,127117,5,8,2:0:0:0:
233,227,127288,1,10,2:0:0:0:
316,342,127460,1,10,2:0:0:0:
468,298,127631,2,0,B|496:282|485:241|485:241|467:224|449:196|449:196|404:211|399:248,1,175,14|8,2:0|2:0,2:0:0:0:
396,249,128060,1,8,2:0:0:0:
391,264,128145,1,8,2:0:0:0:
226,183,128317,2,0,L|232:226,1,43.75,8|8,2:0|2:0,2:0:0:0:
243,301,128488,5,8,2:0:0:0:
378,134,128660,1,8,2:0:0:0:
376,143,128745,1,8,2:0:0:0:
374,152,128831,1,8,2:0:0:0:
228,62,129003,2,0,L|235:108,1,43.75,4|0,1:3|1:0,2:0:0:0:
226,183,129174,5,10,2:0:0:0:
325,63,129345,2,0,L|238:47,1,87.5,2|0,1:2|2:0,2:0:0:0:
64,150,129688,2,0,L|151:134,1,87.5,10|0,2:0|2:0,2:0:0:0:
295,224,130031,2,0,P|269:192|208:187,1,87.5,2|0,1:2|1:0,2:0:0:0:
420,193,130374,6,0,P|400:259|441:321,1,131.25,14|0,2:0|2:0,2:0:0:0:
329,119,130717,2,0,P|350:115|364:99,1,43.75,8|0,1:3|2:0,2:0:0:0:
370,18,130888,1,8,1:3:0:0:
370,18,131231,6,0,P|305:33|335:120,1,175,2|2,2:0|2:0,2:0:0:0:
228,175,131917,5,6,1:2:0:0:
304,148,132088,1,2,2:0:0:0:
344,278,132260,1,10,2:0:0:0:
494,126,132431,2,0,B|460:124|425:96|425:96|421:137|401:174|372:199,1,192.500005874634,2|0,1:2|1:0,2:0:0:0:
297,143,132945,5,10,2:0:0:0:
232,96,133117,1,2,2:0:0:0:
321,49,133288,5,2,1:2:0:0:
213,183,133460,1,2,1:2:0:0:
328,44,133631,1,8,2:0:0:0:
102,32,133802,2,0,B|124:21|150:5|150:5|231:15|231:95,1,192.500005874634,2|0,1:2|1:0,2:0:0:0:
134,150,134317,1,10,2:0:0:0:
7,15,134488,1,0,2:0:0:0:
0,158,134660,6,0,B|46:171|111:172|111:172|134:149|134:149|104:135|80:157,1,192.500005874634,2|8,1:2|2:0,2:0:0:0:
99,257,135174,2,0,L|78:371,1,96.250002937317,2|0,1:2|2:0,2:0:0:0:
220,230,135517,2,0,L|213:183,1,48.1250014686585,2|0,1:2|2:0,2:0:0:0:
239,344,135688,5,10,2:0:0:0:
315,315,135860,1,2,2:0:0:0:
420,173,136031,5,2,1:2:0:0:
420,173,136203,1,0,1:0:0:0:
439,255,136374,2,0,B|419:263|399:277|399:277|362:219|285:228,1,144.375004405975,12|0,2:0|2:0,2:0:0:0:
239,239,136717,1,2,1:2:0:0:
188,99,136888,1,0,1:0:0:0:
299,57,137060,1,12,2:0:0:0:
273,132,137231,1,2,2:0:0:0:
130,165,137402,6,0,L|29:133,1,96.250002937317,4|2,1:2|2:0,2:0:0:0:
165,24,137745,1,10,2:0:0:0:
188,99,137917,1,2,1:2:0:0:
141,247,138088,1,2,2:0:0:0:
267,123,138260,2,0,L|370:98,1,96.250002937317,2|8,1:2|2:0,2:0:0:0:
496,70,138602,6,0,B|471:62|457:25|457:25|462:65|462:92|430:100|447:165,1,192.500005874634,2|2,1:2|1:2,2:0:0:0:
511,268,139117,2,0,P|469:244|423:232,1,96.250002937317,10|0,2:0|2:0,2:0:0:0:
262,344,139460,1,2,2:0:0:0:
348,191,139631,2,0,P|327:220|257:272,1,96.250002937317,2|8,1:2|2:0,2:0:0:0:
196,104,139974,1,2,1:2:0:0:
105,223,140145,6,0,P|204:207|282:133,1,192.500005874634,4|10,1:2|2:0,2:0:0:0:
282,68,140660,1,2,1:2:0:0:
282,259,140831,2,0,P|316:297|366:313,1,96.250002937317,2|2,2:0|1:2,2:0:0:0:
439,170,141174,2,0,P|394:187|363:223,1,96.250002937317,10|2,2:0|2:0,2:0:0:0:
486,314,141517,5,4,1:2:0:0:
512,227,141688,1,0,1:0:0:0:
470,73,141860,1,8,2:0:0:0:
363,222,142031,1,8,2:0:0:0:
318,132,142202,6,0,P|311:102|307:76,3,48.1250014686585,2|0|8|8,1:2|2:0|2:0|2:0,2:0:0:0:
287,203,142545,5,10,2:0:0:0:
260,211,142630,1,8,2:0:0:0:
236,229,142716,1,8,2:0:0:0:
212,246,142802,1,8,2:0:0:0:
185,253,142887,5,6,1:2:0:0:
51,281,143059,1,2,2:0:0:0:
126,311,143231,1,10,2:0:0:0:
0,172,143402,2,0,B|27:144|32:99|32:99|76:113|91:152|91:152|104:139|121:131,1,192.500005874634,2|0,1:2|1:0,2:0:0:0:
224,91,143917,5,10,2:0:0:0:
149,61,144088,1,2,2:0:0:0:
311,17,144259,5,2,1:2:0:0:
205,175,144431,1,2,1:2:0:0:
286,151,144602,1,8,2:0:0:0:
260,337,144774,1,2,1:2:0:0:
221,263,144945,6,0,B|276:229|330:247|330:247,1,96.250002937317,2|0,2:0|1:0,2:0:0:0:
347,258,145202,1,2,1:2:0:0:
347,258,145288,1,10,2:0:0:0:
418,200,145460,1,2,2:0:0:0:
285,53,145631,6,0,P|297:155|315:251,1,192.500005874634,2|8,1:2|2:0,2:0:0:0:
435,297,146145,1,2,1:2:0:0:
436,323,146488,5,2,1:2:0:0:
511,221,146660,1,10,2:0:0:0:
445,112,146831,1,2,2:0:0:0:
445,112,147002,5,2,1:2:0:0:
347,258,147174,1,0,1:0:0:0:
511,221,147345,2,0,P|462:205|415:199,1,96.250002937317,12|2,2:0|1:2,2:0:0:0:
335,162,147602,1,0,1:2:0:0:
325,168,147688,6,0,P|276:183|229:189,1,96.250002937317,2|0,1:2|1:0,2:0:0:0:
148,166,148031,1,12,2:0:0:0:
302,32,148202,1,2,1:2:0:0:
335,49,148288,1,0,1:0:0:0:
360,77,148374,6,0,L|349:251,1,144.375004405975,4|0,1:2|2:0,2:0:0:0:
347,258,148717,1,10,2:0:0:0:
272,288,148888,1,0,1:0:0:0:
168,152,149060,1,2,2:0:0:0:
108,280,149231,2,0,P|153:296|196:319,1,96.250002937317,2|8,1:2|2:0,2:0:0:0:
132,383,149574,1,2,1:2:0:0:
4,238,149745,6,0,P|40:207|77:118,1,144.375004405975,4|0,1:2|2:0,2:0:0:0:
86,85,150088,2,0,P|67:59|83:89,1,96.250002937317,10|0,2:0|1:0,2:0:0:0:
244,78,150431,1,2,2:0:0:0:
167,112,150602,2,0,P|170:161|177:207,1,96.250002937317,2|8,1:2|2:0,2:0:0:0:
219,315,150945,1,2,1:2:0:0:
329,158,151117,6,0,P|319:213|305:333,1,144.375004405975,4|0,1:2|2:0,2:0:0:0:
316,384,151460,1,10,2:0:0:0:
458,283,151631,1,2,1:2:0:0:
445,364,151802,5,2,2:0:0:0:
445,364,151974,1,2,1:2:0:0:
398,223,152145,1,10,2:0:0:0:
219,315,152317,1,2,2:0:0:0:
164,134,152488,6,0,B|202:102|202:102|247:120,1,96.250002937317,4|0,1:2|1:0,2:0:0:0:
109,197,152831,1,12,2:0:0:0:
72,18,153002,1,0,1:0:0:0:
0,128,153174,6,0,P|11:157|16:189,1,64.166668624878,8|8,2:0|2:0,2:0:0:0:
23,270,153402,5,8,2:3:0:0:
16,352,153517,6,0,P|38:330|65:312,1,64.166668624878,6|4,2:3|1:3,2:0:0:0:
147,301,153745,5,0,1:0:0:0:
226,329,153860,6,0,B|258:327|281:333|281:333|300:302|301:280|301:255|301:255|284:231|282:206|282:206|276:236|252:262,1,236.249992790222,6|0,1:2|1:0,2:0:0:0:
201,192,154545,2,0,P|173:197|198:185,1,78.7499975967408,12|0,2:0|2:0,2:0:0:0:
364,196,154888,1,2,2:0:0:0:
371,118,155060,1,8,2:0:0:0:
287,55,155231,5,2,1:2:0:0:
287,55,155402,2,0,P|283:94|288:133,1,78.7499975967408,8|2,2:0|2:0,2:0:0:0:
481,259,155745,1,2,1:2:0:0:
481,259,155831,1,0,1:0:0:0:
481,259,155917,6,0,B|478:193|444:160|444:160|417:199|369:205,1,175,12|6,2:0|2:3,2:0:0:0:
212,146,156431,1,0,1:0:0:0:
187,150,156517,1,0,1:0:0:0:
165,154,156602,6,0,B|153:207|188:230|188:230|190:207|181:181,1,131.25,6|0,1:2|2:0,2:0:0:0:
292,211,156945,2,0,P|240:186|202:187,1,87.5,2|0,2:0|1:0,2:0:0:0:
162,328,157288,2,0,P|208:296|227:262,1,87.5,14|0,2:0|2:0,2:0:0:0:
96,246,157631,5,2,1:2:0:0:
18,231,157802,1,8,2:0:0:0:
0,384,157974,5,4,1:2:0:0:
0,384,158145,2,0,P|78:341|175:329,1,175,8|2,2:0|1:2,2:0:0:0:
277,289,158660,2,0,P|225:264|202:234,1,87.5,12|10,2:0|1:3,2:0:0:0:
171,94,159002,1,10,2:0:0:0:
167,110,159087,1,8,2:0:0:0:
164,127,159173,1,10,2:0:0:0:
160,144,159259,1,0,2:0:0:0:
158,160,159345,6,0,P|54:82|80:37,1,175,6|8,1:2|2:0,2:0:0:0:
228,0,159860,1,2,2:0:0:0:
287,55,160031,1,0,2:0:0:0:
346,0,160202,1,0,1:0:0:0:
466,126,160373,5,8,2:0:0:0:
373,163,160545,1,8,2:3:0:0:
373,163,160631,1,4,2:3:0:0:
373,163,160717,2,0,B|350:272|440:211|413:319,1,175,4|8,1:2|2:0,2:0:0:0:
259,254,161231,2,0,L|266:203,4,43.75,0|8|0|0|0,1:0|2:3|1:0|2:0|1:0,2:0:0:0:
236,331,161745,1,8,2:0:0:0:
313,353,161917,1,0,1:0:0:0:
373,163,162088,6,0,B|354:128|361:41|361:41|354:83|316:102,1,175,4|8,1:2|2:0,2:0:0:0:
201,48,162602,1,0,1:0:0:0:
213,25,162687,1,8,2:3:0:0:
233,7,162773,1,0,1:0:0:0:
258,0,162859,1,4,2:3:0:0:
284,2,162944,1,0,1:0:0:0:
206,155,163117,2,0,L|198:68,1,87.5,10|0,2:0|1:0,2:0:0:0:
121,0,163460,5,10,2:0:0:0:
81,169,163631,1,10,2:0:0:0:
27,107,163802,1,0,1:0:0:0:
0,267,163974,2,0,B|84:260|84:260|97:272|97:272|182:266,1,175,10|2,1:2|1:2,2:0:0:0:
0,267,164488,6,0,B|111:241|111:241|36:283,1,196.875007510186,12|0,2:0|2:0,2:0:0:0:
35,296,164831,1,6,1:2:0:0:
512,388,175289,5,0,1:0:0:0:
512,388,175374,1,0,1:0:0:0:
512,388,175460,1,0,1:0:0:0:
416,316,175802,6,0,P|377:255|389:192,2,140,6|0|2,1:2|1:0|1:2,2:0:0:0:
416,316,176831,2,0,L|340:301,1,70,0|0,1:0|2:0,2:0:0:0:
225,371,177174,6,0,L|149:386,1,70,2|2,1:2|2:0,2:0:0:0:
137,305,177431,1,2,2:0:0:0:
137,305,177517,2,0,L|205:291,1,70,0|0,1:0|2:0,2:0:0:0:
322,194,177860,2,0,P|330:152|315:118,1,70,2|0,1:2|2:0,2:0:0:0:
194,0,178202,2,0,P|184:33|193:66,1,70,0|0,1:0|2:0,2:0:0:0:
321,127,178545,6,0,L|472:105,2,140,2|0|2,1:2|1:0|1:2,2:0:0:0:
112,204,179488,1,2,2:0:0:0:
112,204,179574,2,0,L|28:193,1,70,0|0,1:0|2:0,2:0:0:0:
173,276,179917,6,0,P|203:229|180:140,1,140,2|0,1:2|1:0,2:0:0:0:
354,13,180602,2,0,L|366:128,1,105,2|2,1:2|2:0,2:0:0:0:
373,128,180945,1,0,1:0:0:0:
485,231,181117,2,0,P|489:209|476:223,1,56.8749973964692,2|0,2:0|2:0,2:0:0:0:
426,308,181288,6,0,B|354:311|366:262|280:277,2,140,6|0|2,1:2|1:0|1:2,2:0:0:0:
426,308,182317,2,0,P|437:345|426:373,1,70,0|0,1:0|2:0,2:0:0:0:
384,198,182660,6,0,L|395:119,1,70,2|8,1:2|2:0,2:0:0:0:
347,56,182917,1,8,2:0:0:0:
340,52,183002,2,0,P|310:46|284:57,3,35,8|8|8|8,1:2|2:0|2:0|2:0,2:0:0:0:
237,102,183345,2,0,P|207:108|181:97,3,35,10|8|8|8,2:0|2:0|2:0|2:0,2:0:0:0:
136,47,183688,1,8,2:0:0:0:
125,42,183773,1,8,2:0:0:0:
113,40,183859,1,8,2:0:0:0:
102,41,183945,1,8,2:0:0:0:
66,65,184031,6,0,B|79:182|79:182|87:146|122:133,1,170.624992189408,6|0,1:2|2:0,2:0:0:0:
161,202,184374,1,8,2:0:0:0:
19,349,184545,6,0,B|50:313|90:310|127:318|127:318|133:357|173:370,1,170.624992189408,6|0,1:2|2:0,2:0:0:0:
210,300,184888,1,8,2:0:0:0:
391,377,185060,6,0,P|446:342|432:234,1,170.624992189408,6|0,1:2|2:0,2:0:0:0:
319,284,185402,2,0,L|385:296,1,56.8749973964692,8|0,2:0|2:0,2:0:0:0:
277,191,185574,6,0,B|204:199|204:199|193:206|193:206|98:218,1,170.624992189408,6|0,1:2|2:0,2:0:0:0:
29,177,185917,2,0,P|16:149|27:120,1,56.8749973964692,8|0,2:0|2:0,2:0:0:0:
137,6,186088,6,0,P|180:3|173:105,1,170.624992189408,6|0,1:2|2:0,2:0:0:0:
95,124,186431,2,0,L|25:112,1,56.8749973964692,8|0,2:0|2:0,2:0:0:0:
199,191,186602,6,0,B|235:188|257:159|257:159|253:186|245:223|195:254|195:254|249:262|282:254|304:273|304:273|275:273|242:281|215:292|178:317|160:389,1,483.437477869989,6|0,1:2|2:0,2:0:0:0:
166,382,188145,6,0,L|112:371,3,43.75,8|8|4|0,2:0|2:3|2:3|1:0,2:0:0:0:
55,313,188488,2,0,L|6:319,1,43.75,0|0,1:0|1:0,2:0:0:0:
138,285,188660,6,0,L|181:294,3,43.75,8|8|4|4,2:0|2:3|2:3|2:3,2:0:0:0:
70,225,189003,2,0,L|21:231,1,43.75,0|0,1:0|1:0,2:0:0:0:
141,169,189174,2,0,P|150:124|128:84,1,87.5,12|0,2:0|2:0,2:0:0:0:
66,39,189431,1,8,1:2:0:0:
66,39,189517,6,0,L|11:46,3,43.75,6|0|2|2,1:2|2:0|2:0|2:0,2:0:0:0:
60,118,189860,1,10,2:0:0:0:
146,12,190031,1,2,1:2:0:0:
251,107,190202,5,2,2:0:0:0:
325,87,190374,1,2,1:2:0:0:
236,194,190545,5,10,2:0:0:0:
141,169,190717,1,2,2:0:0:0:
309,163,190888,5,2,1:2:0:0:
201,267,191060,1,2,1:2:0:0:
362,224,191231,5,10,2:0:0:0:
327,375,191402,1,2,1:2:0:0:
292,270,191574,5,2,2:0:0:0:
445,212,191745,1,2,1:2:0:0:
502,134,191917,5,10,2:0:0:0:
349,76,192088,1,2,2:0:0:0:
512,282,192260,6,0,B|439:275|467:325|372:310,1,131.25,2|0,1:2|2:0,2:0:0:0:
333,263,192602,1,8,2:0:0:0:
201,356,192774,1,2,1:2:0:0:
201,356,192860,1,2,1:2:0:0:
201,356,192945,2,0,P|211:314|214:266,1,87.5,2|2,1:2|1:2,2:0:0:0:
229,249,193202,2,0,P|224:206|210:159,1,87.5,2|0,1:2|2:0,2:0:0:0:
193,149,193460,1,2,2:0:0:0:
73,238,193631,5,2,1:2:0:0:
73,238,193802,1,0,1:0:0:0:
176,135,193974,2,0,L|83:126,1,87.5,12|2,2:0|2:0,2:0:0:0:
302,204,194317,5,2,1:2:0:0:
302,204,194488,1,0,1:0:0:0:
201,51,194660,2,0,L|294:42,1,87.5,12|2,2:0|2:0,2:0:0:0:
479,122,195002,5,6,1:2:0:0:
506,195,195174,1,2,2:0:0:0:
494,273,195345,1,10,2:0:0:0:
401,109,195517,2,0,L|390:14,1,87.5,2|0,1:2|2:0,2:0:0:0:
488,60,195860,5,2,1:2:0:0:
328,158,196031,1,10,2:0:0:0:
410,202,196202,1,2,2:0:0:0:
410,202,196288,1,2,2:0:0:0:
410,202,196374,5,2,1:2:0:0:
371,277,196545,1,2,2:0:0:0:
289,233,196716,1,10,2:0:0:0:
113,299,196888,6,0,B|130:242|204:252|204:252|215:296|253:304,1,175,2|2,1:2|1:2,2:0:0:0:
175,168,197402,1,10,2:0:0:0:
289,233,197574,1,2,2:0:0:0:
236,80,197745,5,2,1:2:0:0:
215,51,197831,1,2,2:0:0:0:
181,40,197917,1,2,2:0:0:0:
146,45,198002,1,2,2:0:0:0:
138,69,198088,5,10,2:0:0:0:
103,74,198173,1,2,2:0:0:0:
69,63,198259,1,2,1:2:0:0:
48,34,198345,1,2,2:0:0:0:
47,21,198431,6,0,P|22:20|-10:11,2,43.75,2|0|2,1:2|2:0|2:0,2:0:0:0:
84,96,198688,6,0,P|105:100|127:100,2,43.75,2|8|0,2:0|2:0|2:0,2:0:0:0:
4,158,198945,1,2,2:0:0:0:
117,256,199117,2,0,P|137:207|219:191,1,131.25,14|8,2:0|2:0,2:0:0:0:
266,234,199460,2,0,L|270:288,3,43.75,8|8|8|8,1:2|2:0|2:0|2:0,2:0:0:0:
400,263,199802,5,8,1:2:0:0:
396,240,199888,1,8,2:0:0:0:
392,218,199974,1,8,2:0:0:0:
389,196,200060,1,8,2:0:0:0:
385,174,200145,5,10,1:2:0:0:
349,171,200231,1,10,2:0:0:0:
316,159,200317,1,10,2:0:0:0:
296,130,200402,1,10,2:0:0:0:
301,98,200488,6,0,P|354:106|373:176,1,100.62500191927,6|2,1:2|2:0,2:0:0:0:
396,240,200831,1,10,2:0:0:0:
508,123,201002,2,0,P|501:206|513:324,1,201.250003838539,2|2,1:2|1:2,2:0:0:0:
282,276,201517,2,0,L|399:263,1,100.62500191927,10|2,2:0|1:2,2:0:0:0:
393,240,201774,1,0,1:2:0:0:
393,240,201860,6,0,L|292:251,1,100.62500191927,0|2,1:0|1:2,2:0:0:0:
225,197,202202,1,10,2:0:0:0:
76,280,202374,1,2,1:2:0:0:
181,376,202545,1,2,2:0:0:0:
201,296,202717,1,2,1:2:0:0:
86,184,202888,2,0,B|103:249|57:217|77:287,1,100.62500191927,10|2,2:0|2:0,2:0:0:0:
181,376,203230,5,2,1:2:0:0:
343,366,203402,1,2,2:0:0:0:
363,286,203574,1,10,2:0:0:0:
201,296,203745,2,0,P|172:255|157:221,1,50.3125009596348,2|2,1:2|1:2,2:0:0:0:
225,197,203917,2,0,P|249:146|197:92,1,100.62500191927,2|2,1:2|1:2,2:0:0:0:
69,0,204260,1,10,1:2:0:0:
69,0,204431,1,2,2:0:0:0:
97,161,204602,6,0,L|128:44,1,100.62500191927,2|0,1:2|2:0,2:0:0:0:
358,0,204945,2,0,L|327:117,1,100.62500191927,12|2,2:0|1:2,2:0:0:0:
350,137,205202,1,2,1:2:0:0:
367,176,205288,1,2,1:2:0:0:
470,258,205459,1,0,1:0:0:0:
470,258,205545,1,0,1:2:0:0:
470,258,205631,2,0,B|496:251|496:251|530:215|497:151|441:151,1,170.624992189408,14|2,1:2|1:2,2:0:0:0:
367,176,205974,6,0,L|233:186,1,100.62500191927,6|2,1:2|2:0,2:0:0:0:
227,256,206317,1,10,2:0:0:0:
332,97,206488,2,0,B|342:193|342:193|354:205|354:205|364:297,1,201.250003838539,2|2,1:2|1:2,2:0:0:0:
219,155,207002,2,0,L|227:256,1,100.62500191927,10|2,1:2|1:2,2:0:0:0:
171,342,207346,5,6,1:2:0:0:
107,336,207460,5,2,2:0:0:0:
64,380,207574,5,2,2:0:0:0:
0,374,207688,6,0,B|-8:349|-3:328|-3:328|-10:285,2,67.0833346128464,10|0|0,2:0|2:0|2:0,2:0:0:0:
64,380,208031,5,2,1:2:0:0:
227,256,208203,1,2,1:2:0:0:
20,140,208374,1,10,2:0:0:0:
52,231,208545,1,2,2:0:0:0:
266,183,208717,6,0,P|272:124|245:88,2,100.62500191927,6|0|8,1:2|2:0|2:0,2:0:0:0:
227,256,209231,2,0,P|344:197|446:200,1,201.250003838539,0|2,1:0|1:2,2:0:0:0:
512,256,209745,1,10,2:0:0:0:
512,256,209917,1,2,2:0:0:0:
342,284,210088,5,6,1:2:0:0:
412,194,210259,1,0,2:0:0:0:
319,1,210431,1,10,2:0:0:0:
249,91,210602,1,2,2:0:0:0:
249,91,210688,1,2,2:0:0:0:
249,91,210774,2,0,B|239:111|239:111|251:196,2,87.5000033378602,10|8|8,2:0|2:3|2:3,2:0:0:0:
219,199,211117,6,0,L|227:256,1,58.3333333333333,6|4,2:3|1:3,2:0:0:0:
246,339,211460,6,0,B|191:357|163:288|165:364|82:316|82:316,1,154.000004699707,6|0,1:2|2:0,2:0:0:0:
22,366,211974,1,0,1:0:0:0:
32,178,212145,2,0,P|11:122|-29:97,1,77.0000023498536,12|0,2:0|2:0,2:0:0:0:
22,258,212488,1,2,2:0:0:0:
98,230,212660,1,8,2:3:0:0:
119,61,212831,5,2,1:2:0:0:
188,126,213002,2,0,P|174:201|168:222,1,77.0000023498536,8|0,2:0|2:0,2:0:0:0:
277,273,213345,1,2,1:2:0:0:
277,273,213517,2,0,P|272:238|254:178,1,77.0000023498536,12|0,2:0|2:0,2:0:0:0:
212,337,213860,1,2,1:2:0:0:
359,239,214031,1,2,1:2:0:0:
475,262,214202,6,0,B|460:251|451:234|449:212|449:212|426:221|401:210|370:221|351:250,1,154.000004699707,14|2,2:0|2:0,2:0:0:0:
430,332,214717,1,0,1:0:0:0:
512,154,214888,2,0,L|493:56,1,77.0000023498536,10|0,2:0|2:0,2:0:0:0:
352,79,215231,1,2,2:0:0:0:
335,157,215402,1,8,2:0:0:0:
244,265,215574,5,0,1:0:0:0:
244,265,215745,2,0,P|296:241|331:233,1,77.0000023498536,8|2,2:0|2:0,2:0:0:0:
277,342,216088,1,0,1:0:0:0:
211,184,216260,5,8,2:0:0:0:
207,177,216345,1,0,1:0:0:0:
202,171,216431,2,0,P|176:155|146:147,1,38.5000011749268,0|0,1:0|2:0,2:0:0:0:
149,67,216602,5,8,2:3:0:0:
140,68,216687,1,0,1:0:0:0:
133,72,216774,2,0,P|110:92|95:119,1,38.5000011749268,0|0,1:0|2:0,2:0:0:0:
25,66,216945,6,0,B|15:85|16:121|16:121|6:155|6:155|9:187|-11:233,1,154.000004699707,6|2,1:2|2:0,2:0:0:0:
37,285,217460,1,0,1:0:0:0:
223,257,217631,2,0,P|220:202|208:179,1,77.0000023498536,8|0,2:0|2:0,2:0:0:0:
159,309,217974,1,2,2:0:0:0:
178,384,218145,1,0,1:0:0:0:
110,199,218317,5,2,1:2:0:0:
110,199,218488,2,0,L|205:180,1,77.0000023498536,8|0,2:0|2:0,2:0:0:0:
230,120,218831,1,6,1:2:0:0:
324,283,219002,5,8,2:0:0:0:
248,267,219174,1,4,1:2:0:0:
401,240,219345,1,2,2:0:0:0:
257,348,219517,1,0,1:0:0:0:
397,230,219688,6,0,P|409:193|409:155,1,77.0000023498536,6|0,1:2|2:0,2:0:0:0:
488,116,220031,2,0,P|462:87|429:68,1,77.0000023498536,2|0,2:0|1:0,2:0:0:0:
211,79,220374,1,10,2:0:0:0:
250,161,220560,1,8,2:0:0:0:
250,161,220732,2,0,P|287:174|325:178,1,77.0000023498536,0|0,2:0|1:0,2:0:0:0:
429,68,221075,5,2,1:2:0:0:
504,236,221246,2,0,L|521:61,1,154.000004699707,8|2,2:0|1:2,2:0:0:0:
425,299,221760,2,0,L|431:367,2,38.5000011749268,10|8|0,2:0|2:0|1:0,2:0:0:0:
250,161,222092,5,12,2:0:0:0:
287,154,222177,1,0,2:0:0:0:
321,170,222263,1,2,2:0:0:0:
341,202,222349,1,2,2:0:0:0:
339,240,222431,6,0,B|268:216|266:297|182:257,1,154.000004699707,6|0,1:2|1:0,2:0:0:0:
30,278,222945,1,0,1:0:0:0:
107,376,223117,2,0,P|111:334|119:288,2,77.0000023498536,12|0|0,2:0|1:0|2:0,2:0:0:0:
30,278,223631,1,2,2:0:0:0:
30,278,223717,1,0,1:0:0:0:
30,278,223802,6,0,P|26:236|18:191,1,77.0000023498536,2|8,1:2|2:0,2:0:0:0:
94,22,224145,1,0,2:0:0:0:
156,84,224317,1,2,1:2:0:0:
0,118,224488,2,0,P|42:109|80:107,1,77.0000023498536,12|8,2:0|2:3,2:0:0:0:
251,14,224831,2,0,P|212:11|175:2,1,77.0000023498536,6|0,2:3|1:0,2:0:0:0:
284,173,225174,6,0,P|333:132|430:157,1,154.000004699707,6|2,1:2|1:2,2:0:0:0:
498,308,225688,1,0,1:0:0:0:
364,222,225860,2,0,P|414:231|468:245,1,77.0000023498536,14|0,2:0|2:0,2:0:0:0:
377,364,226202,2,0,P|339:373|302:380,1,77.0000023498536,2|8,2:0|2:0,2:0:0:0:
151,261,226545,5,0,1:0:0:0:
151,261,226717,1,10,2:0:0:0:
236,238,226888,2,0,L|224:321,1,77.0000023498536,0|2,2:0|1:2,2:0:0:0:
53,381,227231,1,8,2:0:0:0:
0,313,227402,1,2,1:2:0:0:
1,305,227488,1,0,1:0:0:0:
2,297,227574,1,14,2:0:0:0:
100,149,227745,1,0,2:0:0:0:
154,214,227917,6,0,P|111:234|20:175,1,154.000004699707,6|2,1:2|1:2,2:0:0:0:
182,133,228431,1,2,2:0:0:0:
226,278,228602,2,0,P|233:222|239:183,1,77.0000023498536,0|2,1:0|2:0,2:0:0:0:
357,65,228945,1,2,1:2:0:0:
420,121,229117,1,2,2:0:0:0:
418,130,229202,1,0,2:0:0:0:
417,138,229288,6,0,P|460:129|501:125,1,77.0000023498536,2|2,1:2|2:0,2:0:0:0:
311,214,229631,2,0,P|268:205|227:201,1,77.0000023498536,2|2,1:2|2:0,2:0:0:0:
98,70,229974,1,0,2:0:0:0:
190,48,230145,1,2,2:0:0:0:
190,48,230317,2,0,L|176:139,1,77.0000023498536,2|2,1:2|2:0,2:0:0:0:
43,235,230660,6,0,L|31:158,1,77.0000023498536,6|2,1:2|2:0,2:0:0:0:
123,270,231002,1,2,1:2:0:0:
54,324,231174,2,0,L|5:316,1,38.5000011749268,10|0,2:0|2:0,2:0:0:0:
134,354,231345,2,0,L|227:341,1,77.0000023498536,0|10,1:0|2:0,2:0:0:0:
309,230,231688,2,0,P|347:226|386:246,1,77.0000023498536,2|0,1:2|2:0,2:0:0:0:
489,384,232031,5,2,1:0:0:0:
511,296,232202,1,2,2:0:0:0:
511,296,232288,1,2,2:0:0:0:
511,296,232374,2,0,L|424:311,1,77.0000023498536,0|10,2:0|2:0,2:0:0:0:
309,230,232717,2,0,P|296:191|318:143,1,77.0000023498536,0|10,1:0|2:0,2:0:0:0:
362,94,232974,1,8,2:0:0:0:
367,90,233060,2,0,L|415:97,1,38.5000011749268,2|8,1:2|2:0,2:0:0:0:
324,15,233231,2,0,L|276:22,1,38.5000011749268,10|8,2:0|2:0,2:0:0:0:
217,82,233402,5,2,1:2:0:0:
197,84,233487,1,8,2:0:0:0:
178,81,233573,1,8,2:0:0:0:
161,73,233659,1,8,2:0:0:0:
146,61,233744,1,8,2:0:0:0:
131,49,233830,1,8,2:0:0:0:
113,42,233916,1,8,2:0:0:0:
94,40,234002,1,8,2:0:0:0:
75,42,234088,6,0,P|80:70|81:97,3,38.5000011749268,8|8|8|8,1:2|2:0|2:0|2:0,2:0:0:0:
12,141,234431,2,0,P|7:169|6:196,3,38.5000011749268,8|8|8|8,2:0|2:0|2:0|2:0,2:0:0:0:
54,276,234774,5,2,1:2:0:0:
81,284,234859,1,8,2:0:0:0:
110,283,234945,1,8,2:0:0:0:
137,274,235031,1,8,2:0:0:0:
161,258,235116,1,0,1:0:0:0:
186,243,235202,1,8,2:0:0:0:
212,231,235288,1,8,2:0:0:0:
241,228,235374,1,8,2:0:0:0:
269,234,235460,6,0,P|305:247|327:261,1,38.5000011749268,0|8,1:0|2:3,2:0:0:0:
419,145,235631,2,0,P|401:152|382:158,1,38.5000011749268,4|0,2:3|1:0,2:0:0:0:
304,106,235802,5,8,2:0:0:0:
414,312,235974,1,8,2:0:0:0:
177,121,236831,6,0,L|164:172,1,38.5000011749268,10|8,2:3|2:3,2:0:0:0:
188,244,237002,1,4,2:3:0:0:
188,244,237088,1,4,2:3:0:0:
188,244,237174,2,0,P|137:322|120:214,1,262.500010013581,14|0,2:0|2:0,2:0:0:0:
407,87,237860,5,6,1:2:0:0:
370,256,238031,1,0,2:0:0:0:
402,75,238202,1,2,2:0:0:0:
378,270,238374,2,0,L|364:344,1,65.6250025033952,6|0,1:2|2:0,2:0:0:0:
160,34,238717,6,0,L|179:180,1,144.375004405975,6|0,1:2|2:0,2:0:0:0:
178,199,239060,1,6,1:2:0:0:
288,120,239231,2,0,B|247:112|247:112|240:105|240:105|179:92,1,96.250002937317,6|0,1:2|2:0,2:0:0:0:
25,50,239574,2,0,P|65:65|78:123,1,96.250002937317,0|0,2:0|1:0,2:0:0:0:
34,175,239831,1,0,1:0:0:0:
34,175,239917,6,0,L|54:254,1,65.625,14|0,2:0|2:0,2:0:0:0:
0,287,240260,6,0,B|111:269|53:326|175:317,1,175,6|0,1:2|2:0,2:0:0:0:
273,291,240774,1,2,1:2:0:0:
273,291,240860,1,0,1:0:0:0:
273,291,240945,2,0,P|258:345|243:399,1,87.5,12|10,2:0|2:3,2:0:0:0:
143,229,241288,1,6,2:3:0:0:
259,180,241460,1,2,1:2:0:0:
111,116,241631,5,14,2:0:0:0:
187,150,241802,1,0,1:0:0:0:
261,38,241974,5,0,1:0:0:0:
259,180,242145,1,10,2:0:0:0:
443,101,242317,5,10,1:2:0:0:
456,132,242402,1,8,2:0:0:0:
453,167,242488,1,8,2:0:0:0:
434,195,242574,1,8,2:0:0:0:
410,220,242660,1,8,2:0:0:0:
390,248,242746,1,8,2:0:0:0:
387,284,242832,1,10,2:0:0:0:
397,303,242917,5,0,1:2:0:0:
408,318,243345,6,0,B|368:326|368:326|344:317|344:317|298:332|298:332|239:277|239:277|317:251,1,262.500010013581,14|2,2:0|2:0,2:0:0:0:
201,352,243860,1,2,1:2:0:0:
256,186,244031,1,8,2:0:0:0:
169,241,244202,1,2,2:0:0:0:
390,248,244374,6,0,L|402:152,1,96.250002937317,0|2,1:0|1:2,2:0:0:0:
283,25,244716,1,10,2:0:0:0:
314,104,244888,1,0,2:0:0:0:
411,18,245059,1,2,2:0:0:0:
232,91,245231,1,2,1:2:0:0:
401,152,245402,2,0,L|390:53,1,96.250002937317,8|2,2:0|2:0,2:0:0:0:
256,186,245745,5,4,1:2:0:0:
256,186,245916,1,2,1:2:0:0:
284,273,246088,1,10,2:0:0:0:
232,91,246259,2,0,L|117:67,1,96.250002937317,2|2,1:2|2:0,2:0:0:0:
5,220,246602,1,2,1:2:0:0:
74,182,246774,2,0,P|125:202|147:253,1,96.250002937317,10|2,2:0|1:2,2:0:0:0:
239,338,247117,5,12,2:0:0:0:
73,306,247288,1,0,1:0:0:0:
5,359,247460,1,0,1:0:0:0:
160,307,247631,1,12,2:0:0:0:
148,170,247802,5,2,1:2:0:0:
76,320,247974,1,0,1:0:0:0:
274,255,248145,5,14,2:0:0:0:
307,235,248231,1,8,2:0:0:0:
345,232,248317,1,8,2:0:0:0:
377,212,248402,1,8,2:0:0:0:
415,214,248488,5,6,1:2:0:0:
480,143,248659,1,2,2:0:0:0:
431,59,248831,1,10,2:0:0:0:
240,95,249002,2,0,B|281:86|281:86|296:74|296:74|347:63|347:63|353:118|400:130,1,192.500005874634,6|0,1:2|1:0,2:0:0:0:
265,173,249516,5,10,2:0:0:0:
188,33,249688,1,2,2:0:0:0:
97,192,249859,5,2,1:2:0:0:
167,129,250031,1,2,1:2:0:0:
131,276,250203,1,8,2:0:0:0:
0,118,250374,2,0,B|26:56|100:83|100:83|70:124|91:154,1,192.500005874634,2|0,1:2|1:0,2:0:0:0:
88,150,250802,1,0,1:0:0:0:
88,150,250888,1,10,2:0:0:0:
217,233,251059,1,0,2:0:0:0:
46,232,251231,6,0,B|99:260|144:228|144:228|192:196|243:234,1,192.500005874634,2|8,1:2|2:0,2:0:0:0:
293,309,251745,2,0,P|265:313|196:340,1,96.250002937317,2|0,1:2|2:0,2:0:0:0:
348,371,252088,2,0,P|370:380|393:384,1,48.1250014686585,2|0,1:2|2:0,2:0:0:0:
442,270,252259,5,10,2:0:0:0:
293,309,252431,1,2,1:2:0:0:
439,183,252602,5,2,1:2:0:0:
439,183,252774,1,0,1:0:0:0:
306,117,252945,2,0,B|307:95|287:72|287:72|345:89|315:106|369:122,1,144.375004405975,12|0,2:0|1:2,2:0:0:0:
435,86,253288,1,2,1:2:0:0:
315,220,253459,1,0,1:0:0:0:
335,4,253631,1,12,2:0:0:0:
228,127,253802,1,2,1:2:0:0:
228,127,253888,1,0,1:2:0:0:
228,127,253974,6,0,L|122:102,1,96.250002937317,4|0,1:2|2:0,2:0:0:0:
28,35,254316,1,10,2:0:0:0:
46,122,254488,1,2,1:2:0:0:
118,11,254659,1,2,2:0:0:0:
91,191,254831,2,0,P|47:205|-6:188,1,96.250002937317,2|8,1:2|2:0,2:0:0:0:
176,289,255174,1,2,1:2:0:0:
168,157,255345,5,4,1:2:0:0:
72,297,255516,1,0,2:0:0:0:
272,294,255688,2,0,L|169:265,1,96.250002937317,10|0,2:0|1:0,2:0:0:0:
318,182,256031,5,2,2:0:0:0:
311,374,256202,1,2,1:2:0:0:
464,292,256374,2,0,L|436:196,1,96.250002937317,8|2,2:0|1:2,2:0:0:0:
316,59,256717,6,0,B|361:79|361:79|412:65,1,96.250002937317,4|0,1:2|2:0,2:0:0:0:
229,0,257060,1,10,2:0:0:0:
252,166,257231,1,2,1:2:0:0:
162,99,257402,2,0,B|116:111|116:111|71:91,1,96.250002937317,2|2,2:0|1:2,2:0:0:0:
237,13,257745,1,14,2:0:0:0:
165,192,257916,1,2,1:2:0:0:
311,84,258088,6,0,L|419:63,1,96.250002937317,12|8,2:0|2:3,2:0:0:0:
341,199,258431,1,4,2:3:0:0:
252,166,258602,1,0,1:0:0:0:
339,221,258774,5,8,2:3:0:0:
165,192,258945,1,0,2:0:0:0:
339,240,259117,5,2,1:2:0:0:
192,348,259288,1,0,2:0:0:0:
248,261,259459,6,0,B|316:249|334:318|410:296,1,154.000004699707,6|0,1:2|2:0,2:0:0:0:
508,207,259974,1,0,1:0:0:0:
507,214,260060,1,0,1:0:0:0:
506,221,260145,2,0,L|492:378,1,154.000004699707,12|2,2:0|1:2,2:0:0:0:
374,186,260660,1,8,2:0:0:0:
449,119,260831,6,0,P|458:66|417:14,1,115.50000352478,2|0,1:2|2:0,2:0:0:0:
410,28,261174,2,0,L|331:14,1,77.0000023498536,2|2,1:2|1:2,2:0:0:0:
190,86,261517,6,0,L|200:153,1,51.3333348999024,8|8,2:0|2:3,2:0:0:0:
142,200,261745,1,4,2:3:0:0:
39,270,261860,6,0,L|29:337,1,51.3333348999024,2|0,1:2|1:0,2:0:0:0:
87,384,262088,1,0,1:0:0:0:
207,322,262202,6,0,B|245:298|288:309|288:309|313:341|356:346,1,154.000004699707,6|2,1:2|2:0,2:0:0:0:
503,272,262717,1,0,1:0:0:0:
500,265,262802,1,0,1:0:0:0:
483,259,262888,2,0,P|466:303|480:351,1,77.0000023498536,14|8,2:0|2:0,2:0:0:0:
363,219,263231,2,0,L|349:136,1,77.0000023498536,0|0,2:0|1:0,2:0:0:0:
483,8,263574,5,0,2:0:0:0:
482,97,263745,2,0,B|415:102|416:37|331:50,1,154.000004699707,8|2,2:0|1:2,2:0:0:0:
148,132,264260,1,8,2:0:0:0:
138,132,264345,1,8,2:0:0:0:
128,130,264431,1,2,1:2:0:0:
119,128,264517,1,0,1:0:0:0:
110,124,264602,1,14,2:0:0:0:
86,29,264774,1,0,2:0:0:0:
248,116,264945,6,0,L|235:216,1,96.250002937317,14|0,2:0|1:0,2:0:0:0:
112,349,265288,1,8,2:0:0:0:
44,222,265460,1,0,1:0:0:0:
112,349,265631,2,0,P|145:374|199:367,1,96.250002937317,8|0,2:0|1:0,2:0:0:0:
394,202,265974,1,8,2:0:0:0:
274,147,266145,1,0,1:0:0:0:
275,156,266231,1,0,1:0:0:0:
276,165,266317,6,0,L|287:274,1,96.250002937317,12|0,2:0|1:0,2:0:0:0:
501,377,266660,1,8,2:0:0:0:
394,202,266831,1,0,1:0:0:0:
501,377,267002,2,0,P|509:318|480:282,1,96.250002937317,8|0,2:0|1:0,2:0:0:0:
285,260,267345,1,8,2:0:0:0:
394,202,267517,1,0,1:0:0:0:
394,202,267602,1,0,1:0:0:0:
394,202,267688,6,0,L|379:314,1,96.250002937317,12|0,2:0|1:0,2:0:0:0:
276,136,268031,1,8,2:0:0:0:
393,65,268202,1,0,1:0:0:0:
158,77,268374,5,8,2:0:0:0:
275,148,268545,1,0,1:0:0:0:
56,107,268717,5,10,2:0:0:0:
233,0,268888,1,0,1:0:0:0:
43,102,269060,5,14,2:0:0:0:
160,263,269231,2,0,L|172:163,1,96.250002937317,14|0,2:0|1:0,2:0:0:0:
8,344,269574,2,0,P|51:332|99:365,1,96.250002937317,10|0,2:3|2:0,2:0:0:0:
270,259,269917,2,0,L|332:251,1,48.1250014686585,2|0,1:2|1:0,2:0:0:0:
405,236,270088,1,12,2:0:0:0:
414,241,270431,6,0,L|429:118,1,115.50000352478,6|0,1:2|2:0,2:0:0:0:
438,118,270774,2,0,P|401:127|360:101,1,77.0000023498536,0|2,1:0|2:0,2:0:0:0:
253,28,271117,2,0,B|191:17|167:76|99:57,1,154.000004699707,0|2,1:2|1:2,2:0:0:0:
13,218,271631,1,2,2:0:0:0:
15,211,271717,1,2,2:0:0:0:
17,204,271802,6,0,P|13:159|5:119,1,77.0000023498536,2|2,1:2|2:0,2:0:0:0:
159,205,272145,2,0,L|149:281,1,77.0000023498536,0|2,1:0|2:0,2:0:0:0:
21,364,272488,2,0,B|57:355|57:355|133:387|133:387|176:378,1,154.000004699707,2|2,1:2|1:2,2:0:0:0:
331,263,273002,1,2,2:0:0:0:
249,197,273174,6,0,P|238:148|261:106,1,77.0000023498536,6|0,1:2|2:0,2:0:0:0:
349,295,273517,1,0,1:0:0:0:
349,295,273688,2,0,P|406:220|488:218,1,154.000004699707,2|2,2:0|2:0,2:0:0:0:
480,137,274202,1,2,1:2:0:0:
480,137,274288,1,2,2:0:0:0:
480,137,274374,2,0,L|523:133,2,38.5000011749268,0|2|0,2:0|2:0|1:0,2:0:0:0:
360,313,274717,2,0,P|399:248|471:228,1,154.000004699707,2|2,2:0|2:0,2:0:0:0:
230,217,275232,6,2,B|215:180|215:180|224:152|224:152|201:123|201:123|215:87|215:87|203:59,1,175,2|0,1:0|1:0,2:1:0:0:
17,204,275745,5,8,2:0:0:0:
54,195,275831,1,8,2:0:0:0:
91,186,275917,2,0,B|150:147|227:214|156:269|243:321|292:283,1,262.5,6|2,1:2|2:0,2:0:0:0:
372,172,276602,1,0,1:0:0:0:
239,130,276773,1,2,2:0:0:0:
239,130,276860,1,0,2:0:0:0:
239,130,276945,2,0,L|225:258,1,87.5,2|2,1:2|2:0,2:0:0:0:
260,249,277202,1,2,2:0:0:0:
260,249,277288,5,2,1:2:0:0:
389,359,277460,2,0,L|403:231,1,87.5,2|0,2:0|1:0,2:0:0:0:
471,228,277802,1,2,2:0:0:0:
394,90,277974,5,2,1:2:0:0:
239,130,278145,1,2,2:0:0:0:
299,42,278317,5,2,1:2:0:0:
334,179,278488,1,2,2:0:0:0:
188,303,278660,6,0,P|101:285|90:188,1,175,6|2,1:2|1:2,2:0:0:0:
12,159,279174,1,2,2:0:0:0:
12,159,279260,1,2,2:0:0:0:
12,159,279345,2,0,P|27:105|89:101,1,87.5,0|2,1:0|2:0,2:0:0:0:
190,7,279688,6,0,B|160:43|160:93|194:125|194:125|239:130,1,175,2|2,1:2|1:2,2:0:0:0:
445,205,280202,1,0,2:0:0:0:
403,47,280374,2,0,L|390:106,3,43.75,0|0|0|8,1:0|2:0|2:0|2:0,2:0:0:0:
352,107,280717,1,2,1:0:0:0:
343,143,280802,1,0,1:2:0:0:
334,179,280888,1,8,2:0:0:0:
170,231,281060,5,10,2:1:0:0:
179,267,281146,1,8,2:0:0:0:
188,303,281231,1,10,2:0:0:0:
197,339,281317,1,8,2:0:0:0:
206,375,281402,1,6,1:2:0:0:
256,192,281488,12,2,285517,2:0:0:0:
