osu file format v14

[General]
AudioFilename: audio.mp3
AudioLeadIn: 0
PreviewTime:131231
Countdown: 0
SampleSet: Soft
StackLeniency: 0.5
Mode: 0
LetterboxInBreaks: 0
WidescreenStoryboard: 1

[Editor]
Bookmarks: 52374,85288,164831,184031,211460,248488
DistanceSpacing: 0.8
BeatDivisor: 4
GridSize: 4
TimelineZoom: 3.399999

[Metadata]
Title:Sing My Pleasure
TitleUnicode:Sing My Pleasure
Artist:Vivy (VO: Yagi Kairi)
ArtistUnicode:ヴィヴィ (VO: 八木海莉)
Creator:Flask
Version:Flask & Karcher's Extra
Source:Vivy -Fluorite Eye's Song-
Tags:WIT STUDIO Score Fluorite Eye Song anime opening op japanese j-pop jpop pop Diva ディーヴァ -フローライトアイズソング- 神前曉 MONACA Kousaki Satoru 種崎敦美 Tanezaki Atsumi Hey lululu Hey_lululu lu^3 bossandy GfMRT MiyohashiKoori Deppyforce arronchu1207 Amateurre Yogurtt Luscent [Karcher] Andrea osuplayer111 Skyflame
BeatmapID:3375379
BeatmapSetID:1616800

[Difficulty]
HPDrainRate:5
CircleSize:4
OverallDifficulty:8.5
ApproachRate:9.2
SliderMultiplier:2.2
SliderTickRate:1

[Events]
//Background and Video events
0,0,"BG.jpg",0,0
//Break Periods
2,44345,45632
2,123888,125347
2,170517,174718
//Storyboard Layer 0 (Background)
//Storyboard Layer 1 (Fail)
//Storyboard Layer 2 (Pass)
//Storyboard Layer 3 (Foreground)
//Storyboard Layer 4 (Overlay)
//Storyboard Sound Samples

[TimingPoints]
260,342.857142857143,4,2,1,70,1,0
2831,-200,4,2,1,70,0,0
3859,-200,4,2,1,5,0,0
3945,-200,4,2,1,5,0,0
4031,-200,4,2,1,50,0,0
4202,-181.818181818181,4,2,1,50,0,0
5059,-181.818181818181,4,2,1,5,0,0
5144,-181.818181818181,4,2,1,5,0,0
5231,-133.333333333333,4,2,1,50,0,0
5402,-83.3333333333333,4,2,1,60,0,0
5659,-83.3333333333333,4,2,1,5,0,0
5745,-133.333333333333,4,2,1,60,0,0
10545,-111.111111111111,4,2,1,60,0,0
11231,-133.333333333333,4,2,1,60,0,0
14231,-133.333333333333,4,2,1,5,0,0
14317,-133.333333333333,4,2,1,60,0,0
15688,-100,4,2,1,60,0,0
16717,-117.647058823529,4,2,1,60,0,0
21002,-105.263157894737,4,2,1,60,0,0
21259,-105.263157894737,4,2,1,5,0,0
21345,-105.263157894737,4,2,1,60,0,0
21430,-105.263157894737,4,2,1,5,0,0
21517,-117.647058823529,4,2,1,60,0,0
25288,-83.3333333333333,4,2,1,60,0,0
25802,-66.6666666666667,4,2,1,60,0,0
27002,-83.3333333333333,4,2,1,60,0,0
27688,-200,4,2,1,70,0,0
27945,-200,4,2,1,5,0,0
28031,-66.6666666666667,4,2,1,70,0,0
28888,-105.263157894737,4,2,1,70,0,0
30688,-105.263157894737,4,2,1,5,0,0
30774,-105.263157894737,4,2,1,70,0,0
33431,-105.263157894737,4,2,1,5,0,0
33517,-105.263157894737,4,2,1,70,0,0
38660,-125,4,2,1,70,0,0
44145,-125,4,2,1,50,0,0
46202,-133.333333333333,4,2,1,40,0,0
46545,-133.333333333333,4,2,1,50,0,0
46717,-133.333333333333,4,2,1,60,0,0
46888,-90.9090909090909,4,2,1,70,0,0
47145,-90.9090909090909,4,2,1,5,0,0
47231,-90.9090909090909,4,2,1,70,0,0
48088,-80,4,2,1,70,0,0
50660,-100,4,2,1,70,0,0
50831,-76.9230769230769,4,2,1,70,0,0
51688,-125,4,2,1,60,0,0
52031,-100,4,2,1,60,0,0
52288,-100,4,2,1,5,0,0
52374,-100,4,2,2,80,0,1
56831,-100,4,2,1,80,0,1
61974,-83.3333333333333,4,2,1,80,0,1
63002,-66.6666666666667,4,2,1,80,0,1
63259,-66.6666666666667,4,2,1,5,0,1
63345,-66.6666666666667,4,2,2,80,0,1
63860,-100,4,2,2,80,0,1
67802,-100,4,2,1,80,0,1
74317,-117.647058823529,4,2,1,60,0,0
79802,-100,4,2,1,70,0,1
84945,-66.6666666666667,4,2,1,70,0,1
85288,-111.111111111111,4,2,1,60,0,0
92145,-83.3333333333333,4,2,1,60,0,0
92316,-83.3333333333333,4,2,1,5,0,0
92402,-83.3333333333333,4,2,1,60,0,0
92573,-83.3333333333333,4,2,1,5,0,0
92660,-83.3333333333333,4,2,1,60,0,0
92831,-83.3333333333333,4,2,1,5,0,0
92917,-83.3333333333333,4,2,1,60,0,0
93088,-83.3333333333333,4,2,1,5,0,0
93174,-83.3333333333333,4,2,1,60,0,0
93517,-111.111111111111,4,2,1,60,0,0
95231,-90.9090909090908,4,2,1,60,0,0
96260,-133.333333333333,4,2,1,60,0,0
96517,-133.333333333333,4,2,1,5,0,0
96602,-62.5,4,2,1,60,0,0
96945,-111.111111111111,4,2,1,60,0,0
99259,-111.111111111111,4,2,1,5,0,0
99345,-111.111111111111,4,2,1,60,0,0
100545,-95.2380952380952,4,2,1,60,0,0
101060,-111.111111111111,4,2,1,60,0,0
104831,-83.3333333333333,4,2,1,60,0,0
105345,-66.6666666666667,4,2,1,60,0,0
107231,-111.111111111111,4,2,1,70,0,0
107574,-66.6666666666667,4,2,1,70,0,0
108431,-105.263157894737,4,2,1,70,0,0
113917,-83.3333333333333,4,2,1,70,0,0
114431,-105.263157894737,4,2,1,70,0,0
117345,-90.9090909090909,4,2,1,70,0,0
117517,-83.3333333333333,4,2,1,70,0,0
117860,-100,4,2,1,70,0,0
118202,-117.647058823529,4,2,1,70,0,0
121888,-117.647058823529,4,2,1,5,0,0
121974,-117.647058823529,4,2,1,70,0,0
123688,-117.647058823529,4,2,1,50,0,0
125917,-100,4,2,1,60,0,0
126431,-90.9090909090909,4,2,1,70,0,0
126688,-90.9090909090909,4,2,1,5,0,0
126774,-90.9090909090909,4,2,1,70,0,0
127631,-76.9230769230769,4,2,1,70,0,0
130202,-100,4,2,1,70,0,0
130374,-76.9230769230769,4,2,1,70,0,0
131231,-125,4,2,1,60,0,0
131574,-100,4,2,1,60,0,0
131831,-100,4,2,1,5,0,0
131917,-100,4,2,2,80,0,1
136374,-100,4,2,1,80,0,1
141517,-83.3333333333333,4,2,1,80,0,1
142888,-100,4,2,2,80,0,1
145888,-100,4,2,1,5,0,1
145974,-100,4,2,1,80,0,1
153860,-111.111111111111,4,2,1,60,0,0
159345,-100,4,2,1,70,0,1
164745,-100,4,2,1,5,0,1
164831,-100,4,2,1,50,0,0
175460,-250,4,2,3,50,0,0
175717,-250,4,2,3,5,0,0
175802,-153.846153846153,4,2,1,60,0,0
182660,-117.647058823529,4,2,1,70,0,0
184031,-90.9090909090909,4,2,1,70,0,0
184545,-76.9230769230769,4,2,1,70,0,0
185060,-66.6666666666667,4,2,1,70,0,0
185574,-71.4285714285714,4,2,1,70,0,0
186088,-62.5,4,2,1,70,0,0
186602,-250,4,2,1,70,0,0
187973,-250,4,2,1,5,0,0
188145,-250,4,2,1,70,0,0
188488,-153.846153846154,4,2,1,70,0,0
189517,-83.3333333333333,4,2,1,70,0,0
192260,-71.4285714285714,4,2,1,70,0,0
192517,-71.4285714285714,4,2,1,5,0,0
192602,-71.4285714285714,4,2,1,70,0,0
193373,-71.4285714285714,4,2,1,5,0,0
193460,-71.4285714285714,4,2,1,70,0,0
193631,-500,4,2,1,70,0,0
193974,-71.4285714285714,4,2,1,70,0,0
194317,-500,4,2,1,70,0,0
194660,-71.4285714285714,4,2,1,70,0,0
195517,-83.3333333333333,4,2,1,70,0,0
195774,-83.3333333333333,4,2,1,5,0,0
195860,-83.3333333333333,4,2,1,70,0,0
197145,-83.3333333333333,4,2,1,5,0,0
197231,-83.3333333333333,4,2,1,70,0,0
198431,-76.9230769230769,4,2,1,80,0,0
198660,-66.6666666666667,4,2,1,80,0,0
198888,-62.5,4,2,1,80,0,0
199117,-55.5555555555556,4,2,1,70,0,0
200145,-83.3333333333333,4,2,1,70,0,0
208374,-66.6666666666667,4,2,1,70,0,0
208717,-83.3333333333333,4,2,1,70,0,0
211460,-117.647058823529,4,2,1,60,0,0
220560,342.857142857143,4,2,1,60,1,0
220560,-117.647058823529,4,2,1,60,0,0
222092,342.857142857143,4,2,1,60,1,0
222092,-76.9230769230769,4,2,1,60,0,0
222431,342.857142857143,4,2,1,60,1,0
222431,-117.647058823529,4,2,1,60,0,0
225859,-100,4,2,1,60,0,0
226717,-117.647058823529,4,2,1,60,0,0
227917,-100,4,2,1,70,0,0
231345,-80,4,2,1,70,0,0
231688,-57.1428571428571,4,2,1,70,0,0
232031,-44.4444444444445,4,2,1,70,0,0
232545,-68.9655172413793,4,2,1,70,0,0
235802,-71.4285714285714,4,2,1,70,0,0
235974,-58.8235294117647,4,2,1,70,0,0
237860,-71.4285714285714,4,2,1,70,0,0
238717,-66.6666666666667,4,2,1,70,0,0
240174,-66.6666666666667,4,2,1,5,0,0
240260,-100,4,2,1,70,0,0
241802,-90.9090909090909,4,2,1,70,0,0
241974,-83.3333333333333,4,2,1,70,0,0
242145,-76.9230769230769,4,2,1,70,0,0
243345,-66.6666666666667,4,2,2,70,0,1
243860,-90.9090909090909,4,2,2,70,0,1
247117,-90.9090909090909,4,2,1,70,0,1
248488,-90.9090909090909,4,2,2,80,0,1
248655,-90.9090909090909,4,2,1,80,0,1
250888,-76.9230769230769,4,2,1,80,0,1
251231,-90.9090909090909,4,2,1,80,0,1
259459,-111.111111111111,4,2,1,60,0,0
264945,-58.8235294117647,4,2,1,70,0,0
265202,-58.8235294117647,4,2,1,5,0,0
265288,-58.8235294117647,4,2,1,70,0,0
269574,-71.4285714285714,4,2,1,70,0,0
270088,-55.5555555555556,4,2,1,70,0,1
270431,-222.222222222222,4,2,2,60,0,0
270940,-222.222222222222,4,2,1,60,0,0
277974,-111.111111111111,4,2,1,60,0,0
278144,-111.111111111111,4,2,1,5,0,0
278201,-111.111111111111,4,2,1,60,0,0
278372,-111.111111111111,4,2,1,5,0,0
278430,-111.111111111111,4,2,1,60,0,0
278601,-111.111111111111,4,2,1,5,0,0
278660,-222.222222222222,4,2,1,60,0,0
280888,-100,4,2,1,60,0,0
282764,-100,4,2,1,40,0,0
282769,-100,4,2,1,40,0,0
284135,-100,4,2,1,30,0,0
284140,-100,4,2,1,30,0,0
284821,-100,4,2,1,20,0,0
284826,-100,4,2,1,20,0,0
285507,-100,4,2,1,10,0,0
285517,-100,4,2,1,10,0,0

[Colours]
Combo1 : 0,122,181
Combo2 : 165,74,255
Combo3 : 226,80,204
Combo4 : 0,232,232

[HitObjects]
363,48,260,5,14,2:0:0:0:
328,261,431,1,0,1:0:0:0:
328,261,602,1,0,1:0:0:0:
260,92,774,5,14,2:0:0:0:
435,199,945,1,0,1:0:0:0:
435,199,1117,1,0,1:0:0:0:
222,351,1288,5,14,2:0:0:0:
327,169,1460,1,0,1:0:0:0:
327,169,1631,1,0,1:0:0:0:
380,364,1802,5,14,2:0:0:0:
162,240,1974,1,0,1:0:0:0:
162,240,2145,1,0,1:0:0:0:
353,38,2317,5,14,2:0:0:0:
281,268,2488,1,0,1:0:0:0:
85,111,2660,1,0,1:0:0:0:
242,341,2831,6,0,P|303:348|226:207,1,357.5,14|0,1:2|2:0,2:0:0:0:
286,271,4031,5,2,2:0:0:0:
286,271,4117,1,2,2:0:0:0:
286,271,4202,2,0,B|343:114|343:114|178:52,1,332.750010154724,2|0,2:0|2:0,2:0:0:0:
112,55,5231,6,0,B|98:72|98:72|121:84,1,41.2500015735627,0|0,1:0|2:0,2:0:0:0:
187,55,5402,2,0,B|267:42|267:42|275:31|275:31|385:11,1,197.99999395752,12|0,2:0|2:0,2:0:0:0:
376,12,5745,6,0,L|331:191,1,165.000006294251,6|0,1:2|1:0,2:0:0:0:
379,239,6260,1,2,2:0:0:0:
339,307,6431,2,0,B|307:328|307:328|261:308,1,82.5000031471254,2|2,1:2|2:0,2:0:0:0:
191,261,6774,1,2,1:2:0:0:
56,339,6945,1,2,2:0:0:0:
56,339,7031,1,2,2:0:0:0:
56,339,7117,5,0,1:0:0:0:
97,260,7288,1,2,2:0:0:0:
144,339,7460,2,0,L|61:350,1,82.5000031471254,0|2,1:0|2:0,2:0:0:0:
34,193,7802,2,0,L|51:112,1,82.5000031471254,2|2,1:2|2:0,2:0:0:0:
50,112,8145,1,2,1:2:0:0:
212,26,8317,1,2,2:0:0:0:
212,26,8402,1,2,2:0:0:0:
212,26,8488,6,0,P|270:44|276:140,1,165.000006294251,2|0,1:2|1:0,2:0:0:0:
184,169,9002,2,0,L|193:218,1,41.2500015735627,2|0,2:0|2:0,2:0:0:0:
182,228,9174,2,0,L|274:253,1,82.5000031471254,2|0,1:2|2:0,2:0:0:0:
412,327,9517,2,0,L|457:317,2,41.2500015735627,2|0|0,1:2|2:0|2:0,2:0:0:0:
318,364,9860,5,0,1:0:0:0:
349,232,10031,2,0,L|332:140,1,82.5000031471254,2|2,2:0|1:2,2:0:0:0:
401,47,10374,1,2,2:0:0:0:
401,47,10460,1,0,2:0:0:0:
401,47,10545,6,2,B|429:43|437:71|437:71|413:97|360:93|391:60|330:46|291:73,1,197.99999395752,2|0,1:0|1:0,2:1:0:0:
168,156,11060,1,8,2:0:0:0:
119,184,11145,1,8,2:0:0:0:
69,170,11231,6,0,L|42:0,1,165.000006294251,6|2,1:2|1:2,2:0:0:0:
221,47,11745,1,2,2:0:0:0:
129,46,11917,2,0,P|164:69|218:60,1,82.5000031471254,0|2,1:0|2:0,2:0:0:0:
331,153,12260,1,2,1:2:0:0:
279,218,12431,1,0,1:0:0:0:
279,218,12517,1,0,1:0:0:0:
279,218,12602,6,0,L|195:229,1,82.5000031471254,2|2,1:2|2:0,2:0:0:0:
110,349,12945,2,0,L|26:338,1,82.5000031471254,0|2,1:0|2:0,2:0:0:0:
91,187,13288,1,2,1:2:0:0:
211,324,13460,1,10,2:0:0:0:
350,234,13631,1,2,1:2:0:0:
208,336,13802,1,10,2:0:0:0:
234,133,13974,6,0,P|283:79|381:79,1,165.000006294251,6|2,1:2|1:2,2:0:0:0:
461,54,14488,1,2,2:0:0:0:
461,54,14574,1,2,2:0:0:0:
461,54,14660,2,0,L|437:151,1,82.5000031471254,0|2,1:0|2:0,2:0:0:0:
337,200,15002,2,0,L|361:297,1,82.5000031471254,2|0,1:2|2:0,2:0:0:0:
427,344,15345,1,2,1:2:0:0:
353,102,15517,6,0,L|296:115,1,41.2500015735627,10|8,2:3|2:3,2:0:0:0:
251,157,15688,2,0,B|201:157|170:169|170:169|201:155|234:114,1,165,8|4,2:3|2:3,2:0:0:0:
384,33,16031,5,2,2:1:0:0:
426,67,16117,1,2,2:0:0:0:
428,121,16202,1,0,2:0:0:0:
457,272,16374,5,2,1:0:0:0:
448,325,16460,1,0,1:0:0:0:
402,354,16545,1,2,1:2:0:0:
218,312,16717,6,0,P|125:288|32:275,1,187.000003566742,6|0,1:2|1:0,2:0:0:0:
218,312,17231,1,2,2:0:0:0:
99,372,17402,2,0,P|123:279|136:186,1,187.000003566742,2|0,1:2|1:0,2:0:0:0:
294,72,17917,1,2,2:0:0:0:
294,72,18002,1,0,2:0:0:0:
294,72,18088,6,0,P|387:96|480:109,1,187.000003566742,2|0,1:2|1:0,2:0:0:0:
294,72,18602,1,2,2:0:0:0:
413,12,18773,2,0,P|389:105|376:198,1,187.000003566742,2|0,1:2|1:0,2:0:0:0:
210,178,19288,5,2,2:0:0:0:
158,239,19460,2,0,P|174:289|177:334,1,93.500001783371,2|0,1:2|2:0,2:0:0:0:
182,108,19802,1,2,1:2:0:0:
287,178,19974,2,0,L|334:167,2,46.7500008916855,2|2|0,2:0|2:0|1:0,2:0:0:0:
395,300,20317,1,2,2:0:0:0:
439,362,20488,2,0,P|448:321|469:265,1,93.500001783371,2|0,1:2|2:0,2:0:0:0:
457,51,20831,5,0,1:0:0:0:
472,131,21002,2,2,B|420:147|374:99|383:91|390:84|358:30|290:48,1,208.999994419098,2|2,1:0|2:0,2:1:0:0:
309,125,21517,2,0,P|329:219|347:324,1,187.000003566742,2|2,1:2|1:2,2:0:0:0:
172,353,22031,1,2,2:0:0:0:
172,353,22117,1,2,2:0:0:0:
172,353,22202,6,0,P|97:374|44:286,1,187.000003566742,0|0,1:0|1:0,2:0:0:0:
130,138,22717,1,0,2:0:0:0:
161,211,22888,2,0,P|136:254|116:308,1,93.500001783371,0|0,1:0|2:0,2:0:0:0:
58,109,23231,1,2,1:2:0:0:
218,51,23402,1,2,2:0:0:0:
218,51,23488,1,0,1:2:0:0:
218,51,23574,5,2,1:2:0:0:
151,122,23745,2,0,P|196:131|257:145,1,93.500001783371,2|0,2:0|1:0,2:0:0:0:
395,203,24088,1,2,2:0:0:0:
289,323,24260,5,0,1:0:0:0:
261,242,24431,1,2,2:0:0:0:
325,143,24602,1,0,1:0:0:0:
352,65,24774,1,2,2:0:0:0:
153,41,24945,6,0,P|105:51|76:135,1,140.250002675057,2|0,1:2|2:0,2:0:0:0:
86,274,25288,6,0,B|120:293|131:321|131:321|121:292|141:256,1,131.99999597168,2|2,1:0|2:0,2:0:0:0:
97,202,25545,1,0,2:0:0:0:
97,202,25631,1,0,1:0:0:0:
358,77,25802,6,0,B|319:90|300:133|300:133|318:89|298:53,2,165.000006294251,2|2|0,2:1|1:2|2:0,2:0:0:0:
382,155,26317,5,0,1:0:0:0:
382,155,26488,1,0,2:0:0:0:
230,94,26660,1,0,1:0:0:0:
230,94,26831,1,0,2:0:0:0:
265,25,27002,6,0,P|294:42|306:85,1,65.9999979858399,2|0,1:0|2:0,2:0:0:0:
261,236,27174,1,8,1:0:0:0:
237,276,27260,1,8,2:0:0:0:
191,274,27345,1,8,2:0:0:0:
29,147,27517,1,10,2:0:0:0:
75,82,27688,6,0,B|57:46|57:46|13:73,1,82.5,6|0,1:2|2:0,2:0:0:0:
29,147,28031,6,0,L|187:73,1,165.000006294251,10|2,1:0|2:0,2:0:0:0:
243,45,28288,1,0,2:0:0:0:
254,39,28374,1,2,1:2:0:0:
442,219,28545,1,8,1:3:0:0:
442,219,28888,6,0,B|461:200|488:193|488:193|519:100|419:66,1,208.999994419098,10|0,2:1|1:0,2:0:0:0:
322,206,29402,2,0,P|347:257|361:312,1,104.499997209549,8|2,2:0|2:0,2:0:0:0:
170,356,29745,1,2,1:2:0:0:
170,356,29917,1,0,1:0:0:0:
92,332,30088,2,0,P|112:290|176:281,1,104.499997209549,8|2,2:0|2:0,2:0:0:0:
233,142,30431,6,0,P|182:124|125:41,1,156.749995814324,2|0,1:2|2:0,2:0:0:0:
132,27,30774,1,10,2:0:0:0:
89,168,30945,2,0,P|78:198|69:218,2,52.2499986047745,2|2|2,2:0|2:0|2:0,2:0:0:0:
227,47,31288,1,2,1:2:0:0:
227,47,31545,5,0,1:0:0:0:
227,47,31631,2,0,P|305:65|435:100,1,208.999994419098,8|0,2:0|1:0,2:0:0:0:
408,310,32145,2,0,P|450:287|453:184,1,156.749995814324,8|0,2:0|2:0,2:0:0:0:
385,165,32488,5,2,1:0:0:0:
368,199,32574,1,0,1:0:0:0:
387,230,32660,1,0,1:0:0:0:
312,354,32831,2,0,L|258:342,1,52.2499986047745,10|0,2:0|2:0,2:0:0:0:
165,314,33002,1,10,2:0:0:0:
113,335,33088,1,8,2:0:0:0:
66,358,33174,6,0,L|91:194,1,156.749995814324,4|0,1:2|2:0,2:0:0:0:
89,203,33517,2,0,B|144:213|144:213|178:166,1,104.499997209549,8|0,2:0|2:0,2:0:0:0:
81,22,33860,1,0,2:0:0:0:
81,22,34031,1,8,1:3:0:0:
24,116,34202,1,2,1:2:0:0:
260,56,34374,6,0,B|333:84|333:84|344:106|344:106|450:151,1,208.999994419098,8|0,2:0|1:0,2:0:0:0:
242,262,34888,2,0,L|347:242,1,104.499997209549,10|2,2:0|1:2,2:0:0:0:
374,236,35145,1,0,1:0:0:0:
398,232,35231,1,0,1:0:0:0:
186,158,35402,1,2,1:2:0:0:
207,352,35574,2,0,B|263:366|263:366|300:335,1,104.499997209549,8|0,2:0|2:0,2:0:0:0:
114,99,35917,6,0,B|79:150|79:150|122:242,1,156.749995814324,2|0,1:2|2:0,2:0:0:0:
112,258,36260,1,10,2:0:0:0:
278,184,36431,1,2,1:2:0:0:
278,184,36517,1,0,1:0:0:0:
278,184,36602,1,0,1:0:0:0:
331,347,36774,1,2,1:2:0:0:
211,268,36945,1,2,2:0:0:0:
339,44,37117,5,8,2:0:0:0:
339,44,37460,1,0,1:0:0:0:
232,117,37631,1,10,2:0:0:0:
338,174,37802,1,8,2:3:0:0:
231,7,37974,5,2,2:1:0:0:
211,224,38145,1,8,2:0:0:0:
238,249,38231,1,8,2:0:0:0:
278,249,38317,1,10,2:0:0:0:
427,104,38488,1,8,1:3:0:0:
471,369,38660,6,0,P|477:325|386:247,1,176,6|0,1:2|2:0,2:0:0:0:
325,308,39174,1,2,1:2:0:0:
267,167,39345,1,8,2:0:0:0:
267,167,39688,5,2,1:2:0:0:
97,341,39860,1,0,1:0:0:0:
97,341,40202,5,2,1:2:0:0:
145,278,40374,1,2,2:0:0:0:
183,357,40545,1,2,1:2:0:0:
183,357,40631,1,0,1:0:0:0:
183,357,40717,5,14,2:0:0:0:
36,257,40888,1,2,2:0:0:0:
15,157,41060,5,10,2:3:0:0:
224,42,41231,1,6,1:3:0:0:
132,15,41402,6,0,P|147:63|156:103,2,88,6|0|2,1:2|2:0|2:0,2:0:0:0:
94,155,41917,1,2,1:2:0:0:
94,155,42002,1,0,1:0:0:0:
94,155,42088,2,0,P|144:133|239:158,1,132,8|0,2:0|2:0,2:0:0:0:
235,160,42431,5,2,1:2:0:0:
430,29,42602,1,2,1:2:0:0:
430,29,42945,5,10,2:0:0:0:
418,155,43117,1,2,2:0:0:0:
480,101,43288,1,2,1:2:0:0:
480,101,43374,1,0,1:0:0:0:
480,101,43460,5,14,2:0:0:0:
238,60,43631,1,10,2:0:0:0:
183,301,43802,1,10,2:0:0:0:
185,309,43888,1,8,2:0:0:0:
187,317,43974,1,8,2:0:0:0:
189,325,44060,1,8,2:0:0:0:
191,333,44145,5,2,2:0:0:0:
396,317,46202,6,0,L|416:364,3,41.2500015735627,2|2|2|2,1:2|1:2|1:2|1:2,2:0:0:0:
318,285,46545,1,10,2:0:0:0:
326,247,46631,1,8,2:0:0:0:
336,211,46717,1,8,2:0:0:0:
345,174,46802,1,8,2:0:0:0:
353,137,46888,6,0,B|280:108|280:108|269:85|269:85|192:54,1,181.500005538941,6|0,1:2|2:0,2:0:0:0:
176,50,47231,1,0,1:0:0:0:
417,24,47402,1,0,1:0:0:0:
135,220,47574,5,8,2:0:0:0:
288,3,47745,1,10,2:0:0:0:
272,326,47917,1,10,2:0:0:0:
19,199,48088,6,0,P|-2:162|93:49,1,206.25,6|0,1:2|2:0,2:0:0:0:
154,98,48431,1,8,2:0:0:0:
154,98,48517,1,8,2:0:0:0:
154,98,48602,1,8,2:0:0:0:
192,352,48774,5,8,2:0:0:0:
192,352,48860,1,8,2:0:0:0:
192,352,48945,1,8,2:0:0:0:
426,291,49117,5,8,2:0:0:0:
426,291,49202,1,8,2:0:0:0:
426,291,49288,1,8,2:0:0:0:
461,248,49374,1,2,2:0:0:0:
463,192,49460,1,10,2:0:0:0:
433,146,49545,1,8,2:0:0:0:
378,137,49631,5,10,2:0:0:0:
105,301,49802,1,2,1:2:0:0:
404,371,50145,5,10,2:0:0:0:
155,33,50488,5,10,2:0:0:0:
155,33,50660,2,0,P|164:65|188:93,1,55,0|0,1:0|2:0,2:0:0:0:
399,234,50831,6,0,B|460:230|470:166|470:166|401:133|360:205,1,214.49999018097,14|0,2:0|2:0,2:0:0:0:
329,240,51174,2,0,L|285:258,3,47.6666644846599,8|8|8|8,1:3|2:3|2:3|1:3,2:0:0:0:
34,360,51688,6,0,B|41:299|90:330|84:232,1,132,2|0,2:0|2:0,2:0:0:0:
30,184,52031,2,0,P|75:225|117:152,1,165,2|0,2:0|2:0,2:0:0:0:
60,107,52374,5,6,1:2:0:0:
236,228,52545,1,2,2:0:0:0:
318,37,52717,1,10,2:0:0:0:
86,25,52888,2,0,P|21:29|-3:161,1,220,2|0,1:2|1:0,2:0:0:0:
197,109,53402,1,10,2:0:0:0:
135,311,53574,1,2,2:0:0:0:
135,311,53660,1,0,2:0:0:0:
135,311,53745,6,0,L|112:197,1,110,2|2,1:2|1:2,2:0:0:0:
47,368,54088,1,8,2:0:0:0:
223,215,54260,1,2,1:2:0:0:
411,352,54431,2,0,P|467:328|454:230,1,165,2|0,2:0|2:0,2:0:0:0:
386,173,54774,2,0,P|391:223|447:237,1,110,10|0,2:0|2:0,2:0:0:0:
492,116,55031,1,0,1:0:0:0:
492,116,55117,6,0,B|406:107|449:45|346:44,1,165,2|0,1:2|2:0,2:0:0:0:
332,52,55460,1,8,2:0:0:0:
155,215,55631,2,0,P|117:201|112:128,1,110,2|0,1:2|2:0,2:0:0:0:
214,52,55974,1,2,1:2:0:0:
269,200,56145,1,10,2:0:0:0:
91,40,56317,1,2,2:0:0:0:
26,248,56488,5,2,1:2:0:0:
26,248,56660,1,0,1:0:0:0:
274,112,56831,1,12,2:0:0:0:
259,353,57002,2,0,P|232:349|206:337,1,55,2|0,1:2|1:0,2:0:0:0:
157,268,57174,1,2,1:2:0:0:
400,225,57345,1,0,1:0:0:0:
221,24,57517,1,12,2:0:0:0:
457,115,57688,6,0,L|346:87,1,110,2|4,2:0|1:2,2:0:0:0:
131,161,58031,1,0,2:0:0:0:
277,246,58202,1,10,2:0:0:0:
277,246,58374,1,0,1:0:0:0:
180,312,58545,5,2,2:0:0:0:
252,138,58717,1,2,1:2:0:0:
418,229,58888,1,8,2:0:0:0:
349,371,59060,6,0,P|315:345|312:277,1,110,2|4,1:2|1:2,2:0:0:0:
446,130,59402,1,0,2:0:0:0:
403,12,59574,2,0,P|417:61|427:121,1,110,10|0,2:0|1:0,2:0:0:0:
324,184,59917,5,2,2:0:0:0:
168,101,60088,1,2,1:2:0:0:
119,322,60260,1,8,2:0:0:0:
45,205,60431,6,0,L|163:230,1,110,2|4,1:2|1:2,2:0:0:0:
389,299,60774,1,0,2:0:0:0:
224,358,60945,1,10,2:0:0:0:
263,168,61117,1,2,1:2:0:0:
282,267,61288,5,2,2:0:0:0:
431,148,61460,1,2,1:2:0:0:
282,283,61631,5,10,2:0:0:0:
152,50,61802,1,2,2:0:0:0:
20,293,61974,6,0,P|36:321|68:329,1,65.9999979858399,4|0,1:2|2:0,2:0:0:0:
87,109,62145,2,0,P|54:108|31:132,1,65.9999979858399,0|0,1:0|2:0,2:0:0:0:
189,360,62317,5,8,2:0:0:0:
217,310,62402,1,8,2:0:0:0:
217,252,62488,1,8,2:0:0:0:
179,207,62574,1,8,2:0:0:0:
122,192,62660,5,10,2:3:0:0:
107,199,62745,1,8,2:3:0:0:
92,207,62831,1,4,2:3:0:0:
77,214,62917,1,4,2:3:0:0:
134,284,63002,6,0,L|157:28,1,247.500009441376,14|0,2:0|2:0,2:0:0:0:
159,19,63345,5,6,1:2:0:0:
383,136,63517,1,2,2:0:0:0:
240,225,63688,1,10,2:0:0:0:
378,13,63860,2,0,P|450:29|489:165,1,220,2|0,1:2|1:0,2:0:0:0:
298,81,64374,1,10,2:0:0:0:
355,265,64545,1,2,2:0:0:0:
492,155,64717,5,2,1:2:0:0:
278,193,64888,2,0,L|154:216,1,110,2|8,1:2|2:0,2:0:0:0:
416,345,65231,1,2,1:2:0:0:
384,108,65402,2,0,P|350:54|245:50,1,165,2|0,2:0|2:0,2:0:0:0:
185,110,65745,2,0,P|229:111|257:47,1,110,10|0,2:0|2:0,2:0:0:0:
49,33,66088,6,0,B|14:81|14:81|65:236,1,220,2|8,1:2|2:0,2:0:0:0:
254,315,66602,2,0,L|277:201,1,110,2|0,1:2|2:0,2:0:0:0:
186,127,66945,1,2,1:2:0:0:
389,267,67117,1,10,2:0:0:0:
160,372,67288,1,2,2:0:0:0:
246,272,67460,5,2,1:2:0:0:
246,272,67631,1,0,1:0:0:0:
113,78,67802,2,0,P|60:93|6:104,1,110,12|2,2:0|2:0,2:0:0:0:
275,18,68145,1,2,1:2:0:0:
168,197,68317,1,0,1:0:0:0:
389,87,68488,1,12,2:0:0:0:
440,329,68660,6,0,P|483:300|480:239,1,110,2|4,1:2|1:2,2:0:0:0:
298,175,69002,1,2,2:0:0:0:
470,17,69174,1,10,2:0:0:0:
470,17,69345,1,2,1:2:0:0:
417,197,69517,1,2,2:0:0:0:
261,70,69688,1,2,1:2:0:0:
142,250,69860,1,8,2:0:0:0:
39,114,70031,6,0,P|92:130|150:145,1,110,2|4,1:2|1:2,2:0:0:0:
288,260,70374,1,2,1:2:0:0:
74,340,70545,1,10,2:0:0:0:
74,340,70717,1,0,1:0:0:0:
253,158,70888,5,2,1:2:0:0:
92,48,71060,1,2,1:2:0:0:
142,250,71231,1,8,2:0:0:0:
364,128,71402,6,0,P|382:101|354:32,1,110,2|4,1:2|1:2,2:0:0:0:
231,252,71745,1,2,2:0:0:0:
275,85,71917,1,10,2:0:0:0:
450,156,72088,1,2,1:2:0:0:
313,314,72260,5,2,2:0:0:0:
169,140,72431,1,2,1:2:0:0:
376,52,72602,1,10,2:0:0:0:
211,355,72774,1,2,2:0:0:0:
19,45,72945,6,0,P|48:60|76:69,1,55,4|0,1:2|2:0,2:0:0:0:
150,185,73117,2,0,P|179:170|207:161,1,55,0|0,1:0|2:0,2:0:0:0:
297,84,73288,2,0,P|323:98|355:105,1,55,12|0,2:0|2:0,2:0:0:0:
432,160,73460,2,0,P|461:151|488:148,1,55,0|0,1:0|2:0,2:0:0:0:
455,361,73631,5,8,2:3:0:0:
414,320,73745,5,8,2:3:0:0:
358,329,73860,5,8,2:3:0:0:
281,358,73974,5,6,2:3:0:0:
226,357,74088,5,4,2:3:0:0:
194,314,74202,5,4,1:3:0:0:
230,238,74317,6,0,B|234:126|157:180|156:64,1,187.000003566742,6|0,1:2|2:0,2:0:0:0:
243,82,74831,1,0,1:0:0:0:
91,131,75002,2,0,P|180:146|243:82,1,187.000003566742,12|2,2:0|2:0,2:0:0:0:
48,61,75517,1,0,1:0:0:0:
48,61,75602,1,0,1:0:0:0:
48,61,75688,5,2,1:2:0:0:
27,192,75860,2,0,P|49:298|64:381,1,187.000003566742,8|2,2:0|1:2,2:0:0:0:
291,354,76374,1,8,2:0:0:0:
262,275,76545,1,8,2:3:0:0:
201,333,76717,2,0,P|157:327|139:279,1,93.500001783371,6|0,2:3|1:0,2:0:0:0:
246,122,77060,6,0,P|330:147|443:175,1,187.000003566742,6|2,1:2|1:2,2:0:0:0:
411,86,77574,1,0,1:0:0:0:
365,235,77745,2,0,P|347:205|420:85,1,187.000003566742,10|2,2:0|1:2,2:0:0:0:
467,261,78260,1,8,2:0:0:0:
467,261,78345,1,0,1:0:0:0:
467,261,78431,5,0,1:0:0:0:
315,315,78602,2,0,B|206:312|270:254|123:261,1,187.000003566742,8|2,2:0|1:2,2:0:0:0:
80,318,79117,1,8,2:0:0:0:
11,201,79288,1,2,1:2:0:0:
150,66,79460,1,14,2:0:0:0:
29,25,79631,1,10,2:0:0:0:
29,25,79717,1,8,2:0:0:0:
29,25,79802,6,0,P|57:76|72:132,1,110,6|2,1:2|2:0,2:0:0:0:
312,101,80145,1,10,2:0:0:0:
164,307,80317,2,0,L|196:83,1,220,2|2,1:2|1:2,2:0:0:0:
401,25,80831,1,10,2:0:0:0:
428,42,80917,1,0,2:0:0:0:
428,74,81002,1,2,2:0:0:0:
265,227,81174,5,2,1:2:0:0:
310,27,81345,1,2,1:2:0:0:
498,124,81517,1,10,2:0:0:0:
320,297,81688,2,0,P|243:317|185:202,1,220,2|2,1:2|1:2,2:0:0:0:
392,235,82202,1,10,2:0:0:0:
411,268,82288,1,0,2:0:0:0:
412,306,82374,1,2,2:0:0:0:
399,342,82460,1,2,2:0:0:0:
369,366,82545,5,6,1:2:0:0:
132,306,82717,1,0,2:0:0:0:
281,144,82888,1,10,2:0:0:0:
225,383,83060,2,0,L|194:152,1,220,2|0,1:2|1:0,2:0:0:0:
242,23,83574,1,10,2:0:0:0:
141,66,83745,1,0,1:0:0:0:
141,66,83831,1,0,1:0:0:0:
141,66,83917,5,10,2:0:0:0:
310,275,84088,1,10,2:0:0:0:
336,72,84260,1,0,2:0:0:0:
74,335,84431,1,10,1:2:0:0:
74,335,84774,2,0,L|65:272,1,55,10|0,2:3|2:0,2:0:0:0:
38,85,84945,6,0,B|139:103|139:103|145:111|145:111|290:138,1,247.500009441376,12|0,2:0|2:0,2:0:0:0:
296,212,85288,6,0,P|351:160|301:61,1,197.99999395752,6|2,1:2|1:2,2:0:0:0:
205,208,85802,1,2,2:0:0:0:
154,276,85974,2,0,P|171:325|184:371,1,98.9999969787599,0|2,1:0|2:0,2:0:0:0:
400,328,86317,1,2,1:2:0:0:
309,349,86488,1,2,2:0:0:0:
309,349,86574,1,2,2:0:0:0:
309,349,86660,6,0,P|301:306|340:263,1,98.9999969787599,0|2,1:0|2:0,2:0:0:0:
460,207,87002,2,0,P|444:164|432:108,1,98.9999969787599,0|2,1:0|2:0,2:0:0:0:
434,91,87260,1,0,2:0:0:0:
442,76,87345,1,2,1:2:0:0:
272,27,87517,1,8,2:3:0:0:
253,32,87602,1,8,2:3:0:0:
234,37,87688,1,8,2:3:0:0:
215,42,87774,1,8,2:3:0:0:
196,47,87860,1,10,2:3:0:0:
177,52,87945,1,12,2:3:0:0:
160,57,88031,6,0,P|261:77|362:106,1,197.99999395752,2|2,1:2|1:2,2:0:0:0:
83,107,88545,1,2,2:0:0:0:
83,107,88631,1,2,2:0:0:0:
83,107,88717,2,0,P|61:66|82:12,1,98.9999969787599,0|2,1:0|2:0,2:0:0:0:
178,169,89060,1,2,1:2:0:0:
181,198,89145,1,2,2:0:0:0:
177,227,89231,1,0,2:0:0:0:
168,255,89317,1,2,2:0:0:0:
152,280,89402,6,0,P|198:271|257:264,1,98.9999969787599,2|2,1:2|2:0,2:0:0:0:
327,227,89745,1,0,1:0:0:0:
488,343,89917,2,0,L|433:357,1,49.4999984893799,0|2,2:0|2:0,2:0:0:0:
363,361,90088,2,2,P|360:314|413:290,2,98.9999969787599,2|0|0,1:0|2:0|1:0,2:1:0:0:
478,220,90602,1,10,2:0:0:0:
488,176,90688,1,8,2:0:0:0:
467,136,90774,6,0,P|402:111|314:72,1,148.49999546814,6|0,1:2|2:0,2:0:0:0:
292,144,91117,2,0,P|339:133|344:85,1,98.9999969787599,2|2,1:2|2:0,2:0:0:0:
146,33,91460,2,0,P|137:85|116:140,1,98.9999969787599,0|2,1:0|2:0,2:0:0:0:
134,18,91802,1,2,1:2:0:0:
42,178,91974,1,2,2:0:0:0:
42,178,92060,1,2,2:0:0:0:
42,178,92145,6,0,P|83:214|168:208,1,131.99999597168,2|0,1:2|2:0,2:0:0:0:
159,334,92402,2,0,P|135:273|157:213,1,131.99999597168,2|0,2:0|2:0,2:0:0:0:
121,128,92660,6,0,P|181:104|241:126,1,131.99999597168,2|0,2:0|2:0,2:0:0:0:
277,11,92917,2,0,P|237:61|241:126,1,131.99999597168,2|0,2:0|2:0,2:0:0:0:
283,193,93174,1,2,1:2:0:0:
473,69,93345,1,8,2:3:0:0:
484,103,93431,1,8,2:3:0:0:
464,132,93517,6,0,P|382:105|319:86,1,148.49999546814,6|0,1:2|2:0,2:0:0:0:
322,87,93860,1,2,1:2:0:0:
394,255,94031,2,0,L|447:240,2,49.4999984893799,2|2|0,2:0|2:0|1:0,2:0:0:0:
326,325,94374,1,2,2:0:0:0:
224,213,94545,1,2,1:2:0:0:
203,190,94631,1,0,2:0:0:0:
217,163,94717,6,0,P|227:122|196:70,1,98.9999969787599,12|0,2:0|1:0,2:0:0:0:
18,115,95060,2,0,B|6:121|-8:120|-8:120|6:126|16:141,1,49.4999984893799,2|0,2:0|2:0,2:0:0:0:
89,146,95231,2,0,L|218:181,1,121.000003692627,0|10,1:0|2:0,2:0:0:0:
279,199,95488,1,8,2:0:0:0:
299,207,95574,5,2,1:0:0:0:
346,185,95660,1,0,1:0:0:0:
339,128,95745,1,4,2:3:0:0:
472,360,95917,1,2,1:0:0:0:
423,324,96002,1,8,2:0:0:0:
363,313,96088,1,10,2:0:0:0:
303,323,96174,1,8,2:0:0:0:
257,356,96260,6,0,P|291:350|272:281,1,123.750004720688,2|0,2:0|2:0,2:0:0:0:
262,366,96602,6,0,B|323:359|326:301|301:276|258:271|258:271|225:248|213:214|241:171,1,264,4|0,1:2|2:0,2:0:0:0:
236,159,96945,6,0,P|289:143|326:180,2,98.9999969787599,2|0|0,1:2|2:0|1:0,2:0:0:0:
155,257,97460,1,2,2:0:0:0:
155,257,97545,1,2,2:0:0:0:
155,257,97631,6,0,P|135:168|99:62,1,197.99999395752,2|0,1:2|1:0,2:0:0:0:
31,28,98145,2,0,P|18:52|26:88,1,49.4999984893799,2|0,2:0|2:0,2:0:0:0:
100,66,98317,2,0,P|152:56|195:33,1,98.9999969787599,2|0,1:2|2:0,2:0:0:0:
270,82,98660,1,0,1:0:0:0:
430,356,98917,5,2,2:0:0:0:
430,356,99002,2,0,P|416:313|429:193,1,148.49999546814,2|0,1:2|2:0,2:0:0:0:
435,205,99345,1,2,1:2:0:0:
342,136,99517,1,2,2:0:0:0:
342,136,99602,1,2,2:0:0:0:
342,136,99688,1,0,1:0:0:0:
483,32,99860,1,2,2:0:0:0:
504,125,100031,2,0,P|459:103|393:83,1,98.9999969787599,0|2,1:2|2:0,2:0:0:0:
239,243,100374,5,2,1:2:0:0:
256,319,100545,2,2,B|191:337|135:262|191:256|135:199|69:212,1,230.99999295044,2|2,1:0|2:0,1:0:0:0:
88,295,101060,2,0,L|122:93,1,197.99999395752,2|2,1:2|1:2,2:0:0:0:
14,22,101574,2,0,L|22:64,2,32.99999899292,2|2|2,1:2|1:2|1:2,2:0:0:0:
11,76,101745,6,0,P|69:89|171:1,1,197.99999395752,4|2,1:2|1:2,2:0:0:0:
282,182,102260,1,0,2:0:0:0:
202,217,102431,2,0,P|188:174|217:129,1,98.9999969787599,0|0,1:0|2:0,2:0:0:0:
349,99,102774,1,2,1:2:0:0:
431,250,102945,1,2,2:0:0:0:
440,265,103031,1,2,2:0:0:0:
458,276,103117,6,0,P|379:296|281:370,1,197.99999395752,2|2,1:2|1:2,2:0:0:0:
234,298,103631,1,2,2:0:0:0:
89,365,103802,2,0,P|114:353|146:348,1,49.4999984893799,0|2,1:2|2:0,2:0:0:0:
164,362,103974,2,0,P|139:318|141:267,1,98.9999969787599,2|0,2:0|1:0,2:0:0:0:
15,146,104317,1,0,1:0:0:0:
15,146,104402,1,0,1:0:0:0:
15,146,104488,6,0,P|58:138|98:37,1,148.49999546814,2|2,1:2|2:0,2:0:0:0:
276,25,104831,6,0,B|317:16|336:44|336:44|309:63|269:40,1,131.99999597168,2|2,1:0|2:0,2:0:0:0:
201,27,105088,1,0,1:0:0:0:
189,25,105174,1,0,1:0:0:0:
99,237,105345,6,0,B|58:228|23:254|23:254|66:275|106:252,2,165.000006294251,2|2|12,1:0|1:2|2:0,2:0:0:0:
148,337,105860,5,0,2:0:0:0:
255,314,106031,1,0,1:0:0:0:
220,118,106202,1,8,2:0:0:0:
113,136,106374,1,0,1:0:0:0:
325,208,106545,5,10,1:0:0:0:
380,217,106631,1,8,2:0:0:0:
428,182,106717,1,8,2:3:0:0:
444,129,106802,1,0,1:0:0:0:
423,84,106888,1,4,2:3:0:0:
385,69,106974,1,0,1:0:0:0:
354,86,107060,1,10,2:0:0:0:
349,104,107145,1,8,2:0:0:0:
353,121,107231,6,0,B|334:91|343:52|343:52|318:89|265:90,1,148.49999546814,6|0,1:2|2:0,2:0:0:0:
169,192,107574,6,0,B|200:171|197:117|197:117|213:173|278:174,1,165.000006294251,10|2,1:0|2:0,2:0:0:0:
228,244,107831,1,0,2:0:0:0:
232,252,107917,1,2,1:2:0:0:
45,49,108088,1,0,1:0:0:0:
45,49,108431,6,0,B|94:78|94:78|119:153|45:218,1,208.999994419098,10|0,2:1|1:0,2:0:0:0:
35,357,108945,2,0,P|82:369|117:320,1,104.499997209549,8|10,2:0|2:0,2:0:0:0:
145,264,109202,1,8,2:0:0:0:
140,249,109288,1,2,1:2:0:0:
308,338,109460,1,0,1:0:0:0:
253,142,109631,1,8,2:0:0:0:
458,113,109802,2,0,P|434:107|411:84,1,52.2499986047745,10|4,2:3|2:3,2:0:0:0:
394,21,109974,6,0,B|405:99|333:84|339:172,1,156.749995814324,2|0,1:2|2:0,2:0:0:0:
346,183,110317,1,10,2:0:0:0:
264,49,110488,1,2,2:0:0:0:
264,49,110574,1,2,2:0:0:0:
264,49,110660,1,0,2:0:0:0:
442,196,110831,1,2,1:2:0:0:
456,212,111088,5,2,2:0:0:0:
456,212,111174,2,0,P|377:238|260:306,1,208.999994419098,8|0,2:0|1:0,2:0:0:0:
81,365,111688,2,0,P|36:342|69:245,1,156.749995814324,8|0,2:0|2:0,2:0:0:0:
130,253,112031,5,10,2:1:0:0:
175,229,112117,1,0,1:2:0:0:
168,176,112202,2,0,P|163:156|158:119,1,52.2499986047745,0|0,1:2|1:2,2:0:0:0:
60,25,112374,2,0,P|40:30|3:35,1,52.2499986047745,10|8,1:2|2:0,2:0:0:0:
147,44,112545,1,10,2:0:0:0:
196,44,112631,1,8,2:0:0:0:
238,71,112717,6,0,P|311:48|406:19,1,156.749995814324,4|0,1:2|2:0,2:0:0:0:
455,44,113060,2,0,P|487:85|473:140,1,104.499997209549,8|0,2:0|1:0,2:0:0:0:
455,159,113317,1,0,1:0:0:0:
429,153,113402,1,0,1:0:0:0:
238,71,113574,1,0,1:0:0:0:
238,71,113917,6,0,P|257:133|276:271,1,197.99999395752,12|0,1:2|2:0,2:0:0:0:
290,283,114260,1,0,1:0:0:0:
133,345,114431,2,0,P|104:320|117:259,1,104.499997209549,10|2,2:0|1:2,2:0:0:0:
144,238,114688,1,8,2:0:0:0:
181,247,114774,1,0,1:0:0:0:
280,373,114945,1,2,1:2:0:0:
222,165,115117,1,8,2:0:0:0:
35,233,115288,1,8,2:0:0:0:
0,266,115374,1,8,2:0:0:0:
28,311,115460,6,0,L|5:134,1,156.749995814324,6|0,1:2|2:0,2:0:0:0:
18,139,115802,1,10,2:0:0:0:
182,45,115974,2,0,L|236:61,2,52.2499986047745,2|0|0,2:0|2:0|2:0,2:0:0:0:
86,26,116317,1,2,1:2:0:0:
122,140,116488,1,2,1:2:0:0:
339,80,116660,5,12,2:0:0:0:
339,80,117002,1,0,1:0:0:0:
274,240,117174,1,10,2:0:0:0:
481,110,117345,2,0,P|487:83|471:48,1,60.5000018463135,8|8,2:0|2:0,2:0:0:0:
262,33,117517,6,0,P|247:104|303:157,1,131.99999597168,10|8,2:1|2:0,2:0:0:0:
349,191,117774,1,8,2:0:0:0:
368,184,117860,2,0,P|397:188|435:190,1,55,10|0,2:0|2:0,2:0:0:0:
410,357,118031,2,0,P|382:355|355:351,1,55,8|0,2:0|2:0,2:0:0:0:
481,281,118202,6,0,L|279:258,1,187.000003566742,6|0,1:2|2:0,2:0:0:0:
226,204,118717,1,2,1:2:0:0:
110,332,118888,1,8,2:0:0:0:
110,332,119231,5,2,1:2:0:0:
28,74,119402,1,0,1:0:0:0:
28,74,119745,1,10,2:0:0:0:
109,96,119917,1,2,2:0:0:0:
49,155,120088,2,0,L|66:220,1,46.7500008916855,2|0,1:2|1:0,2:0:0:0:
101,362,120260,5,14,2:0:0:0:
254,230,120431,1,2,1:2:0:0:
222,347,120602,1,2,2:0:0:0:
158,166,120774,1,2,1:2:0:0:
365,216,120945,6,0,P|411:226|461:247,1,93.500001783371,6|0,1:2|2:0,2:0:0:0:
307,109,121288,1,2,2:0:0:0:
461,49,121460,1,2,1:2:0:0:
461,49,121545,1,0,1:0:0:0:
461,49,121631,2,0,P|393:75|324:91,1,140.250002675057,8|0,2:0|2:0,2:0:0:0:
307,109,121974,5,6,1:2:0:0:
116,29,122145,1,0,1:0:0:0:
116,29,122488,1,10,2:0:0:0:
133,233,122660,1,2,2:0:0:0:
212,114,122831,2,0,L|158:127,1,46.7500008916855,2|0,1:2|1:0,2:0:0:0:
22,230,123002,5,10,2:0:0:0:
182,354,123174,1,10,1:3:0:0:
273,182,123345,1,10,2:0:0:0:
299,137,123431,1,8,2:0:0:0:
294,85,123517,1,8,2:0:0:0:
264,43,123602,1,8,2:0:0:0:
215,25,123688,5,2,2:0:0:0:
135,331,125917,6,0,L|121:278,1,55,2|2,1:2|1:2,2:0:0:0:
44,209,126088,1,10,2:3:0:0:
58,161,126174,1,4,2:3:0:0:
72,113,126260,1,0,1:0:0:0:
86,65,126345,1,0,1:0:0:0:
100,17,126431,6,0,B|220:29|146:92|285:101,1,181.500005538941,6|0,1:2|2:0,2:0:0:0:
279,94,126774,1,0,1:0:0:0:
134,210,126945,1,0,1:0:0:0:
256,10,127117,1,8,2:0:0:0:
251,272,127288,1,10,2:0:0:0:
492,157,127460,1,10,2:0:0:0:
170,156,127631,6,0,B|144:171|113:176|113:176|82:261|150:323,1,214.49999018097,14|0,2:0|2:0,2:0:0:0:
196,366,127974,1,8,2:0:0:0:
223,359,128060,1,8,2:0:0:0:
250,353,128145,1,8,2:0:0:0:
302,65,128317,5,8,2:0:0:0:
342,76,128402,1,8,2:0:0:0:
383,87,128488,1,8,2:0:0:0:
511,266,128660,5,8,2:0:0:0:
499,274,128745,1,8,2:0:0:0:
485,284,128831,1,8,2:0:0:0:
429,269,128917,1,0,1:0:0:0:
373,254,129002,1,4,1:3:0:0:
317,239,129088,1,0,1:0:0:0:
260,224,129173,5,10,2:0:0:0:
25,370,129345,1,2,1:2:0:0:
162,52,129688,5,10,2:0:0:0:
360,363,130031,5,2,1:2:0:0:
360,363,130202,2,0,L|343:297,1,55,0|0,1:0|2:0,2:0:0:0:
296,99,130374,6,0,B|242:75|207:140|207:140|260:189|304:150,1,214.49999018097,14|0,2:0|2:0,2:0:0:0:
366,121,130717,2,0,L|427:112,3,47.6666644846599,8|0|0|8,1:3|1:0|1:0|1:3,2:0:0:0:
74,358,131231,6,0,P|49:332|111:269,1,132,2|0,2:0|2:0,2:0:0:0:
208,245,131574,6,0,P|196:299|108:264,1,165,2|0,2:0|2:0,2:0:0:0:
79,175,131917,5,6,1:2:0:0:
244,104,132088,1,2,2:0:0:0:
38,11,132260,1,10,2:0:0:0:
110,277,132431,2,0,L|138:54,1,220,2|0,1:2|1:0,2:0:0:0:
341,25,132945,1,10,2:0:0:0:
442,171,133117,1,2,2:0:0:0:
442,171,133202,1,0,2:0:0:0:
442,171,133288,6,0,P|425:226|373:234,1,110,2|2,1:2|1:2,2:0:0:0:
281,130,133631,1,8,2:0:0:0:
196,281,133802,2,0,P|262:294|414:351,1,220,2|0,1:2|1:0,2:0:0:0:
281,130,134317,1,10,2:0:0:0:
148,355,134488,1,0,2:0:0:0:
148,355,134574,1,0,1:0:0:0:
148,355,134660,6,0,P|113:307|200:195,1,220,2|8,1:2|2:0,2:0:0:0:
4,31,135174,2,0,P|41:78|41:149,1,110,2|0,1:2|2:0,2:0:0:0:
196,281,135517,1,2,1:2:0:0:
147,72,135688,1,10,2:0:0:0:
0,228,135860,1,2,2:0:0:0:
245,164,136031,5,2,1:2:0:0:
245,164,136202,1,0,1:0:0:0:
340,354,136374,2,0,P|392:357|422:299,1,110,12|2,2:0|2:0,2:0:0:0:
467,255,136631,1,0,2:0:0:0:
462,235,136717,1,2,1:2:0:0:
237,274,136888,1,0,1:0:0:0:
430,74,137060,1,12,2:0:0:0:
300,17,137231,6,0,L|334:131,1,110,2|4,2:0|1:2,2:0:0:0:
155,342,137574,1,2,2:0:0:0:
201,135,137745,1,10,2:0:0:0:
201,135,137917,1,2,1:2:0:0:
355,253,138088,1,2,2:0:0:0:
109,221,138260,1,2,1:2:0:0:
355,253,138431,1,8,2:0:0:0:
247,27,138602,6,0,P|200:11|146:39,1,110,2|6,1:2|1:2,2:0:0:0:
36,274,138945,1,2,1:2:0:0:
25,121,139117,2,0,B|121:124|72:186|193:181,1,165,10|0,2:0|2:0,2:0:0:0:
193,172,139460,1,2,2:0:0:0:
321,64,139631,1,2,1:2:0:0:
401,315,139802,1,8,2:0:0:0:
505,157,139974,6,0,P|455:172|391:186,1,110,2|4,1:2|1:2,2:0:0:0:
176,282,140317,1,0,2:0:0:0:
322,360,140488,1,10,2:0:0:0:
176,282,140660,1,2,1:2:0:0:
268,100,140831,5,2,2:0:0:0:
313,250,141002,1,2,1:2:0:0:
25,357,141174,1,10,2:0:0:0:
85,152,141345,1,2,2:0:0:0:
227,341,141517,6,0,P|262:348|290:363,1,65.9999979858399,4|0,1:2|2:0,2:0:0:0:
359,191,141688,2,0,P|329:205|297:212,1,65.9999979858399,0|0,1:0|2:0,2:0:0:0:
448,379,141860,2,0,P|452:329|479:238,1,131.99999597168,8|8,2:0|2:0,2:0:0:0:
503,181,142117,1,8,2:0:0:0:
506,170,142202,1,2,1:2:0:0:
287,44,142374,5,8,2:0:0:0:
230,33,142460,1,8,2:0:0:0:
187,70,142545,1,10,2:0:0:0:
170,125,142631,1,8,2:0:0:0:
114,139,142717,1,8,2:0:0:0:
64,111,142802,1,8,2:0:0:0:
54,59,142888,6,0,P|79:15|139:5,1,110,6|2,1:2|2:0,2:0:0:0:
282,163,143231,1,10,2:0:0:0:
121,339,143402,2,0,L|170:123,1,220,2|0,1:2|1:0,2:0:0:0:
404,83,143917,1,10,2:0:0:0:
293,258,144088,1,2,2:0:0:0:
252,49,144260,5,2,1:2:0:0:
470,198,144431,2,0,P|477:250|431:285,1,110,2|8,1:2|2:0,2:0:0:0:
191,314,144774,1,2,1:2:0:0:
318,358,144945,2,0,L|291:247,1,110,2|0,2:0|1:0,2:0:0:0:
274,179,145202,1,2,1:2:0:0:
270,162,145288,1,10,2:0:0:0:
113,41,145460,1,2,2:0:0:0:
27,247,145631,6,0,P|96:265|149:147,1,220,2|8,1:2|2:0,2:0:0:0:
352,60,146145,2,0,P|299:50|245:35,1,110,2|0,1:2|2:0,2:0:0:0:
434,181,146488,1,2,1:2:0:0:
245,320,146660,1,10,2:0:0:0:
267,146,146831,1,2,2:0:0:0:
410,363,147002,5,2,1:2:0:0:
410,363,147174,1,0,1:0:0:0:
512,188,147345,2,0,P|506:135|459:104,1,110,12|2,2:0|1:2,2:0:0:0:
393,98,147602,1,0,1:2:0:0:
379,107,147688,1,2,1:2:0:0:
160,204,147860,1,0,1:0:0:0:
332,289,148031,1,12,2:0:0:0:
242,27,148202,6,0,P|250:85|268:139,1,110,2|4,1:2|1:2,2:0:0:0:
75,287,148545,1,0,2:0:0:0:
144,102,148717,1,10,2:0:0:0:
144,102,148888,1,0,1:0:0:0:
251,236,149060,5,2,2:0:0:0:
36,142,149231,1,2,1:2:0:0:
182,361,149402,1,8,2:0:0:0:
342,159,149574,6,0,P|319:116|251:114,1,110,2|4,1:2|1:2,2:0:0:0:
141,225,149917,1,2,1:2:0:0:
314,330,150088,2,0,P|366:316|439:304,1,110,10|0,2:0|1:0,2:0:0:0:
488,348,150345,1,0,1:0:0:0:
483,365,150431,5,2,2:0:0:0:
310,230,150602,1,2,1:2:0:0:
489,91,150774,1,8,2:0:0:0:
357,28,150945,6,0,P|375:90|387:146,1,110,2|4,1:2|1:2,2:0:0:0:
179,302,151288,1,2,2:0:0:0:
237,129,151460,1,10,2:0:0:0:
179,302,151631,1,2,1:2:0:0:
318,245,151802,5,2,2:0:0:0:
115,164,151974,1,2,1:2:0:0:
36,364,152145,1,10,2:0:0:0:
78,47,152317,1,2,2:0:0:0:
383,179,152488,6,0,P|410:191|444:198,1,55,4|0,1:2|2:0,2:0:0:0:
451,355,152660,2,0,P|458:328|470:303,1,55,0|0,1:0|2:0,2:0:0:0:
230,229,152831,2,0,P|262:236|294:237,1,55,12|0,2:0|2:0,2:0:0:0:
245,354,153002,2,0,P|270:341|297:335,1,55,0|0,1:0|2:0,2:0:0:0:
490,130,153174,5,8,2:0:0:0:
508,74,153288,5,8,2:0:0:0:
465,34,153402,5,8,2:3:0:0:
366,61,153517,5,6,2:3:0:0:
348,117,153631,5,4,1:3:0:0:
391,157,153745,5,0,1:0:0:0:
427,96,153860,6,0,B|324:63|346:157|236:116,1,197.99999395752,6|0,1:2|2:0,2:0:0:0:
156,66,154374,1,0,1:0:0:0:
156,66,154545,1,12,2:0:0:0:
94,355,154888,2,0,L|73:258,1,98.9999969787599,2|8,2:0|2:0,2:0:0:0:
66,224,155145,1,0,1:0:0:0:
66,224,155231,5,2,1:2:0:0:
184,273,155402,2,0,P|235:272|276:245,1,98.9999969787599,8|2,2:0|2:0,2:0:0:0:
379,234,155745,1,2,1:2:0:0:
379,234,155831,1,0,1:0:0:0:
379,234,155917,2,0,P|309:214|272:143,1,148.49999546814,12|0,2:0|1:0,2:0:0:0:
311,72,156260,5,6,2:3:0:0:
313,62,156345,1,4,2:3:0:0:
315,52,156431,1,0,1:0:0:0:
317,42,156517,1,0,1:0:0:0:
320,32,156602,2,0,P|263:4|188:95,1,197.99999395752,6|2,1:2|2:0,2:0:0:0:
216,181,157117,1,0,1:0:0:0:
67,243,157288,6,0,B|170:213|151:299|257:264,1,197.99999395752,14|2,2:0|1:2,2:0:0:0:
312,188,157802,1,8,2:0:0:0:
434,301,157974,5,4,1:2:0:0:
434,301,158145,2,0,L|414:98,1,197.99999395752,8|2,2:0|1:2,2:0:0:0:
321,65,158660,1,12,2:0:0:0:
246,127,158831,1,10,1:3:0:0:
111,43,159002,1,10,2:0:0:0:
111,43,159088,1,8,2:0:0:0:
111,43,159174,1,10,2:0:0:0:
147,202,159345,6,0,P|256:174|375:153,1,220,6|8,1:2|2:0,2:0:0:0:
491,317,159860,2,0,L|470:208,1,110,2|0,2:0|2:0,2:0:0:0:
429,68,160202,1,0,1:0:0:0:
326,253,160374,1,8,2:0:0:0:
285,270,160460,1,0,2:0:0:0:
241,262,160545,1,8,2:3:0:0:
138,109,160717,6,0,P|58:88|16:204,1,220,4|8,1:2|2:0,2:0:0:0:
126,232,161231,1,0,1:0:0:0:
126,232,161317,1,8,2:3:0:0:
126,232,161402,1,0,1:0:0:0:
234,159,161574,1,0,1:0:0:0:
400,241,161745,1,8,2:0:0:0:
415,282,161831,1,0,1:0:0:0:
410,325,161917,1,0,1:0:0:0:
215,378,162088,6,0,L|234:156,1,220,4|8,1:2|2:0,2:0:0:0:
312,78,162602,1,0,1:0:0:0:
312,78,162688,1,8,2:3:0:0:
312,78,162774,1,0,1:0:0:0:
168,36,162945,1,0,1:0:0:0:
411,48,163117,6,0,P|415:76|407:113,1,55,10|0,2:0|2:0,2:0:0:0:
336,186,163288,1,0,1:0:0:0:
168,36,163460,5,10,2:0:0:0:
259,250,163631,1,10,2:0:0:0:
487,169,163802,1,0,1:0:0:0:
371,89,163974,6,0,P|318:81|267:107,1,110,10|0,1:2|2:0,2:0:0:0:
150,172,164317,1,2,1:2:0:0:
16,97,164488,2,0,P|32:176|47:268,1,165,12|0,2:0|2:0,2:0:0:0:
48,348,164831,5,6,1:2:0:0:
256,192,164917,12,2,170317,2:0:0:0:
435,79,175288,5,0,1:0:0:0:
435,79,175374,1,0,1:0:0:0:
435,79,175460,2,0,L|430:153,1,66,2|0,1:2|2:0,2:0:0:0:
429,228,175802,6,0,P|356:241|287:265,3,142.99999345398,6|0|2|0,1:2|1:0|1:2|1:0,2:0:0:0:
70,351,177174,1,2,1:2:0:0:
0,286,177345,1,2,2:0:0:0:
0,286,177431,1,2,2:0:0:0:
0,286,177517,2,0,L|10:212,1,71.4999967269899,0|0,1:0|2:0,2:0:0:0:
144,71,177860,5,2,1:2:0:0:
144,71,178202,1,0,1:0:0:0:
79,16,178545,6,0,P|97:84|101:160,3,142.99999345398,2|0|2|0,1:2|1:0|1:2|1:0,2:0:0:0:
200,268,179917,5,2,1:2:0:0:
271,220,180088,1,2,2:0:0:0:
271,220,180174,1,2,2:0:0:0:
271,220,180260,2,0,P|287:257|283:293,1,71.4999967269899,0|0,1:0|2:0,2:0:0:0:
192,359,180602,1,2,1:2:0:0:
115,287,180773,1,2,2:0:0:0:
115,287,180859,1,2,2:0:0:0:
115,287,180945,2,0,P|113:252|129:220,1,71.4999967269899,0|0,1:0|2:0,2:0:0:0:
231,126,181288,6,0,P|301:103|375:85,3,142.99999345398,6|0|2|0,1:2|1:0|1:2|1:0,2:0:0:0:
130,105,182660,6,0,P|133:155|159:197,1,93.500001783371,2|8,1:2|2:0,2:0:0:0:
154,191,182917,1,8,2:0:0:0:
154,191,183002,1,8,1:2:0:0:
320,272,183174,1,8,2:0:0:0:
320,272,183260,1,8,2:0:0:0:
320,272,183345,5,10,2:0:0:0:
351,281,183431,1,8,2:0:0:0:
388,278,183517,1,8,2:0:0:0:
423,256,183602,1,8,2:0:0:0:
438,211,183688,1,8,2:0:0:0:
431,159,183774,1,8,2:0:0:0:
395,115,183860,1,8,2:0:0:0:
339,91,183945,1,8,2:0:0:0:
269,89,184031,6,0,P|203:137|245:237,1,181.500005538941,6|0,1:2|2:0,2:0:0:0:
224,224,184374,2,0,P|231:192|218:163,1,60.5000018463135,8|0,2:0|2:0,2:0:0:0:
56,303,184545,6,0,B|171:261|142:362|265:324,1,214.49999018097,6|0,1:2|2:0,2:0:0:0:
259,325,184888,2,0,P|290:315|308:275,1,71.4999967269899,8|0,2:0|2:0,2:0:0:0:
260,129,185060,6,0,B|197:189|109:177|59:101|126:42,1,247.500009441376,6|0,1:2|2:0,2:0:0:0:
110,58,185402,2,0,P|152:56|181:86,1,82.5000031471254,8|0,2:0|2:0,2:0:0:0:
420,245,185574,6,0,B|460:209|484:147|420:92|420:92|436:123|430:150,1,230.99999295044,6|0,1:2|2:0,2:0:0:0:
431,143,185917,2,0,P|470:150|510:135,1,76.9999976501466,8|0,2:0|2:0,2:0:0:0:
273,0,186088,6,0,P|252:129|222:265,1,264,6|0,1:2|2:0,2:0:0:0:
39,293,186431,2,0,P|65:258|108:229,1,88,8|0,2:0|2:0,2:0:0:0:
299,142,186602,6,0,B|237:105|179:153|201:176|128:219|56:169|56:169|97:185|143:164,1,352,6|0,1:2|2:0,2:0:0:0:
332,43,188145,5,8,2:0:0:0:
378,49,188231,1,8,2:3:0:0:
409,72,188317,1,4,2:3:0:0:
418,102,188402,1,0,1:0:0:0:
415,127,188488,2,0,P|406:152|396:174,1,35.749998363495,0|0,1:0|1:0,2:0:0:0:
262,178,188660,5,8,2:0:0:0:
216,169,188745,1,8,2:3:0:0:
178,181,188831,1,4,2:3:0:0:
158,206,188917,1,4,2:3:0:0:
155,230,189002,2,0,L|167:274,1,35.749998363495,0|0,1:0|1:0,2:0:0:0:
310,334,189174,5,12,2:0:0:0:
365,351,189260,1,0,2:0:0:0:
421,345,189345,1,0,2:0:0:0:
468,312,189431,1,8,1:2:0:0:
487,255,189517,6,0,P|481:219|457:186,1,65.9999979858399,6|0,1:2|2:0,2:0:0:0:
257,90,189688,1,2,2:0:0:0:
246,135,189774,1,2,2:0:0:0:
262,178,189860,2,0,P|296:190|336:186,1,65.9999979858399,10|0,2:0|2:0,2:0:0:0:
442,22,190031,2,0,P|413:45|397:82,1,65.9999979858399,2|0,1:2|2:0,2:0:0:0:
394,254,190202,5,2,2:0:0:0:
315,307,190374,1,2,1:2:0:0:
191,311,190545,1,10,2:0:0:0:
76,201,190717,1,2,2:0:0:0:
155,15,190888,5,2,1:2:0:0:
178,125,191060,1,2,1:2:0:0:
250,78,191231,5,10,2:0:0:0:
221,233,191402,1,2,1:2:0:0:
305,223,191574,5,2,2:0:0:0:
101,309,191745,1,2,1:2:0:0:
15,105,191917,1,10,2:0:0:0:
219,19,192088,1,2,2:0:0:0:
156,82,192260,6,0,B|281:36|253:134|385:81,1,230.99999295044,2|0,1:2|2:0,2:0:0:0:
449,33,192602,1,8,2:0:0:0:
506,167,192774,1,2,1:2:0:0:
498,220,192860,1,2,1:2:0:0:
490,272,192945,2,0,P|422:235|350:264,1,153.999995300293,2|2,1:2|1:2,2:0:0:0:
261,343,193202,2,0,P|190:367|125:330,1,153.999995300293,2|0,1:2|2:0,2:0:0:0:
75,222,193460,1,2,2:0:0:0:
256,84,193631,6,0,L|259:101,1,11,2|0,1:2|2:0,2:0:0:0:
248,208,193802,2,0,L|249:197,1,11,0|0,1:0|2:0,2:0:0:0:
363,139,193974,6,0,B|271:130|271:130|236:153|236:153|140:144,1,230.99999295044,12|0,2:0|1:0,2:0:0:0:
75,222,194317,6,0,P|83:226|92:228,1,11,2|0,1:2|2:0,2:0:0:0:
207,293,194488,2,0,P|198:297|190:299,1,11,0|0,1:0|2:0,2:0:0:0:
141,368,194660,6,0,B|180:246|92:266|145:128,1,230.99999295044,12|2,2:0|2:0,2:0:0:0:
180,49,195002,5,6,1:2:0:0:
411,94,195174,1,2,2:0:0:0:
172,39,195345,1,10,2:0:0:0:
419,104,195517,2,0,P|403:205|391:300,1,197.99999395752,2|0,1:2|2:0,2:0:0:0:
453,356,195860,5,2,1:2:0:0:
310,298,196031,1,10,2:0:0:0:
472,259,196202,1,2,2:0:0:0:
300,130,196374,5,2,1:2:0:0:
224,369,196545,1,2,2:0:0:0:
311,124,196717,1,10,2:0:0:0:
213,375,196888,2,0,P|127:338|22:303,1,197.99999395752,2|0,1:2|2:0,2:0:0:0:
7,222,197231,5,2,1:2:0:0:
123,297,197402,1,10,2:0:0:0:
213,197,197574,1,2,2:0:0:0:
80,27,197745,5,2,1:2:0:0:
61,126,197917,1,2,2:0:0:0:
89,129,198002,1,2,2:0:0:0:
116,121,198088,1,10,2:0:0:0:
289,82,198260,1,2,1:2:0:0:
344,68,198345,1,2,2:0:0:0:
400,78,198431,6,0,P|408:145|362:209,1,142.99999345398,2|2,1:2|2:0,2:0:0:0:
423,195,198660,6,0,P|363:239|276:231,1,165.000006294251,2|0,2:1|2:0,2:0:0:0:
309,279,198888,6,0,P|234:246|195:160,1,176,2|0,2:1|2:0,2:0:0:0:
181,114,199117,6,0,P|256:20|407:95,1,296.99999093628,14|8,2:0|2:0,2:0:0:0:
423,195,199460,5,8,1:2:0:0:
405,203,199545,1,8,2:0:0:0:
385,207,199631,1,8,2:0:0:0:
365,208,199717,1,8,2:0:0:0:
345,205,199802,5,8,1:2:0:0:
388,229,199888,1,8,2:0:0:0:
436,216,199974,1,8,2:0:0:0:
467,177,200060,1,8,2:0:0:0:
460,128,200145,6,0,P|433:108|397:104,1,65.9999979858399,10|10,1:2|2:0,2:0:0:0:
250,168,200317,2,0,P|223:188|187:192,1,65.9999979858399,10|10,2:0|2:0,2:0:0:0:
59,98,200488,5,6,1:2:0:0:
69,216,200660,1,2,2:0:0:0:
80,333,200831,1,10,2:0:0:0:
258,122,201002,6,0,P|348:91|371:228,1,263.99999194336,2|2,1:2|1:2,2:0:0:0:
294,282,201517,1,10,2:0:0:0:
69,216,201688,6,0,B|44:197|11:200|11:200|127:171|101:248|207:218,1,263.99999194336,2|2,1:2|1:2,2:0:0:0:
280,159,202202,1,10,2:0:0:0:
422,221,202374,1,2,1:2:0:0:
492,70,202545,5,2,2:0:0:0:
308,258,202717,1,2,1:2:0:0:
144,5,202888,2,0,P|151:72|165:144,1,131.99999597168,10|2,2:0|2:0,2:0:0:0:
242,357,203231,5,2,1:2:0:0:
404,333,203402,1,2,2:0:0:0:
381,170,203574,1,10,2:0:0:0:
218,193,203745,1,2,1:2:0:0:
413,339,203917,5,2,1:2:0:0:
388,159,204089,1,2,1:2:0:0:
209,185,204260,1,10,1:2:0:0:
235,365,204431,1,2,2:0:0:0:
474,199,204602,6,0,P|409:200|372:265,1,131.99999597168,2|0,1:2|2:0,2:0:0:0:
243,84,204945,1,12,2:0:0:0:
173,287,205117,1,2,1:2:0:0:
173,287,205202,1,2,1:2:0:0:
173,287,205288,2,0,P|100:301|47:274,1,131.99999597168,2|0,1:2|1:0,2:0:0:0:
88,62,205631,1,14,1:2:0:0:
140,69,205717,1,2,1:2:0:0:
191,76,205802,1,2,1:2:0:0:
243,84,205888,1,2,1:2:0:0:
295,92,205974,5,6,1:2:0:0:
411,168,206145,1,2,2:0:0:0:
487,38,206317,1,10,2:0:0:0:
233,0,206488,6,0,P|254:125|265:265,1,263.99999194336,2|2,1:2|1:2,2:0:0:0:
95,356,207002,1,10,1:2:0:0:
16,192,207174,1,2,1:2:0:0:
108,154,207345,6,0,P|117:197|101:248,2,87.9999973144532,6|0|0,1:2|2:0|2:0,2:0:0:0:
245,92,207688,5,10,2:0:0:0:
311,70,207802,5,2,2:0:0:0:
381,78,207917,5,2,2:0:0:0:
437,120,208031,5,2,1:2:0:0:
275,228,208202,1,2,1:2:0:0:
183,43,208374,6,0,P|220:58|246:94,1,82.5000031471254,10|0,2:0|2:0,2:0:0:0:
434,221,208545,2,0,P|397:236|371:272,1,82.5000031471254,2|0,2:0|2:0,2:0:0:0:
169,343,208717,6,0,P|72:364|46:221,2,263.99999194336,6|8|0,1:2|2:0|1:0,2:0:0:0:
193,159,209574,1,2,1:2:0:0:
353,361,209745,1,10,2:0:0:0:
377,177,209916,1,2,2:0:0:0:
169,344,210088,6,0,P|125:332|86:300,2,87.9999973144532,6|2|0,1:2|2:0|2:0,2:0:0:0:
0,217,210431,2,0,P|44:205|83:173,2,87.9999973144532,10|2|0,2:0|2:0|2:0,2:0:0:0:
178,67,210774,5,10,2:0:0:0:
258,32,210888,5,8,2:3:0:0:
327,39,211002,5,8,2:3:0:0:
373,65,211117,5,6,2:3:0:0:
407,69,211231,5,4,2:3:0:0:
424,66,211345,5,4,1:3:0:0:
429,61,211460,6,0,B|381:33|381:33|412:166,1,187.000003566742,6|0,1:2|2:0,2:0:0:0:
464,249,211974,1,0,1:0:0:0:
464,249,212145,1,12,2:0:0:0:
225,353,212488,2,0,P|178:347|137:322,1,93.500001783371,2|8,2:0|2:3,2:0:0:0:
138,323,212745,1,8,2:3:0:0:
138,323,212831,5,2,1:2:0:0:
9,243,213002,2,0,L|26:341,1,93.500001783371,8|0,2:0|2:0,2:0:0:0:
126,208,213345,1,2,1:2:0:0:
25,141,213517,2,0,B|-14:108|-14:108|8:243,1,187.000003566742,12|2,2:0|1:2,2:0:0:0:
24,335,214031,1,2,1:2:0:0:
126,208,214202,6,0,P|171:194|217:206,1,93.500001783371,14|0,2:0|2:0,2:0:0:0:
362,318,214545,2,0,P|317:304|271:316,1,93.500001783371,2|0,2:0|1:0,2:0:0:0:
184,380,214802,1,0,1:0:0:0:
184,380,214888,2,0,L|173:270,1,93.500001783371,10|0,2:0|2:0,2:0:0:0:
326,118,215231,2,0,L|317:212,1,93.500001783371,2|8,2:0|2:0,2:0:0:0:
273,314,215574,5,0,1:0:0:0:
412,234,215745,1,8,2:0:0:0:
468,347,215917,1,2,2:0:0:0:
468,347,216088,1,0,1:0:0:0:
317,212,216260,6,0,P|270:201|218:220,1,93.500001783371,8|0,2:0|1:0,2:0:0:0:
165,303,216602,2,0,P|120:315|75:304,1,93.500001783371,8|0,2:3|1:0,2:0:0:0:
11,214,216945,6,0,P|15:144|118:124,1,187.000003566742,6|2,1:2|2:0,2:0:0:0:
205,166,217460,1,0,1:0:0:0:
205,166,217631,1,8,2:0:0:0:
431,21,217974,2,0,L|421:122,1,93.500001783371,2|0,2:0|1:0,2:0:0:0:
421,114,218231,1,0,1:0:0:0:
421,114,218317,5,2,1:2:0:0:
505,276,218488,2,0,P|455:281|412:258,1,93.500001783371,8|0,2:0|2:0,2:0:0:0:
343,196,218831,1,6,1:2:0:0:
257,263,219002,2,0,P|235:208|308:95,1,187.000003566742,8|2,2:0|2:0,2:0:0:0:
386,100,219517,1,0,1:0:0:0:
276,9,219688,6,0,L|293:114,1,93.500001783371,6|0,1:2|2:0,2:0:0:0:
428,188,220031,2,0,P|383:199|340:185,1,93.500001783371,2|0,2:0|1:0,2:0:0:0:
339,184,220288,1,0,1:0:0:0:
339,184,220374,1,10,2:0:0:0:
180,191,220560,2,0,P|134:161|66:250,1,187.000003566742,8|0,2:0|1:0,2:0:0:0:
259,326,221074,5,2,1:2:0:0:
159,376,221245,2,0,L|181:178,1,187.000003566742,8|2,2:0|1:2,2:0:0:0:
346,142,221760,1,10,2:0:0:0:
347,151,221846,1,8,2:0:0:0:
348,160,221932,1,0,1:0:0:0:
349,169,222017,1,0,1:0:0:0:
349,178,222092,6,0,P|413:206|411:94,1,214.49999018097,12|2,2:0|2:0,2:0:0:0:
361,28,222431,6,0,P|354:115|426:96,1,187.000003566742,6|0,1:2|1:0,2:0:0:0:
472,7,222945,1,0,1:0:0:0:
472,7,223117,1,12,2:0:0:0:
460,277,223460,2,0,P|411:283|362:262,1,93.500001783371,2|0,2:0|2:0,2:0:0:0:
370,268,223717,1,0,1:0:0:0:
370,268,223802,5,2,1:2:0:0:
440,99,223974,2,0,L|429:196,1,93.500001783371,8|0,2:0|2:0,2:0:0:0:
287,303,224317,1,2,1:2:0:0:
171,247,224488,2,0,P|136:187|242:147,1,187.000003566742,12|6,2:0|2:3,2:0:0:0:
330,152,225002,1,0,1:0:0:0:
375,48,225174,6,0,P|324:38|276:55,1,93.500001783371,6|0,1:2|2:0,2:0:0:0:
127,133,225517,2,0,P|178:143|226:126,1,93.500001783371,2|0,1:2|1:0,2:0:0:0:
330,152,225774,1,0,1:0:0:0:
330,152,225859,2,0,L|313:260,1,110,14|0,2:0|2:0,2:0:0:0:
484,84,226202,2,0,L|501:192,1,110,2|8,2:0|2:0,2:0:0:0:
475,304,226545,5,0,1:0:0:0:
312,260,226717,2,0,B|213:242|252:316|128:291,1,187.000003566742,10|2,2:0|1:2,2:0:0:0:
0,248,227231,1,8,2:0:0:0:
118,165,227402,1,2,1:2:0:0:
118,165,227488,1,0,1:0:0:0:
118,165,227574,1,14,2:0:0:0:
250,210,227745,1,0,2:0:0:0:
431,98,227917,6,0,B|458:85|480:59|480:59|452:231,1,220,6|2,1:2|1:2,2:0:0:0:
384,312,228431,1,2,2:0:0:0:
384,312,228602,2,0,P|332:319|281:292,1,110,0|2,1:0|2:0,2:0:0:0:
122,206,228945,2,0,P|174:213|225:186,1,110,2|2,1:2|2:0,2:0:0:0:
357,91,229288,5,2,1:2:0:0:
367,87,229374,1,0,2:0:0:0:
377,84,229460,1,2,2:0:0:0:
460,175,229631,5,2,1:2:0:0:
437,175,229717,1,0,2:0:0:0:
415,170,229802,1,2,2:0:0:0:
262,47,229974,5,2,2:0:0:0:
230,55,230060,1,0,2:0:0:0:
208,79,230145,1,2,2:0:0:0:
192,307,230317,5,2,1:2:0:0:
226,279,230402,1,0,2:0:0:0:
235,235,230488,1,2,2:0:0:0:
74,118,230660,5,6,1:2:0:0:
82,171,230745,1,0,2:0:0:0:
90,225,230831,1,2,2:0:0:0:
346,219,231002,5,2,1:2:0:0:
338,272,231087,1,0,2:0:0:0:
330,326,231173,1,10,2:0:0:0:
209,103,231345,6,0,P|204:120|205:139,1,34.375,2|0,1:2|2:0,2:0:0:0:
205,164,231431,2,0,P|206:181|213:199,1,34.375,2|0,2:0|2:0,2:0:0:0:
222,222,231517,2,0,P|229:238|242:252,1,34.375,8|0,2:0|2:0,2:0:0:0:
468,144,231688,6,0,B|458:131|445:128|445:128|453:137|456:147,1,48.1250004589558,2|0,1:2|2:0,2:0:0:0:
420,116,231774,2,0,B|404:109|392:113|392:113|403:117|411:124,1,48.1250004589558,2|0,2:0|2:0,2:0:0:0:
364,115,231860,2,0,B|347:117|338:126|338:126|350:124|360:126,1,48.1250004589558,2|0,2:0|2:0,2:0:0:0:
251,347,232031,6,2,B|224:350|224:350|218:359|218:359|186:353,1,61.875002360344,2|0,1:0|2:0,2:1:0:0:
195,348,232117,2,0,B|170:337|170:337|160:341|160:341|135:320,1,61.875002360344,2|0,2:0|2:0,2:0:0:0:
146,320,232202,2,0,B|129:298|129:298|119:297|119:297|108:266,1,61.875002360344,2|0,2:0|2:0,2:0:0:0:
117,272,232288,2,0,B|113:245|113:245|104:238|104:238|110:207,1,61.875002360344,2|0,2:0|2:0,2:0:0:0:
116,215,232373,2,0,B|126:190|126:190|122:180|122:180|143:155,1,61.875002360344,2|0,2:0|2:0,2:0:0:0:
334,33,232545,6,0,P|323:107|307:194,1,159.500004867554,10|0,2:0|2:0,2:0:0:0:
361,365,232888,2,0,P|346:330|346:283,1,79.7500024337769,10|8,2:0|2:0,2:0:0:0:
249,242,233060,2,0,P|270:212|312:188,1,79.7500024337769,2|8,1:2|2:0,2:0:0:0:
299,84,233231,2,0,P|335:88|377:112,1,79.7500024337769,10|8,2:0|2:0,2:0:0:0:
460,48,233402,6,0,P|475:82|474:129,1,79.7500024337769,2|0,1:2|2:0,2:0:0:0:
344,288,233574,1,8,2:0:0:0:
320,291,233660,1,8,2:0:0:0:
296,294,233745,1,8,2:0:0:0:
272,297,233831,1,8,2:0:0:0:
248,300,233917,1,8,2:0:0:0:
224,304,234002,1,8,2:0:0:0:
200,308,234088,1,8,1:2:0:0:
176,312,234174,1,8,2:0:0:0:
152,315,234260,1,8,2:0:0:0:
128,319,234345,1,8,2:0:0:0:
104,323,234431,1,8,2:0:0:0:
80,327,234517,1,8,2:0:0:0:
56,331,234602,1,8,2:0:0:0:
32,335,234688,1,8,2:0:0:0:
8,339,234774,6,0,L|86:351,1,79.7500024337769,2|8,1:2|2:0,2:0:0:0:
321,371,234945,1,8,2:0:0:0:
314,317,235031,1,8,2:0:0:0:
308,263,235117,1,0,1:0:0:0:
302,209,235202,1,8,2:0:0:0:
296,155,235288,1,8,2:0:0:0:
289,101,235374,1,8,2:0:0:0:
283,47,235460,5,0,1:0:0:0:
280,62,235545,1,8,2:3:0:0:
277,77,235631,1,4,2:3:0:0:
274,92,235717,1,0,1:0:0:0:
269,106,235802,6,0,B|261:139|261:139|262:149|262:149|254:182,1,76.9999976501466,8|0,2:0|2:0,2:0:0:0:
474,271,235974,6,0,B|483:311|483:311|482:324|482:324|492:364,1,93.500001783371,8|0,2:0|2:0,2:0:0:0:
171,193,236831,5,10,2:3:0:0:
168,174,236917,1,8,2:3:0:0:
165,155,237002,1,4,2:3:0:0:
162,136,237088,1,4,2:3:0:0:
159,117,237174,2,0,L|145:321,1,187.000003566742,14|0,2:0|2:0,2:0:0:0:
420,72,237860,6,0,L|442:384,1,307.999990600586,6|2,1:2|2:0,2:0:0:0:
244,161,238374,1,6,1:2:0:0:
240,152,238717,6,0,P|166:224|58:62,1,330.000012588501,6|6,1:2|1:2,2:0:0:0:
310,36,239231,1,6,1:2:0:0:
479,205,239745,5,0,1:0:0:0:
479,205,239831,1,0,1:0:0:0:
479,205,239917,2,0,B|338:168|378:272|236:219,1,247.500009441376,14|0,2:0|2:0,2:0:0:0:
148,257,240260,6,0,B|270:217|244:309|362:260,1,220,6|0,1:2|2:0,2:0:0:0:
440,188,240774,1,2,1:2:0:0:
440,188,240860,1,0,1:0:0:0:
440,188,240945,1,12,2:0:0:0:
455,312,241117,5,10,2:3:0:0:
304,183,241288,1,6,2:3:0:0:
199,337,241460,1,2,1:2:0:0:
40,145,241631,6,0,P|66:127|95:122,1,55,14|0,2:0|2:0,2:0:0:0:
197,39,241802,6,0,P|225:52|244:75,1,60.5000018463135,0|0,1:0|2:0,2:0:0:0:
407,83,241974,6,0,P|409:117|398:147,1,65.9999979858399,0|0,1:0|2:0,2:0:0:0:
436,316,242145,6,0,P|405:337|371:342,1,71.4999967269899,10|0,2:0|2:0,2:0:0:0:
114,253,242317,5,10,1:2:0:0:
103,237,242402,1,8,2:0:0:0:
107,210,242488,1,8,2:0:0:0:
131,182,242574,1,8,2:0:0:0:
175,178,242660,1,8,2:0:0:0:
218,208,242745,1,8,2:0:0:0:
227,270,242831,1,10,2:0:0:0:
199,337,242917,1,0,1:2:0:0:
199,337,243345,6,0,B|346:290|306:385|455:330,1,247.500009441376,14|0,2:0|2:0,2:0:0:0:
512,247,243688,1,2,2:0:0:0:
359,120,243860,2,0,P|366:180|380:252,1,121.000003692627,2|8,1:2|2:0,2:0:0:0:
80,329,244202,6,0,P|91:269|98:209,1,121.000003692627,2|0,2:0|1:0,2:0:0:0:
33,115,244545,1,2,1:2:0:0:
212,222,244717,1,10,2:0:0:0:
0,249,244888,1,0,2:0:0:0:
173,95,245060,5,2,2:0:0:0:
341,256,245231,2,0,P|329:317|322:375,1,121.000003692627,2|8,1:2|2:0,2:0:0:0:
470,219,245574,6,0,P|376:237|333:102,1,242.000007385254,2|2,2:0|1:2,2:0:0:0:
153,235,246088,1,10,2:0:0:0:
28,81,246260,1,2,1:2:0:0:
130,34,246431,5,2,2:0:0:0:
229,141,246602,1,2,1:2:0:0:
5,284,246774,1,10,2:0:0:0:
115,142,246945,1,2,1:2:0:0:
276,257,247117,6,0,P|310:256|345:242,1,60.5000018463135,12|0,2:0|2:0,2:0:0:0:
394,145,247288,2,0,P|428:146|463:160,1,60.5000018463135,0|0,1:0|2:0,2:0:0:0:
487,262,247460,1,0,1:0:0:0:
487,262,247631,1,12,2:0:0:0:
288,377,247802,6,0,L|274:242,1,121.000003692627,2|0,1:2|1:0,2:0:0:0:
219,21,248145,2,0,L|206:141,1,121.000003692627,14|8,2:0|2:0,2:0:0:0:
121,203,248402,1,8,2:0:0:0:
115,189,248488,6,0,B|254:157|220:241|363:194,1,242.000007385254,6|10,1:2|2:0,2:0:0:0:
512,94,249002,2,0,B|479:84|454:53|454:53|487:230,1,242.000007385254,6|0,1:2|1:0,2:0:0:0:
373,316,249517,2,0,L|341:149,1,121.000003692627,10|2,2:0|2:0,2:0:0:0:
286,94,249860,5,2,1:2:0:0:
171,292,250031,2,0,L|202:125,1,121.000003692627,2|8,1:2|2:0,2:0:0:0:
2,24,250374,2,0,P|12:80|35:141,1,121.000003692627,2|2,1:2|2:0,2:0:0:0:
81,226,250717,1,0,1:0:0:0:
206,89,250888,2,0,P|266:68|321:118,1,142.99999345398,10|0,2:0|2:0,2:0:0:0:
468,156,251231,6,0,P|383:128|324:252,1,242.000007385254,2|8,1:2|2:0,2:0:0:0:
452,384,251745,2,0,L|433:250,1,121.000003692627,2|0,1:2|2:0,2:0:0:0:
314,139,252088,1,2,1:2:0:0:
239,350,252260,6,0,P|271:341|302:322,1,60.5000018463135,10|0,2:0|2:0,2:0:0:0:
470,168,252431,2,0,P|438:159|407:140,1,60.5000018463135,2|0,1:2|2:0,2:0:0:0:
200,17,252602,6,0,L|233:261,1,242.000007385254,2|12,1:2|2:0,2:0:0:0:
151,333,253117,1,2,1:2:0:0:
324,158,253288,1,2,1:2:0:0:
324,158,253460,1,0,1:0:0:0:
73,103,253631,1,12,2:0:0:0:
272,254,253802,1,2,1:2:0:0:
272,254,253888,1,0,1:2:0:0:
272,254,253974,6,0,P|332:270|388:249,1,121.000003692627,4|0,1:2|2:0,2:0:0:0:
445,160,254317,1,10,2:0:0:0:
445,160,254488,1,2,1:2:0:0:
283,75,254660,1,2,2:0:0:0:
153,208,254831,2,0,L|178:338,1,121.000003692627,2|8,1:2|2:0,2:0:0:0:
48,186,255174,6,0,P|90:124|245:159,1,242.000007385254,2|0,1:2|2:0,2:0:0:0:
269,251,255688,1,10,2:0:0:0:
269,251,255860,1,0,1:0:0:0:
419,370,256031,1,2,2:0:0:0:
507,180,256202,2,0,P|513:117|486:63,1,121.000003692627,2|8,1:2|2:0,2:0:0:0:
312,343,256545,6,0,P|244:348|196:314,1,121.000003692627,2|4,1:2|1:2,2:0:0:0:
296,119,256888,1,0,2:0:0:0:
70,156,257060,1,10,2:0:0:0:
306,116,257231,1,2,1:2:0:0:
201,207,257402,5,2,2:0:0:0:
264,34,257574,1,2,1:2:0:0:
486,252,257745,1,14,2:0:0:0:
168,312,257917,1,2,1:2:0:0:
325,191,258088,5,12,2:0:0:0:
334,190,258431,5,4,2:3:0:0:
353,176,258602,5,0,1:0:0:0:
359,127,258774,5,8,2:3:0:0:
322,64,258945,5,0,2:0:0:0:
229,35,259117,5,2,1:2:0:0:
115,75,259288,5,0,1:0:0:0:
74,207,259459,6,0,B|176:178|151:253|266:217,1,197.99999395752,6|0,1:2|2:0,2:0:0:0:
369,189,259974,1,0,1:0:0:0:
369,189,260060,1,0,1:0:0:0:
369,189,260145,1,12,2:0:0:0:
53,19,260488,2,0,L|71:116,1,98.9999969787599,2|8,1:2|2:0,2:0:0:0:
71,116,260745,1,8,2:0:0:0:
71,116,260831,5,2,1:2:0:0:
8,222,261002,2,0,P|57:211|99:235,1,98.9999969787599,8|0,2:0|2:0,2:0:0:0:
171,303,261345,1,2,1:2:0:0:
320,217,261517,6,0,L|313:150,2,65.9999979858399,8|8|4,2:0|2:3|2:3,2:0:0:0:
435,223,261860,5,2,1:2:0:0:
431,190,261974,5,0,1:0:0:0:
428,157,262088,5,0,1:0:0:0:
425,124,262202,6,0,P|348:130|316:25,1,197.99999395752,6|2,1:2|2:0,2:0:0:0:
419,25,262717,1,0,1:0:0:0:
419,25,262802,1,0,1:0:0:0:
419,25,262888,1,14,2:0:0:0:
498,152,263060,2,0,L|485:257,1,98.9999969787599,8|0,2:0|2:0,2:0:0:0:
395,341,263402,6,0,P|289:314|190:301,2,197.99999395752,0|8|2,1:0|2:0|1:2,2:0:0:0:
482,230,264260,1,8,2:0:0:0:
480,205,264345,1,8,2:0:0:0:
478,180,264431,1,2,1:2:0:0:
477,155,264517,1,0,1:0:0:0:
476,130,264602,1,14,2:0:0:0:
345,80,264774,1,0,2:0:0:0:
247,178,264945,6,0,B|163:227|88:196|72:118|72:118|82:151|110:163,1,280.500005350113,14|0,2:0|2:0,2:0:0:0:
158,85,265288,5,8,2:0:0:0:
335,202,265460,1,0,1:0:0:0:
225,288,265631,5,8,2:0:0:0:
407,110,265802,1,0,1:0:0:0:
429,309,265974,5,8,2:0:0:0:
325,34,266145,1,0,1:0:0:0:
325,34,266231,1,0,1:0:0:0:
325,34,266317,2,0,B|271:2|271:2|303:128,1,187.000003566742,12|0,2:0|1:0,2:0:0:0:
429,309,266660,5,8,2:0:0:0:
224,255,266832,1,0,1:0:0:0:
335,202,267002,5,8,2:0:0:0:
110,312,267174,1,0,1:0:0:0:
211,384,267345,5,8,2:0:0:0:
15,227,267517,1,0,1:0:0:0:
15,227,267602,1,0,1:0:0:0:
15,227,267688,2,0,B|88:216|88:216|121:230|121:230|200:217,1,187.000003566742,12|0,2:0|1:0,2:0:0:0:
377,8,268031,5,8,2:0:0:0:
297,213,268202,1,0,1:0:0:0:
249,100,268374,5,8,2:0:0:0:
391,289,268545,1,0,1:0:0:0:
420,168,268717,5,10,2:0:0:0:
260,362,268888,1,0,1:0:0:0:
509,244,269060,5,14,2:0:0:0:
234,81,269231,2,0,B|168:53|168:53|56:85,1,187.000003566742,14|0,2:0|1:0,2:0:0:0:
139,298,269574,6,0,P|149:215|161:136,1,153.999995300293,10|0,2:3|2:0,2:0:0:0:
320,377,269917,5,2,1:2:0:0:
320,377,270002,1,0,1:0:0:0:
320,377,270088,2,0,P|334:228|360:77,1,296.99999093628,12|0,2:0|1:0,2:0:0:0:
325,187,270431,6,0,P|336:233|343:287,3,98.9999969787599,6|0|0|2,1:2|1:0|1:0|1:2,2:0:0:0:
455,167,271802,2,0,P|466:213|473:267,3,98.9999969787599,2|0|2|2,1:2|1:0|1:2|1:2,2:0:0:0:
325,187,273174,6,0,P|279:176|225:169,3,98.9999969787599,6|0|2|2,1:2|1:0|1:2|1:2,2:0:0:0:
303,326,274545,2,0,P|257:315|203:308,3,98.9999969787599,0|2|2|0,1:0|1:2|1:0|1:0,2:0:0:0:
79,232,275745,5,8,2:0:0:0:
79,232,275831,1,8,2:0:0:0:
79,232,275917,2,0,P|85:182|96:134,3,98.9999969787599,6|2|0|2,1:2|1:2|1:0|1:2,2:0:0:0:
197,256,277288,1,2,1:2:0:0:
197,256,277460,2,0,P|203:206|214:158,1,98.9999969787599,2|2,2:0|2:0,2:0:0:0:
96,134,277974,6,0,P|85:182|79:232,1,98.9999969787599,2|2,1:2|2:0,2:0:0:0:
214,158,278317,2,0,P|203:206|197:256,1,98.9999969787599,2|0,2:0|2:0,2:0:0:0:
416,236,278660,6,0,P|427:284|433:333,1,98.9999969787599,6|2,1:2|1:2,2:0:0:0:
312,253,279174,2,0,P|323:301|329:350,1,98.9999969787599,2|2,2:0|2:0,2:0:0:0:
210,170,279688,6,0,P|198:218|192:267,1,98.9999969787599,2|2,1:2|1:2,2:0:0:0:
106,153,280202,2,0,P|94:201|88:250,1,98.9999969787599,2|0,2:0|2:0,2:0:0:0:
271,350,280717,5,2,1:0:0:0:
300,354,280802,1,0,1:2:0:0:
329,350,280888,2,0,P|360:339|378:320,1,55,8|8,2:0|2:0,2:0:0:0:
468,201,281060,5,10,2:1:0:0:
436,171,281145,1,8,2:0:0:0:
387,145,281231,1,10,2:0:0:0:
321,133,281317,1,8,2:0:0:0:
246,168,281402,5,6,1:2:0:0:
256,192,281488,12,2,285517,2:0:0:0:
