osu file format v14

[General]
AudioFilename: audio.mp3
AudioLeadIn: 0
PreviewTime:51499
Countdown: 0
SampleSet: Soft
StackLeniency: 0.7
Mode: 0
LetterboxInBreaks: 0
WidescreenStoryboard: 0

[Editor]
Bookmarks:88957
DistanceSpacing: 1
BeatDivisor: 4
GridSize: 16
TimelineZoom: 1.7

[Metadata]
Title:Sing My Pleasure (TV Size)
TitleUnicode:Sing My Pleasure (TV Size)
Artist:Vivy (CV: Yagi Kairi)
ArtistUnicode:ヴィヴィ (CV: 八木海莉)
Creator:Xandit
Version:Vivy
Source:ヴィヴィ-フローライトアイズソング-
Tags:Vivy -Fluorite Eye's Song- anime opening j pop japanese orchestral female vocals character voice j-pop jpop eyes 神前 暁 (MONACA) 只野菜摘
BeatmapID:2994573
BeatmapSetID:1457058

[Difficulty]
HPDrainRate:5.5
CircleSize:3.8
OverallDifficulty:8.8
ApproachRate:9
SliderMultiplier:1.9
SliderTickRate:1

[Events]
//Background and Video events
0,0,"singbggg.jpg",0,0
Video,-163,"singvid.mp4"
//Break Periods
2,44176,45434
//Storyboard Layer 0 (Background)
//Storyboard Layer 1 (Fail)
//Storyboard Layer 2 (Pass)
//Storyboard Layer 3 (Foreground)
//Storyboard Layer 4 (Overlay)
//Storyboard Sound Samples

[TimingPoints]
92,342.857142857143,4,2,1,100,1,0
92,-166.666666666667,4,2,1,100,0,0
3949,-166.666666666667,4,2,1,100,0,0
4034,-166.666666666667,4,2,1,100,0,0
5577,-166.666666666667,4,2,1,75,0,0
27520,-133.333333333333,4,2,1,85,0,0
38492,-166.666666666667,4,2,1,75,0,0
46034,-166.666666666667,4,2,1,60,0,0
46206,-166.666666666667,4,2,1,70,0,0
46377,-100,4,2,1,80,0,0
46549,-100,4,2,1,90,0,0
46720,-100,4,2,1,100,0,0
52206,-100,4,2,1,100,0,1
63092,-100,4,2,1,5,0,1
63177,-100,4,2,1,100,0,1
74149,-166.666666666667,4,2,1,100,0,0
79634,-100,4,2,1,100,0,1
85120,-166.666666666667,4,2,1,75,0,0
87263,-166.666666666667,4,2,1,75,0,0
87349,-166.666666666667,4,2,1,75,0,0
88891,-166.666666666667,4,2,1,5,0,0

[Colours]
Combo1 : 125,125,125
Combo2 : 16,112,228
Combo3 : 107,214,222
Combo4 : 215,86,9

[HitObjects]
104,52,92,5,14,0:0:0:0:
390,179,263,1,0,3:0:0:0:
218,231,434,1,0,3:0:0:0:
328,23,606,5,10,0:0:0:0:
262,305,777,1,0,3:0:0:0:
128,156,949,1,0,3:0:0:0:
424,258,1120,5,14,0:0:0:0:
122,334,1292,1,0,3:0:0:0:
222,145,1463,1,0,3:0:0:0:
430,381,1634,5,10,0:0:0:0:
145,235,1806,1,0,3:0:0:0:
354,172,1977,1,0,3:0:0:0:
248,362,2149,5,14,0:0:0:0:
311,97,2320,1,0,3:0:0:0:
437,310,2492,1,0,3:0:0:0:
327,7,2663,5,14,0:0:0:0:
256,192,2749,12,2,3949,0:0:0:0:
260,72,4034,5,2,0:0:0:0:
260,72,4120,1,2,0:0:0:0:
260,72,4206,2,0,B|138:116|152:0|21:43,1,227.999993041992,2|0,0:0|0:0,0:0:0:0:
94,124,5063,1,0,3:0:0:0:
211,2,5234,1,8,0:0:0:0:
211,2,5577,6,0,B|241:37|241:37|226:117,1,113.999996520996,6|2,3:2|3:2,0:0:0:0:
178,222,6092,2,0,L|165:153,1,56.9999982604981,2|0,0:0|3:2,0:0:0:0:
270,256,6434,1,2,0:0:0:0:
193,315,6606,6,0,B|128:302|141:338|73:324,1,113.999996520996,2|2,3:2|3:2,0:0:0:0:
82,179,7120,2,0,P|93:209|91:240,1,56.9999982604981,2|0,0:0|3:2,0:0:0:0:
5,145,7463,1,2,0:0:0:0:
78,88,7634,2,0,L|139:96,1,56.9999982604981,2|2,3:2|0:0,0:0:0:0:
230,167,7977,2,0,L|169:175,1,56.9999982604981,2|2,3:2|0:0,0:0:0:0:
266,55,8320,6,0,P|309:59|330:129,1,113.999996520996,2|2,3:2|3:2,0:0:0:0:
307,270,8834,2,0,P|305:233|312:211,1,56.9999982604981,2|0,0:0|3:2,0:0:0:0:
393,254,9177,1,2,0:0:0:0:
324,355,9349,2,0,L|258:367,1,56.9999982604981,2|0,3:2|0:0,0:0:0:0:
211,288,9692,5,2,3:2:0:0:
211,288,9863,2,0,P|162:313|96:292,1,113.999996520996,2|2,0:0|0:0,0:0:0:0:
30,124,10377,2,0,B|88:116|88:116|121:130|121:130|198:119,1,170.999994781494,2|10,3:2|0:0,0:0:0:0:
238,116,10977,1,10,0:0:0:0:
238,116,11063,6,0,B|274:148|274:148|253:222,1,113.999996520996,6|2,3:2|3:2,0:0:0:0:
344,318,11577,2,0,L|332:256,2,56.9999982604981,2|0|2,0:0|3:2|0:0,0:0:0:0:
381,184,12092,6,0,P|462:192|491:235,1,113.999996520996,2|2,3:2|3:2,0:0:0:0:
419,315,12606,2,0,P|412:288|416:260,1,56.9999982604981,2|0,0:0|3:2,0:0:0:0:
503,292,12949,1,2,0:0:0:0:
357,384,13120,2,0,L|279:372,1,56.9999982604981,2|10,3:2|0:0,0:0:0:0:
185,210,13463,1,2,3:2:0:0:
303,273,13634,1,10,0:0:0:0:
112,270,13806,6,0,P|87:220|101:158,1,113.999996520996,6|2,3:2|3:2,0:0:0:0:
179,67,14320,2,0,L|164:131,2,56.9999982604981,2|0|2,0:0|3:2|0:0,0:0:0:0:
253,16,14834,6,0,B|295:9|295:9|322:20|322:20|373:14,1,113.999996520996,2|2,3:2|3:2,0:0:0:0:
442,67,15349,1,10,0:3:0:0:
442,67,15434,1,8,0:3:0:0:
442,67,15520,1,8,0:3:0:0:
321,160,15692,1,4,0:3:0:0:
321,160,15777,1,4,0:3:0:0:
321,160,15863,1,6,0:3:0:0:
464,244,16034,1,0,0:0:0:0:
392,286,16206,1,0,3:2:0:0:
466,332,16377,1,2,0:0:0:0:
281,237,16549,6,0,B|215:224|223:274|146:258,1,113.999996520996,6|0,3:2|3:2,0:0:0:0:
101,202,17063,1,2,0:0:0:0:
101,202,17234,2,0,P|124:159|101:94,1,113.999996520996,2|0,3:2|3:2,0:0:0:0:
56,30,17749,1,2,0:0:0:0:
56,30,17920,6,0,B|96:56|96:56|180:36,1,113.999996520996,2|0,3:2|3:2,0:0:0:0:
229,105,18434,1,2,0:0:0:0:
289,32,18606,2,0,L|355:37,1,56.9999982604981,2|0,3:2|0:0,0:0:0:0:
378,135,18949,2,0,L|312:130,1,56.9999982604981,0|2,3:2|0:0,0:0:0:0:
449,87,19292,6,0,P|466:131|443:195,1,113.999996520996,2|2,3:2|3:2,0:0:0:0:
394,270,19806,2,0,L|406:332,1,56.9999982604981,2|0,0:0|3:2,0:0:0:0:
321,223,20149,1,2,0:0:0:0:
321,223,20320,2,0,P|278:218|246:223,1,56.9999982604981,2|0,3:2|0:0,0:0:0:0:
189,277,20663,6,0,B|123:295|123:295|71:272,1,113.999996520996,0|0,3:2|3:2,0:0:0:0:
81,276,21349,2,0,L|94:208,1,56.9999982604981,2|0,3:2|0:0,0:0:0:0:
40,149,21692,1,2,3:2:0:0:
98,80,21863,1,2,0:0:0:0:
202,142,22034,6,0,L|324:122,1,113.999996520996,0|0,3:2|3:2,0:0:0:0:
379,65,22549,1,0,0:0:0:0:
379,65,22720,2,0,P|414:54|442:58,1,56.9999982604981,0|0,3:2|0:0,0:0:0:0:
499,119,23063,2,0,L|491:180,1,56.9999982604981,2|0,3:2|0:0,0:0:0:0:
422,233,23406,5,2,3:2:0:0:
422,233,23577,2,0,P|445:268|434:340,2,113.999996520996,2|2|2,0:0|0:0|0:0,0:0:0:0:
342,195,24434,2,0,L|270:184,1,56.9999982604981,0|0,3:2|0:0,0:0:0:0:
227,117,24777,6,0,L|90:137,1,113.999996520996,2|2,3:2|3:2,0:0:0:0:
31,115,25292,2,0,B|24:154|24:154|41:183|41:183|32:233,1,113.999996520996,2|2,0:0|0:0,0:0:0:0:
0,322,25806,2,0,P|36:307|62:308,1,56.9999982604981,2|0,3:2|0:0,0:0:0:0:
123,366,26149,6,0,L|187:355,1,56.9999982604981,0|0,3:2|0:0,0:0:0:0:
244,277,26492,2,0,L|180:266,1,56.9999982604981,0|0,3:2|0:0,0:0:0:0:
293,366,26834,1,0,3:2:0:0:
380,311,27006,1,8,0:0:0:0:
396,287,27091,1,8,0:0:0:0:
402,260,27177,1,8,3:2:0:0:
398,232,27263,1,8,0:0:0:0:
384,207,27348,1,10,0:0:0:0:
263,131,27520,6,0,L|101:147,1,142.500005435944,6|8,3:2|0:0,0:0:0:0:
16,19,28034,1,2,0:0:0:0:
112,45,28206,1,2,3:2:0:0:
40,199,28377,2,0,P|21:153|24:120,1,71.2500027179719,0|0,3:2|0:0,0:0:0:0:
169,243,28720,6,0,B|201:283|201:283|173:376,1,142.500005435944,10|0,0:0|3:2,0:0:0:0:
32,321,29234,2,0,L|107:309,1,71.2500027179719,8|2,0:0|0:0,0:0:0:0:
246,219,29577,1,2,3:2:0:0:
90,177,29749,1,0,3:2:0:0:
207,68,29920,2,0,L|195:143,1,71.2500027179719,8|2,0:0|0:0,0:0:0:0:
306,272,30263,6,0,P|353:269|392:176,1,142.500005435944,2|10,3:2|0:0,0:0:0:0:
335,43,30777,2,0,P|324:80|332:121,1,71.2500027179719,2|0,0:0|3:2,0:0:0:0:
505,143,31120,1,2,3:2:0:0:
418,85,31292,1,2,0:0:0:0:
312,191,31463,6,0,L|334:347,1,142.500005435944,8|0,0:0|3:2,0:0:0:0:
418,295,31977,2,0,L|407:216,1,71.2500027179719,8|0,0:0|0:0,0:0:0:0:
311,86,32320,1,2,3:2:0:0:
247,225,32492,1,0,3:2:0:0:
392,141,32663,1,10,0:0:0:0:
228,48,32834,1,10,0:0:0:0:
228,48,32920,1,8,0:0:0:0:
228,48,33006,6,0,P|166:62|158:145,1,142.500005435944,4|8,3:2|0:0,0:0:0:0:
247,225,33520,2,0,L|333:210,1,71.2500027179719,0|0,0:0|3:2,0:0:0:0:
203,360,33863,1,0,3:2:0:0:
359,328,34034,2,0,L|273:313,1,71.2500027179719,2|8,0:0|0:0,0:0:0:0:
437,261,34377,6,0,B|470:298|470:298|433:390,1,142.500005435944,2|10,0:0|0:0,0:0:0:0:
331,231,34892,1,2,0:0:0:0:
331,231,34977,1,0,0:0:0:0:
331,231,35063,2,0,L|318:139,1,71.2500027179719,0|2,3:2|3:2,0:0:0:0:
470,62,35406,2,0,L|457:154,1,71.2500027179719,8|0,0:0|0:0,0:0:0:0:
341,25,35749,6,0,B|287:20|287:20|253:31|253:31|190:24,1,142.500005435944,2|10,3:2|0:0,0:0:0:0:
85,143,36263,2,0,L|159:132,1,71.2500027179719,2|0,0:0|3:2,0:0:0:0:
86,19,36606,1,2,3:2:0:0:
2,173,36777,2,0,P|28:212|50:225,1,71.2500027179719,2|8,0:0|0:0,0:0:0:0:
171,301,37120,6,0,P|124:304|101:316,1,71.2500027179719,0|2,0:0|3:2,0:0:0:0:
255,378,37463,2,0,L|270:298,1,71.2500027179719,8|0,0:0|0:0,0:0:0:0:
300,282,37720,1,0,0:0:0:0:
300,282,37806,1,10,0:3:0:0:
219,170,37977,1,8,0:0:0:0:
219,170,38063,1,8,0:0:0:0:
219,170,38149,1,10,0:0:0:0:
296,79,38320,1,0,3:2:0:0:
467,220,38492,6,0,L|336:202,1,113.999996520996,6|0,3:2|0:0,0:0:0:0:
400,122,39006,1,2,3:2:0:0:
400,122,39177,2,0,L|465:131,1,56.9999982604981,8|0,0:0|0:0,0:0:0:0:
378,17,39520,1,2,3:2:0:0:
378,17,39692,6,0,P|338:51|254:42,1,113.999996520996,2|2,3:2|3:2,0:0:0:0:
183,18,40206,1,2,0:0:0:0:
211,194,40377,1,2,3:2:0:0:
211,194,40463,1,0,3:2:0:0:
211,194,40549,1,10,0:2:0:0:
278,53,40720,1,2,0:0:0:0:
138,103,40892,1,10,0:3:0:0:
326,163,41063,1,6,0:3:0:0:
153,304,41234,6,0,B|194:282|194:282|265:296,1,113.999996520996,6|0,3:2|0:0,0:0:0:0:
349,372,41749,1,2,3:2:0:0:
349,372,41920,2,0,P|344:339|350:309,1,56.9999982604981,8|0,0:0|0:0,0:0:0:0:
423,262,42263,1,2,3:2:0:0:
423,262,42434,6,0,P|465:262|498:192,1,113.999996520996,2|10,3:2|0:0,0:0:0:0:
414,159,42949,2,0,L|335:170,1,56.9999982604981,2|2,0:0|3:2,0:0:0:0:
284,35,43292,2,0,L|363:46,1,56.9999982604981,10|2,0:0|0:0,0:0:0:0:
247,174,43634,1,10,0:0:0:0:
218,176,43719,1,8,0:0:0:0:
190,179,43805,1,8,0:0:0:0:
161,182,43891,1,8,0:0:0:0:
133,184,43976,5,2,0:0:0:0:
53,22,46034,6,0,L|61:64,3,28.4999991302491,8|8|8|8,0:0|0:0|0:0|0:0,0:0:0:0:
138,113,46377,6,0,L|103:155,3,47.5,10|8|8|8,0:0|0:0|0:0|0:0,0:0:0:0:
116,255,46720,5,14,0:0:0:0:
116,255,47063,1,8,0:0:0:0:
192,171,47234,1,8,0:0:0:0:
197,343,47406,1,8,0:0:0:0:
132,107,47577,1,10,0:0:0:0:
285,337,47749,1,10,0:0:0:0:
203,50,47920,6,0,B|157:4|89:22|89:22|74:62|25:83,1,190,14|8,0:0|0:0,0:0:0:0:
7,62,48349,1,8,0:0:0:0:
7,62,48434,1,8,0:0:0:0:
98,255,48606,1,8,0:0:0:0:
98,255,48692,1,8,0:0:0:0:
98,255,48777,1,8,0:0:0:0:
256,119,48949,1,8,0:0:0:0:
256,119,49034,1,8,0:0:0:0:
256,119,49120,1,8,0:0:0:0:
0,166,49292,2,0,L|65:184,1,47.5,8|0,0:0|3:0,0:0:0:0:
297,263,49463,5,10,0:0:0:0:
160,39,49635,1,2,3:0:0:0:
203,328,49977,5,10,3:2:0:0:
361,52,50320,5,10,3:2:0:0:
163,138,50492,1,0,3:2:0:0:
402,309,50663,2,0,B|428:179|428:179|382:122,1,190,10|8,0:0|0:3,0:0:0:0:
392,134,51092,1,4,0:3:0:0:
392,134,51177,1,0,3:0:0:0:
291,10,52206,6,0,P|320:66|301:120,1,95,6|2,3:2|0:0,0:0:0:0:
213,278,52549,1,10,0:0:0:0:
119,56,52720,2,0,L|231:66,1,95,2|0,3:0|0:0,0:0:0:0:
404,268,53063,1,0,3:0:0:0:
208,198,53234,1,10,0:0:0:0:
418,143,53406,1,2,0:0:0:0:
353,371,53577,5,2,3:0:0:0:
353,371,53749,2,0,L|241:381,1,95,2|8,3:0|0:0,0:0:0:0:
30,253,54092,1,2,3:0:0:0:
225,181,54263,2,0,L|215:293,1,95,2|0,0:0|3:0,0:0:0:0:
59,64,54606,2,0,L|69:176,1,95,10|0,0:0|0:0,0:0:0:0:
248,20,54949,6,0,B|351:0|333:78|441:45,1,190,2|8,3:0|0:0,0:0:0:0:
336,248,55463,2,0,P|323:190|337:152,1,95,2|0,3:0|0:0,0:0:0:0:
485,298,55806,1,2,3:0:0:0:
266,360,55977,1,10,0:0:0:0:
421,201,56149,1,2,0:0:0:0:
373,371,56320,5,2,3:0:0:0:
373,371,56492,1,0,3:0:0:0:
213,194,56663,2,0,L|101:175,1,95,12|2,0:0|0:0,0:0:0:0:
215,341,57006,1,2,3:0:0:0:
215,341,57177,1,0,3:0:0:0:
328,117,57349,2,0,L|440:98,1,95,12|2,0:0|0:0,0:0:0:0:
125,2,57692,6,0,B|68:38|68:38|100:159,1,190,4|10,3:2|0:0,0:0:0:0:
282,314,58206,1,0,3:0:0:0:
191,107,58377,1,2,0:0:0:0:
42,288,58549,2,0,L|144:305,1,95,2|8,3:0|0:0,0:0:0:0:
273,130,58892,1,2,0:0:0:0:
365,384,59063,6,0,B|378:319|378:319|358:265|358:265|374:188,1,190,4|10,3:2|0:0,0:0:0:0:
507,30,59577,1,0,3:0:0:0:
267,120,59749,1,2,0:0:0:0:
507,192,59920,1,2,3:0:0:0:
363,0,60092,2,0,P|351:47|366:102,1,95,8|2,0:0|0:0,0:0:0:0:
512,285,60434,6,0,L|406:268,1,95,4|2,3:2|0:0,0:0:0:0:
179,172,60777,1,10,0:0:0:0:
442,128,60949,1,2,3:0:0:0:
236,296,61120,1,2,0:0:0:0:
344,69,61292,1,2,3:0:0:0:
351,338,61463,1,10,0:0:0:0:
243,95,61634,1,2,0:0:0:0:
160,371,61806,5,0,3:0:0:0:
403,222,61977,1,0,3:0:0:0:
103,140,62149,1,8,0:0:0:0:
280,264,62320,2,0,L|288:198,1,47.5,8|4,0:3|0:3,0:0:0:0:
108,46,62492,1,2,3:0:0:0:
61,52,62577,1,4,0:3:0:0:
25,82,62663,1,4,0:3:0:0:
8,126,62749,1,4,0:3:0:0:
16,172,62834,2,0,L|49:317,1,142.5,14|0,0:0|0:0,0:0:0:0:
56,345,63177,5,6,3:2:0:0:
251,220,63349,1,2,0:0:0:0:
123,146,63520,1,10,0:0:0:0:
232,339,63692,2,0,L|329:316,1,95,2|0,3:0|0:0,0:0:0:0:
451,72,64034,1,0,3:0:0:0:
359,219,64206,1,10,0:0:0:0:
288,16,64377,1,2,0:0:0:0:
482,178,64549,5,2,3:0:0:0:
226,91,64720,2,0,P|220:165|246:208,1,95,2|8,3:0|0:0,0:0:0:0:
450,72,65063,2,0,P|388:29|338:30,1,95,2|2,3:0|0:0,0:0:0:0:
354,275,65406,1,2,3:0:0:0:
354,275,65577,2,0,P|421:243|445:199,1,95,10|0,0:0|0:0,0:0:0:0:
226,91,65920,6,0,B|147:83|147:83|119:99|119:99|33:89,1,190,2|8,3:0|0:0,0:0:0:0:
0,321,66434,2,0,L|104:308,1,95,2|0,3:0|0:0,0:0:0:0:
287,150,66777,1,2,3:0:0:0:
63,206,66949,1,10,0:0:0:0:
289,300,67120,1,2,0:0:0:0:
153,99,67292,5,2,3:0:0:0:
204,324,67463,1,0,3:0:0:0:
368,137,67634,1,12,0:0:0:0:
160,208,67806,1,2,0:0:0:0:
160,208,67977,2,0,L|258:216,1,95,2|0,3:0|3:0,0:0:0:0:
133,5,68320,2,0,L|35:13,1,95,12|2,0:0|0:0,0:0:0:0:
345,132,68663,6,0,P|375:86|374:27,1,95,4|2,3:2|0:0,0:0:0:0:
171,128,69006,1,10,0:0:0:0:
315,325,69177,1,2,3:0:0:0:
203,54,69349,1,2,0:0:0:0:
121,301,69520,2,0,L|230:285,1,95,2|8,3:0|0:0,0:0:0:0:
414,133,69863,6,0,L|305:117,1,95,2|0,0:0|3:0,0:0:0:0:
130,187,70206,1,2,3:0:0:0:
315,325,70377,2,0,P|321:272|299:217,1,95,10|0,0:0|3:0,0:0:0:0:
201,65,70720,1,2,0:0:0:0:
17,207,70892,2,0,L|115:216,1,95,2|8,3:0|0:0,0:0:0:0:
380,23,71234,6,0,L|282:32,1,95,2|4,0:0|3:2,0:0:0:0:
219,266,71577,1,2,0:0:0:0:
160,55,71749,1,10,0:0:0:0:
302,314,71920,1,2,3:0:0:0:
343,101,72092,1,2,0:0:0:0:
128,176,72263,1,2,3:0:0:0:
371,242,72434,1,10,0:0:0:0:
72,283,72606,1,2,0:0:0:0:
258,65,72777,5,0,3:0:0:0:
198,384,72949,1,0,3:0:0:0:
100,76,73120,2,0,P|44:62|-12:72,1,95,12|0,0:0|3:0,0:0:0:0:
189,252,73463,2,0,L|260:237,2,63.3333333333333,8|8|4,0:0|0:3|0:3,0:0:0:0:
318,163,73806,2,0,L|389:178,2,63.3333333333333,2|8|4,3:0|0:3|0:3,0:0:0:0:
435,241,74149,6,0,P|461:197|450:132,1,113.999996520996,6|0,3:2|0:0,0:0:0:0:
384,84,74663,1,0,3:2:0:0:
384,84,74834,2,0,L|253:62,1,113.999996520996,8|2,0:0|0:0,0:0:0:0:
201,122,75349,1,0,0:0:0:0:
201,122,75520,6,0,P|179:81|177:65,1,56.9999982604981,2|8,3:2|0:0,0:0:0:0:
202,218,75863,1,2,0:0:0:0:
202,218,76034,2,0,P|153:208|112:160,1,113.999996520996,2|8,3:2|0:3,0:0:0:0:
275,174,76549,2,0,P|288:201|286:244,1,56.9999982604981,6|4,0:3|0:3,0:0:0:0:
195,328,76892,6,0,B|204:283|204:283|194:252|194:252|206:200,2,113.999996520996,6|2|10,3:2|0:0|0:0,0:0:0:0:
195,328,77920,2,0,L|263:316,1,56.9999982604981,2|8,0:0|0:0,0:0:0:0:
368,369,78263,6,0,P|337:329|351:258,1,113.999996520996,0|0,3:2|0:0,0:0:0:0:
421,242,78777,2,0,P|429:282|419:311,1,56.9999982604981,2|8,3:2|0:0,0:0:0:0:
350,174,79120,1,2,3:2:0:0:
508,185,79292,1,10,0:0:0:0:
356,63,79463,1,10,0:0:0:0:
356,63,79549,1,8,0:0:0:0:
356,63,79634,6,0,L|246:52,1,95,6|0,3:2|0:0,0:0:0:0:
39,142,79977,1,8,0:0:0:0:
210,272,80149,2,0,L|320:261,1,95,2|0,3:2|0:0,0:0:0:0:
150,57,80492,1,0,3:2:0:0:
34,252,80663,2,0,P|24:316|35:346,1,95,8|2,0:0|0:0,0:0:0:0:
248,173,81006,5,2,3:2:0:0:
31,73,81177,1,0,3:2:0:0:
117,298,81349,1,8,0:0:0:0:
232,78,81520,2,0,L|332:59,1,95,2|0,3:2|0:0,0:0:0:0:
395,293,81863,1,0,3:2:0:0:
512,152,82034,2,0,L|412:133,1,95,8|2,0:0|0:0,0:0:0:0:
272,350,82377,6,0,P|298:305|298:258,1,95,6|0,3:2|0:0,0:0:0:0:
206,51,82720,1,8,0:0:0:0:
95,276,82892,2,0,L|202:283,1,95,2|0,3:2|0:0,0:0:0:0:
360,148,83234,1,0,3:2:0:0:
122,13,83406,2,0,P|113:67|129:108,1,95,10|0,0:0|3:2,0:0:0:0:
157,121,83663,1,0,3:2:0:0:
161,125,83749,5,10,0:0:0:0:
282,30,83920,1,10,0:0:0:0:
41,75,84092,1,0,3:2:0:0:
246,220,84263,2,0,L|259:122,1,95,10|0,0:0|3:2,0:0:0:0:
62,244,84606,1,10,0:3:0:0:
230,340,84777,1,12,0:0:0:0:
230,340,85120,6,0,P|296:334|338:278,1,113.999996520996,2|0,0:0|0:0,0:0:0:0:
342,189,85634,2,0,L|326:317,1,113.999996520996,2|0,0:0|0:0,0:0:0:0:
447,241,86149,6,0,L|431:113,1,113.999996520996,2|0,0:0|0:0,0:0:0:0:
398,53,86663,2,0,P|354:66|330:62,2,56.9999982604981,2|2|2,0:0|0:0|0:0,0:0:0:0:
168,63,87177,6,0,B|205:55|235:14|235:14|198:183|198:183|182:253|260:301|312:293|370:249|364:150|279:135,1,569.999982604981,6|0,0:0|0:0,0:0:0:0:
