osu file format v14

[General]
AudioFilename: audio.mp3
AudioLeadIn: 0
PreviewTime: 51499
Countdown: 0
SampleSet: Soft
StackLeniency: 0.7
Mode: 0
LetterboxInBreaks: 0
WidescreenStoryboard: 1

[Editor]
Bookmarks: 80159
DistanceSpacing: 0.9
BeatDivisor: 4
GridSize: 16
TimelineZoom: 1.7

[Metadata]
Title:Sing My Pleasure (TV Size)
TitleUnicode:Sing My Pleasure (TV Size)
Artist:Vivy (CV: Yagi Kairi)
ArtistUnicode:ヴィヴィ (CV: 八木海莉)
Creator:Xandit
Version:Insane
Source:ヴィヴィ-フローライトアイズソング-
Tags:Vivy -Fluorite Eye's Song- anime opening j pop japanese orchestral female vocals character voice j-pop jpop eyes 神前 暁 (MONACA) 只野菜摘
BeatmapID:2994571
BeatmapSetID:1457058

[Difficulty]
HPDrainRate:5
CircleSize:3.6
OverallDifficulty:8
ApproachRate:9
SliderMultiplier:1.7
SliderTickRate:1

[Events]
//Background and Video events
0,0,"singbggg.jpg",0,0
Video,-163,"singvid.mp4"
//Break Periods
2,44177,45434
//Storyboard Layer 0 (Background)
//Storyboard Layer 1 (Fail)
//Storyboard Layer 2 (Pass)
//Storyboard Layer 3 (Foreground)
//Storyboard Layer 4 (Overlay)
//Storyboard Sound Samples

[TimingPoints]
92,342.857142857143,4,2,1,100,1,0
5577,-133.333333333333,4,2,1,75,0,0
27520,-117.647058823529,4,2,1,85,0,0
38492,-133.333333333333,4,2,1,75,0,0
46034,-133.333333333333,4,2,1,60,0,0
46206,-133.333333333333,4,2,1,70,0,0
46377,-100,4,2,1,80,0,0
46549,-100,4,2,1,90,0,0
46720,-100,4,2,1,100,0,0
48177,-100,4,2,1,5,0,0
48263,-100,4,2,1,100,0,0
52206,-100,4,2,1,100,0,1
74149,-133.333333333333,4,2,1,100,0,0
79634,-100,4,2,1,100,0,1
85120,-133.333333333333,4,2,1,75,0,0
87263,-133.333333333333,4,2,1,75,0,0
87349,-133.333333333333,4,2,1,75,0,0
88891,-133.333333333333,4,2,1,5,0,0

[Colours]
Combo1 : 125,125,125
Combo2 : 16,112,228
Combo3 : 107,214,222
Combo4 : 215,86,9

[HitObjects]
138,301,92,6,0,L|50:317,2,85,14|0|0,0:0|3:0|3:0,0:0:0:0:
342,195,606,1,10,0:0:0:0:
256,371,777,1,0,3:0:0:0:
195,184,949,1,0,3:0:0:0:
375,306,1120,6,0,P|415:322|459:315,2,85,14|0|0,0:0|3:0|3:0,0:0:0:0:
299,107,1634,1,10,0:0:0:0:
465,205,1806,1,0,3:0:0:0:
252,224,1977,1,0,3:0:0:0:
409,121,2149,2,0,L|498:102,1,85,14|0,0:0|3:0,0:0:0:0:
293,300,2492,1,0,3:0:0:0:
211,91,2663,5,14,0:0:0:0:
256,192,2749,12,0,5063,3:0:0:0:
255,43,5234,5,8,0:0:0:0:
255,43,5577,6,0,P|240:98|280:162,1,127.500004863739,6|2,3:2|3:2,0:0:0:0:
390,104,6092,2,0,L|319:90,2,63.7500024318696,2|0|2,0:0|3:2|0:0,0:0:0:0:
451,171,6606,6,0,B|472:222|472:222|433:308,1,127.500004863739,2|2,3:2|3:2,0:0:0:0:
364,340,7120,2,0,P|324:316|247:336,1,127.500004863739,2|2,0:0|0:0,0:0:0:0:
159,384,7634,2,0,L|150:316,1,63.7500024318696,2|2,3:2|0:0,0:0:0:0:
145,228,7977,1,2,3:2:0:0:
145,228,8149,1,2,0:0:0:0:
98,147,8320,6,0,B|146:134|146:134|181:148|181:148|241:133,1,127.500004863739,2|2,3:2|3:2,0:0:0:0:
282,77,8834,2,0,L|294:11,2,63.7500024318696,2|0|2,0:0|3:2|0:0,0:0:0:0:
347,141,9349,6,0,B|369:196|369:196|338:264,1,127.500004863739,2|2,3:2|3:2,0:0:0:0:
288,322,9863,2,0,P|331:300|409:333,1,127.500004863739,2|2,0:0|0:0,0:0:0:0:
499,384,10377,2,0,L|486:313,1,63.7500024318696,2|0,3:2|0:0,0:0:0:0:
442,229,10720,2,0,L|455:158,1,63.7500024318696,0|10,3:2|0:0,0:0:0:0:
462,127,10977,1,10,0:0:0:0:
462,127,11063,6,0,L|329:111,1,127.500004863739,6|2,3:2|3:2,0:0:0:0:
243,63,11577,2,0,L|234:-10,2,63.7500024318696,2|0|2,0:0|3:2|0:0,0:0:0:0:
186,143,12092,2,0,P|231:157|258:237,1,127.500004863739,2|2,3:2|3:2,0:0:0:0:
214,311,12606,2,0,P|181:324|135:318,1,63.7500024318696,2|0,0:0|3:2,0:0:0:0:
92,263,12949,1,2,0:0:0:0:
92,263,13120,2,0,L|100:199,1,63.7500024318696,2|10,3:2|0:0,0:0:0:0:
159,132,13463,2,0,L|151:68,1,63.7500024318696,2|10,3:2|0:0,0:0:0:0:
268,14,13806,6,0,P|316:44|396:31,1,127.500004863739,6|2,3:2|3:2,0:0:0:0:
477,1,14320,2,0,L|464:67,2,63.7500024318696,2|0|2,0:0|3:2|0:0,0:0:0:0:
412,138,14834,2,0,L|436:262,1,127.500004863739,2|2,3:2|3:2,0:0:0:0:
342,92,15349,1,10,0:3:0:0:
342,92,15434,1,8,0:3:0:0:
342,92,15520,2,0,L|354:9,1,63.7500024318696,8|4,0:3|0:3,0:0:0:0:
331,9,15777,1,4,0:3:0:0:
331,9,15863,2,0,L|248:21,1,63.7500024318696,6|0,0:3|0:0,0:0:0:0:
142,81,16206,2,0,L|206:91,1,63.7500024318696,0|2,3:2|0:0,0:0:0:0:
57,23,16549,6,0,B|39:97|39:97|64:149,1,127.500004863739,6|0,3:2|3:2,0:0:0:0:
156,227,17063,1,2,0:0:0:0:
156,227,17234,2,0,B|87:208|99:255|28:230,1,127.500004863739,2|0,3:2|3:2,0:0:0:0:
0,357,17749,1,2,0:0:0:0:
0,357,17920,6,0,P|50:331|126:351,1,127.500004863739,2|0,3:2|3:2,0:0:0:0:
198,384,18434,1,2,0:0:0:0:
262,281,18606,2,0,L|177:298,1,63.7500024318696,2|0,3:2|0:0,0:0:0:0:
315,189,18949,2,0,L|230:172,1,63.7500024318696,0|2,3:2|0:0,0:0:0:0:
365,259,19292,6,0,P|402:197|385:141,1,127.500004863739,2|2,3:2|3:2,0:0:0:0:
423,63,19806,2,0,P|392:54|357:62,1,63.7500024318696,2|0,0:0|3:2,0:0:0:0:
284,100,20149,1,2,0:0:0:0:
284,100,20320,2,0,L|217:89,1,63.7500024318696,2|0,3:2|0:0,0:0:0:0:
127,7,20663,6,0,B|134:50|134:50|125:83|125:83|141:149,1,127.500004863739,0|0,3:2|3:2,0:0:0:0:
136,131,21349,2,0,L|124:194,1,63.7500024318696,2|0,3:2|0:0,0:0:0:0:
106,285,21692,1,2,3:2:0:0:
38,225,21863,1,2,0:0:0:0:
36,361,22034,6,0,L|168:377,1,127.500004863739,0|0,3:2|3:2,0:0:0:0:
225,319,22549,1,0,0:0:0:0:
225,319,22720,2,0,L|218:253,1,63.7500024318696,0|0,3:2|0:0,0:0:0:0:
177,173,23063,2,0,P|216:163|244:169,1,63.7500024318696,2|0,3:2|0:0,0:0:0:0:
328,235,23406,5,2,3:2:0:0:
328,235,23577,2,0,P|304:301|331:367,2,127.500004863739,2|2|2,0:0|0:0|0:0,0:0:0:0:
410,207,24434,2,0,L|479:211,1,63.7500024318696,0|0,3:2|0:0,0:0:0:0:
504,125,24777,6,0,L|349:117,1,127.500004863739,2|2,3:2|3:2,0:0:0:0:
301,69,25292,2,0,B|334:111|334:111|308:195,1,127.500004863739,2|2,0:0|0:0,0:0:0:0:
248,244,25806,2,0,L|179:251,1,63.7500024318696,2|0,3:2|0:0,0:0:0:0:
124,314,26149,6,0,P|95:270|110:200,1,127.500004863739,0|0,3:2|3:2,0:0:0:0:
79,14,26834,1,8,0:3:0:0:
163,61,27006,1,8,0:0:0:0:
163,61,27092,1,8,0:0:0:0:
163,61,27177,2,0,L|171:110,2,31.8750012159348,8|8|10,3:2|0:0|0:0,0:0:0:0:
290,178,27520,6,0,B|346:189|346:189|369:214|369:214|423:224,1,144.500002756119,6|8,3:2|0:0,0:0:0:0:
499,150,28034,1,2,0:0:0:0:
499,150,28206,2,0,L|421:134,1,72.2500013780594,2|0,3:2|3:2,0:0:0:0:
368,49,28549,1,0,0:0:0:0:
498,13,28720,6,0,L|346:44,1,144.500002756119,10|0,0:0|3:2,0:0:0:0:
241,167,29234,2,0,P|228:207|242:255,1,72.2500013780594,8|2,0:0|0:0,0:0:0:0:
328,264,29577,1,2,3:2:0:0:
328,264,29749,1,0,3:2:0:0:
287,98,29920,2,0,P|243:84|218:86,1,72.2500013780594,8|2,0:0|0:0,0:0:0:0:
122,197,30263,6,0,P|200:210|243:157,1,144.500002756119,2|10,3:2|0:0,0:0:0:0:
107,102,30777,2,0,B|101:178|60:151|52:233,1,144.500002756119,2|2,0:0|3:2,0:0:0:0:
73,361,31292,1,2,0:0:0:0:
180,283,31463,6,0,L|259:274,1,72.2500013780594,8|0,0:0|0:0,0:0:0:0:
422,253,31806,1,0,3:2:0:0:
333,355,31977,1,8,0:0:0:0:
333,355,32320,2,0,L|343:283,1,72.2500013780594,2|0,3:2|3:2,0:0:0:0:
359,142,32663,1,10,0:0:0:0:
235,194,32834,1,10,0:0:0:0:
235,194,32920,1,8,0:0:0:0:
235,194,33006,6,0,B|162:178|173:232|94:213,1,144.500002756119,4|8,3:2|0:0,0:0:0:0:
60,71,33520,1,0,0:0:0:0:
60,71,33692,2,0,P|106:63|144:83,1,72.2500013780594,0|0,3:2|3:2,0:0:0:0:
235,194,34034,1,2,0:0:0:0:
227,59,34206,1,8,0:0:0:0:
156,162,34377,6,0,L|138:310,1,144.500002756119,2|10,0:0|0:0,0:0:0:0:
281,378,34892,2,0,L|272:305,1,72.2500013780594,2|0,0:0|3:2,0:0:0:0:
136,250,35234,2,0,L|127:324,1,72.2500013780594,2|8,3:2|0:0,0:0:0:0:
35,242,35577,1,0,0:0:0:0:
156,162,35749,6,0,B|220:179|220:179|232:198|232:198|290:214,1,144.500002756119,2|10,3:2|0:0,0:0:0:0:
431,134,36263,2,0,P|398:127|361:135,1,72.2500013780594,2|0,0:0|3:2,0:0:0:0:
333,301,36606,1,2,3:2:0:0:
400,213,36777,1,2,0:0:0:0:
277,141,36949,6,0,L|287:226,1,72.2500013780594,8|0,0:0|0:0,0:0:0:0:
362,305,37292,1,2,3:2:0:0:
251,365,37463,2,0,L|173:350,1,72.2500013780594,8|0,0:0|0:0,0:0:0:0:
70,275,37806,2,0,L|52:183,1,72.2500013780594,10|8,0:3|0:0,0:0:0:0:
36,177,38063,1,8,0:0:0:0:
36,177,38149,2,0,L|52:94,1,72.2500013780594,10|0,0:0|3:2,0:0:0:0:
180,33,38492,6,0,P|237:58|299:40,1,127.500004863739,6|0,3:2|0:0,0:0:0:0:
374,0,39006,1,2,3:2:0:0:
374,0,39177,1,8,0:0:0:0:
466,115,39520,2,0,L|456:177,1,63.7500024318696,2|2,3:2|3:2,0:0:0:0:
491,259,39863,6,0,L|404:268,1,63.7500024318696,0|2,0:0|3:0,0:0:0:0:
406,349,40206,1,2,0:0:0:0:
324,317,40377,1,2,3:2:0:0:
324,317,40463,1,0,3:2:0:0:
324,317,40549,2,0,P|291:281|211:282,1,127.500004863739,10|10,0:2|0:3,0:0:0:0:
131,343,41063,1,6,0:3:0:0:
61,269,41234,5,6,3:2:0:0:
61,269,41406,2,0,L|85:136,1,127.500004863739,2|2,0:0|3:2,0:0:0:0:
33,67,41920,2,0,L|107:52,1,63.7500024318696,8|0,0:0|0:0,0:0:0:0:
169,116,42263,1,2,3:2:0:0:
221,44,42434,6,0,B|283:23|285:69|358:44,1,127.500004863739,2|10,3:2|0:0,0:0:0:0:
404,142,42949,2,0,L|325:133,1,63.7500024318696,2|2,0:0|3:2,0:0:0:0:
265,176,43292,1,10,0:0:0:0:
341,238,43463,1,2,0:0:0:0:
272,299,43634,2,0,L|265:350,3,31.8750012159348,10|8|8|8,0:0|0:0|0:0|0:0,0:0:0:0:
259,273,43977,5,2,0:0:0:0:
352,365,46034,6,0,L|346:329,3,31.8750012159348,8|8|8|8,0:0|0:0|0:0|0:0,0:0:0:0:
265,258,46377,6,0,L|273:212,3,42.5,10|8|8|8,0:0|0:0|0:0|0:0,0:0:0:0:
367,159,46720,5,14,0:0:0:0:
367,159,47063,2,0,L|354:67,1,85,8|8,0:0|0:0,0:0:0:0:
160,28,47406,1,8,0:0:0:0:
255,198,47577,1,10,0:0:0:0:
321,0,47749,1,10,0:0:0:0:
126,140,47920,6,0,L|145:271,1,127.5,14|0,0:0|0:0,0:0:0:0:
160,290,48263,2,0,L|155:336,2,42.5,8|8|8,0:0|0:0|0:0,0:0:0:0:
270,169,48606,2,0,L|275:123,2,42.5,8|8|8,0:0|0:0|0:0,0:0:0:0:
339,337,48949,1,8,0:0:0:0:
339,337,49034,1,8,0:0:0:0:
339,337,49120,1,8,0:0:0:0:
424,140,49292,1,8,0:0:0:0:
493,319,49463,5,10,0:0:0:0:
252,198,49634,1,2,3:0:0:0:
464,45,49977,5,10,3:2:0:0:
402,239,50320,5,10,3:2:0:0:
331,43,50492,1,0,3:2:0:0:
142,128,50663,2,0,L|334:147,1,170,10|8,0:0|0:3,0:0:0:0:
351,150,51092,1,4,0:3:0:0:
351,150,51177,1,0,3:0:0:0:
190,20,52206,6,0,L|181:132,1,85,6|2,3:2|0:0,0:0:0:0:
371,234,52549,1,10,0:0:0:0:
188,294,52720,2,0,B|119:281|119:281|96:252|96:252|16:233,1,170,2|0,3:0|3:0,0:0:0:0:
204,182,53234,1,10,0:0:0:0:
265,384,53406,1,2,0:0:0:0:
345,155,53577,6,0,L|361:63,2,85,2|2|8,3:0|3:0|0:0,0:0:0:0:
185,263,54092,1,2,3:0:0:0:
365,366,54263,2,0,P|419:377|461:366,1,85,2|0,0:0|3:0,0:0:0:0:
427,160,54606,2,0,P|373:149|331:160,1,85,10|0,0:0|0:0,0:0:0:0:
199,272,54949,6,0,P|149:294|61:229,1,170,2|8,3:0|0:0,0:0:0:0:
207,69,55463,2,0,L|220:156,1,85,2|0,3:0|0:0,0:0:0:0:
214,357,55806,1,2,3:0:0:0:
122,128,55977,1,10,0:0:0:0:
317,222,56149,1,2,0:0:0:0:
126,371,56320,6,0,L|150:194,1,170,2|12,3:0|0:0,0:0:0:0:
101,0,56834,1,2,0:0:0:0:
14,186,57006,2,0,L|31:275,1,85,2|0,3:0|3:0,0:0:0:0:
198,102,57349,1,12,0:0:0:0:
0,55,57520,1,2,0:0:0:0:
170,208,57692,6,0,B|255:217|241:155|344:171,1,170,4|10,3:2|0:0,0:0:0:0:
512,287,58206,1,0,3:0:0:0:
337,358,58377,2,0,L|326:273,1,85,2|2,0:0|3:0,0:0:0:0:
472,123,58720,2,0,L|460:218,1,85,8|2,0:0|0:0,0:0:0:0:
307,23,59063,6,0,B|366:38|366:38|408:20|408:20|474:36,1,170,4|10,3:2|0:0,0:0:0:0:
302,209,59577,1,0,3:0:0:0:
196,35,59749,2,0,L|111:19,1,85,2|2,0:0|3:0,0:0:0:0:
152,227,60092,1,8,0:0:0:0:
289,93,60263,1,2,0:0:0:0:
65,109,60434,6,0,B|23:155|23:155|56:265,1,170,4|10,3:2|0:0,0:0:0:0:
138,384,60949,1,2,3:0:0:0:
235,211,61120,2,0,L|135:230,1,85,2|2,0:0|3:0,0:0:0:0:
327,343,61463,2,0,L|427:362,1,85,10|2,0:0|0:0,0:0:0:0:
283,123,61806,5,0,3:0:0:0:
428,280,61977,1,0,3:0:0:0:
400,130,62149,1,8,0:0:0:0:
288,268,62320,1,8,0:3:0:0:
288,268,62406,1,4,0:3:0:0:
288,268,62492,2,0,L|293:217,3,42.5,2|4|4|4,3:0|0:3|0:3|0:3,0:0:0:0:
283,123,62834,1,14,0:0:0:0:
37,154,63177,6,0,L|128:164,1,85,6|2,3:2|0:0,0:0:0:0:
245,220,63520,1,10,0:0:0:0:
67,359,63692,2,0,P|112:317|218:342,1,170,2|0,3:0|3:0,0:0:0:0:
434,234,64206,2,0,P|445:186|431:137,1,85,10|2,0:0|0:0,0:0:0:0:
284,42,64549,5,2,3:0:0:0:
202,250,64720,2,0,L|214:341,1,85,2|8,3:0|0:0,0:0:0:0:
79,92,65063,2,0,L|91:1,1,85,2|2,3:0|0:0,0:0:0:0:
246,126,65406,1,2,3:0:0:0:
54,214,65577,2,0,P|41:267|62:307,1,85,10|0,0:0|0:0,0:0:0:0:
320,373,65920,6,0,P|354:286|318:217,1,170,2|8,3:0|0:0,0:0:0:0:
158,299,66434,2,0,L|147:390,1,85,2|0,3:0|0:0,0:0:0:0:
264,156,66777,2,0,L|253:65,2,85,2|10|2,3:0|0:0|0:0,0:0:0:0:
483,193,67292,6,0,B|389:175|411:245|323:221,1,170,2|12,3:0|0:0,0:0:0:0:
170,76,67806,1,2,0:0:0:0:
112,281,67977,2,0,L|127:368,1,85,2|0,3:0|3:0,0:0:0:0:
244,181,68320,1,12,0:0:0:0:
60,147,68492,1,2,0:0:0:0:
224,331,68663,6,0,B|290:323|290:323|324:335|324:335|408:320,1,170,4|10,3:2|0:0,0:0:0:0:
512,193,69177,1,2,3:0:0:0:
327,145,69349,2,0,L|317:229,1,85,2|2,0:0|3:0,0:0:0:0:
474,372,69692,2,0,P|485:317|469:279,1,85,8|2,0:0|0:0,0:0:0:0:
327,145,70034,6,0,L|160:174,1,170,0|10,3:0|0:0,0:0:0:0:
214,337,70549,1,0,3:0:0:0:
327,145,70720,2,0,P|291:128|241:133,1,85,2|2,0:0|3:0,0:0:0:0:
33,175,71063,1,8,0:0:0:0:
156,252,71234,1,2,0:0:0:0:
0,355,71406,6,0,B|60:368|60:368|105:349|105:349|165:362,1,170,4|10,3:2|0:0,0:0:0:0:
340,298,71920,1,2,3:0:0:0:
158,168,72092,2,0,P|145:207|159:264,1,85,2|2,0:0|3:0,0:0:0:0:
420,354,72434,2,0,P|433:314|417:258,1,85,10|2,0:0|0:0,0:0:0:0:
331,102,72777,5,0,3:0:0:0:
259,334,72949,1,0,3:0:0:0:
450,202,73120,2,0,L|431:113,1,85,12|0,0:0|3:0,0:0:0:0:
262,110,73463,2,0,L|193:122,2,56.6666666666667,8|8|4,0:0|0:3|0:3,0:0:0:0:
321,24,73806,2,0,L|395:37,2,56.6666666666667,2|8|4,3:0|0:3|0:3,0:0:0:0:
203,4,74149,6,0,P|181:58|213:126,1,127.500004863739,6|0,3:2|0:0,0:0:0:0:
222,222,74663,1,0,3:2:0:0:
222,222,74834,2,0,L|209:292,1,63.7500024318696,8|0,0:0|0:0,0:0:0:0:
139,335,75177,1,2,0:0:0:0:
278,375,75520,6,0,P|310:381|348:367,2,63.7500024318696,2|8|2,3:2|0:0|0:0,0:0:0:0:
302,293,76034,1,2,3:2:0:0:
302,293,76206,2,0,L|293:216,1,63.7500024318696,8|8,0:0|0:3,0:0:0:0:
398,200,76549,2,0,L|389:277,1,63.7500024318696,6|4,0:3|0:3,0:0:0:0:
339,112,76892,6,0,P|273:133|207:106,2,127.500004863739,6|2|10,3:2|0:0|0:0,0:0:0:0:
339,112,77920,2,0,L|348:41,1,63.7500024318696,2|8,0:0|0:0,0:0:0:0:
165,43,78263,6,0,P|134:87|153:165,1,127.500004863739,0|0,3:2|0:0,0:0:0:0:
256,245,78777,1,2,3:2:0:0:
256,245,78949,2,0,P|209:237|178:247,1,63.7500024318696,8|2,0:0|3:2,0:0:0:0:
319,337,79292,1,10,0:0:0:0:
424,239,79463,1,10,0:0:0:0:
424,239,79549,1,8,0:0:0:0:
424,239,79634,6,0,B|458:179|458:179|426:66,1,170,6|8,3:2|0:0,0:0:0:0:
255,3,80149,2,0,B|221:63|221:63|253:176,1,170,2|0,3:2|3:2,0:0:0:0:
319,337,80663,2,0,P|276:327|225:343,1,85,8|2,0:0|0:0,0:0:0:0:
69,374,81006,5,2,3:2:0:0:
277,236,81177,1,0,3:2:0:0:
14,234,81349,1,8,0:0:0:0:
165,383,81520,2,0,L|147:287,1,85,2|0,3:2|0:0,0:0:0:0:
106,89,81863,1,0,3:2:0:0:
14,234,82034,2,0,P|62:238|106:217,1,85,8|2,0:0|0:0,0:0:0:0:
195,49,82377,6,0,L|16:66,1,170,6|8,3:2|0:0,0:0:0:0:
106,214,82892,2,0,L|197:203,1,85,2|0,3:2|0:0,0:0:0:0:
375,176,83234,1,0,3:2:0:0:
289,38,83406,2,0,P|272:75|277:126,1,85,10|0,0:0|3:2,0:0:0:0:
286,144,83663,1,0,3:2:0:0:
285,144,83749,5,10,0:0:0:0:
428,37,83920,1,10,0:0:0:0:
375,176,84092,1,0,3:2:0:0:
375,176,84263,2,0,L|367:79,1,85,10|0,0:0|3:2,0:0:0:0:
243,5,84606,1,10,0:3:0:0:
190,222,84777,1,12,0:0:0:0:
190,222,85120,6,0,L|174:85,1,127.500004863739,2|0,0:0|0:0,0:0:0:0:
137,22,85634,2,0,P|188:11|250:54,1,127.500004863739,2|0,0:0|0:0,0:0:0:0:
296,128,86149,6,0,L|433:114,1,127.500004863739,2|0,0:0|0:0,0:0:0:0:
487,65,86663,2,0,P|507:104|498:146,2,63.7500024318696,2|2|2,0:0|0:0|0:0,0:0:0:0:
296,128,87177,6,0,B|256:118|223:73|223:73|263:259|263:259|281:336|196:388|138:379|75:331|81:222|175:206,1,637.500024318696,6|0,0:0|0:0,0:0:0:0:
