osu file format v14

[General]
AudioFilename: audio.mp3
AudioLeadIn: 0
PreviewTime:51499
Countdown: 0
SampleSet: Soft
StackLeniency: 0.7
Mode: 0
LetterboxInBreaks: 0
WidescreenStoryboard: 1

[Editor]
Bookmarks: 80159
DistanceSpacing: 0.9
BeatDivisor: 4
GridSize: 16
TimelineZoom: 1.7

[Metadata]
Title:Sing My Pleasure (TV Size)
TitleUnicode:Sing My Pleasure (TV Size)
Artist:Vivy (CV: Yagi Kairi)
ArtistUnicode:ヴィヴィ (CV: 八木海莉)
Creator:Xandit
Version:Hard
Source:ヴィヴィ-フローライトアイズソング-
Tags:Vivy -Fluorite Eye's Song- anime opening j pop japanese orchestral female vocals character voice j-pop jpop eyes 神前 暁 (MONACA) 只野菜摘
BeatmapID:2994570
BeatmapSetID:1457058

[Difficulty]
HPDrainRate:4.5
CircleSize:3.4
OverallDifficulty:6.5
ApproachRate:8
SliderMultiplier:1.6
SliderTickRate:1

[Events]
//Background and Video events
0,0,"singbggg.jpg",0,0
Video,-163,"singvid.mp4"
//Break Periods
2,44177,45284
//Storyboard Layer 0 (Background)
//Storyboard Layer 1 (Fail)
//Storyboard Layer 2 (Pass)
//Storyboard Layer 3 (Foreground)
//Storyboard Layer 4 (Overlay)
//Storyboard Sound Samples

[TimingPoints]
92,342.857142857143,4,2,1,100,1,0
5577,-133.333333333333,4,2,1,75,0,0
27520,-117.647058823529,4,2,1,85,0,0
38492,-133.333333333333,4,2,1,75,0,0
46034,-133.333333333333,4,2,1,60,0,0
46206,-133.333333333333,4,2,1,70,0,0
46377,-100,4,2,1,80,0,0
46549,-100,4,2,1,90,0,0
46720,-100,4,2,1,100,0,0
48177,-100,4,2,1,5,0,0
48263,-100,4,2,1,100,0,0
52206,-100,4,2,1,100,0,1
74149,-133.333333333333,4,2,1,100,0,0
79634,-100,4,2,1,100,0,1
85120,-133.333333333333,4,2,1,75,0,0
87263,-133.333333333333,4,2,1,75,0,0
87349,-133.333333333333,4,2,1,75,0,0
88891,-133.333333333333,4,2,1,5,0,0

[Colours]
Combo1 : 125,125,125
Combo2 : 16,112,228
Combo3 : 107,214,222
Combo4 : 215,86,9

[HitObjects]
374,83,92,6,0,L|462:67,2,80,14|0|0,0:0|3:0|3:0,0:0:0:0:
307,147,606,2,0,L|228:132,1,80,10|0,0:0|3:0,0:0:0:0:
158,77,949,1,0,3:0:0:0:
87,182,1120,6,0,L|70:96,2,80,14|0|0,0:0|3:0|3:0,0:0:0:0:
126,263,1634,2,0,L|109:349,1,80,10|0,0:0|3:0,0:0:0:0:
204,219,1977,1,0,3:0:0:0:
273,286,2149,2,0,P|318:289|355:269,1,80,14|0,0:0|3:0,0:0:0:0:
394,194,2492,1,0,3:0:0:0:
306,103,2663,5,14,0:0:0:0:
256,192,2749,12,8,5234,0:0:0:0:
257,341,5577,6,0,P|272:286|239:231,1,120.000004577637,6|2,3:2|3:2,0:0:0:0:
153,218,6092,2,0,L|93:230,2,60.0000022888184,2|0|2,0:0|3:2|0:0,0:0:0:0:
215,148,6606,6,0,L|344:160,1,120.000004577637,2|2,3:2|3:2,0:0:0:0:
405,221,7120,2,0,P|429:181|409:104,1,120.000004577637,2|2,0:0|0:0,0:0:0:0:
354,42,7634,1,2,3:2:0:0:
193,68,7977,2,0,L|125:59,1,60.0000022888184,2|2,3:2|0:0,0:0:0:0:
50,139,8320,6,0,B|55:187|55:187|75:206|75:206|80:261,1,120.000004577637,2|2,3:2|3:2,0:0:0:0:
141,322,8834,2,0,L|129:388,2,60.0000022888184,2|0|2,0:0|3:2|0:0,0:0:0:0:
204,263,9349,6,0,B|259:241|259:241|327:272,1,120.000004577637,2|2,3:2|3:2,0:0:0:0:
396,329,9863,2,0,P|418:286|402:214,1,120.000004577637,2|2,0:0|0:0,0:0:0:0:
336,150,10377,1,2,3:2:0:0:
423,33,10720,1,0,3:2:0:0:
337,7,10892,1,10,0:0:0:0:
337,7,10977,1,10,0:0:0:0:
337,7,11063,6,0,L|204:23,1,120.000004577637,6|2,3:2|3:2,0:0:0:0:
144,76,11577,2,0,L|71:67,2,60.0000022888184,2|0|2,0:0|3:2|0:0,0:0:0:0:
187,150,12092,2,0,P|149:204|161:266,1,120.000004577637,2|2,3:2|3:2,0:0:0:0:
219,327,12606,1,2,0:0:0:0:
343,260,12949,1,2,0:0:0:0:
343,260,13120,2,0,L|407:268,1,60.0000022888184,2|10,3:2|0:0,0:0:0:0:
437,185,13463,2,0,L|373:177,1,60.0000022888184,2|10,3:2|0:0,0:0:0:0:
332,91,13806,6,0,P|284:121|204:108,1,120.000004577637,6|2,3:2|3:2,0:0:0:0:
154,55,14320,2,0,L|167:-11,2,60.0000022888184,2|0|2,0:0|3:2|0:0,0:0:0:0:
89,116,14834,2,0,B|70:156|70:156|99:234,1,120.000004577637,2|2,3:2|3:2,0:0:0:0:
170,292,15349,1,10,0:3:0:0:
170,292,15434,1,8,0:3:0:0:
170,292,15520,2,0,L|158:375,1,60.0000022888184,8|4,0:3|0:3,0:0:0:0:
181,375,15777,1,4,0:3:0:0:
181,375,15863,2,0,L|264:363,1,60.0000022888184,6|0,0:3|0:0,0:0:0:0:
306,293,16206,2,0,L|389:305,1,60.0000022888184,0|2,3:2|0:0,0:0:0:0:
465,237,16549,6,0,B|483:195|483:195|458:111,1,120.000004577637,6|0,3:2|3:2,0:0:0:0:
429,40,17063,1,2,0:0:0:0:
429,40,17234,2,0,B|360:21|372:68|301:43,1,120.000004577637,2|0,3:2|3:2,0:0:0:0:
222,5,17749,1,2,0:0:0:0:
222,5,17920,6,0,P|172:31|108:15,1,120.000004577637,2|0,3:2|3:2,0:0:0:0:
49,87,18434,1,2,0:0:0:0:
49,87,18606,1,2,3:2:0:0:
139,220,18949,2,0,L|199:208,1,60.0000022888184,0|2,3:2|0:0,0:0:0:0:
239,124,19292,6,0,L|360:143,1,120.000004577637,2|2,3:2|3:2,0:0:0:0:
417,206,19806,2,0,P|426:237|418:272,1,60.0000022888184,2|0,0:0|3:2,0:0:0:0:
361,327,20149,1,2,0:0:0:0:
361,327,20320,1,2,3:2:0:0:
219,239,20663,6,0,B|171:231|171:231|140:237|140:237|77:225,1,120.000004577637,0|0,3:2|3:2,0:0:0:0:
100,229,21349,2,0,L|88:166,1,60.0000022888184,2|0,3:2|0:0,0:0:0:0:
33,101,21692,1,2,3:2:0:0:
89,28,21863,1,2,0:0:0:0:
171,76,22034,6,0,L|303:60,1,120.000004577637,0|0,3:2|3:2,0:0:0:0:
412,160,22720,2,0,L|478:167,1,60.0000022888184,0|0,3:2|0:0,0:0:0:0:
350,227,23063,2,0,P|360:266|354:294,1,60.0000022888184,2|0,3:2|0:0,0:0:0:0:
304,347,23406,5,2,3:2:0:0:
304,347,23577,2,0,L|432:328,2,120.000004577637,2|2|2,0:0|0:0|0:0,0:0:0:0:
211,338,24434,1,0,3:2:0:0:
231,182,24777,6,0,P|184:197|114:166,1,120.000004577637,2|2,3:2|3:2,0:0:0:0:
56,125,25292,2,0,B|89:167|89:167|63:251,1,120.000004577637,2|2,0:0|0:0,0:0:0:0:
24,320,25806,2,0,L|93:313,1,60.0000022888184,2|0,3:2|0:0,0:0:0:0:
156,375,26149,6,0,P|200:346|270:361,1,120.000004577637,0|0,3:2|3:2,0:0:0:0:
393,296,26834,1,8,0:3:0:0:
441,227,27006,1,8,0:0:0:0:
441,227,27092,1,8,0:0:0:0:
441,227,27177,2,0,L|433:178,2,30.0000011444092,8|8|10,3:2|0:0|0:0,0:0:0:0:
405,118,27520,6,0,B|349:107|349:107|326:82|326:82|272:72,1,136.000002593994,6|8,3:2|0:0,0:0:0:0:
207,13,28034,1,2,0:0:0:0:
207,13,28206,2,0,L|129:29,1,68.0000012969971,2|0,3:2|3:2,0:0:0:0:
19,112,28720,6,0,P|53:151|31:235,1,136.000002593994,10|0,0:0|3:2,0:0:0:0:
42,317,29234,2,0,L|115:307,1,68.0000012969971,8|2,0:0|0:0,0:0:0:0:
190,247,29577,1,2,3:2:0:0:
190,247,29749,1,0,3:2:0:0:
219,330,29920,2,0,P|263:344|288:342,1,68.0000012969971,8|2,0:0|0:0,0:0:0:0:
359,287,30263,6,0,L|376:141,1,136.000002593994,2|10,3:2|0:0,0:0:0:0:
373,56,30777,2,0,B|297:62|324:103|242:111,1,136.000002593994,2|2,0:0|3:2,0:0:0:0:
98,67,31292,1,2,0:0:0:0:
98,67,31463,6,0,L|89:-12,1,68.0000012969971,8|0,0:0|0:0,0:0:0:0:
35,131,31806,1,0,3:2:0:0:
35,131,31977,1,8,0:0:0:0:
131,250,32320,2,0,L|203:240,1,68.0000012969971,2|0,3:2|3:2,0:0:0:0:
251,167,32663,1,10,0:0:0:0:
321,237,32834,1,10,0:0:0:0:
321,237,32920,1,8,0:0:0:0:
321,237,33006,6,0,B|390:247|371:201|462:218,1,136.000002593994,4|8,3:2|0:0,0:0:0:0:
488,128,33520,1,0,0:0:0:0:
488,128,33692,2,0,L|404:116,1,68.0000012969971,0|0,3:2|3:2,0:0:0:0:
361,54,34034,1,2,0:0:0:0:
274,75,34206,1,8,0:0:0:0:
274,75,34377,6,0,P|225:111|143:100,1,136.000002593994,2|10,0:0|0:0,0:0:0:0:
63,106,34892,2,0,L|77:35,1,68.0000012969971,2|0,0:0|3:2,0:0:0:0:
23,182,35234,2,0,L|37:253,1,68.0000012969971,2|8,3:2|0:0,0:0:0:0:
18,345,35577,1,0,0:0:0:0:
105,379,35749,6,0,B|169:362|169:362|181:343|181:343|239:327,1,136.000002593994,2|10,3:2|0:0,0:0:0:0:
295,256,36263,2,0,P|326:268|366:265,1,68.0000012969971,2|0,0:0|3:2,0:0:0:0:
431,214,36606,1,2,3:2:0:0:
431,214,36777,2,0,L|445:145,1,68.0000012969971,2|8,0:0|0:0,0:0:0:0:
337,31,37292,5,0,3:0:0:0:
337,31,37463,2,0,L|267:44,1,68.0000012969971,8|0,0:0|0:0,0:0:0:0:
177,50,37806,2,0,L|190:120,1,68.0000012969971,10|8,0:3|0:0,0:0:0:0:
216,147,38063,1,8,0:0:0:0:
216,147,38149,2,0,L|203:217,1,68.0000012969971,10|0,0:0|3:2,0:0:0:0:
160,333,38492,6,0,P|217:308|279:326,1,120.000004577637,6|0,3:2|0:0,0:0:0:0:
347,374,39006,1,2,3:2:0:0:
347,374,39177,1,8,0:0:0:0:
450,258,39520,2,0,L|460:196,1,60.0000022888184,2|2,3:2|3:2,0:0:0:0:
470,111,39863,5,0,0:0:0:0:
417,45,40035,2,0,L|357:53,1,60.0000022888184,2|2,3:2|0:0,0:0:0:0:
272,79,40377,1,2,3:2:0:0:
272,79,40463,1,0,3:2:0:0:
272,79,40549,2,0,P|267:121|181:153,1,120.000004577637,10|10,0:2|0:3,0:0:0:0:
19,16,41234,5,6,3:2:0:0:
19,16,41406,2,0,L|43:145,1,120.000004577637,2|2,0:0|3:2,0:0:0:0:
111,199,41920,2,0,L|96:273,1,60.0000022888184,8|0,0:0|0:0,0:0:0:0:
53,330,42263,1,2,3:2:0:0:
53,330,42434,6,0,P|107:308|190:330,1,120.000004577637,2|10,3:2|0:0,0:0:0:0:
236,365,42949,2,0,L|315:374,1,60.0000022888184,2|2,0:0|3:2,0:0:0:0:
368,323,43292,1,10,0:0:0:0:
453,181,43634,2,0,L|460:130,3,30.0000011444092,10|8|8|8,0:0|0:0|0:0|0:0,0:0:0:0:
446,116,43977,5,2,0:0:0:0:
160,19,46034,6,0,L|166:55,3,30.0000011444092,8|8|8|8,0:0|0:0|0:0|0:0,0:0:0:0:
201,83,46377,6,0,L|193:129,3,40,10|8|8|8,0:0|0:0|0:0|0:0,0:0:0:0:
151,191,46720,5,14,0:0:0:0:
151,191,47063,2,0,L|164:283,1,80,8|8,0:0|0:0,0:0:0:0:
244,373,47406,2,0,L|257:281,1,80,8|10,0:0|0:0,0:0:0:0:
329,214,47749,1,10,0:0:0:0:
410,280,47920,6,0,P|457:240|443:165,1,120,14|0,0:0|0:0,0:0:0:0:
434,150,48263,2,0,L|439:104,2,40,8|8|8,0:0|0:0|0:0,0:0:0:0:
346,101,48606,2,0,L|341:55,2,40,8|8|8,0:0|0:0|0:0,0:0:0:0:
269,160,48949,1,8,0:0:0:0:
269,160,49034,1,8,0:0:0:0:
269,160,49120,1,8,0:0:0:0:
180,107,49292,1,8,0:0:0:0:
108,166,49463,6,0,L|96:252,1,80,10|2,0:0|3:0,0:0:0:0:
258,363,49977,5,10,3:2:0:0:
409,265,50320,5,10,3:2:0:0:
403,175,50492,1,0,3:2:0:0:
395,88,50663,2,0,L|203:69,1,160,10|8,0:0|0:3,0:0:0:0:
201,71,51092,1,4,0:3:0:0:
201,71,51177,1,0,3:0:0:0:
258,360,52206,6,0,L|267:248,1,80,6|2,3:2|0:0,0:0:0:0:
216,195,52549,1,10,0:0:0:0:
276,126,52720,2,0,B|361:126|321:70|424:63,1,160,2|0,3:0|3:0,0:0:0:0:
487,129,53234,1,10,0:0:0:0:
423,190,53406,1,2,0:0:0:0:
475,265,53577,6,0,L|459:357,2,80,2|2|8,3:0|3:0|0:0,0:0:0:0:
423,190,54092,1,2,3:0:0:0:
352,244,54263,2,0,P|298:255|256:244,1,80,2|0,0:0|3:0,0:0:0:0:
205,191,54606,1,10,0:0:0:0:
64,294,54949,6,0,B|36:236|36:236|68:144,1,160,2|8,3:0|0:0,0:0:0:0:
99,66,55463,2,0,L|186:53,1,80,2|0,3:0|0:0,0:0:0:0:
265,9,55806,1,2,3:0:0:0:
336,66,55977,1,10,0:0:0:0:
410,18,56149,1,2,0:0:0:0:
466,89,56320,6,0,L|442:266,1,160,2|12,3:0|0:0,0:0:0:0:
425,343,56834,1,2,0:0:0:0:
347,282,57006,2,0,L|362:190,1,80,2|0,3:0|3:0,0:0:0:0:
371,118,57349,1,12,0:0:0:0:
202,24,57692,6,0,P|125:38|108:141,1,160,4|10,3:2|0:0,0:0:0:0:
155,178,58206,1,0,3:0:0:0:
96,242,58377,2,0,L|84:337,1,80,2|2,0:0|3:0,0:0:0:0:
165,383,58720,2,0,L|260:371,1,80,8|2,0:0|0:0,0:0:0:0:
385,350,59063,6,0,B|400:291|400:291|382:249|382:249|398:183,1,160,4|10,3:2|0:0,0:0:0:0:
456,127,59577,1,0,3:0:0:0:
402,53,59749,2,0,L|320:65,1,80,2|2,0:0|3:0,0:0:0:0:
267,140,60092,1,8,0:0:0:0:
132,38,60434,6,0,B|90:84|90:84|123:194,1,160,4|10,3:2|0:0,0:0:0:0:
187,240,60949,1,2,3:0:0:0:
136,320,61120,2,0,L|36:301,1,80,2|2,0:0|3:0,0:0:0:0:
204,384,61463,2,0,L|304:365,1,80,10|2,0:0|0:0,0:0:0:0:
347,294,61806,5,0,3:0:0:0:
423,350,61977,1,0,3:0:0:0:
495,300,62149,1,8,0:0:0:0:
476,217,62320,1,8,0:3:0:0:
476,217,62406,1,4,0:3:0:0:
476,217,62492,2,0,L|471:166,3,40,2|4|4|4,3:0|0:3|0:3|0:3,0:0:0:0:
496,138,62834,1,14,0:0:0:0:
345,27,63177,6,0,L|254:17,1,80,6|2,3:2|0:0,0:0:0:0:
217,99,63520,1,10,0:0:0:0:
146,42,63692,2,0,P|87:41|51:134,1,160,2|0,3:0|3:0,0:0:0:0:
106,195,64206,2,0,P|117:243|103:292,1,80,10|2,0:0|0:0,0:0:0:0:
23,297,64549,5,2,3:0:0:0:
77,368,64720,2,0,L|168:356,1,80,2|8,3:0|0:0,0:0:0:0:
217,288,65063,2,0,L|308:300,1,80,2|2,3:0|0:0,0:0:0:0:
374,360,65406,1,2,3:0:0:0:
438,298,65577,1,10,0:0:0:0:
377,133,65920,6,0,L|211:151,1,160,2|8,3:0|0:0,0:0:0:0:
165,79,66434,2,0,L|176:-12,1,80,2|0,3:0|0:0,0:0:0:0:
122,162,66777,2,0,L|133:253,2,80,2|10|2,3:0|0:0|0:0,0:0:0:0:
82,322,67292,6,0,B|130:291|130:291|235:315,1,160,2|12,3:0|0:0,0:0:0:0:
308,371,67806,1,2,0:0:0:0:
308,371,67977,2,0,L|395:356,1,80,2|0,3:0|3:0,0:0:0:0:
474,335,68320,1,12,0:0:0:0:
505,147,68663,6,0,B|450:122|450:122|342:143,1,160,4|10,3:2|0:0,0:0:0:0:
262,91,69177,1,2,3:0:0:0:
197,160,69349,2,0,L|187:244,1,80,2|2,0:0|3:0,0:0:0:0:
127,87,69692,2,0,P|72:76|34:92,1,80,8|2,0:0|0:0,0:0:0:0:
0,160,70034,6,0,L|29:327,1,160,0|10,3:0|0:0,0:0:0:0:
108,384,70549,1,0,3:0:0:0:
178,309,70720,2,0,L|264:321,1,80,2|2,0:0|3:0,0:0:0:0:
323,259,71063,1,8,0:0:0:0:
472,362,71406,6,0,B|485:302|485:302|466:257|466:257|479:197,1,160,4|10,3:2|0:0,0:0:0:0:
496,116,71920,1,2,3:0:0:0:
411,140,72092,2,0,L|313:148,1,80,2|2,0:0|3:0,0:0:0:0:
283,67,72434,2,0,P|243:54|187:70,1,80,10|2,0:0|0:0,0:0:0:0:
164,132,72777,5,0,3:0:0:0:
223,200,72949,1,0,3:0:0:0:
162,269,73120,2,0,L|72:252,1,80,12|0,0:0|3:0,0:0:0:0:
235,326,73463,2,0,L|301:313,2,53.3333333333333,8|8|4,0:0|0:3|0:3,0:0:0:0:
310,292,73806,2,0,L|376:304,2,53.3333333333333,2|8|4,3:0|0:3|0:3,0:0:0:0:
407,284,74149,6,0,P|426:228|397:162,1,120.000004577637,6|0,3:2|0:0,0:0:0:0:
355,102,74663,1,0,3:2:0:0:
355,102,74834,1,8,0:0:0:0:
222,171,75177,1,2,0:0:0:0:
148,51,75520,6,0,L|78:59,2,60.0000022888184,2|8|2,3:2|0:0|0:0,0:0:0:0:
10,13,76034,2,0,P|-3:69|32:127,1,120.000004577637,2|8,3:2|0:3,0:0:0:0:
99,189,76549,2,0,L|85:257,1,60.0000022888184,6|4,0:3|0:3,0:0:0:0:
22,319,76892,6,0,B|-3:277|-3:277|16:187,2,120.000004577637,6|2|10,3:2|0:0|0:0,0:0:0:0:
213,325,77920,2,0,L|282:308,1,60.0000022888184,2|8,0:0|0:0,0:0:0:0:
328,380,78263,6,0,P|359:336|340:258,1,120.000004577637,0|0,3:2|0:0,0:0:0:0:
295,198,78777,1,2,3:2:0:0:
295,198,78949,2,0,P|287:151|297:120,1,60.0000022888184,8|2,0:0|3:2,0:0:0:0:
357,75,79292,1,10,0:0:0:0:
274,26,79463,1,10,0:0:0:0:
274,26,79549,1,8,0:0:0:0:
274,26,79634,6,0,B|204:19|204:19|179:32|179:32|101:24,1,160,6|8,3:2|0:0,0:0:0:0:
36,124,80149,2,0,B|106:117|106:117|131:130|131:130|209:122,1,160,2|0,3:2|3:2,0:0:0:0:
262,186,80663,2,0,P|272:229|256:280,1,80,8|2,0:0|0:0,0:0:0:0:
210,337,81006,5,2,3:2:0:0:
296,374,81177,1,0,3:2:0:0:
365,312,81349,1,8,0:0:0:0:
448,367,81520,2,0,B|463:308|463:308|446:262|446:262|462:196,1,160,2|0,3:2|3:2,0:0:0:0:
479,131,82034,1,8,0:0:0:0:
322,13,82377,6,0,L|143:30,1,160,6|8,3:2|0:0,0:0:0:0:
87,81,82892,2,0,P|72:136|83:173,1,80,2|0,3:2|0:0,0:0:0:0:
156,218,83234,1,0,3:2:0:0:
239,161,83406,2,0,L|322:153,1,80,10|0,0:0|3:2,0:0:0:0:
347,121,83663,1,0,3:2:0:0:
347,121,83749,6,0,L|430:129,2,80,10|10|0,0:0|0:0|3:2,0:0:0:0:
273,39,84263,2,0,L|190:47,1,80,10|0,0:0|3:2,0:0:0:0:
129,126,84606,1,10,0:3:0:0:
29,53,84777,1,12,0:0:0:0:
29,53,85120,6,0,L|45:190,1,120.000004577637,2|0,0:0|0:0,0:0:0:0:
103,240,85634,2,0,L|87:377,1,120.000004577637,2|0,0:0|0:0,0:0:0:0:
176,384,86149,6,0,L|190:247,1,120.000004577637,2|0,0:0|0:0,0:0:0:0:
257,194,86663,2,0,L|241:57,1,120.000004577637,2|0,0:0|0:0,0:0:0:0:
335,96,87177,6,0,B|373:87|405:44|405:44|366:222|366:222|349:296|431:346|486:338|547:292|541:187|451:171,1,600.000022888184,6|0,0:0|0:0,0:0:0:0:
