osu file format v14

[General]
AudioFilename: audio.mp3
AudioLeadIn: 0
PreviewTime: 51431
Countdown: 0
SampleSet: Soft
StackLeniency: 0.9
Mode: 0
LetterboxInBreaks: 0
WidescreenStoryboard: 1

[Editor]
Bookmarks: 88953
DistanceSpacing: 0.4
BeatDivisor: 4
GridSize: 16
TimelineZoom: 1.7

[Metadata]
Title:Sing My Pleasure (TV Size)
TitleUnicode:Sing My Pleasure (TV Size)
Artist:Vivy (CV: Yagi Kairi)
ArtistUnicode:ヴィヴィ (CV: 八木海莉)
Creator:Sotarks
Version:iljaaz's Insane
Source:Vivy -Fluorite Eye's Song-
Tags:WIT STUDIO Score Fluorite Eye Song anime opening op japanese j-pop jpop pop Diva ディーヴァ -フローライトアイズソング- 神前曉 MONACA Kousaki Satoru 種崎敦美 Tanezaki Atsumi akitoshi corinn -laura- eli [_eli_] elinor iljaaz keqing kibbleru
BeatmapID:3184408
BeatmapSetID:1556076

[Difficulty]
HPDrainRate:5
CircleSize:4
OverallDifficulty:8
ApproachRate:9
SliderMultiplier:1.74
SliderTickRate:1

[Events]
//Background and Video events
0,0,"bg.jpg",0,0
//Break Periods
//Storyboard Layer 0 (Background)
//Storyboard Layer 1 (Fail)
//Storyboard Layer 2 (Pass)
//Storyboard Layer 3 (Foreground)
//Storyboard Layer 4 (Overlay)
//Storyboard Sound Samples

[TimingPoints]
89,342.857142857143,4,2,22,72,1,0
89,-119.047619047619,4,2,22,72,0,0
2660,-294.117647058824,4,2,22,72,0,0
4031,-135.135135135135,4,2,22,72,0,0
4888,-135.135135135135,4,2,22,42,0,0
5060,-135.135135135135,4,2,22,62,0,0
5231,-87.719298245614,4,2,22,72,0,0
5488,-87.719298245614,4,2,22,5,0,0
5574,-119.047619047619,4,2,22,62,0,0
13289,-87.719298245614,4,2,22,62,0,0
13803,-119.047619047619,4,2,22,62,0,0
27517,-106.382978723404,4,2,22,72,0,0
43974,-106.382978723404,4,2,22,52,0,0
45346,-156.25,4,2,22,52,0,0
46031,-156.25,4,2,22,32,0,0
46203,-156.25,4,2,22,42,0,0
46374,-156.25,4,2,22,52,0,0
46546,-156.25,4,2,22,62,0,0
46717,-106.382978723404,4,2,22,72,0,0
47060,-106.382978723404,4,2,22,62,0,0
47574,-106.382978723404,4,2,22,72,0,0
47917,-106.382978723404,4,2,22,82,0,0
48089,-106.382978723404,4,2,22,62,0,0
48259,-106.382978723404,4,2,22,52,0,0
48603,-106.382978723404,4,2,22,62,0,0
48946,-106.382978723404,4,2,22,72,0,0
49460,-106.382978723404,4,2,22,82,0,0
49974,-80.6451612903224,4,2,22,82,0,0
50917,-80.6451612903224,4,2,22,5,0,0
51003,-80.6451612903224,4,2,22,72,0,0
51517,-185.185185185185,4,2,22,52,0,0
52203,-87.719298245614,4,2,22,82,0,0
74146,-106.382978723404,4,2,22,72,0,0
74831,-80.6451612903224,4,2,22,72,0,0
75689,-106.382978723404,4,2,22,72,0,0
79631,-106.382978723404,4,2,22,82,0,0
85117,-156.25,4,2,22,52,0,0
87174,-156.25,4,2,22,42,0,0
87260,-156.25,4,2,22,5,0,0

[Colours]
Combo1 : 173,31,84
Combo2 : 145,255,252
Combo3 : 221,242,244
Combo4 : 60,99,204

[HitObjects]
121,325,89,6,0,P|109:294|103:240,1,73.08,6|0,1:2|1:0,2:0:0:0:
221,106,431,1,0,1:0:0:0:
16,248,603,6,0,P|27:215|53:179,1,73.08,6|0,1:2|1:0,2:0:0:0:
221,106,946,1,0,1:0:0:0:
397,363,1117,6,0,P|409:332|415:278,1,73.08,6|0,1:2|1:0,2:0:0:0:
297,144,1460,1,0,1:0:0:0:
502,286,1631,6,0,P|491:253|465:217,1,73.08,6|0,1:2|1:0,2:0:0:0:
297,144,1974,1,0,1:0:0:0:
121,325,2146,6,0,P|157:311|211:299,1,73.08,6|0,1:2|1:0,2:0:0:0:
16,248,2489,1,0,1:0:0:0:
218,384,2660,6,0,B|127:358|133:287|26:268,1,221.85,6|0,1:2|2:0,2:0:0:0:
16,248,4031,6,0,L|10:289,1,32.19,0|0,2:0|2:0,2:0:0:0:
146,180,4203,6,0,B|97:157|66:84|96:13|220:27|180:115,1,257.52,0|0,2:0|2:0,2:0:0:0:
16,248,5060,1,0,1:2:0:0:
0,148,5231,6,0,L|182:188,1,148.77,12|0,2:0|2:0,2:0:0:0:
224,174,5574,6,0,P|217:213|194:245,1,73.08,6|0,1:2|2:0,2:0:0:0:
117,371,5917,2,0,P|153:366|193:341,1,73.08,0|2,1:2|2:0,2:0:0:0:
396,250,6260,1,0,1:0:0:0:
333,300,6431,1,0,2:0:0:0:
408,281,6603,1,2,1:2:0:0:
293,197,6774,6,0,P|258:187|219:171,1,73.08,0|0,3:2|1:0,2:0:0:0:
306,212,7117,1,2,2:0:0:0:
201,95,7289,6,0,P|140:105|60:137,1,146.16,0|2,2:0|1:2,2:0:0:0:
14,200,7803,1,0,2:0:0:0:
35,127,7974,5,0,1:0:0:0:
169,239,8146,1,2,3:2:0:0:
169,239,8231,1,0,3:2:0:0:
169,239,8317,2,0,P|141:219|94:201,1,73.08,2|0,1:2|2:0,2:0:0:0:
280,58,8660,2,0,P|245:70|213:87,1,73.08,0|2,1:0|3:2,2:0:0:0:
456,211,9003,2,0,P|407:181|310:146,1,146.16,0|2,1:0|1:2,2:0:0:0:
487,23,9517,6,0,P|457:45|432:75,1,73.08,0|0,3:0|1:0,2:0:0:0:
404,143,9860,1,2,2:0:0:0:
212,87,10031,2,0,P|225:149|274:235,1,146.16,0|2,1:0|1:2,2:0:0:0:
335,257,10546,1,0,2:0:0:0:
191,354,10717,1,0,1:0:0:0:
345,343,10889,5,10,2:0:0:0:
345,343,10974,1,10,2:0:0:0:
345,343,11060,2,0,P|310:334|271:309,1,73.08,6|0,1:2|2:0,2:0:0:0:
106,217,11403,2,0,P|122:248|155:288,1,73.08,2|2,1:2|2:0,2:0:0:0:
284,108,11746,2,0,P|257:146|232:261,1,146.16,0|2,1:0|1:2,2:0:0:0:
146,136,12260,1,0,3:2:0:0:
146,136,12346,1,0,3:2:0:0:
146,136,12431,5,2,1:2:0:0:
280,182,12603,2,0,P|326:174|364:156,1,73.08,2|0,2:0|1:0,2:0:0:0:
406,108,12946,1,0,2:0:0:0:
222,252,13117,1,2,1:2:0:0:
411,361,13289,6,0,P|406:326|385:261,1,99.18,10|2,2:0|1:2,2:0:0:0:
227,110,13631,1,14,2:0:0:0:
339,12,13803,6,0,P|326:85|305:176,1,146.16,2|0,1:2|1:2,2:0:0:0:
152,281,14317,2,0,P|183:267|219:254,1,73.08,2|0,3:2|1:0,2:0:0:0:
90,187,14660,1,0,2:0:0:0:
194,288,14831,2,0,P|230:301|329:377,1,146.16,2|0,1:2|1:2,2:0:0:0:
446,273,15346,1,10,2:3:0:0:
454,260,15431,1,8,2:3:0:0:
426,269,15517,1,8,2:3:0:0:
282,70,15774,5,4,2:3:0:0:
288,79,15860,2,0,P|324:91|370:103,1,73.08,6|10,1:3|2:3,2:0:0:0:
455,180,16203,5,6,1:3:0:0:
455,180,16289,1,0,1:0:0:0:
455,180,16374,1,6,2:3:0:0:
259,239,16546,6,0,B|180:231|196:273|111:259,1,146.16,6|0,1:2|1:0,2:0:0:0:
232,316,17060,1,2,2:0:0:0:
140,180,17231,2,0,P|110:154|91:120,1,73.08,2|0,1:2|2:0,2:0:0:0:
0,259,17574,2,0,P|25:231|62:204,1,73.08,0|2,1:0|3:2,2:0:0:0:
264,134,17917,6,0,P|314:151|371:239,1,146.16,2|0,1:2|1:0,2:0:0:0:
431,275,18431,1,2,2:0:0:0:
307,349,18603,2,0,P|342:340|380:321,1,73.08,2|0,1:2|2:0,2:0:0:0:
431,275,18946,1,0,1:0:0:0:
288,228,19117,1,2,2:0:0:0:
392,155,19289,6,0,P|381:194|363:232,1,73.08,2|0,1:2|2:0,2:0:0:0:
244,299,19631,1,2,1:2:0:0:
440,354,19803,6,0,P|406:342|369:319,1,73.08,2|0,3:2|1:0,2:0:0:0:
288,228,20146,1,2,2:0:0:0:
116,340,20317,6,0,P|139:291|207:221,1,146.16,2|0,1:2|1:0,2:0:0:0:
247,161,20831,1,0,2:0:0:0:
76,233,21003,2,0,P|41:227|1:214,1,73.08,0|0,2:0|3:0,2:0:0:0:
125,351,21346,1,2,1:2:0:0:
125,351,21689,5,2,3:2:0:0:
54,383,21860,1,2,3:2:0:0:
244,299,22031,2,0,P|315:312|390:336,1,146.16,0|0,1:2|1:2,2:0:0:0:
180,218,22546,2,0,P|159:188|140:148,1,73.08,0|0,2:0|1:0,2:0:0:0:
160,296,22889,1,0,2:0:0:0:
231,146,23060,2,0,P|243:105|264:64,1,73.08,2|0,1:2|3:2,2:0:0:0:
306,192,23403,5,2,1:2:0:0:
72,102,23574,2,0,P|106:86|145:76,1,73.08,2|0,2:0|1:0,2:0:0:0:
52,179,23917,1,2,2:0:0:0:
128,0,24089,2,0,P|178:12|262:56,1,146.16,0|0,1:0|1:0,2:0:0:0:
339,47,24603,1,0,2:0:0:0:
142,83,24774,6,0,P|107:94|48:104,1,73.08,2|0,1:2|2:0,2:0:0:0:
219,161,25117,1,2,1:2:0:0:
87,282,25289,2,0,P|107:244|132:220,1,73.08,2|0,2:0|1:2,2:0:0:0:
0,266,25631,1,2,2:2:0:0:
166,363,25803,6,0,P|143:303|127:216,1,146.16,2|0,1:2|1:0,2:0:0:0:
26,343,26317,1,0,2:0:0:0:
232,270,26489,6,0,L|349:301,1,109.62,0|0,1:0|3:0,2:0:0:0:
355,303,26831,1,0,1:0:0:0:
456,216,27003,5,8,2:0:0:0:
493,179,27089,1,8,2:0:0:0:
490,141,27174,1,8,2:0:0:0:
471,119,27260,1,8,2:0:0:0:
459,111,27346,1,4,1:3:0:0:
458,102,27431,1,4,2:3:0:0:
464,101,27517,6,0,P|453:179|436:265,2,163.56,6|8|2,1:2|1:2|2:0,2:0:0:0:
330,2,28374,1,0,1:0:0:0:
402,30,28546,1,0,2:0:0:0:
186,156,28717,2,0,B|256:148|262:99|352:94,1,163.56,10|0,2:0|1:0,2:0:0:0:
336,95,29231,6,0,P|292:86|241:69,1,81.7800000000002,8|0,2:0|2:0,2:0:0:0:
330,187,29574,2,0,P|339:224|348:278,1,81.7800000000002,0|0,1:0|1:0,2:0:0:0:
412,141,29917,1,8,2:0:0:0:
255,236,30089,1,0,2:0:0:0:
411,383,30260,6,0,P|374:328|273:319,1,163.56,2|8,1:2|2:0,2:0:0:0:
282,314,30774,2,0,P|248:339|202:360,1,81.7800000000002,0|0,1:2|1:2,2:0:0:0:
323,384,31117,1,2,1:2:0:0:
323,384,31289,1,0,2:0:0:0:
186,278,31460,6,0,P|119:252|32:202,1,163.56,8|0,2:0|2:0,2:0:0:0:
248,94,31974,2,0,P|211:115|156:135,1,81.7800000000002,8|0,2:0|2:0,2:0:0:0:
103,106,32231,1,0,2:0:0:0:
103,106,32317,1,2,1:2:0:0:
225,198,32489,1,0,1:2:0:0:
92,275,32660,1,10,2:0:0:0:
233,206,32831,1,8,2:0:0:0:
233,206,32917,1,8,2:0:0:0:
233,206,33003,6,0,L|408:246,1,163.56,6|8,1:2|2:0,2:0:0:0:
267,342,33517,2,0,P|303:332|349:324,1,81.7800000000002,0|0,2:0|2:0,2:0:0:0:
247,94,33860,2,0,P|281:117|321:135,1,81.7800000000002,0|0,1:0|2:0,2:0:0:0:
150,217,34203,1,8,2:0:0:0:
323,212,34374,6,0,B|230:194|246:260|134:228,1,163.56,0|8,2:0|2:0,2:0:0:0:
9,308,34889,1,0,1:0:0:0:
9,308,34974,1,0,1:0:0:0:
9,308,35060,1,0,1:2:0:0:
83,288,35231,2,0,P|122:306|168:341,1,81.7800000000002,0|8,1:0|2:0,2:0:0:0:
0,225,35574,1,0,1:0:0:0:
122,129,35746,6,0,P|99:164|77:213,1,81.7800000000002,2|0,1:2|2:0,2:0:0:0:
233,311,36089,1,8,2:0:0:0:
169,382,36260,2,0,P|156:342|151:301,1,81.7800000000002,0|0,1:2|1:0,2:0:0:0:
345,187,36603,1,0,1:0:0:0:
239,233,36774,1,0,2:0:0:0:
456,333,36946,2,0,P|411:300|348:271,1,122.67,8|0,2:0|2:0,2:0:0:0:
334,272,37289,1,0,1:0:0:0:
179,100,37460,6,0,P|213:120|253:132,1,81.7800000000002,10|8,2:0|2:0,2:0:0:0:
272,131,37717,1,8,2:0:0:0:
272,131,37803,1,10,1:3:0:0:
69,276,38060,5,8,2:0:0:0:
74,263,38146,2,0,L|50:175,1,81.7800000000002,8|0,2:0|1:2,2:0:0:0:
221,330,38489,6,0,B|301:311|276:262|377:239,1,163.56,6|0,1:2|2:0,2:0:0:0:
420,289,39003,1,2,2:0:0:0:
330,158,39174,2,0,P|289:147|246:128,1,81.7800000000002,8|0,2:0|2:0,2:0:0:0:
381,45,39517,1,2,1:2:0:0:
252,131,39689,6,0,P|321:173|360:258,1,163.56,2|0,1:2|1:0,2:0:0:0:
306,304,40203,1,0,2:0:0:0:
457,218,40374,1,0,1:0:0:0:
457,218,40460,1,0,1:0:0:0:
457,218,40546,1,6,1:2:0:0:
399,157,40717,1,0,2:0:0:0:
443,306,40889,1,0,1:0:0:0:
443,306,40974,1,0,1:0:0:0:
443,306,41060,1,0,1:0:0:0:
443,306,41146,1,0,1:0:0:0:
443,306,41231,6,0,P|477:328|510:358,1,81.7800000000002,6|0,1:2|2:0,2:0:0:0:
357,244,41574,1,2,2:0:0:0:
478,201,41746,1,2,1:2:0:0:
305,321,41917,2,0,P|264:335|219:357,1,81.7800000000002,8|0,2:0|2:0,2:0:0:0:
328,336,42260,1,2,1:2:0:0:
178,250,42431,6,0,P|118:226|35:170,1,163.56,2|8,1:2|2:0,2:0:0:0:
6,103,42946,1,0,2:0:0:0:
68,299,43117,1,0,1:2:0:0:
68,299,43203,1,0,1:0:0:0:
68,299,43289,2,0,P|116:266|191:249,1,122.67,6|0,1:2|1:0,2:0:0:0:
228,190,43631,1,8,2:0:0:0:
243,201,43717,1,8,2:0:0:0:
267,232,43803,1,8,2:0:0:0:
259,287,43889,1,8,2:0:0:0:
205,333,43974,5,2,2:0:0:0:
205,333,45346,2,0,P|214:281|233:216,1,111.36,2|0,2:0|2:0,2:0:0:0:
150,119,45860,1,0,2:0:0:0:
253,44,46031,5,0,1:0:0:0:
244,51,46117,1,0,1:0:0:0:
238,60,46203,1,0,1:0:0:0:
236,70,46289,1,0,1:0:0:0:
236,84,46374,5,8,2:0:0:0:
279,65,46460,1,8,2:0:0:0:
341,74,46546,1,8,2:0:0:0:
375,126,46631,1,8,2:0:0:0:
384,203,46717,6,0,P|370:262|354:350,1,122.67,6|0,1:2|2:0,2:0:0:0:
363,337,47060,1,8,2:0:0:0:
240,247,47231,1,8,2:0:0:0:
296,194,47403,1,8,2:0:0:0:
134,291,47574,2,0,P|96:305|51:315,1,81.7800000000002,10|10,2:0|2:0,2:0:0:0:
196,185,47917,6,0,B|288:202|249:247|353:273,1,163.56,6|0,1:2|1:2,2:0:0:0:
401,315,48346,1,0,1:2:0:0:
401,315,48431,1,8,2:0:0:0:
470,234,48603,5,0,1:2:0:0:
452,222,48689,1,0,1:2:0:0:
413,229,48774,1,8,2:0:0:0:
254,326,48946,1,0,1:0:0:0:
282,337,49031,1,0,1:0:0:0:
316,319,49117,2,0,P|321:301|327:267,1,40.8900000000001,8|8,2:0|2:0,2:0:0:0:
168,144,49289,1,8,2:0:0:0:
144,110,49374,1,8,2:0:0:0:
166,72,49460,5,14,2:0:0:0:
266,152,49631,2,0,P|255:187|246:238,1,81.7800000000002,10|0,2:0|2:0,2:0:0:0:
20,307,49974,6,0,B|-7:330|-41:287|48:257|117:318,1,161.82,10|0,2:0|2:0,2:0:0:0:
176,358,50317,1,10,2:0:0:0:
25,204,50489,1,0,1:0:0:0:
186,366,50660,6,0,P|250:351|355:271,1,161.82,14|0,2:0|2:0,2:0:0:0:
404,284,51003,2,0,P|398:267|390:252,3,35.9600000000001,4|4|4|4,2:3|2:3|2:3|2:3,2:0:0:0:
129,50,51517,6,0,L|38:25,1,93.9600000000001,2|0,2:0|2:0,2:0:0:0:
38,25,52203,6,0,P|65:64|93:126,1,99.18,6|2,1:2|2:0,2:0:0:0:
152,159,52546,1,10,2:0:0:0:
308,54,52717,2,0,P|286:108|203:237,1,198.36,2|0,1:2|1:0,2:0:0:0:
163,74,53231,1,10,2:0:0:0:
296,172,53403,1,0,1:0:0:0:
121,237,53574,6,0,P|73:257|26:283,1,99.18,2|2,1:2|1:2,2:0:0:0:
152,159,53917,1,8,2:0:0:0:
31,279,54089,2,0,P|106:293|175:332,1,148.77,2|0,1:2|2:0,2:0:0:0:
177,334,54431,1,0,1:2:0:0:
296,172,54603,2,0,P|316:212|331:267,1,99.18,10|0,2:0|1:0,2:0:0:0:
390,363,54946,6,0,P|315:353|233:253,1,198.36,2|8,1:2|2:0,2:0:0:0:
384,130,55460,2,0,P|345:157|275:172,1,99.18,2|0,1:2|2:0,2:0:0:0:
146,21,55803,1,2,1:2:0:0:
231,69,55974,1,10,2:0:0:0:
68,185,56146,1,2,1:2:0:0:
150,103,56317,6,0,L|98:110,1,49.59,6|0,1:2|2:0,2:0:0:0:
214,265,56489,2,0,L|154:274,1,49.59,0|0,1:2|2:0,2:0:0:0:
295,171,56660,2,0,L|132:192,1,148.77,8|0,2:0|2:0,2:0:0:0:
138,191,57003,1,2,1:2:0:0:
316,315,57174,6,0,P|321:290|335:257,1,49.59,0|0,1:2|2:0,2:0:0:0:
299,28,57346,2,0,P|243:47|239:135,1,148.77,8|0,2:0|3:0,2:0:0:0:
295,171,57689,6,0,B|370:188|407:113|484:129,1,198.36,4|10,1:2|2:0,2:0:0:0:
316,315,58203,2,0,P|361:333|409:362,1,99.18,0|2,1:2|2:0,2:0:0:0:
373,196,58546,1,2,1:2:0:0:
486,243,58717,1,8,2:0:0:0:
325,322,58889,1,2,2:0:0:0:
325,322,58974,1,0,2:0:0:0:
325,322,59060,6,0,P|252:343|162:354,1,148.77,4|0,1:2|2:0,2:0:0:0:
165,354,59403,1,10,2:0:0:0:
48,223,59574,1,0,1:0:0:0:
122,202,59746,1,2,2:0:0:0:
179,264,59917,1,2,1:2:0:0:
16,354,60089,1,8,2:0:0:0:
86,327,60260,6,0,L|102:276,1,49.59,2|0,2:0|2:0,2:0:0:0:
267,112,60431,2,0,P|221:120|164:149,1,99.18,4|2,1:2|2:0,2:0:0:0:
78,42,60774,1,10,2:0:0:0:
231,148,60946,2,0,P|307:174|368:208,1,148.77,0|0,1:2|2:0,2:0:0:0:
377,216,61289,1,2,1:2:0:0:
483,106,61460,1,10,2:0:0:0:
411,131,61631,1,10,2:0:0:0:
480,272,61803,6,0,P|492:222|512:173,1,99.18,4|0,1:2|1:2,2:0:0:0:
363,332,62146,1,8,2:0:0:0:
252,265,62317,1,8,2:0:0:0:
226,254,62403,1,8,2:0:0:0:
182,268,62489,1,10,1:3:0:0:
154,303,62574,1,8,1:3:0:0:
145,318,62660,1,4,1:3:0:0:
139,325,62746,1,4,1:3:0:0:
131,328,62831,6,0,B|95:341|101:280|191:297|226:343,1,148.77,14|0,2:0|2:0,2:0:0:0:
229,350,63174,1,6,1:2:0:0:
103,205,63346,1,2,2:0:0:0:
172,170,63517,1,10,2:0:0:0:
42,166,63689,6,0,P|130:181|240:225,1,198.36,2|0,1:2|1:0,2:0:0:0:
38,361,64203,2,0,P|79:340|137:327,1,99.18,10|2,2:0|2:0,2:0:0:0:
239,232,64546,5,2,1:2:0:0:
116,88,64717,2,0,P|147:124|173:174,1,99.18,2|8,1:2|2:0,2:0:0:0:
312,370,65060,6,0,P|273:340|223:320,1,99.18,2|0,1:2|2:0,2:0:0:0:
389,228,65403,1,2,1:2:0:0:
326,187,65574,2,0,P|279:203|238:231,1,99.18,10|0,2:0|2:0,2:0:0:0:
494,381,65917,6,0,P|453:342|480:245,1,148.77,2|0,1:2|2:0,2:0:0:0:
512,200,66260,1,8,2:0:0:0:
353,71,66431,2,0,P|401:96|438:131,1,99.18,2|0,1:2|2:0,2:0:0:0:
238,231,66774,1,2,1:2:0:0:
359,181,66946,1,10,2:0:0:0:
264,130,67117,1,2,2:0:0:0:
329,274,67289,6,0,L|320:327,1,49.59,2|0,1:2|2:0,2:0:0:0:
169,180,67460,2,0,L|160:233,1,49.59,0|0,1:0|2:0,2:0:0:0:
264,130,67631,2,0,L|234:303,1,148.77,12|0,2:0|2:0,2:0:0:0:
237,290,67974,1,2,1:2:0:0:
82,376,68146,6,0,P|105:366|136:359,1,49.59,0|0,1:0|2:0,2:0:0:0:
403,274,68317,2,0,P|370:222|286:219,1,148.77,8|0,2:0|1:0,2:0:0:0:
238,276,68660,6,0,P|251:323|260:381,1,99.18,4|0,1:2|2:0,2:0:0:0:
153,231,69003,1,10,2:0:0:0:
85,272,69174,1,0,1:0:0:0:
160,150,69346,1,2,2:0:0:0:
238,276,69517,1,2,1:2:0:0:
75,157,69689,1,8,2:0:0:0:
285,68,69860,1,2,2:0:0:0:
285,68,69946,1,0,2:0:0:0:
285,68,70031,6,0,P|268:120|238:170,1,99.18,4|2,1:2|1:2,2:0:0:0:
69,359,70374,2,0,P|118:344|177:303,1,99.18,10|0,2:0|1:0,2:0:0:0:
344,292,70717,5,2,2:0:0:0:
251,257,70889,1,2,1:2:0:0:
439,267,71060,5,8,2:0:0:0:
294,359,71231,1,2,2:0:0:0:
294,359,71317,1,0,2:0:0:0:
294,359,71403,2,0,B|366:345|354:299|446:281,1,148.77,4|0,1:2|2:0,2:0:0:0:
484,325,71746,1,10,2:0:0:0:
326,141,71917,2,0,P|369:166|411:204,1,99.18,2|2,1:2|2:0,2:0:0:0:
313,52,72260,1,2,1:2:0:0:
471,122,72431,1,10,2:0:0:0:
354,197,72603,1,2,2:0:0:0:
354,197,72689,1,0,2:0:0:0:
354,197,72774,6,0,P|286:227|200:248,1,148.77,0|0,1:2|2:0,2:0:0:0:
198,240,73117,1,4,1:2:0:0:
346,303,73289,1,0,1:0:0:0:
185,377,73460,6,0,P|176:347|174:307,1,66.12,8|8,1:2|2:0,2:0:0:0:
214,245,73689,1,0,1:0:0:0:
286,138,73803,6,0,P|283:108|265:69,1,66.12,10|0,1:3|1:0,2:0:0:0:
199,45,74031,1,4,1:3:0:0:
117,139,74146,6,0,P|239:151|354:195,1,245.340000000001,6|0,1:2|1:0,2:0:0:0:
398,351,74831,6,0,B|451:408|519:336|490:274|440:238|372:263|387:272|356:301|288:343|221:207|307:141|359:201,1,431.520000000001,12|2,2:0|1:2,2:0:0:0:
353,195,75689,6,0,P|338:234|330:286,1,81.7800000000002,8|2,2:0|2:0,2:0:0:0:
438,191,76031,1,2,1:2:0:0:
243,378,76203,6,0,P|227:319|205:197,1,163.56,8|6,2:0|1:3,2:0:0:0:
82,142,76717,1,4,1:3:0:0:
238,51,76889,6,0,P|212:88|185:116,1,81.7800000000002,6|0,1:2|2:0,2:0:0:0:
30,259,77231,2,0,P|72:249|115:229,1,81.7800000000002,2|0,2:0|1:0,2:0:0:0:
3,23,77574,6,0,P|35:48|82:68,1,81.7800000000002,10|0,2:0|2:0,2:0:0:0:
207,218,77917,1,2,2:0:0:0:
266,166,78089,1,0,1:0:0:0:
266,166,78174,1,0,1:0:0:0:
266,166,78260,5,0,1:2:0:0:
186,114,78431,1,8,2:0:0:0:
272,268,78603,1,0,2:0:0:0:
374,158,78774,1,2,1:2:0:0:
276,279,78946,2,0,P|280:322|292:371,1,81.7800000000002,8|0,2:0|2:0,2:0:0:0:
141,163,79289,2,0,P|146:120|171:39,1,122.67,10|0,2:0|1:2,2:0:0:0:
168,44,79631,6,0,P|207:52|250:88,1,81.7800000000002,6|0,1:2|2:0,2:0:0:0:
141,163,79974,1,8,2:0:0:0:
339,231,80146,2,0,P|276:244|189:301,1,163.56,2|0,1:2|1:2,2:0:0:0:
285,167,80660,1,8,2:0:0:0:
212,146,80831,1,0,2:0:0:0:
338,309,81003,6,0,P|376:327|420:341,1,81.7800000000002,2|0,1:2|1:0,2:0:0:0:
284,384,81346,1,10,2:0:0:0:
437,233,81517,2,0,P|425:170|400:89,1,122.67,2|0,1:2|2:0,2:0:0:0:
399,104,81860,1,0,1:2:0:0:
512,197,82031,1,10,2:0:0:0:
494,121,82203,1,0,2:0:0:0:
345,222,82374,6,0,P|329:262|323:301,1,81.7800000000002,6|0,1:2|2:0,2:0:0:0:
217,137,82717,1,10,2:0:0:0:
139,241,82889,2,0,P|120:187|107:86,1,122.67,2|0,1:2|2:0,2:0:0:0:
115,108,83231,1,0,1:2:0:0:
2,364,83403,6,0,P|32:339|80:319,1,81.7800000000002,10|0,2:0|1:2,2:0:0:0:
129,272,83660,1,0,1:0:0:0:
129,272,83746,1,10,2:0:0:0:
271,338,83917,2,0,P|311:350|356:360,1,81.7800000000002,10|0,2:0|1:0,2:0:0:0:
504,158,84260,2,0,P|455:158|402:221,1,122.67,10|0,2:3|2:0,2:0:0:0:
405,207,84603,2,0,P|413:242|421:297,1,81.7800000000002,6|12,1:3|2:0,2:0:0:0:
481,334,84946,1,0,2:0:0:0:
308,201,85117,6,0,L|342:12,1,167.04,2|0,2:0|2:0,2:0:0:0:
337,36,85974,6,0,P|308:44|274:51,2,55.68,0|0|0,2:0|2:0|2:0,2:0:0:0:
238,125,86489,1,0,2:0:0:0:
190,68,86660,2,0,P|138:49|66:31,1,111.36,0|0,2:0|2:0,2:0:0:0:
0,99,87174,1,0,2:0:0:0:
256,192,87260,12,0,88717,2:0:0:0:
