osu file format v14

[General]
AudioFilename: audio.mp3
AudioLeadIn: 0
PreviewTime: 51431
Countdown: 0
SampleSet: Soft
StackLeniency: 0.7
Mode: 0
LetterboxInBreaks: 0
WidescreenStoryboard: 1

[Editor]
Bookmarks: 88957
DistanceSpacing: 0.5
BeatDivisor: 4
GridSize: 16
TimelineZoom: 1.7

[Metadata]
Title:Sing My Pleasure (TV Size)
TitleUnicode:Sing My Pleasure (TV Size)
Artist:Vivy (CV: Yagi Kairi)
ArtistUnicode:ヴィヴィ (CV: 八木海莉)
Creator:Sotarks
Version:Kibb's Expert
Source:Vivy -Fluorite Eye's Song-
Tags:WIT STUDIO Score Fluorite Eye Song anime opening op japanese j-pop jpop pop Diva ディーヴァ -フローライトアイズソング- 神前曉 MONACA Kousaki Satoru 種崎敦美 Tanezaki Atsumi akitoshi corinn -laura- eli [_eli_] elinor iljaaz keqing kibbleru
BeatmapID:3178850
BeatmapSetID:1556076

[Difficulty]
HPDrainRate:5.3
CircleSize:3.8
OverallDifficulty:8.5
ApproachRate:9.1
SliderMultiplier:1.8
SliderTickRate:1

[Events]
//Background and Video events
0,0,"bg.jpg",0,0
//Break Periods
//Storyboard Layer 0 (Background)
//Storyboard Layer 1 (Fail)
//Storyboard Layer 2 (Pass)
//Storyboard Layer 3 (Foreground)
//Storyboard Layer 4 (Overlay)
//Storyboard Sound Samples

[TimingPoints]
89,342.857142857143,4,2,22,72,1,0
89,-133.333333333333,4,2,22,72,0,0
3946,-133.333333333333,4,2,22,5,0,0
4031,-133.333333333333,4,2,22,72,0,0
4889,-133.333333333333,4,2,22,42,0,0
5231,-133.333333333333,4,2,22,72,0,0
5489,-133.333333333333,4,2,22,5,0,0
5574,-133.333333333333,4,2,22,62,0,0
10374,-100,4,2,22,62,0,0
11574,-133.333333333333,4,2,22,62,0,0
15860,-100,4,2,22,62,0,0
16203,-133.333333333333,4,2,22,62,0,0
16546,-125,4,2,22,62,0,0
20317,-111.111111111111,4,2,22,62,0,0
20831,-100,4,2,22,62,0,0
21260,-125,4,2,22,62,0,0
24774,-111.111111111111,4,2,22,62,0,0
25289,-125,4,2,22,62,0,0
26831,-100,4,2,22,62,0,0
27517,-100,4,2,22,72,0,0
28203,-111.111111111111,4,2,22,72,0,0
35746,-100,4,2,22,72,0,0
36603,-111.111111111111,4,2,22,72,0,0
38489,-133.333333333333,4,2,22,72,0,0
39174,-200,4,2,22,72,0,0
40546,-100,4,2,22,72,0,0
41231,-133.333333333333,4,2,22,72,0,0
41916,-200,4,2,22,72,0,0
42774,-100,4,2,22,72,0,0
43289,-83.3333333333333,4,2,22,72,0,0
43974,-83.3333333333333,4,2,22,52,0,0
46031,-166.666666666667,4,2,22,32,0,0
46203,-166.666666666667,4,2,22,42,0,0
46374,-100,4,2,22,52,0,0
46546,-83.3333333333333,4,2,22,62,0,0
46717,-100,4,2,22,72,0,0
47060,-100,4,2,22,62,0,0
47574,-100,4,2,22,72,0,0
47917,-100,4,2,22,82,0,0
48089,-100,4,2,22,62,0,0
48260,-100,4,2,22,52,0,0
48603,-100,4,2,22,62,0,0
48946,-100,4,2,22,72,0,0
49460,-100,4,2,22,82,0,0
50660,-125,4,2,22,82,0,0
50917,-125,4,2,22,5,0,0
51003,-125,4,2,22,72,0,0
51517,-142.857142857143,4,2,22,52,0,0
52117,-142.857142857143,4,2,22,5,0,0
52203,-100,4,2,22,82,0,1
55460,-83.3333333333333,4,2,22,82,0,1
57346,-100,4,2,22,82,0,1
62831,-83.3333333333333,4,2,22,82,0,1
63089,-100,4,2,22,5,0,1
63174,-100,4,2,22,82,0,1
67631,-83.3333333333333,4,2,22,82,0,1
68317,-100,4,2,22,82,0,1
73803,-125,4,2,22,82,0,1
74146,-166.666666666667,4,2,22,72,0,0
74831,-133.333333333333,4,2,22,72,0,0
76203,-200,4,2,22,72,0,0
77574,-125,4,2,22,72,0,0
79631,-100,4,2,22,82,0,1
83917,-95.2380952380952,4,2,22,82,0,1
84774,-83.3333333333333,4,2,22,82,0,1
85117,-500.000000000003,4,2,22,52,0,0
87174,-500.000000000003,4,2,22,42,0,0
87260,-166.666666666667,4,2,22,42,0,0
87346,-166.666666666667,4,2,22,42,0,0
88888,-166.666666666667,4,2,22,42,0,0

[Colours]
Combo1 : 173,31,84
Combo2 : 145,255,252
Combo3 : 221,242,244
Combo4 : 60,99,204

[HitObjects]
111,101,89,5,6,1:2:0:0:
194,139,260,1,0,1:0:0:0:
118,191,431,1,0,1:0:0:0:
35,156,603,5,6,1:2:0:0:
245,72,774,1,0,1:0:0:0:
372,234,946,1,0,1:0:0:0:
309,294,1117,5,6,1:2:0:0:
270,182,1289,1,0,1:0:0:0:
392,151,1460,1,0,1:0:0:0:
397,249,1631,5,6,1:2:0:0:
291,195,1803,1,0,1:0:0:0:
410,132,1974,1,0,1:0:0:0:
288,69,2146,5,6,1:2:0:0:
479,216,2317,1,0,1:0:0:0:
190,334,2489,2,0,L|112:346,1,67.5000025749208,0|6,1:0|1:2,0:0:0:0:
256,192,2746,12,0,3946,0:0:0:0:
256,192,4031,12,0,5060,1:2:0:0:
257,193,5231,5,12,0:2:0:0:
0,331,5574,6,0,B|82:309|82:309|131:336,1,135.000005149842,6|0,1:2|1:2,0:0:0:0:
125,333,6089,2,0,L|113:255,1,67.5000025749208,2|0,0:0|1:0,0:0:0:0:
162,188,6431,1,0,0:0:0:0:
257,193,6603,2,0,L|246:259,1,67.5000025749208,2|0,1:2|3:2,0:0:0:0:
261,268,6860,1,0,3:2:0:0:
275,276,6946,1,0,1:0:0:0:
346,227,7117,2,0,P|380:221|427:210,2,67.5000025749208,2|0|0,0:2|0:0|0:0,0:0:0:0:
265,372,7631,2,0,P|209:336|140:333,1,135.000005149842,2|0,1:2|1:0,0:0:0:0:
69,284,8146,1,2,3:2:0:0:
69,284,8231,1,0,3:2:0:0:
69,284,8317,6,0,P|46:225|65:137,1,135.000005149842,2|0,1:2|1:0,0:0:0:0:
205,115,8831,1,2,3:2:0:0:
205,115,8917,1,0,3:0:0:0:
205,115,9003,2,0,P|171:136|131:150,1,67.5000025749208,0|0,1:0|0:0,0:0:0:0:
279,177,9346,2,0,B|353:170|334:197|411:193,1,135.000005149842,2|0,1:2|1:0,0:0:0:0:
492,170,9860,2,0,P|501:200|516:245,2,67.5000025749208,2|0|0,0:0|1:0|3:2,0:0:0:0:
387,110,10374,6,0,P|316:206|349:285,1,180,2|0,1:2|1:0,0:0:0:0:
463,373,10889,1,10,0:0:0:0:
445,359,10974,1,10,0:2:0:0:
427,345,11060,6,0,B|377:330|377:330|324:371|241:358,1,180,6|2,1:2|1:2,0:0:0:0:
175,344,11574,2,0,L|159:263,1,67.5000025749208,2|0,0:0|1:0,0:0:0:0:
187,160,11917,1,2,0:0:0:0:
295,161,12089,2,0,L|281:227,1,67.5000025749208,2|0,1:2|3:2,0:0:0:0:
279,243,12346,1,0,3:2:0:0:
276,259,12431,1,2,1:2:0:0:
116,211,12603,2,0,P|83:200|50:194,2,67.5000025749208,2|0|0,0:0|1:0|0:0,0:0:0:0:
303,352,13117,5,2,1:2:0:0:
175,277,13289,1,10,0:0:0:0:
369,210,13460,5,2,1:2:0:0:
154,285,13631,1,14,0:0:0:0:
240,143,13803,6,0,P|242:209|279:264,1,135.000005149842,2|0,1:2|1:2,0:0:0:0:
375,299,14317,1,2,3:2:0:0:
375,299,14403,1,0,3:2:0:0:
375,299,14489,2,0,P|408:302|440:312,1,67.5000025749208,0|0,1:0|0:0,0:0:0:0:
494,373,14831,2,0,P|486:305|480:238,1,135.000005149842,2|0,1:2|1:2,0:0:0:0:
452,128,15346,5,10,0:3:0:0:
426,135,15431,1,8,0:3:0:0:
432,161,15517,1,8,0:3:0:0:
273,240,15689,5,4,1:3:0:0:
282,222,15774,1,4,0:3:0:0:
263,213,15860,2,0,L|193:183,2,45,6|4|10,1:3|0:3|0:3,0:0:0:0:
110,315,16203,2,0,L|77:325,2,33.7500012874604,6|4|6,1:3|0:3|0:3,0:0:0:0:
0,284,16546,6,0,B|81:276|52:302|142:299,1,144,6|0,1:2|1:0,0:0:0:0:
217,324,17060,1,2,0:0:0:0:
271,266,17231,2,0,P|318:265|394:336,1,144,2|0,1:2|1:0,0:0:0:0:
500,345,17746,2,0,L|485:298,1,36,2|0,3:2|3:2,0:0:0:0:
494,233,17917,6,0,P|501:174|513:90,1,144,2|0,1:2|1:0,0:0:0:0:
446,46,18431,1,2,0:0:0:0:
385,97,18603,2,0,B|307:84|316:111|241:98,1,144,2|0,1:2|1:0,0:0:0:0:
145,180,19117,1,2,0:0:0:0:
22,126,19289,6,0,L|105:106,1,72,2|0,1:2|0:0,0:0:0:0:
238,184,19631,1,2,1:2:0:0:
128,270,19803,1,2,3:2:0:0:
128,270,19889,1,0,3:2:0:0:
128,270,19974,2,0,L|142:351,1,72,0|2,1:0|0:0,0:0:0:0:
57,320,20317,2,0,P|135:307|222:301,1,161.999995056153,2|0,1:2|1:0,0:0:0:0:
344,332,20831,6,0,B|407:289|373:216|373:216|315:236,1,180,0|0,0:0|3:0,0:0:0:0:
315,244,21260,1,0,3:0:0:0:
303,257,21346,2,0,P|286:225|282:189,1,72,2|0,1:2|0:0,0:0:0:0:
392,76,21689,2,0,L|335:90,1,36,2|0,3:2|3:0,0:0:0:0:
265,28,21860,2,0,L|208:14,1,36,2|0,3:2|3:2,0:0:0:0:
170,80,22031,6,0,B|118:87|118:87|84:106|84:106|29:112,1,144,0|0,1:2|1:2,0:0:0:0:
98,188,22546,2,0,L|181:207,2,72,0|0|0,0:0|1:0|0:0,0:0:0:0:
8,364,23060,2,0,P|0:310|19:258,1,108,2|0,1:2|3:2,0:0:0:0:
32,248,23403,1,2,1:2:0:0:
251,163,23574,6,0,P|252:200|258:254,1,72,2|0,0:0|1:0,0:0:0:0:
109,159,23917,2,0,P|140:138|184:107,1,72,2|0,0:0|1:0,0:0:0:0:
179,280,24260,2,0,P|145:262|96:240,1,72,2|0,3:2|1:0,0:0:0:0:
242,80,24603,1,0,0:0:0:0:
336,191,24774,6,0,P|390:189|458:241,1,121.499996292114,2|0,1:2|0:0,0:0:0:0:
457,242,25117,1,2,1:2:0:0:
324,329,25289,2,0,L|268:343,1,36,2|0,0:0|0:0,0:0:0:0:
219,291,25460,1,0,1:2:0:0:
436,368,25631,1,2,0:2:0:0:
159,345,25803,6,0,B|80:328|89:357|15:348,1,144,2|0,1:2|1:0,0:0:0:0:
115,253,26317,1,0,0:2:0:0:
22,130,26489,2,0,P|32:168|58:221,1,72,0|0,1:0|3:0,0:0:0:0:
261,267,26831,6,0,L|382:242,1,90,0|8,1:0|0:0,0:0:0:0:
392,241,27089,1,8,0:0:0:0:
364,236,27174,1,8,0:0:0:0:
346,233,27260,1,8,0:0:0:0:
328,230,27346,1,4,1:3:0:0:
445,181,27517,6,0,L|428:314,1,135,6|0,1:2|0:0,0:0:0:0:
439,337,27860,1,8,1:2:0:0:
141,157,28203,1,2,0:0:0:0:
222,173,28374,2,0,P|261:163|307:146,1,80.9999975280763,0|0,1:0|0:0,0:0:0:0:
78,41,28717,6,0,P|46:76|65:194,1,161.999995056153,10|0,0:0|1:0,0:0:0:0:
0,294,29231,2,0,B|80:265|80:265|166:310,1,161.999995056153,8|0,0:0|1:0,0:0:0:0:
268,307,29746,1,0,1:0:0:0:
238,191,29917,2,0,P|198:201|159:211,1,80.9999975280763,8|0,0:0|0:0,0:0:0:0:
344,344,30260,6,0,P|381:313|367:191,1,161.999995056153,2|8,1:2|0:0,0:0:0:0:
324,133,30774,1,0,1:2:0:0:
324,133,30860,1,0,1:2:0:0:
324,133,30946,1,0,1:2:0:0:
275,207,31117,1,2,1:2:0:0:
414,130,31289,1,0,0:0:0:0:
256,218,31460,6,0,B|200:211|200:211|158:180|158:180|70:171,1,161.999995056153,8|0,0:0|0:0,0:0:0:0:
13,280,31974,1,8,0:2:0:0:
269,68,32317,5,2,1:2:0:0:
261,95,32403,1,0,1:0:0:0:
287,105,32489,1,0,1:2:0:0:
418,47,32660,1,10,0:0:0:0:
360,196,32831,5,8,0:0:0:0:
340,201,32917,1,8,0:0:0:0:
320,206,33003,2,0,B|355:285|325:283|360:364,1,161.999995056153,6|8,1:2|0:0,0:0:0:0:
422,301,33517,2,0,P|334:281|247:288,1,161.999995056153,0|0,0:0|1:0,0:0:0:0:
189,351,34031,1,0,0:0:0:0:
94,322,34203,6,0,P|81:265|122:174,1,161.999995056153,8|0,0:0|1:2,0:0:0:0:
191,122,34717,1,8,0:0:0:0:
270,166,34889,1,0,1:0:0:0:
275,185,34974,1,0,1:0:0:0:
280,204,35060,1,0,1:2:0:0:
334,63,35231,1,0,1:0:0:0:
245,279,35403,2,0,P|238:317|227:369,1,80.9999975280763,8|0,0:0|1:0,0:0:0:0:
414,339,35746,6,0,B|434:284|396:244|396:244|368:270,1,135,2|0,1:2|0:0,0:0:0:0:
359,279,36089,1,8,0:2:0:0:
188,217,36260,2,0,L|112:195,2,45,0|0|0,1:2|1:0|1:0,0:0:0:0:
281,113,36603,2,0,P|297:156|291:198,1,80.9999975280763,0|0,1:0|0:0,0:0:0:0:
34,304,36946,6,0,P|21:222|83:163,1,161.999995056153,8|0,0:0|1:0,0:0:0:0:
188,217,37460,2,0,L|201:306,1,80.9999975280763,10|8,0:0|0:0,0:0:0:0:
113,352,37803,5,10,1:3:0:0:
119,332,37889,1,4,0:3:0:0:
289,261,38060,1,8,0:0:0:0:
283,241,38146,1,8,0:0:0:0:
456,136,38317,1,0,1:2:0:0:
363,185,38489,5,6,1:2:0:0:
425,235,38660,2,0,L|494:251,1,67.5000025749208
332,329,39003,1,2,0:0:0:0:
263,283,39174,2,0,L|164:297,1,90,8|2,0:0|1:2,0:0:0:0:
14,123,39689,1,2,1:2:0:0:
14,123,40031,5,0,1:0:0:0:
91,163,40203,1,0,0:0:0:0:
40,240,40374,1,0,1:0:0:0:
32,226,40460,1,0,1:0:0:0:
24,212,40546,6,0,B|81:215|112:182|112:182|163:181|197:224,1,180,6|0,1:2|1:0,0:0:0:0:
187,212,40974,1,0,1:0:0:0:
187,212,41060,1,0,1:0:0:0:
187,212,41146,1,0,1:0:0:0:
187,212,41231,5,6,1:2:0:0:
147,294,41403,2,0,L|50:313,1,67.5000025749208,0|2,0:0|0:2,0:0:0:0:
233,384,41746,1,2,1:2:0:0:
301,331,41917,2,0,L|403:354,1,90,8|2,0:0|1:2,0:0:0:0:
512,151,42431,1,2,1:2:0:0:
512,151,42774,5,8,0:0:0:0:
393,192,42946,1,0,0:0:0:0:
287,125,43117,2,0,L|236:113,1,45,0|0,1:2|1:0,0:0:0:0:
131,135,43289,2,0,B|85:78|135:32|135:32|200:56,1,161.999995056153,6|0,1:2|1:0,0:0:0:0:
250,136,43631,5,8,0:0:0:0:
247,157,43717,1,8,0:0:0:0:
244,178,43803,1,8,0:0:0:0:
241,199,43889,1,8,0:0:0:0:
237,235,43974,5,2,0:0:0:0:
237,235,45346,5,2,0:0:0:0:
237,235,46031,5,0,1:0:0:0:
237,235,46117,1,0,1:0:0:0:
237,235,46203,1,0,1:0:0:0:
237,235,46289,1,0,1:0:0:0:
237,235,46374,2,0,L|311:220,1,45,8|8,0:0|0:0,0:0:0:0:
392,280,46546,2,0,L|472:292,1,53.9999983520508,8|8,0:0|0:0,0:0:0:0:
476,361,46717,2,0,B|500:292|476:292|503:219,1,135,6|0,1:2|0:0,0:0:0:0:
512,212,47060,5,8,0:0:0:0:
343,158,47231,1,8,0:0:0:0:
282,313,47403,1,8,0:0:0:0:
131,361,47574,5,10,0:0:0:0:
383,239,47745,1,10,0:0:0:0:
66,64,47917,2,0,P|54:150|119:207,1,180,6|0,1:2|1:2,0:0:0:0:
132,209,48346,1,0,1:2:0:0:
145,212,48431,1,8,0:2:0:0:
218,153,48603,5,0,1:2:0:0:
235,148,48689,1,0,1:2:0:0:
252,144,48774,1,8,0:2:0:0:
330,92,48946,5,0,1:0:0:0:
351,99,49031,1,0,1:0:0:0:
372,106,49117,1,8,0:0:0:0:
426,29,49289,5,8,0:0:0:0:
456,22,49374,1,8,0:0:0:0:
486,15,49460,1,14,0:0:0:0:
256,231,49631,1,10,0:0:0:0:
26,15,49974,5,10,0:0:0:0:
203,300,50317,5,10,0:0:0:0:
112,95,50489,1,0,1:0:0:0:
277,339,50660,6,0,B|229:329|229:329|190:351|136:348,1,144,14|4,0:0|2:3,0:0:0:0:
72,300,51060,2,0,L|30:289,2,24,4|4|4,2:3|2:3|2:3,0:0:0:0:
378,355,51517,6,0,B|408:310|379:261|379:261|354:267|354:267|322:216|363:165,1,220.499993270874,2|0,0:0|0:0,0:0:0:0:
370,161,52203,5,6,1:2:0:0:
296,330,52374,1,2,0:0:0:0:
472,247,52546,1,10,0:0:0:0:
309,92,52717,2,0,L|160:75,1,135,2|0,1:2|0:0,0:0:0:0:
152,74,53060,1,0,1:0:0:0:
223,264,53231,5,10,0:0:0:0:
63,320,53403,1,0,1:0:0:0:
122,166,53574,1,2,1:2:0:0:
299,327,53746,2,0,P|317:285|309:222,1,90,2|8,1:2|0:0,0:0:0:0:
127,252,54089,5,2,0:0:0:0:
171,21,54260,2,0,L|193:126,1,90,2|0,1:2|0:0,0:0:0:0:
90,148,54603,1,10,0:0:0:0:
233,218,54774,1,0,1:0:0:0:
111,354,54946,6,0,B|50:305|83:236|83:236|131:254,1,180,2|8,1:2|0:0,0:0:0:0:
301,28,55460,2,0,B|349:83|317:145|317:145|248:130,1,161.999995056153,2|0,1:2|0:0,0:0:0:0:
262,133,55803,5,2,1:2:0:0:
450,73,55974,1,10,0:0:0:0:
327,232,56146,1,2,1:2:0:0:
105,140,56317,5,6,1:2:0:0:
23,195,56489,1,0,1:2:0:0:
186,80,56660,2,0,P|267:90|359:99,1,161.999995056153,8|0,0:0|0:0,0:0:0:0:
368,97,57003,1,2,1:2:0:0:
245,197,57174,1,0,1:2:0:0:
142,298,57346,2,0,P|198:298|250:304,1,90,8|2,0:0|3:0,0:0:0:0:
317,351,57689,6,0,P|384:300|375:205,1,180,4|10,1:2|0:0,0:0:0:0:
151,75,58203,2,0,P|84:126|93:221,1,180,0|2,1:2|1:2,0:0:0:0:
272,227,58717,1,8,0:0:0:0:
200,166,58889,1,2,0:2:0:0:
285,105,59060,5,4,1:2:0:0:
168,251,59231,1,0,1:2:0:0:
357,304,59403,2,0,P|359:260|366:204,1,90,10|0,0:0|1:0,0:0:0:0:
434,130,59746,1,2,0:0:0:0:
192,38,59917,2,0,P|189:81|183:138,1,90,2|8,1:2|0:0,0:0:0:0:
164,350,60260,5,2,0:0:0:0:
164,350,60346,1,0,0:0:0:0:
164,350,60431,1,4,1:2:0:0:
51,297,60603,1,2,0:2:0:0:
163,226,60774,1,10,0:0:0:0:
176,367,60946,1,0,1:2:0:0:
28,310,61117,5,2,0:0:0:0:
189,210,61289,1,2,1:2:0:0:
0,105,61460,1,10,0:0:0:0:
220,29,61631,5,10,0:0:0:0:
220,29,61717,1,8,0:0:0:0:
220,29,61803,2,0,P|261:24|328:14,1,90,4|0,1:2|1:2,0:0:0:0:
404,115,62146,1,8,0:0:0:0:
108,280,62317,5,8,0:0:0:0:
142,270,62403,1,8,0:0:0:0:
178,267,62489,1,10,1:3:0:0:
210,283,62574,1,8,1:3:0:0:
240,302,62660,1,4,1:3:0:0:
276,304,62746,1,4,1:3:0:0:
311,298,62831,2,0,B|261:248|293:188|293:188|339:216,1,161.999995056153,14|0,0:2|0:0,0:0:0:0:
406,277,63174,6,0,P|397:319|391:373,1,90,6|2,1:2|0:0,0:0:0:0:
495,234,63517,1,10,0:0:0:0:
226,215,63689,2,0,P|292:214|364:126,1,180,2|0,1:2|1:0,0:0:0:0:
111,53,64203,5,10,0:0:0:0:
200,132,64374,1,2,0:0:0:0:
72,207,64546,1,2,1:2:0:0:
231,47,64717,2,0,L|355:29,1,90,2|8,1:2|0:0,0:0:0:0:
193,368,65060,6,0,P|158:310|157:244,1,135,2|0,1:2|0:0,0:0:0:0:
165,227,65403,1,2,1:2:0:0:
403,16,65574,2,0,P|411:74|392:129,1,90,10|0,0:2|0:0,0:0:0:0:
307,286,65917,5,2,1:2:0:0:
337,200,66089,1,0,0:0:0:0:
430,202,66260,1,8,0:0:0:0:
478,313,66431,2,0,L|382:275,1,90,2|0,1:2|0:0,0:0:0:0:
259,146,66774,5,2,1:2:0:0:
217,321,66946,1,10,0:0:0:0:
346,109,67117,1,2,0:0:0:0:
127,164,67289,5,2,1:2:0:0:
291,259,67460,1,0,1:0:0:0:
52,235,67631,2,0,P|41:152|27:68,1,161.999995056153,12|0,0:0|0:0,0:0:0:0:
20,54,67974,1,2,1:2:0:0:
230,167,68146,1,0,1:0:0:0:
412,295,68317,2,0,P|403:248|397:194,1,90,8|2,0:0|1:2,0:0:0:0:
428,81,68660,5,4,1:2:0:0:
349,130,68831,1,0,0:0:0:0:
477,162,69003,1,10,0:0:0:0:
328,126,69174,1,0,1:0:0:0:
439,64,69346,1,2,0:0:0:0:
397,206,69517,2,0,P|389:254|385:306,1,90,2|8,1:2|0:0,0:0:0:0:
157,306,69860,5,2,0:0:0:0:
157,306,69946,1,0,0:0:0:0:
157,306,70031,1,4,1:2:0:0:
256,249,70203,1,2,1:2:0:0:
142,216,70374,1,10,0:0:0:0:
256,337,70546,1,0,1:0:0:0:
71,352,70717,1,2,0:0:0:0:
182,135,70889,2,0,P|227:129|294:119,1,90,2|8,1:2|0:0,0:0:0:0:
439,26,71231,5,2,0:0:0:0:
439,26,71317,1,0,0:0:0:0:
439,26,71403,1,4,1:2:0:0:
340,177,71574,1,2,0:0:0:0:
257,40,71746,1,10,0:0:0:0:
423,135,71917,1,2,1:2:0:0:
200,274,72089,5,2,0:0:0:0:
351,86,72260,1,2,1:2:0:0:
458,325,72431,1,10,0:2:0:0:
208,178,72603,5,2,0:0:0:0:
208,178,72689,1,0,0:0:0:0:
208,178,72774,2,0,P|154:170|98:162,1,90,0|0,1:2|1:2,0:0:0:0:
28,352,73117,1,4,1:2:0:0:
331,233,73289,1,0,1:0:0:0:
161,74,73460,5,8,1:2:0:0:
100,158,73574,2,0,P|108:186|114:216,1,60,8|0,0:0|1:0,0:0:0:0:
231,261,73803,1,10,1:3:0:0:
267,338,73917,2,0,P|259:366|253:394,1,48,0|4,1:0|1:3,0:0:0:0:
69,356,74146,6,0,P|16:297|27:219,1,161.999995056153,6|0,1:2|1:0,0:0:0:0:
276,59,74831,2,0,P|317:100|305:200,1,135.000005149842,12|2,0:2|0:0,0:0:0:0:
229,347,75517,5,2,1:2:0:0:
349,288,75689,1,8,0:0:0:0:
246,300,75860,1,2,0:0:0:0:
336,327,76031,1,2,1:2:0:0:
152,268,76203,2,0,P|146:221|138:173,1,90,8|6,0:0|1:3,0:0:0:0:
106,341,76717,1,4,1:3:0:0:
316,205,76889,6,0,P|321:160|328:115,1,90,6|2,1:2|0:0,0:0:0:0:
372,269,77403,1,0,1:0:0:0:
384,39,77574,2,0,P|324:78|253:77,1,144,10|2,0:0|0:0,0:0:0:0:
185,142,78089,1,0,1:0:0:0:
145,64,78260,1,0,1:2:0:0:
315,174,78431,1,8,0:0:0:0:
315,174,78774,5,2,1:2:0:0:
128,218,78946,1,8,0:0:0:0:
235,65,79117,1,0,0:0:0:0:
203,334,79289,1,10,0:0:0:0:
203,334,79460,5,0,1:2:0:0:
203,334,79546,1,0,1:2:0:0:
203,334,79631,2,0,P|247:323|308:317,1,90,6|0,1:2|0:0,0:0:0:0:
94,310,79974,1,8,0:0:0:0:
363,373,80146,2,0,P|405:332|379:186,1,180,2|0,1:2|1:2,0:0:0:0:
263,150,80660,2,0,P|253:200|240:238,1,90,8|0,0:0|0:0,0:0:0:0:
495,171,81003,6,0,P|456:137|430:107,1,90,2|0,1:2|1:0,0:0:0:0:
458,290,81346,1,10,0:0:0:0:
471,11,81517,2,0,P|422:69|315:81,1,180,2|0,1:2|1:2,0:0:0:0:
170,172,82031,2,0,P|141:164|104:155,2,45,10|0|0,0:0|0:0|0:0,0:0:0:0:
380,338,82374,1,6,1:2:0:0:
159,83,82717,5,10,0:0:0:0:
380,338,82889,2,0,B|273:307|310:370|204:342,1,180,2|0,1:2|1:2,0:0:0:0:
253,149,83403,1,10,0:0:0:0:
97,258,83574,1,0,1:2:0:0:
97,258,83660,1,0,1:0:0:0:
97,258,83746,1,10,0:0:0:0:
44,53,83917,6,0,L|147:82,1,94.499997116089,10|0,0:0|1:0,0:0:0:0:
468,53,84260,2,0,L|365:82,1,94.499997116089,10|0,0:3|0:0,0:0:0:0:
193,228,84603,1,6,1:3:0:0:
283,234,84774,2,0,B|321:174|280:123|280:123|230:151,1,161.999995056153,12|0,0:0|0:0,0:0:0:0:
193,228,85117,6,0,L|201:284,1,54,2|0,0:0|0:0,0:0:0:0:
256,192,85717,12,0,87174,0:0:0:0:
