osu file format v14

[General]
AudioFilename: audio.mp3
AudioLeadIn: 0
PreviewTime: 51431
Countdown: 0
SampleSet: Soft
StackLeniency: 0.7
Mode: 0
LetterboxInBreaks: 0
WidescreenStoryboard: 0

[Editor]
DistanceSpacing: 1.1
BeatDivisor: 4
GridSize: 8
TimelineZoom: 1.7

[Metadata]
Title:Sing My Pleasure (TV Size)
TitleUnicode:Sing My Pleasure (TV Size)
Artist:Vivy (CV: Yagi Kairi)
ArtistUnicode:ヴィヴィ (CV: 八木海莉)
Creator:Sotarks
Version:Expert
Source:Vivy -Fluorite Eye's Song-
Tags:WIT STUDIO Score Fluorite Eye Song anime opening op japanese j-pop jpop pop Diva ディーヴァ -フローライトアイズソング- 神前曉 MONACA Kousaki Satoru 種崎敦美 Tanezaki Atsumi akitoshi corinn -laura- eli [_eli_] elinor iljaaz keqing kibbleru
BeatmapID:3178849
BeatmapSetID:1556076

[Difficulty]
HPDrainRate:5.2
CircleSize:4
OverallDifficulty:8.7
ApproachRate:9.2
SliderMultiplier:1.72
SliderTickRate:1

[Events]
//Background and Video events
0,0,"bg.jpg",0,0
//Break Periods
//Storyboard Layer 0 (Background)
//Storyboard Layer 1 (Fail)
//Storyboard Layer 2 (Pass)
//Storyboard Layer 3 (Foreground)
//Storyboard Layer 4 (Overlay)
//Storyboard Sound Samples

[TimingPoints]
89,342.857142857143,4,2,22,72,1,0
89,-98.0392156862745,4,2,22,72,0,0
2660,-192.307692307692,4,2,22,72,0,0
4889,-192.307692307692,4,2,22,42,0,0
5060,-192.307692307692,4,2,22,62,0,0
5231,-108.695652173913,4,2,22,72,0,0
5489,-108.695652173913,4,2,22,5,0,0
5574,-161.290322580645,4,2,22,62,0,0
16546,-138.888888888889,4,2,22,62,0,0
27517,-108.695652173913,4,2,22,72,0,0
27860,-108.695652173913,4,2,22,72,0,0
38489,-121.951219512195,4,2,22,72,0,0
40546,-89.2857142857143,4,2,22,72,0,0
40889,-121.951219512195,4,2,22,72,0,0
43974,-121.951219512195,4,2,22,52,0,0
46031,-121.951219512195,4,2,22,32,0,0
46203,-121.951219512195,4,2,22,42,0,0
46374,-121.951219512195,4,2,22,52,0,0
46546,-121.951219512195,4,2,22,62,0,0
46717,-121.951219512195,4,2,22,72,0,0
47060,-121.951219512195,4,2,22,62,0,0
47574,-121.951219512195,4,2,22,72,0,0
47917,-98.0392156862744,4,2,22,82,0,0
48089,-98.0392156862744,4,2,22,62,0,0
48260,-98.0392156862744,4,2,22,52,0,0
48603,-98.0392156862744,4,2,22,62,0,0
48946,-98.0392156862744,4,2,22,72,0,0
49460,-98.0392156862744,4,2,22,82,0,0
50660,-75.7575757575758,4,2,22,82,0,0
50917,-75.7575757575758,4,2,22,5,0,0
51003,-108.695652173913,4,2,22,72,0,0
51517,-108.695652173913,4,2,22,52,0,0
52117,-108.695652173913,4,2,22,5,0,0
52203,-98.0392156862745,4,2,22,82,0,0
62831,-81.9672131147541,4,2,22,82,0,0
63174,-98.0392156862745,4,2,22,82,0,0
74146,-108.695652173913,4,2,22,72,0,0
79631,-98.0392156862745,4,2,22,82,0,0
85117,-312.5,4,2,22,52,0,0
87174,-312.5,4,2,22,42,0,0

[Colours]
Combo1 : 173,31,84
Combo2 : 145,255,252
Combo3 : 221,242,244
Combo4 : 60,99,204

[HitObjects]
322,68,89,6,0,P|329:117|337:164,1,87.7200005354004,6|0,1:2|1:0,0:0:0:0:
344,227,431,1,0,1:0:0:0:
173,18,603,2,0,P|180:67|188:114,1,87.7200005354004,6|0,1:2|1:0,0:0:0:0:
195,177,945,1,0,1:0:0:0:
49,316,1117,6,0,P|106:325|144:333,1,87.7200005354004,6|0,1:2|1:0,0:0:0:0:
359,358,1460,1,0,1:0:0:0:
231,275,1631,2,0,P|238:324|246:371,1,87.7200005354004,6|0,1:2|1:0,0:0:0:0:
244,361,1974,1,0,1:0:0:0:
369,193,2146,1,6,1:2:0:0:
126,118,2317,1,0,1:0:0:0:
147,323,2489,1,0,1:0:0:0:
243,197,2660,6,0,B|190:186|138:219|162:241|120:274|40:265|40:265|20:216|61:153|80:180|133:131|118:97|72:34|72:34|18:46|14:104,1,581.35999645166,6|0,1:2|0:0,0:0:0:0:
14,98,5060,1,0,1:2:0:0:
198,73,5231,2,0,P|256:64|315:54,1,118.679996015991,12|0,0:2|0:0,0:0:0:0:
339,43,5574,6,0,P|352:73|349:102,1,53.3199978846436,6|0,1:2|0:0,0:0:0:0:
294,231,5917,1,0,1:2:0:0:
337,309,6089,2,0,P|303:317|273:324,2,53.3199978846436,2|0|0,0:0|1:0|0:0,0:0:0:0:
252,163,6603,2,0,P|277:156|303:150,1,53.3199978846436,2|0,1:2|3:2,0:0:0:0:
303,150,6860,1,0,3:2:0:0:
303,150,6946,1,0,1:0:0:0:
193,260,7117,2,0,P|139:287|81:281,1,106.639995769287,2|0,0:2|0:0,0:0:0:0:
35,172,7631,2,0,P|66:176|110:181,1,53.3199978846436,2|0,1:2|0:0,0:0:0:0:
166,188,7974,1,0,1:0:0:0:
72,99,8146,5,2,3:2:0:0:
72,99,8231,1,0,3:2:0:0:
72,99,8317,2,0,P|127:93|188:85,1,106.639995769287,2|0,1:2|1:0,0:0:0:0:
343,52,8831,2,0,L|336:87,1,26.6599989423218,2|0,3:2|3:0,0:0:0:0:
322,155,9003,2,0,P|316:189|310:219,1,53.3199978846436,0|0,1:0|0:0,0:0:0:0:
277,336,9346,2,0,L|305:329,3,26.6599989423218,2|0|0|0,1:2|3:0|3:0|3:0,3:0:0:0:
215,297,9689,1,0,1:0:0:0:
375,377,9860,2,0,P|380:350|384:324,1,53.3199978846436,2|0,0:0|1:0,0:0:0:0:
452,192,10203,2,0,L|419:203,1,26.6599989423218,0|0,3:2|3:2,0:0:0:0:
362,244,10374,2,0,P|303:235|240:225,1,106.639995769287,2|0,1:2|1:0,0:0:0:0:
90,111,10889,5,10,0:0:0:0:
93,137,10974,1,10,0:2:0:0:
96,163,11060,1,6,1:2:0:0:
168,126,11231,1,0,0:0:0:0:
25,83,11403,1,2,1:2:0:0:
94,38,11574,1,2,0:0:0:0:
7,178,11746,1,0,1:0:0:0:
139,260,11917,1,2,0:0:0:0:
93,137,12089,1,2,1:2:0:0:
43,291,12260,1,0,3:2:0:0:
43,291,12346,1,0,3:2:0:0:
43,291,12431,1,2,1:2:0:0:
107,350,12603,2,0,P|153:373|217:357,1,106.639995769287,2|0,0:0|0:0,0:0:0:0:
394,220,13117,5,2,1:2:0:0:
321,256,13289,1,10,0:0:0:0:
484,337,13460,1,2,1:2:0:0:
397,126,13631,1,14,0:0:0:0:
315,118,13803,6,0,P|326:157|331:181,1,53.3199978846436,2|0,1:2|0:0,0:0:0:0:
475,136,14146,2,0,P|467:110|461:84,1,53.3199978846436,0|2,1:2|3:2,0:0:0:0:
461,84,14403,1,0,3:2:0:0:
461,84,14489,1,0,1:0:0:0:
385,221,14660,1,0,0:0:0:0:
328,169,14831,2,0,P|292:178|254:185,1,53.3199978846436,2|0,1:2|0:0,0:0:0:0:
109,222,15174,1,0,1:2:0:0:
196,168,15346,5,10,0:3:0:0:
195,181,15431,1,8,0:3:0:0:
194,194,15517,1,8,0:3:0:0:
26,259,15689,1,4,1:3:0:0:
27,246,15774,1,4,0:3:0:0:
28,233,15860,1,6,1:3:0:0:
175,289,16031,1,10,0:3:0:0:
84,108,16203,1,6,1:3:0:0:
175,289,16374,1,6,0:3:0:0:
278,228,16546,6,0,P|339:235|401:239,1,123.840003023438,6|0,1:2|1:0,0:0:0:0:
344,140,17060,1,2,0:0:0:0:
286,49,17231,2,0,P|347:55|409:59,1,123.840003023438,2|0,1:2|1:0,0:0:0:0:
227,150,17746,1,2,3:2:0:0:
227,150,17831,1,0,3:2:0:0:
227,150,17917,2,0,P|179:162|149:162,1,61.9200015117188,2|0,1:2|0:0,0:0:0:0:
20,161,18260,1,0,1:0:0:0:
83,203,18431,1,2,0:0:0:0:
61,113,18603,2,0,P|54:172|43:252,1,123.840003023438,2|0,1:2|1:0,0:0:0:0:
32,314,19117,1,2,0:0:0:0:
193,340,19289,6,0,P|157:349|129:358,1,61.9200015117188,2|0,1:2|0:0,0:0:0:0:
133,356,19631,1,2,1:2:0:0:
245,267,19803,1,2,3:2:0:0:
257,269,19888,1,0,3:2:0:0:
269,272,19974,1,0,1:0:0:0:
197,205,20146,1,2,0:0:0:0:
339,333,20317,2,0,P|347:278|356:202,1,123.840003023438,2|0,1:2|1:0,0:0:0:0:
390,41,20831,1,0,0:0:0:0:
327,81,21003,1,0,0:0:0:0:
401,122,21174,1,0,3:0:0:0:
401,122,21260,1,0,3:0:0:0:
401,122,21346,2,0,P|432:114|475:105,1,61.9200015117188,2|0,1:2|0:0,0:0:0:0:
260,165,21689,1,2,3:2:0:0:
238,169,21774,1,0,3:0:0:0:
217,174,21860,1,2,3:2:0:0:
196,178,21946,1,0,3:2:0:0:
175,183,22031,5,0,1:2:0:0:
103,140,22203,1,0,0:0:0:0:
201,96,22374,1,0,1:2:0:0:
128,253,22546,1,0,0:0:0:0:
8,134,22717,1,0,1:0:0:0:
117,55,22889,1,0,0:0:0:0:
43,220,23060,1,2,1:2:0:0:
101,337,23231,1,0,3:2:0:0:
101,337,23317,1,0,3:2:0:0:
101,337,23403,1,2,1:2:0:0:
182,287,23574,2,0,P|221:299|248:310,1,61.9200015117188,2|0,0:0|1:0,0:0:0:0:
124,191,23917,2,0,P|101:213|77:232,1,61.9200015117188,2|0,0:0|1:0,0:0:0:0:
236,193,24260,2,0,P|228:162|223:132,1,61.9200015117188,2|0,3:2|1:0,0:0:0:0:
209,57,24603,1,0,0:0:0:0:
372,200,24774,5,2,1:2:0:0:
372,200,25117,1,2,1:2:0:0:
440,87,25289,2,0,P|445:121|450:150,1,61.9200015117188,2|0,0:0|1:2,0:0:0:0:
240,68,25631,1,2,0:2:0:0:
327,42,25803,2,0,P|321:76|316:105,1,61.9200015117188,2|0,1:2|0:0,0:0:0:0:
279,298,26146,1,0,1:0:0:0:
220,248,26317,1,0,0:2:0:0:
293,219,26489,1,0,1:0:0:0:
209,332,26660,2,0,L|165:343,1,30.9600007558594,0|0,3:0|3:0,3:0:0:0:
101,360,26831,1,0,1:0:0:0:
293,219,27003,1,8,0:0:0:0:
323,223,27088,1,8,0:0:0:0:
354,227,27174,2,0,L|344:187,2,30.9600007558594,8|8|4,0:0|0:0|1:3,0:0:0:0:
420,75,27517,6,0,B|355:70|369:100|285:90,1,118.679996015991,6|0,1:2|0:0,0:0:0:0:
276,82,27860,1,8,1:2:0:0:
35,181,28203,1,2,0:0:0:0:
124,135,28374,2,0,P|116:183|109:219,1,79.1199973439942,0|0,1:0|0:0,0:0:0:0:
233,368,28717,2,0,P|225:308|217:236,1,118.679996015991,10|0,0:0|0:0,0:0:0:0:
215,226,29060,1,0,1:0:0:0:
123,349,29231,1,8,0:0:0:0:
316,311,29574,1,0,1:0:0:0:
123,349,29746,1,0,1:0:0:0:
316,311,29917,2,0,P|358:303|403:294,1,79.1199973439942,8|0,0:0|0:0,0:0:0:0:
507,147,30260,6,0,P|463:174|390:177,1,118.679996015991,2|0,1:2|0:0,0:0:0:0:
370,169,30603,1,8,0:0:0:0:
198,100,30774,1,0,1:2:0:0:
201,119,30859,1,0,1:2:0:0:
205,138,30945,1,0,1:2:0:0:
285,36,31117,1,2,1:2:0:0:
80,284,31460,2,0,P|127:289|167:298,1,79.1199973439942,8|0,0:0|0:0,0:0:0:0:
301,241,31803,1,0,0:0:0:0:
153,383,31974,2,0,P|191:375|231:371,1,79.1199973439942,8|0,0:2|0:0,0:0:0:0:
398,170,32317,1,2,1:2:0:0:
247,251,32489,1,0,1:2:0:0:
370,358,32660,1,10,0:0:0:0:
433,247,32831,1,8,0:0:0:0:
413,251,32916,1,8,0:0:0:0:
394,255,33003,6,0,B|326:254|343:287|257:277,1,118.679996015991,6|0,1:2|0:0,0:0:0:0:
247,251,33346,1,8,0:0:0:0:
83,89,33689,1,0,0:0:0:0:
183,39,33860,2,0,P|175:87|168:123,1,79.1199973439942,0|0,1:0|0:0,0:0:0:0:
119,384,34203,2,0,P|127:336|134:300,1,79.1199973439942,8|0,0:0|0:0,0:0:0:0:
164,146,34546,1,0,1:2:0:0:
110,216,34717,2,0,P|153:223|208:233,1,79.1199973439942,8|0,0:0|1:0,0:0:0:0:
217,220,34974,1,0,1:0:0:0:
217,220,35060,1,0,1:2:0:0:
37,247,35231,1,0,1:0:0:0:
286,166,35403,1,8,0:0:0:0:
155,108,35574,1,0,1:0:0:0:
159,127,35659,1,0,1:0:0:0:
164,146,35746,1,2,1:2:0:0:
426,42,36089,5,8,0:2:0:0:
350,95,36260,2,0,P|305:83|262:58,1,79.1199973439942,0|0,1:2|1:0,0:0:0:0:
413,208,36603,2,0,P|445:175|489:150,1,79.1199973439942,0|0,1:0|0:0,0:0:0:0:
291,195,36946,2,0,P|303:239|302:289,1,79.1199973439942,8|0,0:0|0:0,0:0:0:0:
289,351,37289,1,0,1:0:0:0:
64,255,37460,1,10,0:0:0:0:
188,284,37631,1,8,0:0:0:0:
176,286,37716,1,8,0:0:0:0:
164,289,37803,1,10,1:3:0:0:
263,126,37974,2,0,L|274:173,1,39.5599986719971,8|8,0:0|0:0,0:0:0:0:
304,272,38146,1,8,0:0:0:0:
304,272,38317,1,0,1:2:0:0:
129,44,38489,6,0,P|62:70|50:135,1,141.0400021521,6|0,1:2|0:0,0:0:0:0:
137,257,39003,1,2,0:0:0:0:
90,133,39174,2,0,P|63:188|61:225,1,70.5200010760498,8|0,0:0|0:0,0:0:0:0:
124,339,39517,1,2,1:2:0:0:
190,116,39689,1,2,1:2:0:0:
190,116,40031,5,0,1:0:0:0:
210,188,40203,1,0,0:0:0:0:
236,267,40374,1,0,1:0:0:0:
236,267,40460,1,0,1:0:0:0:
236,267,40546,6,0,B|271:303|325:298|325:298|356:269|400:265,1,144.480001763672,6|0,1:2|0:0,0:0:0:0:
436,304,40889,2,0,P|437:288|440:258,1,35.2600005380249,0|0,1:0|1:0,0:0:0:0:
411,182,41060,2,0,P|410:166|407:136,1,35.2600005380249,0|0,1:0|1:0,0:0:0:0:
452,64,41231,5,6,1:2:0:0:
238,127,41403,1,0,0:0:0:0:
306,25,41574,1,2,0:2:0:0:
256,216,41746,1,2,1:2:0:0:
118,90,41917,1,8,0:0:0:0:
378,162,42260,5,2,1:2:0:0:
184,311,42431,1,2,1:2:0:0:
184,311,42774,6,0,P|226:317|271:326,1,70.5200010760498,8|0,0:0|0:0,0:0:0:0:
211,147,43117,1,0,1:2:0:0:
207,129,43202,1,0,1:0:0:0:
204,112,43288,1,6,1:2:0:0:
118,232,43460,2,0,L|160:218,1,35.2600005380249,0|0,1:2|1:0,0:0:0:0:
298,109,43631,1,8,0:0:0:0:
293,144,43716,1,8,0:0:0:0:
289,179,43802,1,8,0:0:0:0:
285,214,43888,1,8,0:0:0:0:
295,233,43974,5,2,0:0:0:0:
131,344,45346,5,2,0:0:0:0:
362,273,46031,2,0,L|400:281,1,35.2600005380249,0|0,1:0|1:0,0:0:0:0:
388,358,46203,2,0,L|422:350,1,35.2600005380249,0|0,1:0|1:0,0:0:0:0:
282,315,46374,1,8,0:0:0:0:
282,315,46460,1,8,0:0:0:0:
282,315,46546,1,8,0:0:0:0:
282,315,46631,1,8,0:0:0:0:
282,315,46717,1,6,1:2:0:0:
228,117,47060,5,8,0:0:0:0:
259,220,47231,1,8,0:0:0:0:
228,117,47403,1,8,0:0:0:0:
363,181,47574,5,10,0:0:0:0:
119,138,47746,1,10,0:0:0:0:
452,147,47917,2,0,P|445:204|442:253,1,87.7200005354004,6|0,1:2|0:0,0:0:0:0:
476,332,48260,5,0,1:2:0:0:
458,336,48345,1,0,1:2:0:0:
441,340,48431,1,8,0:2:0:0:
316,285,48603,5,0,1:2:0:0:
295,280,48689,1,0,1:2:0:0:
275,276,48774,1,8,0:2:0:0:
140,347,48946,5,0,1:0:0:0:
115,351,49031,1,0,1:0:0:0:
90,357,49117,2,0,L|82:298,1,43.8600002677002,8|8,0:0|0:0,0:0:0:0:
69,196,49289,2,0,L|61:137,1,43.8600002677002,8|8,0:0|0:0,0:0:0:0:
49,29,49460,5,14,0:0:0:0:
49,29,49631,1,10,0:0:0:0:
213,71,49974,5,10,0:0:0:0:
409,105,50317,5,10,0:0:0:0:
202,200,50489,1,0,1:0:0:0:
381,288,50660,6,0,B|391:302|379:334|379:334|312:295|356:216,1,170.279999480347,14|0,0:0|0:0,0:0:0:0:
336,152,51003,6,0,L|328:115,3,26.3733324479981,4|4|4|4,2:3|2:3|2:3|2:3,2:3:0:0:
180,278,51517,6,0,B|128:304|17:321|-12:267|25:240|65:238|104:270|109:316,1,276.91999070398,2|0,0:0|0:0,0:0:0:0:
90,348,52203,5,6,1:2:0:0:
194,150,52374,1,2,0:0:0:0:
359,256,52546,1,10,0:0:0:0:
234,381,52717,2,0,P|222:305|207:230,1,131.580000803101,2|0,1:2|0:0,0:0:0:0:
217,227,53060,1,0,1:0:0:0:
333,47,53231,2,0,P|321:101|313:154,1,87.7200005354004,10|0,0:0|1:0,0:0:0:0:
120,94,53574,5,2,1:2:0:0:
203,11,53746,2,0,P|215:65|223:118,1,87.7200005354004,2|8,1:2|0:0,0:0:0:0:
84,268,54089,1,2,0:0:0:0:
172,215,54260,2,0,B|247:211|221:245|308:239,1,131.580000803101,2|0,1:2|0:0,0:0:0:0:
324,228,54603,1,10,0:0:0:0:
456,109,54774,1,0,1:0:0:0:
459,126,54860,1,0,1:0:0:0:
462,143,54946,6,0,P|451:212|439:281,1,131.580000803101,2|0,1:2|0:0,0:0:0:0:
455,296,55289,1,8,0:0:0:0:
301,115,55460,2,0,P|251:122|208:130,1,87.7200005354004,2|0,1:2|0:0,0:0:0:0:
248,19,55803,1,2,1:2:0:0:
282,215,55974,1,10,0:0:0:0:
248,19,56146,1,2,1:2:0:0:
145,174,56317,5,6,1:2:0:0:
266,132,56489,1,0,1:2:0:0:
387,90,56660,2,0,P|377:166|370:222,1,131.580000803101,8|0,0:0|0:0,0:0:0:0:
379,244,57003,1,2,1:2:0:0:
369,65,57174,1,0,1:2:0:0:
441,288,57346,1,8,0:0:0:0:
419,309,57431,1,0,3:0:0:0:
391,321,57517,1,2,3:0:0:0:
360,321,57603,1,0,3:0:0:0:
332,309,57689,6,0,B|259:308|275:339|181:334,1,131.580000803101,4|0,1:2|0:0,0:0:0:0:
174,328,58031,1,10,0:0:0:0:
16,263,58203,1,0,1:2:0:0:
167,182,58374,1,2,0:0:0:0:
81,359,58546,1,2,1:2:0:0:
77,341,58631,1,0,1:0:0:0:
74,324,58717,1,8,0:0:0:0:
30,146,58889,1,2,0:2:0:0:
221,280,59060,5,4,1:2:0:0:
284,89,59231,1,0,1:2:0:0:
136,158,59403,1,10,0:0:0:0:
359,223,59574,1,0,1:0:0:0:
284,89,59746,1,2,0:0:0:0:
221,306,59917,1,2,1:2:0:0:
221,306,60003,1,0,1:0:0:0:
221,306,60089,2,0,P|271:327|315:319,1,87.7200005354004,8|2,0:0|0:0,0:0:0:0:
452,203,60431,5,4,1:2:0:0:
390,384,60603,1,2,0:2:0:0:
320,160,60774,1,10,0:0:0:0:
249,378,60946,1,0,1:2:0:0:
152,115,61117,5,2,0:0:0:0:
311,282,61289,1,2,1:2:0:0:
423,90,61460,1,10,0:0:0:0:
264,39,61631,1,10,0:0:0:0:
264,39,61717,1,8,0:0:0:0:
264,39,61803,5,4,1:2:0:0:
430,245,61974,1,0,1:2:0:0:
286,131,62146,1,8,0:0:0:0:
244,119,62231,1,8,0:0:0:0:
203,132,62317,1,8,0:0:0:0:
175,165,62403,1,8,0:0:0:0:
168,213,62489,1,10,1:3:0:0:
140,247,62575,1,8,1:3:0:0:
99,260,62661,1,4,1:3:0:0:
58,248,62746,1,4,1:3:0:0:
31,206,62831,6,0,B|18:150|38:112|38:112|81:97|89:42,1,157.379993516144,14|0,0:2|0:0,0:0:0:0:
73,36,63174,5,6,1:2:0:0:
127,278,63346,1,2,0:0:0:0:
76,39,63517,1,10,0:0:0:0:
33,319,63689,2,0,B|131:293|112:343|216:308,1,175.440001070801,2|0,1:2|1:0,0:0:0:0:
414,122,64203,1,10,0:0:0:0:
382,290,64374,1,2,0:0:0:0:
414,122,64546,5,2,1:2:0:0:
325,352,64717,2,0,P|376:359|421:374,1,87.7200005354004,2|8,1:2|0:0,0:0:0:0:
475,59,65060,2,0,P|424:52|379:37,1,87.7200005354004,2|0,1:2|0:0,0:0:0:0:
353,225,65403,1,2,1:2:0:0:
353,225,65489,1,0,1:0:0:0:
353,225,65574,2,0,P|397:219|446:214,1,87.7200005354004,10|0,0:2|0:0,0:0:0:0:
237,167,65917,6,0,B|144:162|163:200|52:195,1,175.440001070801,2|8,1:2|0:0,0:0:0:0:
302,346,66431,2,0,P|369:357|431:317,1,131.580000803101,2|0,1:2|0:0,0:0:0:0:
437,306,66774,1,2,1:2:0:0:
438,84,66946,1,10,0:0:0:0:
237,167,67117,1,2,0:0:0:0:
345,268,67289,5,2,1:2:0:0:
345,268,67460,1,0,1:0:0:0:
253,36,67631,2,0,P|195:52|144:55,1,87.7200005354004,12|2,0:0|0:0,0:0:0:0:
67,264,67974,1,2,1:2:0:0:
67,264,68146,1,0,1:0:0:0:
323,160,68317,2,0,P|381:176|432:179,1,87.7200005354004,8|2,0:0|1:2,0:0:0:0:
475,254,68574,1,0,1:0:0:0:
475,254,68660,6,0,P|393:260|311:275,1,131.580000803101,4|0,1:2|0:0,0:0:0:0:
312,280,69003,1,10,0:0:0:0:
134,216,69174,1,0,1:0:0:0:
233,158,69346,1,2,0:0:0:0:
58,287,69517,1,2,1:2:0:0:
54,269,69602,1,0,1:0:0:0:
50,252,69688,1,8,0:0:0:0:
227,329,69860,1,2,0:0:0:0:
104,119,70031,5,4,1:2:0:0:
323,159,70203,1,2,1:2:0:0:
75,228,70374,1,10,0:0:0:0:
294,268,70546,1,0,1:0:0:0:
49,343,70717,1,2,0:0:0:0:
268,383,70889,1,2,1:2:0:0:
268,383,70974,1,0,1:0:0:0:
268,383,71060,2,0,P|321:378|357:351,1,87.7200005354004,8|2,0:0|0:0,0:0:0:0:
419,94,71403,5,4,1:2:0:0:
250,204,71574,1,2,0:0:0:0:
512,241,71746,1,10,0:0:0:0:
349,359,71917,1,2,1:2:0:0:
397,112,72089,5,2,0:0:0:0:
266,224,72260,1,2,1:2:0:0:
375,339,72431,1,10,0:2:0:0:
485,215,72603,1,2,0:0:0:0:
366,243,72774,5,0,1:2:0:0:
366,243,72946,1,0,1:2:0:0:
463,118,73117,1,4,1:2:0:0:
273,342,73289,1,0,1:0:0:0:
316,103,73460,6,0,P|325:132|338:173,1,58.4800003569336,8|8,1:2|0:0,0:0:0:0:
288,235,73689,1,0,1:0:0:0:
138,150,73803,6,0,P|146:122|155:94,1,58.4800003569336,10|0,1:3|1:0,0:0:0:0:
192,33,74031,1,4,1:3:0:0:
240,148,74146,6,0,B|266:242|228:221|255:331,1,158.239994687988,6|0,1:2|0:0,0:0:0:0:
249,304,74660,1,0,1:0:0:0:
403,147,74831,2,0,P|355:162|322:166,1,79.1199973439942,12|0,0:2|0:0,0:0:0:0:
347,262,75174,2,0,P|395:247|428:243,1,79.1199973439942,2|0,0:0|1:0,0:0:0:0:
423,243,75431,1,0,1:0:0:0:
423,243,75517,5,2,1:2:0:0:
183,177,75689,2,0,P|176:223|167:272,1,79.1199973439942,8|2,0:0|0:0,0:0:0:0:
170,255,76031,1,2,1:2:0:0:
87,52,76203,1,8,0:0:0:0:
240,110,76374,1,8,1:3:0:0:
163,145,76546,1,6,1:3:0:0:
86,180,76717,1,4,1:3:0:0:
272,247,76889,6,0,B|355:243|337:271|434:266,1,158.239994687988,6|2,1:2|0:0,0:0:0:0:
427,266,77403,1,0,1:0:0:0:
196,207,77574,2,0,P|147:220|106:224,1,79.1199973439942,10|0,0:0|0:0,0:0:0:0:
142,334,77917,2,0,P|180:323|219:317,1,79.1199973439942,2|0,0:0|1:0,0:0:0:0:
50,276,78260,5,0,1:2:0:0:
271,145,78431,2,0,P|287:200|299:240,1,79.1199973439942,8|0,0:0|0:0,0:0:0:0:
102,94,78774,1,2,1:2:0:0:
192,84,78946,2,0,P|176:139|164:179,1,79.1199973439942,8|0,0:0|0:0,0:0:0:0:
110,338,79289,1,10,0:0:0:0:
271,145,79460,1,0,1:2:0:0:
290,148,79546,1,0,1:2:0:0:
309,152,79631,6,0,B|382:152|366:181|460:172,1,131.580000803101,6|0,1:2|0:0,0:0:0:0:
463,160,79974,1,8,0:0:0:0:
266,318,80146,2,0,P|201:359|85:309,1,175.440001070801,2|0,1:2|1:2,0:0:0:0:
347,244,80660,2,0,P|363:298|375:345,1,87.7200005354004,8|0,0:0|0:0,0:0:0:0:
194,240,81003,5,2,1:2:0:0:
309,152,81174,1,0,1:0:0:0:
210,371,81346,1,10,0:0:0:0:
80,173,81517,2,0,P|140:157|184:140,1,87.7200005354004,2|0,1:2|0:0,0:0:0:0:
83,356,81860,1,0,1:2:0:0:
35,253,82031,2,0,P|76:267|119:277,1,87.7200005354004,10|0,0:0|0:0,0:0:0:0:
380,382,82374,6,0,P|347:303|370:243,1,131.580000803101,6|0,1:2|0:0,0:0:0:0:
371,236,82717,1,10,0:0:0:0:
399,39,82889,2,0,P|419:118|430:150,1,87.7200005354004,2|0,1:2|0:0,0:0:0:0:
321,108,83231,1,0,1:2:0:0:
490,58,83403,1,10,0:0:0:0:
268,178,83574,1,0,1:2:0:0:
268,178,83660,1,0,1:0:0:0:
268,178,83746,5,10,0:0:0:0:
463,241,83917,1,10,0:0:0:0:
208,104,84089,1,0,1:0:0:0:
493,284,84260,2,0,P|504:224|516:189,1,87.7200005354004,10|0,0:3|0:0,0:0:0:0:
228,298,84603,1,6,1:3:0:0:
385,384,84774,2,0,P|378:340|365:298,1,87.7200005354004,12|0,0:0|0:0,0:0:0:0:
105,155,85117,6,0,B|195:98|268:162|260:171|306:244|417:187,1,330.24,2|0,0:0|0:0,0:0:0:0:
